  0
SECTION
  2
HEADER
  9
$ACADVER
  1
AC1012
  9
$DWGCODEPAGE
  3
ansi_1252
  9
$INSBASE
 10
0.0
 20
0.0
 30
0.0
  9
$EXTMIN
 10
0.0
 20
0.0
 30
0.0
  9
$EXTMAX
 10
35.0
 20
24.0
 30
0.0
  9
$LIMMIN
 10
0.0
 20
0.0
  9
$LIMMAX
 10
35.0
 20
24.0
  9
$ORTHOMODE
 70
     0
  9
$REGENMODE
 70
     1
  9
$FILLMODE
 70
     1
  9
$QTEXTMODE
 70
     0
  9
$MIRRTEXT
 70
     1
  9
$DRAGMODE
 70
     2
  9
$LTSCALE
 40
1.0
  9
$OSMODE
 70
    37
  9
$ATTMODE
 70
     1
  9
$TEXTSIZE
 40
0.2777777778
  9
$TRACEWID
 40
0.05
  9
$TEXTSTYLE
  7
STANDARD
  9
$CLAYER
  8
0
  9
$CELTYPE
  6
BYLAYER
  9
$CECOLOR
 62
   256
  9
$CELTSCALE
 40
1.0
  9
$DELOBJ
 70
     1
  9
$DISPSILH
 70
     0
  9
$DIMSCALE
 40
1.0
  9
$DIMASZ
 40
0.262898763
  9
$DIMEXO
 40
0.05
  9
$DIMDLI
 40
0.38
  9
$DIMRND
 40
0.0
  9
$DIMDLE
 40
0.0
  9
$DIMEXE
 40
0.125
  9
$DIMTP
 40
0.0
  9
$DIMTM
 40
0.0
  9
$DIMTXT
 40
0.3611111111
  9
$DIMCEN
 40
0.09
  9
$DIMTSZ
 40
0.0
  9
$DIMTOL
 70
     0
  9
$DIMLIM
 70
     0
  9
$DIMTIH
 70
     1
  9
$DIMTOH
 70
     1
  9
$DIMSE1
 70
     0
  9
$DIMSE2
 70
     0
  9
$DIMTAD
 70
     0
  9
$DIMZIN
 70
     0
  9
$DIMBLK
  1

  9
$DIMASO
 70
     1
  9
$DIMSHO
 70
     1
  9
$DIMPOST
  1

  9
$DIMAPOST
  1

  9
$DIMALT
 70
     0
  9
$DIMALTD
 70
     2
  9
$DIMALTF
 40
25.4
  9
$DIMLFAC
 40
1.0
  9
$DIMTOFL
 70
     0
  9
$DIMTVP
 40
0.0
  9
$DIMTIX
 70
     0
  9
$DIMSOXD
 70
     0
  9
$DIMSAH
 70
     0
  9
$DIMBLK1
  1

  9
$DIMBLK2
  1

  9
$DIMSTYLE
  2
STANDARD
  9
$DIMCLRD
 70
     0
  9
$DIMCLRE
 70
     0
  9
$DIMCLRT
 70
     0
  9
$DIMTFAC
 40
1.0
  9
$DIMGAP
 40
0.06
  9
$DIMJUST
 70
     0
  9
$DIMSD1
 70
     0
  9
$DIMSD2
 70
     0
  9
$DIMTOLJ
 70
     1
  9
$DIMTZIN
 70
     0
  9
$DIMALTZ
 70
     0
  9
$DIMALTTZ
 70
     0
  9
$DIMFIT
 70
     3
  9
$DIMUPT
 70
     0
  9
$DIMUNIT
 70
     2
  9
$DIMDEC
 70
     3
  9
$DIMTDEC
 70
     3
  9
$DIMALTU
 70
     2
  9
$DIMALTTD
 70
     2
  9
$DIMTXSTY
  7
STANDARD
  9
$DIMAUNIT
 70
     0
  9
$LUNITS
 70
     2
  9
$LUPREC
 70
     3
  9
$SKETCHINC
 40
0.1
  9
$FILLETRAD
 40
0.5
  9
$AUNITS
 70
     0
  9
$AUPREC
 70
     1
  9
$MENU
  1
.
  9
$ELEVATION
 40
0.0
  9
$PELEVATION
 40
0.0
  9
$THICKNESS
 40
0.0
  9
$LIMCHECK
 70
     0
  9
$CHAMFERA
 40
0.5
  9
$CHAMFERB
 40
0.5
  9
$CHAMFERC
 40
1.0
  9
$CHAMFERD
 40
0.0
  9
$SKPOLY
 70
     0
  9
$TDCREATE
 40
2457492.428345625
  9
$TDUPDATE
 40
2457492.428346377
  9
$TDINDWG
 40
0.0000000116
  9
$TDUSRTIMER
 40
0.0000000116
  9
$USRTIMER
 70
     1
  9
$ANGBASE
 50
0.0
  9
$ANGDIR
 70
     0
  9
$PDMODE
 70
     0
  9
$PDSIZE
 40
-1.0
  9
$PLINEWID
 40
0.0
  9
$COORDS
 70
     1
  9
$SPLFRAME
 70
     0
  9
$SPLINETYPE
 70
     6
  9
$SPLINESEGS
 70
     8
  9
$ATTDIA
 70
     0
  9
$ATTREQ
 70
     1
  9
$HANDLING
 70
     1
  9
$HANDSEED
  5
B7
  9
$SURFTAB1
 70
     6
  9
$SURFTAB2
 70
     6
  9
$SURFTYPE
 70
     6
  9
$SURFU
 70
     6
  9
$SURFV
 70
     6
  9
$UCSNAME
  2

  9
$UCSORG
 10
0.0
 20
0.0
 30
0.0
  9
$UCSXDIR
 10
1.0
 20
0.0
 30
0.0
  9
$UCSYDIR
 10
0.0
 20
1.0
 30
0.0
  9
$PUCSNAME
  2

  9
$PUCSORG
 10
0.0
 20
0.0
 30
0.0
  9
$PUCSXDIR
 10
1.0
 20
0.0
 30
0.0
  9
$PUCSYDIR
 10
0.0
 20
1.0
 30
0.0
  9
$USERI1
 70
     0
  9
$USERI2
 70
     0
  9
$USERI3
 70
     0
  9
$USERI4
 70
     0
  9
$USERI5
 70
     0
  9
$USERR1
 40
0.0
  9
$USERR2
 40
0.0
  9
$USERR3
 40
0.0
  9
$USERR4
 40
0.0
  9
$USERR5
 40
0.0
  9
$WORLDVIEW
 70
     1
  9
$SHADEDGE
 70
     3
  9
$SHADEDIF
 70
    70
  9
$TILEMODE
 70
     1
  9
$MAXACTVP
 70
    64
  9
$PINSBASE
 10
0.0
 20
0.0
 30
0.0
  9
$PLIMCHECK
 70
     0
  9
$PEXTMIN
 10
1.0000000000E+20
 20
1.0000000000E+20
 30
1.0000000000E+20
  9
$PEXTMAX
 10
-1.0000000000E+20
 20
-1.0000000000E+20
 30
-1.0000000000E+20
  9
$PLIMMIN
 10
0.0
 20
0.0
  9
$PLIMMAX
 10
12.0
 20
9.0
  9
$UNITMODE
 70
     0
  9
$VISRETAIN
 70
     1
  9
$PLINEGEN
 70
     0
  9
$PSLTSCALE
 70
     1
  9
$TREEDEPTH
 70
  3020
  9
$PICKSTYLE
 70
     1
  9
$CMLSTYLE
  2
STANDARD
  9
$CMLJUST
 70
     0
  9
$CMLSCALE
 40
1.0
  9
$SAVEIMAGES
 70
     1
  0
ENDSEC
  0
SECTION
  2
CLASSES
  0
CLASS
  1
ACDBDICTIONARYWDFLT
  2
AcDbDictionaryWithDefault
  3
ObjectDBX Classes
 90
    32768
280
     0
281
     0
  0
CLASS
  1
VISUALSTYLE
  2
AcDbVisualStyle
  3
ObjectDBX Classes
 90
     4095
280
     0
281
     0
  0
CLASS
  1
MATERIAL
  2
AcDbMaterial
  3
ObjectDBX Classes
 90
     1153
280
     0
281
     0
  0
CLASS
  1
XRECORD
  2
AcDbXrecord
  3
AutoCAD 2000
 90
    32768
280
     0
281
     0
  0
ENDSEC
  0
SECTION
  2
TABLES
  0
TABLE
  2
VPORT
  5
8
330
0
100
AcDbSymbolTable
 70
     1
  0
VPORT
  5
29
330
8
100
AcDbSymbolTableRecord
100
AcDbViewportTableRecord
  2
*ACTIVE
 70
     0
 10
0.0
 20
0.0
 11
1.0
 21
1.0
 12
17.5
 22
12.0
 13
0.0
 23
0.0
 14
0.5
 24
0.5
 15
0.5
 25
0.5
 16
0.0
 26
0.0
 36
1.0
 17
0.0
 27
0.0
 37
0.0
 40
24.0
 41
1.4583333333
 42
50.0
 43
0.0
 44
0.0
 50
0.0
 51
0.0
 71
     0
 72
  2000
 73
     1
 74
     3
 75
     0
 76
     0
 77
     0
 78
     0
  0
ENDTAB
  0
TABLE
  2
LTYPE
  5
5
330
0
100
AcDbSymbolTable
 70
     6
  0
LTYPE
  5
14
330
5
100
AcDbSymbolTableRecord
100
AcDbLinetypeTableRecord
  2
BYBLOCK
 70
     0
  3

 72
    65
 73
     0
 40
0.0
  0
LTYPE
  5
15
330
5
100
AcDbSymbolTableRecord
100
AcDbLinetypeTableRecord
  2
BYLAYER
 70
     0
  3

 72
    65
 73
     0
 40
0.0
  0
LTYPE
  5
16
330
5
100
AcDbSymbolTableRecord
100
AcDbLinetypeTableRecord
  2
CONTINUOUS
 70
     0
  3
Solid line
 72
    65
 73
     0
 40
0.0
  0
LTYPE
  5
3F
330
5
100
AcDbSymbolTableRecord
100
AcDbLinetypeTableRecord
  2
HIDDEN
 70
     0
  3
Hidden __ __ __ __ __ __ __ __ __ __ __ __ __ __
 72
    65
 73
     2
 40
0.075
 49
0.05
 74
     0
 49
-0.025
 74
     0
  0
LTYPE
  5
40
330
5
100
AcDbSymbolTableRecord
100
AcDbLinetypeTableRecord
  2
PHANTOM
 70
     0
  3
Phantom ______  __  __  ______  __  __  ______
 72
    65
 73
     6
 40
0.5
 49
0.25
 74
     0
 49
-0.05
 74
     0
 49
0.05
 74
     0
 49
-0.05
 74
     0
 49
0.05
 74
     0
 49
-0.05
 74
     0
  0
LTYPE
  5
41
330
5
100
AcDbSymbolTableRecord
100
AcDbLinetypeTableRecord
  2
CENTER
 70
     0
  3
Center ____ _ ____ _ ____ _ ____ _ ____ _ ____
 72
    65
 73
     4
 40
0.4
 49
0.25
 74
     0
 49
-0.05
 74
     0
 49
0.05
 74
     0
 49
-0.05
 74
     0
  0
LTYPE
  5
42
330
5
100
AcDbSymbolTableRecord
100
AcDbLinetypeTableRecord
  2
CENTERX2
 70
     0
  3
Center (2x) ________  __  ________  __  _____
 72
    65
 73
     4
 40
0.8
 49
0.5
 74
     0
 49
-0.1
 74
     0
 49
0.1
 74
     0
 49
-0.1
 74
     0
  0
LTYPE
  5
43
330
5
100
AcDbSymbolTableRecord
100
AcDbLinetypeTableRecord
  2
DOT2
 70
     0
  3
Dot (.5x) ........................................
 72
    65
 73
     2
 40
0.025
 49
0.0
 74
     0
 49
-0.025
 74
     0
  0
ENDTAB
  0
TABLE
  2
LAYER
  5
2
330
0
100
AcDbSymbolTable
 70
     7
  0
LAYER
  5
10
330
2
100
AcDbSymbolTableRecord
100
AcDbLayerTableRecord
  2
0
 70
     0
 62
     7
  6
CONTINUOUS
  0
LAYER
  5
44
330
2
100
AcDbSymbolTableRecord
100
AcDbLayerTableRecord
  2
SLD-0
 70
     0
 62
   179
  6
CONTINUOUS
  0
LAYER
  5
45
330
2
100
AcDbSymbolTableRecord
100
AcDbLayerTableRecord
  2
OBJECTS
 70
     0
 62
     5
  6
CONTINUOUS
  0
LAYER
  5
46
330
2
100
AcDbSymbolTableRecord
100
AcDbLayerTableRecord
  2
DIMENSIONS
 70
     0
 62
     1
  6
CONTINUOUS
  0
LAYER
  5
47
330
2
100
AcDbSymbolTableRecord
100
AcDbLayerTableRecord
  2
NOTES
 70
     0
 62
     7
  6
CONTINUOUS
  0
LAYER
  5
48
330
2
100
AcDbSymbolTableRecord
100
AcDbLayerTableRecord
  2
IMAGES
 70
     0
 62
     7
  6
CONTINUOUS
  0
LAYER
  5
49
330
2
100
AcDbSymbolTableRecord
100
AcDbLayerTableRecord
  2
CENTERLINES
 70
     0
 62
     7
  6
HIDDEN
  0
ENDTAB
  0
TABLE
  2
STYLE
  5
3
330
0
100
AcDbSymbolTable
 70
     3
  0
STYLE
  5
11
330
3
100
AcDbSymbolTableRecord
100
AcDbTextStyleTableRecord
  2
STANDARD
 70
     0
 40
0.0
 41
1.0
 50
0.0
 71
     0
 42
0.2777777778
  3
ARIAL.TTF
  4

1001
ACAD
1000
ARIAL
1071
       34
  0
STYLE
  5
57
330
3
100
AcDbSymbolTableRecord
100
AcDbTextStyleTableRecord
  2
SLDTEXTSTYLE0
 70
     0
 40
0.0
 41
0.948
 50
0.0
 71
     0
 42
0.2
  3
ARIAL.TTF
  4

1001
ACAD
1000
Arial
1071
      290
  0
STYLE
  5
9F
330
3
100
AcDbSymbolTableRecord
100
AcDbTextStyleTableRecord
  2
SLDTEXTSTYLE1
 70
     0
 40
0.0
 41
0.948
 50
0.0
 71
     0
 42
0.2
  3
ARIALBD.TTF
  4

1001
ACAD
1000
Arial
1071
 33554722
  0
ENDTAB
  0
TABLE
  2
VIEW
  5
6
330
0
100
AcDbSymbolTable
 70
     0
  0
ENDTAB
  0
TABLE
  2
UCS
  5
7
330
0
100
AcDbSymbolTable
 70
     0
  0
ENDTAB
  0
TABLE
  2
APPID
  5
9
330
0
100
AcDbSymbolTable
 70
     1
  0
APPID
  5
12
330
9
100
AcDbSymbolTableRecord
100
AcDbRegAppTableRecord
  2
ACAD
 70
     0
  0
ENDTAB
  0
TABLE
  2
DIMSTYLE
  5
A
330
0
100
AcDbSymbolTable
 70
     4
  0
DIMSTYLE
105
27
330
A
100
AcDbSymbolTableRecord
100
AcDbDimStyleTableRecord
  2
STANDARD
 70
     0
  3

  4

  5

  6

  7

 40
1.0
 41
0.18
 42
0.0625
 43
0.38
 44
0.18
 45
0.0
 46
0.0
 47
0.0
 48
0.0
140
0.18
141
0.09
142
0.0
143
25.4
144
1.0
145
0.0
146
1.0
147
0.09
 71
     0
 72
     0
 73
     1
 74
     1
 75
     0
 76
     0
 77
     0
 78
     0
170
     0
171
     2
172
     0
173
     0
174
     0
175
     0
176
     0
177
     0
178
     0
270
     2
271
     4
272
     4
273
     2
274
     2
340
11
275
     0
280
     0
281
     0
282
     0
283
     1
284
     0
285
     0
286
     0
287
     3
288
     0
  0
DIMSTYLE
105
58
102
{ACAD_REACTORS
330
56
330
6E
102
}
330
A
100
AcDbSymbolTableRecord
100
AcDbDimStyleTableRecord
  2
SLDDIMSTYLE0
 70
     0
  3

  4

  5

  6

  7

 40
1.0
 41
0.262898763
 42
0.0625
 43
0.38
 44
0.0
 45
0.000000001
 46
0.0
 47
0.0
 48
0.0
140
0.262898763
141
0.09
142
0.0
143
25.4
144
1.0
145
0.0
146
1.0
147
0.0657246908
 71
     0
 72
     0
 73
     1
 74
     1
 75
     0
 76
     0
 77
     0
 78
    12
170
     1
171
     2
172
     0
173
     1
174
     0
175
     0
176
     0
177
     0
178
     0
270
     5
271
     6
272
     3
273
     2
274
     2
340
57
275
     0
280
     0
281
     0
282
     0
283
     1
284
    12
285
     0
286
     0
287
     3
288
     0
  0
DIMSTYLE
105
83
102
{ACAD_REACTORS
330
82
102
}
330
A
100
AcDbSymbolTableRecord
100
AcDbDimStyleTableRecord
  2
SLDDIMSTYLE1
 70
     0
  3

  4

  5

  6

  7

 40
1.0
 41
0.262898763
 42
0.0625
 43
0.38
 44
0.0
 45
0.000000001
 46
0.0
 47
0.0
 48
0.0
140
0.262898763
141
0.0
142
0.0
143
25.4
144
1.0
145
0.0
146
1.0
147
0.0657246908
 71
     0
 72
     0
 73
     1
 74
     1
 75
     0
 76
     0
 77
     0
 78
    12
170
     1
171
     2
172
     0
173
     1
174
     0
175
     0
176
     0
177
     0
178
     0
270
     5
271
     3
272
     3
273
     2
274
     2
340
57
275
     0
280
     0
281
     0
282
     0
283
     1
284
    12
285
     0
286
     0
287
     4
288
     0
  0
DIMSTYLE
105
B4
330
A
100
AcDbSymbolTableRecord
100
AcDbDimStyleTableRecord
  2
SLDDIMSTYLE2
 70
     0
  3

  4

  5

  6

  7

 40
1.0
 41
0.262898763
 42
0.0625
 43
0.38
 44
0.0
 45
0.000000001
 46
0.0
 47
0.0
 48
0.0
140
0.0
141
0.09
142
0.0
143
25.4
144
1.0
145
0.0
146
0.262898763
147
0.0
 71
     0
 72
     0
 73
     1
 74
     1
 75
     0
 76
     0
 77
     0
 78
     0
170
     0
171
     2
172
     0
173
     1
174
     0
175
     0
176
     0
177
     0
178
     0
270
     5
271
     0
272
     0
273
     2
274
     2
340
11
275
     0
280
     0
281
     0
282
     0
283
     1
284
     0
285
     0
286
     0
287
     3
288
     0
  0
ENDTAB
  0
TABLE
  2
BLOCK_RECORD
  5
1
330
0
100
AcDbSymbolTable
 70
     7
  0
BLOCK_RECORD
  5
1F
330
1
100
AcDbSymbolTableRecord
100
AcDbBlockTableRecord
  2
*MODEL_SPACE
  0
BLOCK_RECORD
  5
1B
330
1
100
AcDbSymbolTableRecord
100
AcDbBlockTableRecord
  2
*PAPER_SPACE
  0
BLOCK_RECORD
  5
23
330
1
100
AcDbSymbolTableRecord
100
AcDbBlockTableRecord
  2
*PAPER_SPACE0
  0
BLOCK_RECORD
  5
59
330
1
100
AcDbSymbolTableRecord
100
AcDbBlockTableRecord
  2
_D
  0
BLOCK_RECORD
  5
6F
330
1
100
AcDbSymbolTableRecord
100
AcDbBlockTableRecord
  2
_D_1
  0
BLOCK_RECORD
  5
84
330
1
100
AcDbSymbolTableRecord
100
AcDbBlockTableRecord
  2
_D_2
  0
BLOCK_RECORD
  5
97
330
1
100
AcDbSymbolTableRecord
100
AcDbBlockTableRecord
  2
SW_NOTE_0
  0
BLOCK_RECORD
  5
A6
330
1
100
AcDbSymbolTableRecord
100
AcDbBlockTableRecord
  2
SW_NOTE_1
  0
BLOCK_RECORD
  5
AC
330
1
100
AcDbSymbolTableRecord
100
AcDbBlockTableRecord
  2
SW_NOTE_2
  0
ENDTAB
  0
ENDSEC
  0
SECTION
  2
BLOCKS
  0
BLOCK
  5
20
330
1F
100
AcDbEntity
  8
0
100
AcDbBlockBegin
  2
*MODEL_SPACE
 70
     0
 10
0.0
 20
0.0
 30
0.0
  3
*MODEL_SPACE
  1

  0
ENDBLK
  5
21
330
1F
100
AcDbEntity
  8
0
100
AcDbBlockEnd
  0
BLOCK
  5
1C
330
1B
100
AcDbEntity
 67
     1
  8
0
100
AcDbBlockBegin
  2
*PAPER_SPACE
 70
     0
 10
0.0
 20
0.0
 30
0.0
  3
*PAPER_SPACE
  1

  0
ENDBLK
  5
1D
330
1B
100
AcDbEntity
 67
     1
  8
0
100
AcDbBlockEnd
  0
BLOCK
  5
24
330
23
100
AcDbEntity
  8
0
100
AcDbBlockBegin
  2
*PAPER_SPACE0
 70
     0
 10
0.0
 20
0.0
 30
0.0
  3
*PAPER_SPACE0
  1

  0
ENDBLK
  5
25
330
23
100
AcDbEntity
  8
0
100
AcDbBlockEnd
  0
BLOCK
  5
5A
330
59
100
AcDbEntity
  8
0
100
AcDbBlockBegin
  2
_D
 70
     0
 10
0.0
 20
0.0
 30
0.0
  3
_D
  1

  0
SOLID
  5
5C
330
59
100
AcDbEntity
  8
DIMENSIONS
100
AcDbTrace
 10
1.3085119417
 20
4.3519475644
 30
0.0
 11
1.5714107047
 21
4.3115016008
 31
0.0
 12
1.5714107047
 22
4.3923935279
 32
0.0
 13
1.5714107047
 23
4.3923935279
 33
0.0
  0
SOLID
  5
5D
330
59
100
AcDbEntity
  8
DIMENSIONS
100
AcDbTrace
 10
33.6835119417
 20
4.3519475644
 30
0.0
 11
33.4206131786
 21
4.3923935279
 31
0.0
 12
33.4206131786
 22
4.3115016008
 32
0.0
 13
33.4206131786
 23
4.3115016008
 33
0.0
  0
LINE
  5
5E
330
59
100
AcDbEntity
  8
DIMENSIONS
100
AcDbLine
 10
17.5299441903
 20
4.6408614726
 30
0.0
 11
17.8072975712
 21
4.6408614726
 31
0.0
  0
LINE
  5
5F
330
59
100
AcDbEntity
  8
DIMENSIONS
100
AcDbLine
 10
16.9052720857
 20
4.1888707449
 30
0.0
 11
16.8450868997
 21
4.1888707449
 31
0.0
  0
LINE
  5
60
330
59
100
AcDbEntity
  8
DIMENSIONS
100
AcDbLine
 10
16.8450868997
 20
4.1888707449
 30
0.0
 11
16.8450868997
 21
3.7851284756
 31
0.0
  0
LINE
  5
61
330
59
100
AcDbEntity
  8
DIMENSIONS
100
AcDbLine
 10
16.8450868997
 20
3.7851284756
 30
0.0
 11
16.9052720857
 21
3.7851284756
 31
0.0
  0
LINE
  5
62
330
59
100
AcDbEntity
  8
DIMENSIONS
100
AcDbLine
 10
18.159130111
 20
4.1888707449
 30
0.0
 11
18.219315297
 21
4.1888707449
 31
0.0
  0
LINE
  5
63
330
59
100
AcDbEntity
  8
DIMENSIONS
100
AcDbLine
 10
18.219315297
 20
4.1888707449
 30
0.0
 11
18.219315297
 21
3.7851284756
 31
0.0
  0
LINE
  5
64
330
59
100
AcDbEntity
  8
DIMENSIONS
100
AcDbLine
 10
18.219315297
 20
3.7851284756
 30
0.0
 11
18.159130111
 21
3.7851284756
 31
0.0
  0
LINE
  5
65
330
59
100
AcDbEntity
  8
DIMENSIONS
100
AcDbLine
 10
1.3085119417
 20
1.6244202613
 30
0.0
 11
1.3085119417
 21
4.4769475644
 31
0.0
  0
LINE
  5
66
330
59
100
AcDbEntity
  8
DIMENSIONS
100
AcDbLine
 10
33.6835119417
 20
1.6244202613
 30
0.0
 11
33.6835119417
 21
4.4769475644
 31
0.0
  0
LINE
  5
67
330
59
100
AcDbEntity
  8
DIMENSIONS
100
AcDbLine
 10
1.3085119417
 20
4.3519475644
 30
0.0
 11
16.7397414851
 21
4.3519475644
 31
0.0
  0
LINE
  5
68
330
59
100
AcDbEntity
  8
DIMENSIONS
100
AcDbLine
 10
33.6835119417
 20
4.3519475644
 30
0.0
 11
18.3246607483
 21
4.3519475644
 31
0.0
  0
MTEXT
  5
69
330
59
100
AcDbEntity
  8
DIMENSIONS
100
AcDbMText
 10
17.0903415744
 20
4.7824516379
 30
0.0039370079
 40
0.2708333333
 41
0.0
 71
     1
 72
     1
  1
32
  7
SLDTEXTSTYLE0
  0
MTEXT
  5
6A
330
59
100
AcDbEntity
  8
DIMENSIONS
100
AcDbMText
 10
17.568312242
 20
4.9669631581
 30
0.0039370079
 40
0.2708333333
 41
0.0
 71
     1
 72
     1
  1
3
  7
SLDTEXTSTYLE0
  0
MTEXT
  5
6B
330
59
100
AcDbEntity
  8
DIMENSIONS
100
AcDbMText
 10
17.568312242
 20
4.5981784208
 30
0.0039370079
 40
0.2708333333
 41
0.0
 71
     1
 72
     1
  1
8
  7
SLDTEXTSTYLE0
  0
MTEXT
  5
6C
330
59
100
AcDbEntity
  8
DIMENSIONS
100
AcDbMText
 10
17.8456655955
 20
4.7824516379
 30
0.0039370079
 40
0.2708333333
 41
0.0
 71
     1
 72
     1
  1
"
  7
SLDTEXTSTYLE0
  0
MTEXT
  5
6D
330
59
100
AcDbEntity
  8
DIMENSIONS
100
AcDbMText
 10
16.9805035716
 20
4.1342509793
 30
0.0039370079
 40
0.2708333333
 41
0.0
 71
     1
 72
     1
  1
822.33
  7
SLDTEXTSTYLE0
  0
ENDBLK
  5
5B
330
59
100
AcDbEntity
  8
0
100
AcDbBlockEnd
  0
BLOCK
  5
70
330
6F
100
AcDbEntity
  8
0
100
AcDbBlockBegin
  2
_D_1
 70
     0
 10
0.0
 20
0.0
 30
0.0
  3
_D_1
  1

  0
SOLID
  5
72
330
6F
100
AcDbEntity
  8
DIMENSIONS
100
AcDbTrace
 10
4.4525546231
 20
22.8619202613
 30
0.0
 11
4.4121086596
 21
22.5990214983
 31
0.0
 12
4.4930005867
 22
22.5990214983
 32
0.0
 13
4.4930005867
 23
22.5990214983
 33
0.0
  0
SOLID
  5
73
330
6F
100
AcDbEntity
  8
DIMENSIONS
100
AcDbTrace
 10
4.4525546231
 20
1.4869202613
 30
0.0
 11
4.4930005867
 21
1.7498190243
 31
0.0
 12
4.4121086596
 22
1.7498190243
 32
0.0
 13
4.4121086596
 23
1.7498190243
 33
0.0
  0
LINE
  5
74
330
6F
100
AcDbEntity
  8
DIMENSIONS
100
AcDbLine
 10
4.4502976967
 20
10.8566125172
 30
0.0
 11
4.7276510777
 21
10.8566125172
 31
0.0
  0
LINE
  5
75
330
6F
100
AcDbEntity
  8
DIMENSIONS
100
AcDbLine
 10
3.8256255921
 20
10.4046217895
 30
0.0
 11
3.7654404061
 21
10.4046217895
 31
0.0
  0
LINE
  5
76
330
6F
100
AcDbEntity
  8
DIMENSIONS
100
AcDbLine
 10
3.7654404061
 20
10.4046217895
 30
0.0
 11
3.7654404061
 21
10.0008795202
 31
0.0
  0
LINE
  5
77
330
6F
100
AcDbEntity
  8
DIMENSIONS
100
AcDbLine
 10
3.7654404061
 20
10.0008795202
 30
0.0
 11
3.8256255921
 21
10.0008795202
 31
0.0
  0
LINE
  5
78
330
6F
100
AcDbEntity
  8
DIMENSIONS
100
AcDbLine
 10
5.0794836175
 20
10.4046217895
 30
0.0
 11
5.1396688034
 21
10.4046217895
 31
0.0
  0
LINE
  5
79
330
6F
100
AcDbEntity
  8
DIMENSIONS
100
AcDbLine
 10
5.1396688034
 20
10.4046217895
 30
0.0
 11
5.1396688034
 21
10.0008795202
 31
0.0
  0
LINE
  5
7A
330
6F
100
AcDbEntity
  8
DIMENSIONS
100
AcDbLine
 10
5.1396688034
 20
10.0008795202
 30
0.0
 11
5.0794836175
 21
10.0008795202
 31
0.0
  0
LINE
  5
7B
330
6F
100
AcDbEntity
  8
DIMENSIONS
100
AcDbLine
 10
4.4525546231
 20
22.8619202613
 30
0.0
 11
4.4525546231
 21
11.1947028057
 31
0.0
  0
LINE
  5
7C
330
6F
100
AcDbEntity
  8
DIMENSIONS
100
AcDbLine
 10
4.4525546231
 20
1.4869202613
 30
0.0
 11
4.4525546231
 21
9.9406944122
 31
0.0
  0
MTEXT
  5
7D
330
6F
100
AcDbEntity
  8
DIMENSIONS
100
AcDbMText
 10
4.0106950809
 20
10.9982026825
 30
0.0039370079
 40
0.2708333333
 41
0.0
 71
     1
 72
     1
  1
21
  7
SLDTEXTSTYLE0
  0
MTEXT
  5
7E
330
6F
100
AcDbEntity
  8
DIMENSIONS
100
AcDbMText
 10
4.4886657485
 20
11.1827142027
 30
0.0039370079
 40
0.2708333333
 41
0.0
 71
     1
 72
     1
  1
3
  7
SLDTEXTSTYLE0
  0
MTEXT
  5
7F
330
6F
100
AcDbEntity
  8
DIMENSIONS
100
AcDbMText
 10
4.4886657485
 20
10.8139294654
 30
0.0039370079
 40
0.2708333333
 41
0.0
 71
     1
 72
     1
  1
8
  7
SLDTEXTSTYLE0
  0
MTEXT
  5
80
330
6F
100
AcDbEntity
  8
DIMENSIONS
100
AcDbMText
 10
4.766019102
 20
10.9982026825
 30
0.0039370079
 40
0.2708333333
 41
0.0
 71
     1
 72
     1
  1
"
  7
SLDTEXTSTYLE0
  0
MTEXT
  5
81
330
6F
100
AcDbEntity
  8
DIMENSIONS
100
AcDbMText
 10
3.900857078
 20
10.3500020239
 30
0.0039370079
 40
0.2708333333
 41
0.0
 71
     1
 72
     1
  1
542.93
  7
SLDTEXTSTYLE0
  0
ENDBLK
  5
71
330
6F
100
AcDbEntity
  8
0
100
AcDbBlockEnd
  0
BLOCK
  5
85
330
84
100
AcDbEntity
  8
0
100
AcDbBlockBegin
  2
_D_2
 70
     0
 10
0.0
 20
0.0
 30
0.0
  3
_D_2
  1

  0
SOLID
  5
87
330
84
100
AcDbEntity
  8
DIMENSIONS
100
AcDbTrace
 10
33.6113910557
 20
22.8222171153
 30
0.0
 11
33.4177333889
 21
22.6398758318
 31
0.0
 12
33.4814964414
 22
22.5900985578
 32
0.0
 13
33.4814964414
 23
22.5900985578
 33
0.0
  0
LINE
  5
88
330
84
100
AcDbEntity
  8
DIMENSIONS
100
AcDbLine
 10
32.1541604247
 20
22.4017915
 30
0.0
 11
32.6321311015
 21
22.4017915
 31
0.0
  0
LINE
  5
89
330
84
100
AcDbEntity
  8
DIMENSIONS
100
AcDbLine
 10
31.900630376
 20
21.9498007723
 30
0.0
 11
31.84044519
 21
21.9498007723
 31
0.0
  0
LINE
  5
8A
330
84
100
AcDbEntity
  8
DIMENSIONS
100
AcDbLine
 10
31.84044519
 20
21.9498007723
 30
0.0
 11
31.84044519
 21
21.546058503
 31
0.0
  0
LINE
  5
8B
330
84
100
AcDbEntity
  8
DIMENSIONS
100
AcDbLine
 10
31.84044519
 20
21.546058503
 30
0.0
 11
31.900630376
 21
21.546058503
 31
0.0
  0
LINE
  5
8C
330
84
100
AcDbEntity
  8
DIMENSIONS
100
AcDbLine
 10
32.7532538097
 20
21.9498007723
 30
0.0
 11
32.8134389957
 21
21.9498007723
 31
0.0
  0
LINE
  5
8D
330
84
100
AcDbEntity
  8
DIMENSIONS
100
AcDbLine
 10
32.8134389957
 20
21.9498007723
 30
0.0
 11
32.8134389957
 21
21.546058503
 31
0.0
  0
LINE
  5
8E
330
84
100
AcDbEntity
  8
DIMENSIONS
100
AcDbLine
 10
32.8134389957
 20
21.546058503
 30
0.0
 11
32.7532538097
 21
21.546058503
 31
0.0
  0
LINE
  5
8F
330
84
100
AcDbEntity
  8
DIMENSIONS
100
AcDbLine
 10
33.6113910557
 20
22.8222171153
 30
0.0
 11
33.1085778497
 21
22.1781299196
 31
0.0
  0
LINE
  5
90
330
84
100
AcDbEntity
  8
DIMENSIONS
100
AcDbLine
 10
33.1085778497
 20
22.1781299196
 30
0.0
 11
32.8585778497
 21
22.1781299196
 31
0.0
  0
MTEXT
  5
91
330
84
100
AcDbEntity
  8
DIMENSIONS
100
AcDbMText
 10
31.8549898866
 20
22.5433816653
 30
0.0039370079
 40
0.2708333333
 41
0.0
 71
     1
 72
     1
  1
R
  7
SLDTEXTSTYLE0
  0
MTEXT
  5
92
330
84
100
AcDbEntity
  8
DIMENSIONS
100
AcDbMText
 10
32.2928371243
 20
22.7278931855
 30
0.0039370079
 40
0.2708333333
 41
0.0
 71
     1
 72
     1
  1
3
  7
SLDTEXTSTYLE0
  0
MTEXT
  5
93
330
84
100
AcDbEntity
  8
DIMENSIONS
100
AcDbMText
 10
32.1925284856
 20
22.3591084482
 30
0.0039370079
 40
0.2708333333
 41
0.0
 71
     1
 72
     1
  1
16
  7
SLDTEXTSTYLE0
  0
MTEXT
  5
94
330
84
100
AcDbEntity
  8
DIMENSIONS
100
AcDbMText
 10
32.6704991991
 20
22.5433816653
 30
0.0039370079
 40
0.2708333333
 41
0.0
 71
     1
 72
     1
  1
"
  7
SLDTEXTSTYLE0
  0
MTEXT
  5
95
330
84
100
AcDbEntity
  8
DIMENSIONS
100
AcDbMText
 10
31.9758618619
 20
21.8951810067
 30
0.0039370079
 40
0.2708333333
 41
0.0
 71
     1
 72
     1
  1
4.76
  7
SLDTEXTSTYLE0
  0
ENDBLK
  5
86
330
84
100
AcDbEntity
  8
0
100
AcDbBlockEnd
  0
BLOCK
  5
98
330
97
100
AcDbEntity
  8
0
100
AcDbBlockBegin
  2
SW_NOTE_0
 70
     0
 10
0.0
 20
0.0
 30
0.0
  3
SW_NOTE_0
  1

  0
MTEXT
  5
9A
330
97
100
AcDbEntity
  8
NOTES
 62
     0
100
AcDbMText
 10
0.0
 20
0.2685557791
 30
0.0
 40
0.2083333333
 41
0.0
 71
     1
 72
     1
  1
NOTES:
  7
SLDTEXTSTYLE0
  0
MTEXT
  5
9B
330
97
100
AcDbEntity
  8
NOTES
 62
     0
100
AcDbMText
 10
0.4399970804
 20
-0.2869997697
 30
0.0
 40
0.2083333333
 41
0.0
 71
     1
 72
     1
  1
THOROUGHLY READ ALL  INSTALLATION INSTRUCTIONS
  7
SLDTEXTSTYLE0
  0
MTEXT
  5
9C
330
97
100
AcDbEntity
  8
NOTES
 62
     0
100
AcDbMText
 10
0.0
 20
-0.2869997697
 30
0.0
 40
0.2083333333
 41
0.0
 71
     1
 72
     1
  1
1.
  7
SLDTEXTSTYLE0
  0
MTEXT
  5
9D
330
97
100
AcDbEntity
  8
NOTES
 62
     0
100
AcDbMText
 10
0.0
 20
-0.5647775441
 30
0.0
 40
0.2083333333
 41
0.0
 71
     1
 72
     1
  1
BEFORE CUTTING COUNTERTOP.
  7
SLDTEXTSTYLE0
  0
MTEXT
  5
9E
330
97
100
AcDbEntity
  8
NOTES
 62
     0
100
AcDbMText
 10
0.0
 20
-1.120333093
 30
0.0
 40
0.2083333333
 41
0.0
 71
     1
 72
     1
  1
2.  DIMENSIONS ARE IN INCHES [MM].
  7
SLDTEXTSTYLE0
  0
MTEXT
  5
A0
330
97
100
AcDbEntity
  8
NOTES
 62
     0
100
AcDbMText
 10
0.0
 20
-1.9536664162
 30
0.0
 40
0.2083333333
 41
0.0
 71
     1
 72
     1
  1
PLEASE CHECK TEMPLATE AGAINST PHYSICAL SINK FOR MOST ACCURATE CUT.
  7
SLDTEXTSTYLE1
  0
MTEXT
  5
A1
330
97
100
AcDbEntity
  8
NOTES
 62
     0
100
AcDbMText
 10
0.0
 20
-3.0647775139
 30
0.0
 40
0.2083333333
 41
0.0
 71
     1
 72
     1
  1
NOTAS:
  7
SLDTEXTSTYLE0
  0
MTEXT
  5
A2
330
97
100
AcDbEntity
  8
NOTES
 62
     0
100
AcDbMText
 10
0.0
 20
-3.6203330628
 30
0.0
 40
0.2083333333
 41
0.0
 71
     1
 72
     1
  1
1.  LEA ATENTAMENTE LAS INSTRUCCIONES DE INSTALACIÓN ANTES DE CORTAR LA ENCIMERA.
  7
SLDTEXTSTYLE0
  0
MTEXT
  5
A3
330
97
100
AcDbEntity
  8
NOTES
 62
     0
100
AcDbMText
 10
0.0
 20
-4.1758886116
 30
0.0
 40
0.2083333333
 41
0.0
 71
     1
 72
     1
  1
2.  DIMENSIONES EN PULGADAS [MM].
  7
SLDTEXTSTYLE0
  0
MTEXT
  5
A4
330
97
100
AcDbEntity
  8
NOTES
 62
     0
100
AcDbMText
 10
0.0
 20
-5.0092219349
 30
0.0
 40
0.2083333333
 41
0.0
 71
     1
 72
     1
  1
POR FAVOR COMPRUEBE PLANTILLA CONTRA FREGADERO FÍSICO PARA CORTE MÁS EXACTO.
  7
SLDTEXTSTYLE1
  0
ENDBLK
  5
99
330
97
100
AcDbEntity
  8
0
100
AcDbBlockEnd
  0
BLOCK
  5
A7
330
A6
100
AcDbEntity
  8
0
100
AcDbBlockBegin
  2
SW_NOTE_1
 70
     0
 10
0.0
 20
0.0
 30
0.0
  3
SW_NOTE_1
  1

  0
MTEXT
  5
A9
330
A6
100
AcDbEntity
  8
NOTES
 62
     0
100
AcDbMText
 10
6.8619791667
 20
1.0742231165
 30
0.0
 40
0.8333333333
 41
0.0
 71
     2
 72
     1
  1
TEMPLATE #: 1000003470
  7
SLDTEXTSTYLE0
  0
MTEXT
  5
AA
330
A6
100
AcDbEntity
  8
NOTES
 62
     0
100
AcDbMText
 10
6.8453918433
 20
-0.0184439723
 30
0.0
 40
0.4166666667
 41
0.0
 71
     2
 72
     1
  1
TOP MOUNT TEMPLATE 33" X 22" W/ 1/2" RADIUS
  7
SLDTEXTSTYLE0
  0
ENDBLK
  5
A8
330
A6
100
AcDbEntity
  8
0
100
AcDbBlockEnd
  0
BLOCK
  5
AD
330
AC
100
AcDbEntity
  8
0
100
AcDbBlockBegin
  2
SW_NOTE_2
 70
     0
 10
0.0
 20
0.0
 30
0.0
  3
SW_NOTE_2
  1

  0
MTEXT
  5
AF
330
AC
100
AcDbEntity
  8
NOTES
 62
     0
100
AcDbMText
 10
1.0824524504
 20
0.8246526438
 30
0.0
 40
0.25
 41
0.0
 71
     2
 72
     1
  1
TEMPLATE
  7
SLDTEXTSTYLE0
  0
MTEXT
  5
B0
330
AC
100
AcDbEntity
  8
NOTES
 62
     0
100
AcDbMText
 10
1.0862140694
 20
0.4913193145
 30
0.0
 40
0.25
 41
0.0
 71
     2
 72
     1
  1
CENTERLINE
  7
SLDTEXTSTYLE0
  0
MTEXT
  5
B1
330
AC
100
AcDbEntity
  8
NOTES
 62
     0
100
AcDbMText
 10
1.0863587004
 20
-0.1753473441
 30
0.0
 40
0.25
 41
0.0
 71
     2
 72
     1
  1
PLANTILLA
  7
SLDTEXTSTYLE0
  0
MTEXT
  5
B2
330
AC
100
AcDbEntity
  8
NOTES
 62
     0
100
AcDbMText
 10
1.0827418071
 20
-0.5086806734
 30
0.0
 40
0.25
 41
0.0
 71
     2
 72
     1
  1
CENTRAL
  7
SLDTEXTSTYLE0
  0
ENDBLK
  5
AE
330
AC
100
AcDbEntity
  8
0
100
AcDbBlockEnd
  0
ENDSEC
  0
SECTION
  2
ENTITIES
  0
LINE
  5
4A
330
1F
100
AcDbEntity
  8
OBJECTS
  6
CENTERX2
100
AcDbLine
 10
1.3085119417
 20
12.1744202613
 30
0.0
 11
3.0137151629
 21
12.1744202613
 31
0.0
  0
LINE
  5
4B
330
1F
100
AcDbEntity
  8
OBJECTS
  6
CENTERX2
100
AcDbLine
 10
33.6835119417
 20
12.1744202613
 30
0.0
 11
31.9783087205
 21
12.1744202613
 31
0.0
  0
LINE
  5
4C
330
1F
100
AcDbEntity
  8
OBJECTS
  6
CENTERX2
100
AcDbLine
 10
17.4960119417
 20
1.4869202613
 30
0.0
 11
17.4960119417
 21
3.1921234825
 31
0.0
  0
LINE
  5
4D
330
1F
100
AcDbEntity
  8
OBJECTS
  6
CENTERX2
100
AcDbLine
 10
17.4960119417
 20
22.8619202613
 30
0.0
 11
17.4960119417
 21
21.1567170401
 31
0.0
  0
LINE
  5
4E
330
1F
100
AcDbEntity
  8
OBJECTS
100
AcDbLine
 10
33.6835119417
 20
1.6744202613
 30
0.0
 11
33.6835119417
 21
22.6744202613
 31
0.0
  0
LINE
  5
4F
330
1F
100
AcDbEntity
  8
OBJECTS
100
AcDbLine
 10
33.4960119417
 20
22.8619202613
 30
0.0
 11
1.4960119417
 21
22.8619202613
 31
0.0
  0
LINE
  5
50
330
1F
100
AcDbEntity
  8
OBJECTS
100
AcDbLine
 10
1.3085119417
 20
22.6744202613
 30
0.0
 11
1.3085119417
 21
1.6744202613
 31
0.0
  0
LINE
  5
51
330
1F
100
AcDbEntity
  8
OBJECTS
100
AcDbLine
 10
1.4960119417
 20
1.4869202613
 30
0.0
 11
33.4960119417
 21
1.4869202613
 31
0.0
  0
ARC
  5
52
330
1F
100
AcDbEntity
  8
OBJECTS
100
AcDbCircle
 10
33.4960119417
 20
22.6744202613
 30
0.0
 40
0.1875
100
AcDbArc
 50
0.0
 51
90.0
  0
ARC
  5
53
330
1F
100
AcDbEntity
  8
OBJECTS
100
AcDbCircle
 10
1.4960119417
 20
22.6744202613
 30
0.0
 40
0.1875000000000071
100
AcDbArc
 50
90.0
 51
180.0
  0
ARC
  5
54
330
1F
100
AcDbEntity
  8
OBJECTS
100
AcDbCircle
 10
1.4960119417
 20
1.6744202613
 30
0.0
 40
0.1875000000000002
100
AcDbArc
 50
180.0
 51
270.0
  0
ARC
  5
55
330
1F
100
AcDbEntity
  8
OBJECTS
100
AcDbCircle
 10
33.4960119417
 20
1.6744202613
 30
0.0
 40
0.1875
100
AcDbArc
 50
270.0
 51
0.0
  0
DIMENSION
  5
56
330
1F
100
AcDbEntity
  8
DIMENSIONS
100
AcDbDimension
  2
_D
 10
33.6835119417
 20
4.3519475644
 30
0.0
 11
17.5322011167
 21
4.3519475644
 31
0.0
 70
   160
  1
<>
  3
SLDDIMSTYLE0
100
AcDbAlignedDimension
 13
1.3085119417
 23
1.6744202613
 33
0.0
 14
33.6835119417
 24
1.6744202613
 34
0.0
 50
0.0
100
AcDbRotatedDimension
  0
DIMENSION
  5
6E
330
1F
100
AcDbEntity
  8
DIMENSIONS
100
AcDbDimension
  2
_D_1
 10
4.4525546231
 20
1.4869202613
 30
0.0
 11
4.4525546231
 21
10.5676986089
 31
0.0
 70
   160
  1
<>
  3
SLDDIMSTYLE0
100
AcDbAlignedDimension
 13
1.4960119417
 23
22.8619202613
 33
0.0
 14
1.4960119417
 24
1.4869202613
 34
0.0
 50
90.0
100
AcDbRotatedDimension
  0
DIMENSION
  5
82
330
1F
100
AcDbEntity
  8
DIMENSIONS
100
AcDbDimension
  2
_D_2
 10
33.4960119417
 20
22.6744202613
 30
0.0
 11
32.3269420745
 21
22.1128775917
 31
0.0
 70
   164
  1
<>
  3
SLDDIMSTYLE1
100
AcDbRadialDimension
 15
33.6113910557
 25
22.8222171153
 35
0.0
 40
0.0
  0
MTEXT
  5
96
330
1F
100
AcDbEntity
  8
NOTES
100
AcDbMText
 10
27.4988073098
 20
2.5988710059
 30
0.0
 40
0.2083333333
 41
0.0
 71
     1
 72
     1
  1
REV_A  4/16
  7
SLDTEXTSTYLE0
  0
INSERT
  5
A5
330
1F
100
AcDbEntity
  8
NOTES
100
AcDbBlockReference
  2
SW_NOTE_0
 10
10.9349783417
 20
15.5086707692
 30
0.0
  0
INSERT
  5
AB
330
1F
100
AcDbEntity
  8
NOTES
100
AcDbBlockReference
  2
SW_NOTE_1
 10
10.2585489949
 20
7.5673735303
 30
0.0
  0
INSERT
  5
B3
102
{ACAD_REACTORS
330
B5
330
B6
102
}
330
1F
100
AcDbEntity
  8
NOTES
100
AcDbBlockReference
  2
SW_NOTE_2
 10
23.6395037884
 20
18.9304787746
 30
0.0
  0
LEADER
  5
B5
330
1F
100
AcDbEntity
  8
NOTES
100
AcDbLeader
  3
SLDDIMSTYLE2
 73
     2
 76
     3
 10
17.4960119417
 20
21.9259404425
 30
0.0
 10
23.3895037884
 20
18.9304787746
 30
0.0
 10
23.6395037884
 20
18.9304787746
 30
0.0
340
B3
1001
ACAD
1000
DSTYLE
1002
{
1070
     6
1000

1002
}
  0
LEADER
  5
B6
330
1F
100
AcDbEntity
  8
NOTES
100
AcDbLeader
  3
SLDDIMSTYLE2
 73
     2
 76
     3
 10
32.6437852618
 20
12.1744202613
 30
0.0
 10
26.0400796785
 20
18.9304787746
 30
0.0
 10
25.7900796785
 20
18.9304787746
 30
0.0
340
B3
212
2.150575890029632
222
0.0
232
0.0
1001
ACAD
1000
DSTYLE
1002
{
1070
     6
1000

1002
}
  0
ENDSEC
  0
SECTION
  2
OBJECTS
  0
DICTIONARY
  5
C
330
0
100
AcDbDictionary
  3
ACAD_GROUP
350
D
  3
ACAD_MLINESTYLE
350
17
1001
ACAD
1000
TREAT_AS_HARD
1070
     0
  0
DICTIONARY
  5
D
102
{ACAD_REACTORS
330
C
102
}
330
C
100
AcDbDictionary
1001
ACAD
1000
TREAT_AS_HARD
1070
     0
  0
DICTIONARY
  5
17
102
{ACAD_REACTORS
330
C
102
}
330
C
100
AcDbDictionary
  3
STANDARD
350
18
1001
ACAD
1000
TREAT_AS_HARD
1070
     0
  0
MLINESTYLE
  5
18
102
{ACAD_REACTORS
330
17
102
}
330
17
100
AcDbMlineStyle
  2
Standard
 70
     0
  3

 62
   256
 51
90.0
 52
90.0
 71
     2
 49
0.5
 62
   256
  6
BYLAYER
 49
-0.5
 62
   256
  6
BYLAYER
  0
ENDSEC
  0
EOF
