  0
SECTION
  2
HEADER
  9
$ACADVER
  1
AC1012
  9
$DWGCODEPAGE
  3
ansi_1252
  9
$INSBASE
 10
0.0
 20
0.0
 30
0.0
  9
$EXTMIN
 10
0.0
 20
0.0
 30
0.0
  9
$EXTMAX
 10
35.0
 20
20.0
 30
0.0
  9
$LIMMIN
 10
0.0
 20
0.0
  9
$LIMMAX
 10
35.0
 20
20.0
  9
$ORTHOMODE
 70
     0
  9
$REGENMODE
 70
     1
  9
$FILLMODE
 70
     1
  9
$QTEXTMODE
 70
     0
  9
$MIRRTEXT
 70
     1
  9
$DRAGMODE
 70
     2
  9
$LTSCALE
 40
1.0
  9
$OSMODE
 70
    37
  9
$ATTMODE
 70
     1
  9
$TEXTSIZE
 40
0.2777777778
  9
$TRACEWID
 40
0.05
  9
$TEXTSTYLE
  7
STANDARD
  9
$CLAYER
  8
0
  9
$CELTYPE
  6
BYLAYER
  9
$CECOLOR
 62
   256
  9
$CELTSCALE
 40
1.0
  9
$DELOBJ
 70
     1
  9
$DISPSILH
 70
     0
  9
$DIMSCALE
 40
1.0
  9
$DIMASZ
 40
0.262898763
  9
$DIMEXO
 40
0.05
  9
$DIMDLI
 40
0.38
  9
$DIMRND
 40
0.0
  9
$DIMDLE
 40
0.0
  9
$DIMEXE
 40
0.125
  9
$DIMTP
 40
0.0
  9
$DIMTM
 40
0.0
  9
$DIMTXT
 40
0.3611111111
  9
$DIMCEN
 40
0.09
  9
$DIMTSZ
 40
0.0
  9
$DIMTOL
 70
     0
  9
$DIMLIM
 70
     0
  9
$DIMTIH
 70
     1
  9
$DIMTOH
 70
     1
  9
$DIMSE1
 70
     0
  9
$DIMSE2
 70
     0
  9
$DIMTAD
 70
     0
  9
$DIMZIN
 70
     0
  9
$DIMBLK
  1

  9
$DIMASO
 70
     1
  9
$DIMSHO
 70
     1
  9
$DIMPOST
  1

  9
$DIMAPOST
  1

  9
$DIMALT
 70
     0
  9
$DIMALTD
 70
     2
  9
$DIMALTF
 40
25.4
  9
$DIMLFAC
 40
1.0
  9
$DIMTOFL
 70
     0
  9
$DIMTVP
 40
0.0
  9
$DIMTIX
 70
     0
  9
$DIMSOXD
 70
     0
  9
$DIMSAH
 70
     0
  9
$DIMBLK1
  1

  9
$DIMBLK2
  1

  9
$DIMSTYLE
  2
STANDARD
  9
$DIMCLRD
 70
     0
  9
$DIMCLRE
 70
     0
  9
$DIMCLRT
 70
     0
  9
$DIMTFAC
 40
1.0
  9
$DIMGAP
 40
0.06
  9
$DIMJUST
 70
     0
  9
$DIMSD1
 70
     0
  9
$DIMSD2
 70
     0
  9
$DIMTOLJ
 70
     1
  9
$DIMTZIN
 70
     0
  9
$DIMALTZ
 70
     0
  9
$DIMALTTZ
 70
     0
  9
$DIMFIT
 70
     3
  9
$DIMUPT
 70
     0
  9
$DIMUNIT
 70
     2
  9
$DIMDEC
 70
     3
  9
$DIMTDEC
 70
     3
  9
$DIMALTU
 70
     2
  9
$DIMALTTD
 70
     2
  9
$DIMTXSTY
  7
STANDARD
  9
$DIMAUNIT
 70
     0
  9
$LUNITS
 70
     2
  9
$LUPREC
 70
     3
  9
$SKETCHINC
 40
0.1
  9
$FILLETRAD
 40
0.5
  9
$AUNITS
 70
     0
  9
$AUPREC
 70
     1
  9
$MENU
  1
.
  9
$ELEVATION
 40
0.0
  9
$PELEVATION
 40
0.0
  9
$THICKNESS
 40
0.0
  9
$LIMCHECK
 70
     0
  9
$CHAMFERA
 40
0.5
  9
$CHAMFERB
 40
0.5
  9
$CHAMFERC
 40
1.0
  9
$CHAMFERD
 40
0.0
  9
$SKPOLY
 70
     0
  9
$TDCREATE
 40
2457492.407657535
  9
$TDUPDATE
 40
2457492.407658623
  9
$TDINDWG
 40
0.0000000116
  9
$TDUSRTIMER
 40
0.0000000116
  9
$USRTIMER
 70
     1
  9
$ANGBASE
 50
0.0
  9
$ANGDIR
 70
     0
  9
$PDMODE
 70
     0
  9
$PDSIZE
 40
-1.0
  9
$PLINEWID
 40
0.0
  9
$COORDS
 70
     1
  9
$SPLFRAME
 70
     0
  9
$SPLINETYPE
 70
     6
  9
$SPLINESEGS
 70
     8
  9
$ATTDIA
 70
     0
  9
$ATTREQ
 70
     1
  9
$HANDLING
 70
     1
  9
$HANDSEED
  5
14E
  9
$SURFTAB1
 70
     6
  9
$SURFTAB2
 70
     6
  9
$SURFTYPE
 70
     6
  9
$SURFU
 70
     6
  9
$SURFV
 70
     6
  9
$UCSNAME
  2

  9
$UCSORG
 10
0.0
 20
0.0
 30
0.0
  9
$UCSXDIR
 10
1.0
 20
0.0
 30
0.0
  9
$UCSYDIR
 10
0.0
 20
1.0
 30
0.0
  9
$PUCSNAME
  2

  9
$PUCSORG
 10
0.0
 20
0.0
 30
0.0
  9
$PUCSXDIR
 10
1.0
 20
0.0
 30
0.0
  9
$PUCSYDIR
 10
0.0
 20
1.0
 30
0.0
  9
$USERI1
 70
     0
  9
$USERI2
 70
     0
  9
$USERI3
 70
     0
  9
$USERI4
 70
     0
  9
$USERI5
 70
     0
  9
$USERR1
 40
0.0
  9
$USERR2
 40
0.0
  9
$USERR3
 40
0.0
  9
$USERR4
 40
0.0
  9
$USERR5
 40
0.0
  9
$WORLDVIEW
 70
     1
  9
$SHADEDGE
 70
     3
  9
$SHADEDIF
 70
    70
  9
$TILEMODE
 70
     1
  9
$MAXACTVP
 70
    64
  9
$PINSBASE
 10
0.0
 20
0.0
 30
0.0
  9
$PLIMCHECK
 70
     0
  9
$PEXTMIN
 10
1.0000000000E+20
 20
1.0000000000E+20
 30
1.0000000000E+20
  9
$PEXTMAX
 10
-1.0000000000E+20
 20
-1.0000000000E+20
 30
-1.0000000000E+20
  9
$PLIMMIN
 10
0.0
 20
0.0
  9
$PLIMMAX
 10
12.0
 20
9.0
  9
$UNITMODE
 70
     0
  9
$VISRETAIN
 70
     1
  9
$PLINEGEN
 70
     0
  9
$PSLTSCALE
 70
     1
  9
$TREEDEPTH
 70
  3020
  9
$PICKSTYLE
 70
     1
  9
$CMLSTYLE
  2
STANDARD
  9
$CMLJUST
 70
     0
  9
$CMLSCALE
 40
1.0
  9
$SAVEIMAGES
 70
     1
  0
ENDSEC
  0
SECTION
  2
CLASSES
  0
CLASS
  1
ACDBDICTIONARYWDFLT
  2
AcDbDictionaryWithDefault
  3
ObjectDBX Classes
 90
    32768
280
     0
281
     0
  0
CLASS
  1
VISUALSTYLE
  2
AcDbVisualStyle
  3
ObjectDBX Classes
 90
     4095
280
     0
281
     0
  0
CLASS
  1
MATERIAL
  2
AcDbMaterial
  3
ObjectDBX Classes
 90
     1153
280
     0
281
     0
  0
CLASS
  1
XRECORD
  2
AcDbXrecord
  3
AutoCAD 2000
 90
    32768
280
     0
281
     0
  0
ENDSEC
  0
SECTION
  2
TABLES
  0
TABLE
  2
VPORT
  5
8
330
0
100
AcDbSymbolTable
 70
     1
  0
VPORT
  5
29
330
8
100
AcDbSymbolTableRecord
100
AcDbViewportTableRecord
  2
*ACTIVE
 70
     0
 10
0.0
 20
0.0
 11
1.0
 21
1.0
 12
17.5
 22
10.0
 13
0.0
 23
0.0
 14
0.5
 24
0.5
 15
0.5
 25
0.5
 16
0.0
 26
0.0
 36
1.0
 17
0.0
 27
0.0
 37
0.0
 40
20.0
 41
1.75
 42
50.0
 43
0.0
 44
0.0
 50
0.0
 51
0.0
 71
     0
 72
  2000
 73
     1
 74
     3
 75
     0
 76
     0
 77
     0
 78
     0
  0
ENDTAB
  0
TABLE
  2
LTYPE
  5
5
330
0
100
AcDbSymbolTable
 70
     6
  0
LTYPE
  5
14
330
5
100
AcDbSymbolTableRecord
100
AcDbLinetypeTableRecord
  2
BYBLOCK
 70
     0
  3

 72
    65
 73
     0
 40
0.0
  0
LTYPE
  5
15
330
5
100
AcDbSymbolTableRecord
100
AcDbLinetypeTableRecord
  2
BYLAYER
 70
     0
  3

 72
    65
 73
     0
 40
0.0
  0
LTYPE
  5
16
330
5
100
AcDbSymbolTableRecord
100
AcDbLinetypeTableRecord
  2
CONTINUOUS
 70
     0
  3
Solid line
 72
    65
 73
     0
 40
0.0
  0
LTYPE
  5
3F
330
5
100
AcDbSymbolTableRecord
100
AcDbLinetypeTableRecord
  2
HIDDEN
 70
     0
  3
Hidden __ __ __ __ __ __ __ __ __ __ __ __ __ __
 72
    65
 73
     2
 40
0.075
 49
0.05
 74
     0
 49
-0.025
 74
     0
  0
LTYPE
  5
40
330
5
100
AcDbSymbolTableRecord
100
AcDbLinetypeTableRecord
  2
PHANTOM
 70
     0
  3
Phantom ______  __  __  ______  __  __  ______
 72
    65
 73
     6
 40
0.5
 49
0.25
 74
     0
 49
-0.05
 74
     0
 49
0.05
 74
     0
 49
-0.05
 74
     0
 49
0.05
 74
     0
 49
-0.05
 74
     0
  0
LTYPE
  5
41
330
5
100
AcDbSymbolTableRecord
100
AcDbLinetypeTableRecord
  2
CENTER
 70
     0
  3
Center ____ _ ____ _ ____ _ ____ _ ____ _ ____
 72
    65
 73
     4
 40
0.4
 49
0.25
 74
     0
 49
-0.05
 74
     0
 49
0.05
 74
     0
 49
-0.05
 74
     0
  0
LTYPE
  5
42
330
5
100
AcDbSymbolTableRecord
100
AcDbLinetypeTableRecord
  2
CENTERX2
 70
     0
  3
Center (2x) ________  __  ________  __  _____
 72
    65
 73
     4
 40
0.8
 49
0.5
 74
     0
 49
-0.1
 74
     0
 49
0.1
 74
     0
 49
-0.1
 74
     0
  0
LTYPE
  5
43
330
5
100
AcDbSymbolTableRecord
100
AcDbLinetypeTableRecord
  2
DOT2
 70
     0
  3
Dot (.5x) ........................................
 72
    65
 73
     2
 40
0.025
 49
0.0
 74
     0
 49
-0.025
 74
     0
  0
ENDTAB
  0
TABLE
  2
LAYER
  5
2
330
0
100
AcDbSymbolTable
 70
     8
  0
LAYER
  5
10
330
2
100
AcDbSymbolTableRecord
100
AcDbLayerTableRecord
  2
0
 70
     0
 62
     7
  6
CONTINUOUS
  0
LAYER
  5
44
330
2
100
AcDbSymbolTableRecord
100
AcDbLayerTableRecord
  2
SLD-0
 70
     0
 62
   179
  6
CONTINUOUS
  0
LAYER
  5
45
330
2
100
AcDbSymbolTableRecord
100
AcDbLayerTableRecord
  2
OBJECTS
 70
     0
 62
     5
  6
CONTINUOUS
  0
LAYER
  5
46
330
2
100
AcDbSymbolTableRecord
100
AcDbLayerTableRecord
  2
DIMENSIONS
 70
     0
 62
     1
  6
CONTINUOUS
  0
LAYER
  5
47
330
2
100
AcDbSymbolTableRecord
100
AcDbLayerTableRecord
  2
NOTES
 70
     0
 62
     7
  6
CONTINUOUS
  0
LAYER
  5
48
330
2
100
AcDbSymbolTableRecord
100
AcDbLayerTableRecord
  2
IMAGES
 70
     0
 62
     7
  6
CONTINUOUS
  0
LAYER
  5
49
330
2
100
AcDbSymbolTableRecord
100
AcDbLayerTableRecord
  2
CENTERLINES
 70
     0
 62
     7
  6
HIDDEN
  0
LAYER
  5
4A
330
2
100
AcDbSymbolTableRecord
100
AcDbLayerTableRecord
  2
BLOCKS
 70
     0
 62
    16
  6
CONTINUOUS
  0
ENDTAB
  0
TABLE
  2
STYLE
  5
3
330
0
100
AcDbSymbolTable
 70
     3
  0
STYLE
  5
11
330
3
100
AcDbSymbolTableRecord
100
AcDbTextStyleTableRecord
  2
STANDARD
 70
     0
 40
0.0
 41
1.0
 50
0.0
 71
     0
 42
0.2777777778
  3
ARIAL.TTF
  4

1001
ACAD
1000
ARIAL
1071
       34
  0
STYLE
  5
D6
330
3
100
AcDbSymbolTableRecord
100
AcDbTextStyleTableRecord
  2
SLDTEXTSTYLE0
 70
     0
 40
0.0
 41
0.948
 50
0.0
 71
     0
 42
0.2
  3
ARIAL.TTF
  4

1001
ACAD
1000
Arial
1071
      290
  0
STYLE
  5
12F
330
3
100
AcDbSymbolTableRecord
100
AcDbTextStyleTableRecord
  2
SLDTEXTSTYLE1
 70
     0
 40
0.0
 41
0.948
 50
0.0
 71
     0
 42
0.2
  3
ARIALBD.TTF
  4

1001
ACAD
1000
Arial
1071
 33554722
  0
ENDTAB
  0
TABLE
  2
VIEW
  5
6
330
0
100
AcDbSymbolTable
 70
     0
  0
ENDTAB
  0
TABLE
  2
UCS
  5
7
330
0
100
AcDbSymbolTable
 70
     0
  0
ENDTAB
  0
TABLE
  2
APPID
  5
9
330
0
100
AcDbSymbolTable
 70
     1
  0
APPID
  5
12
330
9
100
AcDbSymbolTableRecord
100
AcDbRegAppTableRecord
  2
ACAD
 70
     0
  0
ENDTAB
  0
TABLE
  2
DIMSTYLE
  5
A
330
0
100
AcDbSymbolTable
 70
     4
  0
DIMSTYLE
105
27
330
A
100
AcDbSymbolTableRecord
100
AcDbDimStyleTableRecord
  2
STANDARD
 70
     0
  3

  4

  5

  6

  7

 40
1.0
 41
0.18
 42
0.0625
 43
0.38
 44
0.18
 45
0.0
 46
0.0
 47
0.0
 48
0.0
140
0.18
141
0.09
142
0.0
143
25.4
144
1.0
145
0.0
146
1.0
147
0.09
 71
     0
 72
     0
 73
     1
 74
     1
 75
     0
 76
     0
 77
     0
 78
     0
170
     0
171
     2
172
     0
173
     0
174
     0
175
     0
176
     0
177
     0
178
     0
270
     2
271
     4
272
     4
273
     2
274
     2
340
11
275
     0
280
     0
281
     0
282
     0
283
     1
284
     0
285
     0
286
     0
287
     3
288
     0
  0
DIMSTYLE
105
EA
102
{ACAD_REACTORS
330
E9
330
FE
102
}
330
A
100
AcDbSymbolTableRecord
100
AcDbDimStyleTableRecord
  2
SLDDIMSTYLE0
 70
     0
  3

  4

  5

  6

  7

 40
1.0
 41
0.262898763
 42
0.0625
 43
0.38
 44
0.0
 45
0.000000001
 46
0.0
 47
0.0
 48
0.0
140
0.262898763
141
0.09
142
0.0
143
25.4
144
1.0
145
0.0
146
1.0
147
0.0657246908
 71
     0
 72
     0
 73
     1
 74
     1
 75
     0
 76
     0
 77
     0
 78
    12
170
     1
171
     2
172
     0
173
     1
174
     0
175
     0
176
     0
177
     0
178
     0
270
     5
271
     6
272
     3
273
     2
274
     2
340
D6
275
     0
280
     0
281
     0
282
     0
283
     1
284
    12
285
     0
286
     0
287
     3
288
     0
  0
DIMSTYLE
105
113
102
{ACAD_REACTORS
330
112
102
}
330
A
100
AcDbSymbolTableRecord
100
AcDbDimStyleTableRecord
  2
SLDDIMSTYLE1
 70
     0
  3

  4

  5

  6

  7

 40
1.0
 41
0.262898763
 42
0.0625
 43
0.38
 44
0.0
 45
0.000000001
 46
0.0
 47
0.0
 48
0.0
140
0.262898763
141
0.0
142
0.0
143
25.4
144
1.0
145
0.0
146
1.0
147
0.0657246908
 71
     0
 72
     0
 73
     1
 74
     1
 75
     0
 76
     0
 77
     0
 78
    12
170
     1
171
     2
172
     0
173
     1
174
     0
175
     0
176
     0
177
     0
178
     0
270
     5
271
     3
272
     3
273
     2
274
     2
340
D6
275
     0
280
     0
281
     0
282
     0
283
     1
284
    12
285
     0
286
     0
287
     4
288
     0
  0
DIMSTYLE
105
144
330
A
100
AcDbSymbolTableRecord
100
AcDbDimStyleTableRecord
  2
SLDDIMSTYLE2
 70
     0
  3

  4

  5

  6

  7

 40
1.0
 41
0.262898763
 42
0.0625
 43
0.38
 44
0.0
 45
0.000000001
 46
0.0
 47
0.0
 48
0.0
140
0.0
141
0.09
142
0.0
143
25.4
144
1.0
145
0.0
146
0.262898763
147
0.0
 71
     0
 72
     0
 73
     1
 74
     1
 75
     0
 76
     0
 77
     0
 78
     0
170
     0
171
     2
172
     0
173
     1
174
     0
175
     0
176
     0
177
     0
178
     0
270
     5
271
     0
272
     0
273
     2
274
     2
340
11
275
     0
280
     0
281
     0
282
     0
283
     1
284
     0
285
     0
286
     0
287
     3
288
     0
  0
ENDTAB
  0
TABLE
  2
BLOCK_RECORD
  5
1
330
0
100
AcDbSymbolTable
 70
    10
  0
BLOCK_RECORD
  5
1F
330
1
100
AcDbSymbolTableRecord
100
AcDbBlockTableRecord
  2
*MODEL_SPACE
  0
BLOCK_RECORD
  5
1B
330
1
100
AcDbSymbolTableRecord
100
AcDbBlockTableRecord
  2
*PAPER_SPACE
  0
BLOCK_RECORD
  5
23
330
1
100
AcDbSymbolTableRecord
100
AcDbBlockTableRecord
  2
*PAPER_SPACE0
  0
BLOCK_RECORD
  5
4B
330
1
100
AcDbSymbolTableRecord
100
AcDbBlockTableRecord
  2
REVEAL_-__125
  0
BLOCK_RECORD
  5
C7
330
1
100
AcDbSymbolTableRecord
100
AcDbBlockTableRecord
  2
SW_BLOCK_DIMENSION_0
  0
BLOCK_RECORD
  5
EB
330
1
100
AcDbSymbolTableRecord
100
AcDbBlockTableRecord
  2
_D
  0
BLOCK_RECORD
  5
FF
330
1
100
AcDbSymbolTableRecord
100
AcDbBlockTableRecord
  2
_D_1
  0
BLOCK_RECORD
  5
114
330
1
100
AcDbSymbolTableRecord
100
AcDbBlockTableRecord
  2
_D_2
  0
BLOCK_RECORD
  5
127
330
1
100
AcDbSymbolTableRecord
100
AcDbBlockTableRecord
  2
SW_NOTE_0
  0
BLOCK_RECORD
  5
136
330
1
100
AcDbSymbolTableRecord
100
AcDbBlockTableRecord
  2
SW_NOTE_1
  0
BLOCK_RECORD
  5
13C
330
1
100
AcDbSymbolTableRecord
100
AcDbBlockTableRecord
  2
SW_NOTE_2
  0
BLOCK_RECORD
  5
147
330
1
100
AcDbSymbolTableRecord
100
AcDbBlockTableRecord
  2
SW_NOTE_3
  0
ENDTAB
  0
ENDSEC
  0
SECTION
  2
BLOCKS
  0
BLOCK
  5
20
330
1F
100
AcDbEntity
  8
0
100
AcDbBlockBegin
  2
*MODEL_SPACE
 70
     0
 10
0.0
 20
0.0
 30
0.0
  3
*MODEL_SPACE
  1

  0
ENDBLK
  5
21
330
1F
100
AcDbEntity
  8
0
100
AcDbBlockEnd
  0
BLOCK
  5
1C
330
1B
100
AcDbEntity
 67
     1
  8
0
100
AcDbBlockBegin
  2
*PAPER_SPACE
 70
     0
 10
0.0
 20
0.0
 30
0.0
  3
*PAPER_SPACE
  1

  0
ENDBLK
  5
1D
330
1B
100
AcDbEntity
 67
     1
  8
0
100
AcDbBlockEnd
  0
BLOCK
  5
24
330
23
100
AcDbEntity
  8
0
100
AcDbBlockBegin
  2
*PAPER_SPACE0
 70
     0
 10
0.0
 20
0.0
 30
0.0
  3
*PAPER_SPACE0
  1

  0
ENDBLK
  5
25
330
23
100
AcDbEntity
  8
0
100
AcDbBlockEnd
  0
BLOCK
  5
4C
330
4B
100
AcDbEntity
  8
0
100
AcDbBlockBegin
  2
REVEAL_-__125
 70
     0
 10
0.0
 20
0.0
 30
0.0
  3
REVEAL_-__125
  1

  0
ARC
  5
4E
330
4B
100
AcDbEntity
  8
BLOCKS
100
AcDbCircle
 10
-1.4047720451
 20
-12.8442954347
 30
0.0
 40
0.2333367804802293
100
AcDbArc
 50
0.0
 51
90.0
  0
ARC
  5
4F
330
4B
100
AcDbEntity
  8
BLOCKS
100
AcDbCircle
 10
-1.4394760169
 20
-12.1962194696
 30
0.0
 40
0.0041583245038854
100
AcDbArc
 50
0.0
 51
90.0
  0
ARC
  5
50
330
4B
100
AcDbEntity
  8
BLOCKS
100
AcDbCircle
 10
-2.2191634439
 20
-12.7398388164
 30
0.0
 40
0.0881257319589163
100
AcDbArc
 50
200.9822712638
 51
339.0177287362
  0
ARC
  5
51
330
4B
100
AcDbEntity
  8
BLOCKS
100
AcDbCircle
 10
-1.4047720451
 20
-12.8442954347
 30
0.0
 40
0.1874525384626438
100
AcDbArc
 50
0.0
 51
90.0
  0
LINE
  5
52
330
4B
100
AcDbEntity
  8
BLOCKS
100
AcDbLine
 10
-1.4394760169
 20
-12.1920611451
 30
0.0
 11
-3.01526606
 21
-12.1920611451
 31
0.0
  0
LINE
  5
53
330
4B
100
AcDbEntity
  8
BLOCKS
100
AcDbLine
 10
-2.9855824064
 20
-12.587244826
 30
0.0
 11
-1.4353176924
 21
-12.5884178222
 31
0.0
  0
LINE
  5
54
330
4B
100
AcDbEntity
  8
BLOCKS
100
AcDbLine
 10
-1.9656725284
 20
-12.6109586542
 30
0.0
 11
-1.4047720451
 21
-12.6109586542
 31
0.0
  0
LINE
  5
55
330
4B
100
AcDbEntity
  8
BLOCKS
100
AcDbLine
 10
-1.1714352646
 20
-12.8442954347
 30
0.0
 11
-1.1714352646
 21
-13.2310110215
 31
0.0
  0
LINE
  5
56
330
4B
100
AcDbEntity
  8
BLOCKS
100
AcDbLine
 10
-1.1714352646
 20
-13.2310110215
 30
0.0
 11
-1.2173195066
 21
-13.2310110215
 31
0.0
  0
LINE
  5
57
330
4B
100
AcDbEntity
  8
BLOCKS
100
AcDbLine
 10
-1.2173195066
 20
-13.2310110215
 30
0.0
 11
-1.2173195066
 21
-12.8442954347
 31
0.0
  0
LINE
  5
58
330
4B
100
AcDbEntity
  8
BLOCKS
100
AcDbLine
 10
-1.4047720451
 20
-12.6568428962
 30
0.0
 11
-1.9656725284
 21
-12.6568428962
 31
0.0
  0
LINE
  5
59
330
4B
100
AcDbEntity
  8
BLOCKS
100
AcDbLine
 10
-1.9656725284
 20
-12.6568428962
 30
0.0
 11
-1.9656725284
 21
-12.6109586542
 31
0.0
  0
LINE
  5
5A
330
4B
100
AcDbEntity
  8
BLOCKS
100
AcDbLine
 10
-1.5885264144
 20
-12.7093957625
 30
0.0
 11
-1.5358283025
 21
-12.6587686221
 31
0.0
  0
LINE
  5
5B
330
4B
100
AcDbEntity
  8
BLOCKS
100
AcDbLine
 10
-1.5358283025
 20
-12.6587686221
 30
0.0
 11
-1.4932052497
 21
-12.7031352284
 31
0.0
  0
LINE
  5
5C
330
4B
100
AcDbEntity
  8
BLOCKS
100
AcDbLine
 10
-1.4932052497
 20
-12.7031352284
 30
0.0
 11
-1.562140852
 21
-12.7693617458
 31
0.0
  0
LINE
  5
5D
330
4B
100
AcDbEntity
  8
BLOCKS
100
AcDbLine
 10
-2.8296332645
 20
-12.6419825586
 30
0.0
 11
-2.8821446813
 21
-12.5873230914
 31
0.0
  0
LINE
  5
5E
330
4B
100
AcDbEntity
  8
BLOCKS
100
AcDbLine
 10
-2.8821446813
 20
-12.5873230914
 30
0.0
 11
-2.9245601437
 21
-12.6280716779
 31
0.0
  0
LINE
  5
5F
330
4B
100
AcDbEntity
  8
BLOCKS
100
AcDbLine
 10
-2.9245601437
 20
-12.6280716779
 30
0.0
 11
-2.8624774729
 21
-12.692693924
 31
0.0
  0
LINE
  5
60
330
4B
100
AcDbEntity
  8
BLOCKS
100
AcDbLine
 10
-2.8296332645
 20
-12.6419825586
 30
0.0
 11
-1.5885264144
 21
-12.7093957625
 31
0.0
  0
LINE
  5
61
330
4B
100
AcDbEntity
  8
BLOCKS
100
AcDbLine
 10
-1.562140852
 20
-12.7693617458
 30
0.0
 11
-2.8624774729
 21
-12.692693924
 31
0.0
  0
LINE
  5
62
330
4B
100
AcDbEntity
  8
BLOCKS
100
AcDbLine
 10
-2.1393972724
 20
-12.6794741087
 30
0.0
 11
-2.1393972724
 21
-12.7353267185
 31
0.0
  0
LINE
  5
63
330
4B
100
AcDbEntity
  8
BLOCKS
100
AcDbLine
 10
-2.2940106407
 20
-12.671075974
 30
0.0
 11
-2.2940106407
 21
-12.7262107174
 31
0.0
  0
LINE
  5
64
330
4B
100
AcDbEntity
  8
BLOCKS
100
AcDbLine
 10
-2.3014456705
 20
-12.7713947956
 30
0.0
 11
-2.1368812173
 21
-12.7713947956
 31
0.0
  0
LINE
  5
65
330
4B
100
AcDbEntity
  8
BLOCKS
100
AcDbLine
 10
-2.2566740506
 20
-12.381095059
 30
0.0
 11
-2.2566740506
 21
-12.7713947956
 31
0.0
  0
LINE
  5
66
330
4B
100
AcDbEntity
  8
BLOCKS
100
AcDbLine
 10
-2.1797821788
 20
-12.381095059
 30
0.0
 11
-2.1797821788
 21
-12.7713947956
 31
0.0
  0
LINE
  5
67
330
4B
100
AcDbEntity
  8
BLOCKS
100
AcDbLine
 10
-2.3194491289
 20
-12.7273697282
 30
0.0
 11
-2.1070425499
 21
-12.739893216
 31
0.0
  0
LINE
  5
68
330
4B
100
AcDbEntity
  8
BLOCKS
100
AcDbLine
 10
-2.2566740506
 20
-12.381095059
 30
0.0
 11
-2.2187090708
 21
-12.325905678
 31
0.0
  0
LINE
  5
69
330
4B
100
AcDbEntity
  8
BLOCKS
100
AcDbLine
 10
-2.2187090708
 20
-12.325905678
 30
0.0
 11
-2.1797821788
 21
-12.381095059
 31
0.0
  0
LINE
  5
6A
330
4B
100
AcDbEntity
  8
BLOCKS
100
AcDbLine
 10
-2.108936665
 20
-12.7720186533
 30
0.0
 11
-2.3213432441
 21
-12.7594951655
 31
0.0
  0
LINE
  5
6B
330
4B
100
AcDbEntity
  8
BLOCKS
100
AcDbLine
 10
-2.1070425499
 20
-12.739893216
 30
0.0
 11
-2.108936665
 21
-12.7720186533
 31
0.0
  0
LINE
  5
6C
330
4B
100
AcDbEntity
  8
BLOCKS
100
AcDbLine
 10
-2.3194491289
 20
-12.7273697282
 30
0.0
 11
-2.3213432441
 21
-12.7594951655
 31
0.0
  0
LINE
  5
6D
330
4B
100
AcDbEntity
  8
BLOCKS
100
AcDbLine
 10
-2.1534117467
 20
-12.5878744817
 30
0.0
 11
-2.1534117467
 21
-12.3074165013
 31
0.0
  0
LINE
  5
6E
330
4B
100
AcDbEntity
  8
BLOCKS
100
AcDbLine
 10
-2.1534117467
 20
-12.3074165013
 30
0.0
 11
-2.2799487024
 21
-12.3074165013
 31
0.0
  0
LINE
  5
6F
330
4B
100
AcDbEntity
  8
BLOCKS
100
AcDbLine
 10
-2.2799487024
 20
-12.3074165013
 30
0.0
 11
-2.2799487024
 21
-12.5877787385
 31
0.0
  0
LINE
  5
70
330
4B
100
AcDbEntity
  8
BLOCKS
  6
CONTINUOUS
100
AcDbLine
 10
-1.4353176924
 20
-12.5884178222
 30
0.0
 11
-1.4353176924
 21
-12.1962194696
 31
0.0
  0
LINE
  5
71
330
4B
100
AcDbEntity
  8
BLOCKS
100
AcDbLine
 10
-1.9656725284
 20
-12.5880165332
 30
0.0
 11
-1.9656725284
 21
-12.6339007752
 31
0.0
  0
LINE
  5
72
330
4B
100
AcDbEntity
  8
BLOCKS
100
AcDbLine
 10
-1.4353176924
 20
-12.5884178222
 30
0.0
 11
-1.4200334992
 21
-12.6109586542
 31
0.0
  0
SPLINE
  5
73
330
4B
100
AcDbEntity
  8
BLOCKS
100
AcDbSpline
210
0.0
220
0.0
230
1.0
 70
     8
 71
     3
 72
     9
 73
     5
 74
     0
 42
0.00000001
 43
0.00000001
 12
1.0
 22
0.0
 32
0.0
 13
1.0
 23
0.0
 33
0.0
 40
0.0
 40
0.0
 40
0.0
 40
0.0
 40
0.5928291688347104
 40
1.0
 40
1.0
 40
1.0
 40
1.0
 10
-2.985582406350157
 20
-12.58724482604875
 30
0.0
 10
-3.030158058563441
 20
-12.50141038487578
 30
0.0
 10
-2.950675096239938
 20
-12.38218687093916
 30
0.0
 10
-2.968787917689462
 20
-12.22793862570682
 30
0.0
 10
-3.015266060000032
 20
-12.19206114512515
 30
0.0
  0
LINE
  5
74
330
4B
100
AcDbEntity
  8
BLOCKS
 62
    16
100
AcDbLine
 10
-2.9739383892
 20
-12.2547148922
 30
0.0
 11
-2.9112846421
 21
-12.1920611451
 31
0.0
  0
LINE
  5
75
330
4B
100
AcDbEntity
  8
BLOCKS
 62
    16
100
AcDbLine
 10
-2.8947183855
 20
-12.2638832362
 30
0.0
 11
-2.8228962944
 21
-12.1920611451
 31
0.0
  0
LINE
  5
76
330
4B
100
AcDbEntity
  8
BLOCKS
 62
    16
100
AcDbLine
 10
-2.9688871487
 20
-12.3380519994
 30
0.0
 11
-2.9389125593
 21
-12.30807741
 31
0.0
  0
LINE
  5
77
330
4B
100
AcDbEntity
  8
BLOCKS
 62
    16
100
AcDbLine
 10
-2.7731844075
 20
-12.2307376058
 30
0.0
 11
-2.7345079468
 21
-12.1920611451
 31
0.0
  0
LINE
  5
78
330
4B
100
AcDbEntity
  8
BLOCKS
 62
    16
100
AcDbLine
 10
-2.9278640159
 20
-12.3854172142
 30
0.0
 11
-2.8173785813
 21
-12.2749317797
 31
0.0
  0
LINE
  5
79
330
4B
100
AcDbEntity
  8
BLOCKS
 62
    16
100
AcDbLine
 10
-2.996767939
 20
-12.4543211374
 30
0.0
 11
-2.9720581897
 21
-12.429611388
 31
0.0
  0
LINE
  5
7A
330
4B
100
AcDbEntity
  8
BLOCKS
 62
    16
100
AcDbLine
 10
-2.6516504294
 20
-12.1975919755
 30
0.0
 11
-2.6461195991
 21
-12.1920611451
 31
0.0
  0
LINE
  5
7B
330
4B
100
AcDbEntity
  8
BLOCKS
 62
    16
100
AcDbLine
 10
-2.8063300378
 20
-12.3522715839
 30
0.0
 11
-2.6958446033
 21
-12.2417861493
 31
0.0
  0
LINE
  5
7C
330
4B
100
AcDbEntity
  8
BLOCKS
 62
    16
100
AcDbLine
 10
-2.9610096462
 20
-12.5069511922
 30
0.0
 11
-2.8505242117
 21
-12.3964657577
 31
0.0
  0
LINE
  5
7D
330
4B
100
AcDbEntity
  8
BLOCKS
 62
    16
100
AcDbLine
 10
-2.6847960598
 20
-12.3191259535
 30
0.0
 11
-2.5743106253
 21
-12.2086405189
 31
0.0
  0
LINE
  5
7E
330
4B
100
AcDbEntity
  8
BLOCKS
 62
    16
100
AcDbLine
 10
-2.8394756682
 20
-12.4738055619
 30
0.0
 11
-2.7289902336
 21
-12.3633201273
 31
0.0
  0
LINE
  5
7F
330
4B
100
AcDbEntity
  8
BLOCKS
 62
    16
100
AcDbLine
 10
-2.9529396313
 20
-12.587269525
 30
0.0
 11
-2.883669842
 21
-12.5179997357
 31
0.0
  0
LINE
  5
80
330
4B
100
AcDbEntity
  8
BLOCKS
 62
    16
100
AcDbLine
 10
-2.5632620818
 20
-12.2859803231
 30
0.0
 11
-2.4693429038
 21
-12.1920611451
 31
0.0
  0
LINE
  5
81
330
4B
100
AcDbEntity
  8
BLOCKS
 62
    16
100
AcDbLine
 10
-2.7179416902
 20
-12.4406599315
 30
0.0
 11
-2.6074562556
 21
-12.3301744969
 31
0.0
  0
LINE
  5
82
330
4B
100
AcDbEntity
  8
BLOCKS
 62
    16
100
AcDbLine
 10
-2.8646181115
 20
-12.5873363528
 30
0.0
 11
-2.762135864
 21
-12.4848541053
 31
0.0
  0
LINE
  5
83
330
4B
100
AcDbEntity
  8
BLOCKS
 62
    16
100
AcDbLine
 10
-2.4417281038
 20
-12.2528346927
 30
0.0
 11
-2.3809545562
 21
-12.1920611451
 31
0.0
  0
LINE
  5
84
330
4B
100
AcDbEntity
  8
BLOCKS
 62
    16
100
AcDbLine
 10
-2.5964077122
 20
-12.4075143011
 30
0.0
 11
-2.4859222776
 21
-12.2970288666
 31
0.0
  0
LINE
  5
85
330
4B
100
AcDbEntity
  8
BLOCKS
 62
    16
100
AcDbLine
 10
-2.7510873206
 20
-12.5621939095
 30
0.0
 11
-2.640601886
 21
-12.451708475
 31
0.0
  0
LINE
  5
86
330
4B
100
AcDbEntity
  8
BLOCKS
 62
    16
100
AcDbLine
 10
-2.3201941258
 20
-12.2196890624
 30
0.0
 11
-2.2925662085
 21
-12.1920611451
 31
0.0
  0
LINE
  5
87
330
4B
100
AcDbEntity
  8
BLOCKS
 62
    16
100
AcDbLine
 10
-2.4748737342
 20
-12.3743686708
 30
0.0
 11
-2.3643882996
 21
-12.2638832362
 31
0.0
  0
LINE
  5
88
330
4B
100
AcDbEntity
  8
BLOCKS
 62
    16
100
AcDbLine
 10
-2.6295533425
 20
-12.5290482791
 30
0.0
 11
-2.519067908
 21
-12.4185628446
 31
0.0
  0
LINE
  5
89
330
4B
100
AcDbEntity
  8
BLOCKS
 62
    16
100
AcDbLine
 10
-2.6879750718
 20
-12.5874700084
 30
0.0
 11
-2.6737475164
 21
-12.573242453
 31
0.0
  0
LINE
  5
8A
330
4B
100
AcDbEntity
  8
BLOCKS
 62
    16
100
AcDbLine
 10
-2.3533397561
 20
-12.3412230404
 30
0.0
 11
-2.2428543216
 21
-12.2307376058
 31
0.0
  0
LINE
  5
8B
330
4B
100
AcDbEntity
  8
BLOCKS
 62
    16
100
AcDbLine
 10
-2.5080193645
 20
-12.4959026488
 30
0.0
 11
-2.39753393
 21
-12.3854172142
 31
0.0
  0
LINE
  5
8C
330
4B
100
AcDbEntity
  8
BLOCKS
 62
    16
100
AcDbLine
 10
-2.599653552
 20
-12.5875368362
 30
0.0
 11
-2.5522135383
 21
-12.5400968226
 31
0.0
  0
LINE
  5
8D
330
4B
100
AcDbEntity
  8
BLOCKS
 62
    16
100
AcDbLine
 10
-2.3864853865
 20
-12.4627570184
 30
0.0
 11
-2.2799487024
 21
-12.3562203344
 31
0.0
  0
LINE
  5
8E
330
4B
100
AcDbEntity
  8
BLOCKS
 62
    16
100
AcDbLine
 10
-2.5113320321
 20
-12.587603664
 30
0.0
 11
-2.4306795603
 21
-12.5069511922
 31
0.0
  0
LINE
  5
8F
330
4B
100
AcDbEntity
  8
BLOCKS
 62
    16
100
AcDbLine
 10
-2.2311448694
 20
-12.3074165013
 30
0.0
 11
-2.1213203436
 21
-12.1975919755
 31
0.0
  0
LINE
  5
90
330
4B
100
AcDbEntity
  8
BLOCKS
 62
    16
100
AcDbLine
 10
-2.4196310169
 20
-12.5842909964
 30
0.0
 11
-2.3091455823
 21
-12.4738055619
 31
0.0
  0
LINE
  5
91
330
4B
100
AcDbEntity
  8
BLOCKS
 62
    16
100
AcDbLine
 10
-2.1102718001
 20
-12.2749317797
 30
0.0
 11
-2.0274011656
 21
-12.1920611451
 31
0.0
  0
LINE
  5
92
330
4B
100
AcDbEntity
  8
BLOCKS
 62
    16
100
AcDbLine
 10
-2.2980970389
 20
-12.5511453661
 30
0.0
 11
-2.2799487024
 21
-12.5329970296
 31
0.0
  0
LINE
  5
93
330
4B
100
AcDbEntity
  8
BLOCKS
 62
    16
100
AcDbLine
 10
-1.9887378221
 20
-12.2417861493
 30
0.0
 11
-1.9390128179
 21
-12.1920611451
 31
0.0
  0
LINE
  5
94
330
4B
100
AcDbEntity
  8
BLOCKS
 62
    16
100
AcDbLine
 10
-2.1434174305
 20
-12.3964657577
 30
0.0
 11
-2.0329319959
 21
-12.2859803231
 31
0.0
  0
LINE
  5
95
330
4B
100
AcDbEntity
  8
BLOCKS
 62
    16
100
AcDbLine
 10
-1.8672038441
 20
-12.2086405189
 30
0.0
 11
-1.8506244703
 21
-12.1920611451
 31
0.0
  0
LINE
  5
96
330
4B
100
AcDbEntity
  8
BLOCKS
 62
    16
100
AcDbLine
 10
-2.0218834525
 20
-12.3633201273
 30
0.0
 11
-1.9113980179
 21
-12.2528346927
 31
0.0
  0
LINE
  5
97
330
4B
100
AcDbEntity
  8
BLOCKS
 62
    16
100
AcDbLine
 10
-2.1534117467
 20
-12.4948484216
 30
0.0
 11
-2.0660776263
 21
-12.4075143011
 31
0.0
  0
LINE
  5
98
330
4B
100
AcDbEntity
  8
BLOCKS
 62
    16
100
AcDbLine
 10
-1.9003494744
 20
-12.3301744969
 30
0.0
 11
-1.7898640399
 21
-12.2196890624
 31
0.0
  0
LINE
  5
99
330
4B
100
AcDbEntity
  8
BLOCKS
 62
    16
100
AcDbLine
 10
-2.0550290828
 20
-12.4848541053
 30
0.0
 11
-1.9445436483
 21
-12.3743686708
 31
0.0
  0
LINE
  5
9A
330
4B
100
AcDbEntity
  8
BLOCKS
 62
    16
100
AcDbLine
 10
-2.1534117467
 20
-12.5832367692
 30
0.0
 11
-2.0992232566
 21
-12.5290482791
 31
0.0
  0
LINE
  5
9B
330
4B
100
AcDbEntity
  8
BLOCKS
 62
    16
100
AcDbLine
 10
-1.7788154964
 20
-12.2970288666
 30
0.0
 11
-1.673847775
 21
-12.1920611451
 31
0.0
  0
LINE
  5
9C
330
4B
100
AcDbEntity
  8
BLOCKS
 62
    16
100
AcDbLine
 10
-1.9334951048
 20
-12.451708475
 30
0.0
 11
-1.8230096702
 21
-12.3412230404
 31
0.0
  0
LINE
  5
9D
330
4B
100
AcDbEntity
  8
BLOCKS
 62
    16
100
AcDbLine
 10
-2.069724433
 20
-12.5879378031
 30
0.0
 11
-1.9776892786
 21
-12.4959026488
 31
0.0
  0
LINE
  5
9E
330
4B
100
AcDbEntity
  8
BLOCKS
 62
    16
100
AcDbLine
 10
-1.6572815184
 20
-12.2638832362
 30
0.0
 11
-1.5854594273
 21
-12.1920611451
 31
0.0
  0
LINE
  5
9F
330
4B
100
AcDbEntity
  8
BLOCKS
 62
    16
100
AcDbLine
 10
-1.8119611268
 20
-12.4185628446
 30
0.0
 11
-1.7014756922
 21
-12.30807741
 31
0.0
  0
LINE
  5
A0
330
4B
100
AcDbEntity
  8
BLOCKS
 62
    16
100
AcDbLine
 10
-1.9666407352
 20
-12.573242453
 30
0.0
 11
-1.8561553006
 21
-12.4627570184
 31
0.0
  0
LINE
  5
A1
330
4B
100
AcDbEntity
  8
BLOCKS
 62
    16
100
AcDbLine
 10
-1.5357475404
 20
-12.2307376058
 30
0.0
 11
-1.4970710797
 21
-12.1920611451
 31
0.0
  0
LINE
  5
A2
330
4B
100
AcDbEntity
  8
BLOCKS
 62
    16
100
AcDbLine
 10
-1.6904271488
 20
-12.3854172142
 30
0.0
 11
-1.5799417142
 21
-12.2749317797
 31
0.0
  0
LINE
  5
A3
330
4B
100
AcDbEntity
  8
BLOCKS
 62
    16
100
AcDbLine
 10
-1.8451067572
 20
-12.5400968226
 30
0.0
 11
-1.7346213226
 21
-12.429611388
 31
0.0
  0
LINE
  5
A4
330
4B
100
AcDbEntity
  8
BLOCKS
 62
    16
100
AcDbLine
 10
-1.8930813933
 20
-12.5880714588
 30
0.0
 11
-1.889300931
 21
-12.5842909964
 31
0.0
  0
LINE
  5
A5
330
4B
100
AcDbEntity
  8
BLOCKS
 62
    16
100
AcDbLine
 10
-1.5688931708
 20
-12.3522715839
 30
0.0
 11
-1.4584077362
 21
-12.2417861493
 31
0.0
  0
LINE
  5
A6
330
4B
100
AcDbEntity
  8
BLOCKS
 62
    16
100
AcDbLine
 10
-1.7235727791
 20
-12.5069511922
 30
0.0
 11
-1.6130873446
 21
-12.3964657577
 31
0.0
  0
LINE
  5
A7
330
4B
100
AcDbEntity
  8
BLOCKS
 62
    16
100
AcDbLine
 10
-1.8047598735
 20
-12.5881382866
 30
0.0
 11
-1.767766953
 21
-12.5511453661
 31
0.0
  0
LINE
  5
A8
330
4B
100
AcDbEntity
  8
BLOCKS
 62
    16
100
AcDbLine
 10
-1.4473591927
 20
-12.3191259535
 30
0.0
 11
-1.4353176924
 21
-12.3070844531
 31
0.0
  0
LINE
  5
A9
330
4B
100
AcDbEntity
  8
BLOCKS
 62
    16
100
AcDbLine
 10
-1.6020388011
 20
-12.4738055619
 30
0.0
 11
-1.4915533666
 21
-12.3633201273
 31
0.0
  0
LINE
  5
AA
330
4B
100
AcDbEntity
  8
BLOCKS
 62
    16
100
AcDbLine
 10
-1.7164383536
 20
-12.5882051144
 30
0.0
 11
-1.6462329749
 21
-12.5179997357
 31
0.0
  0
LINE
  5
AB
330
4B
100
AcDbEntity
  8
BLOCKS
 62
    16
100
AcDbLine
 10
-1.4805048231
 20
-12.4406599315
 30
0.0
 11
-1.4353176924
 21
-12.3954728008
 31
0.0
  0
LINE
  5
AC
330
4B
100
AcDbEntity
  8
BLOCKS
 62
    16
100
AcDbLine
 10
-1.6281168338
 20
-12.5882719422
 30
0.0
 11
-1.5246989969
 21
-12.4848541053
 31
0.0
  0
LINE
  5
AD
330
4B
100
AcDbEntity
  8
BLOCKS
 62
    16
100
AcDbLine
 10
-1.5136504535
 20
-12.5621939095
 30
0.0
 11
-1.4353176924
 21
-12.4838611484
 31
0.0
  0
LINE
  5
AE
330
4B
100
AcDbEntity
  8
BLOCKS
 62
    16
100
AcDbLine
 10
-1.4514737941
 20
-12.5884055978
 30
0.0
 11
-1.4363106493
 21
-12.573242453
 31
0.0
  0
LINE
  5
AF
330
4B
100
AcDbEntity
  8
BLOCKS
 62
    16
100
AcDbLine
 10
-2.1949419749
 20
-12.3596019544
 30
0.0
 11
-2.2566740506
 21
-12.4213340301
 31
0.0
  0
LINE
  5
B0
330
4B
100
AcDbEntity
  8
BLOCKS
 62
    16
100
AcDbLine
 10
-2.1797821788
 20
-12.432830506
 30
0.0
 11
-2.2566740506
 21
-12.5097223778
 31
0.0
  0
LINE
  5
B1
330
4B
100
AcDbEntity
  8
BLOCKS
 62
    16
100
AcDbLine
 10
-2.1797821788
 20
-12.5212188536
 30
0.0
 11
-2.2463674726
 21
-12.5878041475
 31
0.0
  0
LINE
  5
B2
330
4B
100
AcDbEntity
  8
BLOCKS
 62
    16
100
AcDbLine
 10
-2.1827560423
 20
-12.3768788044
 30
0.0
 11
-2.2566740506
 21
-12.4507968126
 31
0.0
  0
LINE
  5
B3
330
4B
100
AcDbEntity
  8
BLOCKS
 62
    16
100
AcDbLine
 10
-2.1797821788
 20
-12.4622932885
 30
0.0
 11
-2.2566740506
 21
-12.5391851603
 31
0.0
  0
LINE
  5
B4
330
4B
100
AcDbEntity
  8
BLOCKS
 62
    16
100
AcDbLine
 10
-2.1797821788
 20
-12.5506816361
 30
0.0
 11
-2.2169269661
 21
-12.5878264234
 31
0.0
  0
LINE
  5
B5
330
4B
100
AcDbEntity
  8
BLOCKS
 62
    16
100
AcDbLine
 10
-2.2463674726
 20
-12.5878041475
 30
0.0
 11
-2.2566740506
 21
-12.5981107254
 31
0.0
  0
LINE
  5
B6
330
4B
100
AcDbEntity
  8
BLOCKS
 62
    16
100
AcDbLine
 10
-2.1797821788
 20
-12.6096072013
 30
0.0
 11
-2.2439690602
 21
-12.6737940827
 31
0.0
  0
LINE
  5
B7
330
4B
100
AcDbEntity
  8
BLOCKS
 62
    16
100
AcDbLine
 10
-2.2169269661
 20
-12.5878264234
 30
0.0
 11
-2.2566740506
 21
-12.6275735079
 31
0.0
  0
LINE
  5
B8
330
4B
100
AcDbEntity
  8
BLOCKS
 62
    16
100
AcDbLine
 10
-2.1797821788
 20
-12.6390699838
 30
0.0
 11
-2.2160241608
 21
-12.6753119658
 31
0.0
  0
LINE
  5
B9
330
4B
100
AcDbEntity
  8
BLOCKS
 62
    16
100
AcDbLine
 10
-2.2439690602
 20
-12.6737940827
 30
0.0
 11
-2.2566740506
 21
-12.6864990731
 31
0.0
  0
LINE
  5
BA
330
4B
100
AcDbEntity
  8
BLOCKS
 62
    16
100
AcDbLine
 10
-2.1797821788
 20
-12.6979955489
 30
0.0
 11
-2.2127863309
 21
-12.7309997011
 31
0.0
  0
LINE
  5
BB
330
4B
100
AcDbEntity
  8
BLOCKS
 62
    16
100
AcDbLine
 10
-2.2160241608
 20
-12.6753119658
 30
0.0
 11
-2.2566740506
 21
-12.7159618556
 31
0.0
  0
LINE
  5
BC
330
4B
100
AcDbEntity
  8
BLOCKS
 62
    16
100
AcDbLine
 10
-2.1797821788
 20
-12.7274583314
 30
0.0
 11
-2.1849639552
 21
-12.7326401078
 31
0.0
  0
LINE
  5
BD
330
4B
100
AcDbEntity
  8
BLOCKS
 62
    16
100
AcDbLine
 10
-2.2152971563
 20
-12.7335105265
 30
0.0
 11
-2.2457393967
 21
-12.7639527669
 31
0.0
  0
LINE
  5
BE
330
4B
100
AcDbEntity
  8
BLOCKS
 62
    16
100
AcDbLine
 10
-2.1874747806
 20
-12.7351509332
 30
0.0
 11
-2.217917021
 21
-12.7655931736
 31
0.0
  0
LINE
  5
BF
330
4B
100
AcDbEntity
  8
BLOCKS
 62
    16
100
AcDbLine
 10
-2.2987642838
 20
-12.7285893063
 30
0.0
 11
-2.32082153
 21
-12.7506465525
 31
0.0
  0
LINE
  5
C0
330
4B
100
AcDbEntity
  8
BLOCKS
 62
    16
100
AcDbLine
 10
-2.270941908
 20
-12.730229713
 30
0.0
 11
-2.3013841484
 21
-12.7606719534
 31
0.0
  0
LINE
  5
C1
330
4B
100
AcDbEntity
  8
BLOCKS
 62
    16
100
AcDbLine
 10
-2.1318300289
 20
-12.7384317467
 30
0.0
 11
-2.1622722693
 21
-12.7688739871
 31
0.0
  0
LINE
  5
C2
330
4B
100
AcDbEntity
  8
BLOCKS
 62
    16
100
AcDbLine
 10
-2.1072439096
 20
-12.7433084099
 30
0.0
 11
-2.1344498935
 21
-12.7705143938
 31
0.0
  0
LINE
  5
C3
330
4B
100
AcDbEntity
  8
BLOCKS
 62
    16
100
AcDbLine
 10
-2.2531814254
 20
-12.7713947956
 30
0.0
 11
-2.2826965875
 21
-12.8009099577
 31
0.0
  0
LINE
  5
C4
330
4B
100
AcDbEntity
  8
BLOCKS
 62
    16
100
AcDbLine
 10
-2.1647930778
 20
-12.7713947956
 30
0.0
 11
-2.2213360454
 21
-12.8279377632
 31
0.0
  0
LINE
  5
C5
330
4B
100
AcDbEntity
  8
BLOCKS
 62
    16
100
AcDbLine
 10
-2.2237186429
 20
-12.7713947956
 30
0.0
 11
-2.2664973516
 21
-12.8141735042
 31
0.0
  0
LINE
  5
C6
330
4B
100
AcDbEntity
  8
BLOCKS
 62
    16
100
AcDbLine
 10
-2.1379229757
 20
-12.773987476
 30
0.0
 11
-2.1850147843
 21
-12.8210792846
 31
0.0
  0
INSERT
  5
DB
330
4B
100
AcDbEntity
  8
BLOCKS
100
AcDbBlockReference
  2
SW_BLOCK_DIMENSION_0
 10
-2.0655976363
 20
-11.8809041343
 30
0.0
  0
ENDBLK
  5
4D
330
4B
100
AcDbEntity
  8
0
100
AcDbBlockEnd
  0
BLOCK
  5
C8
330
C7
100
AcDbEntity
  8
0
100
AcDbBlockBegin
  2
SW_BLOCK_DIMENSION_0
 70
     0
 10
0.0
 20
0.0
 30
0.0
  3
SW_BLOCK_DIMENSION_0
  1

  0
SOLID
  5
CA
330
C7
100
AcDbEntity
  8
BLOCKS
 62
     0
100
AcDbTrace
 10
0.8941623717
 20
-0.0231481578
 30
0.0
 11
0.9952772806
 21
-0.0387042976
 31
0.0
 12
0.9952772806
 22
-0.007592018
 32
0.0
 13
0.9952772806
 23
-0.007592018
 33
0.0
  0
SOLID
  5
CB
330
C7
100
AcDbEntity
  8
BLOCKS
 62
     0
100
AcDbTrace
 10
0.630279944
 20
-0.0231481578
 30
0.0
 11
0.5291650351
 21
-0.007592018
 31
0.0
 12
0.5291650351
 22
-0.0387042976
 32
0.0
 13
0.5291650351
 23
-0.0387042976
 33
0.0
  0
LINE
  5
CC
330
C7
100
AcDbEntity
  8
BLOCKS
 62
     0
100
AcDbLine
 10
0.079089508
 20
-0.0231481486
 30
0.0
 11
0.0559413594
 21
-0.0231481486
 31
0.0
  0
LINE
  5
CD
330
C7
100
AcDbEntity
  8
BLOCKS
 62
     0
100
AcDbLine
 10
0.0559413594
 20
-0.0231481486
 30
0.0
 11
0.0559413594
 21
-0.1784336481
 31
0.0
  0
LINE
  5
CE
330
C7
100
AcDbEntity
  8
BLOCKS
 62
     0
100
AcDbLine
 10
0.0559413594
 20
-0.1784336481
 30
0.0
 11
0.079089508
 21
-0.1784336481
 31
0.0
  0
LINE
  5
CF
330
C7
100
AcDbEntity
  8
BLOCKS
 62
     0
100
AcDbLine
 10
0.4070216247
 20
-0.0231481486
 30
0.0
 11
0.4301697734
 21
-0.0231481486
 31
0.0
  0
LINE
  5
D0
330
C7
100
AcDbEntity
  8
BLOCKS
 62
     0
100
AcDbLine
 10
0.4301697734
 20
-0.0231481486
 30
0.0
 11
0.4301697734
 21
-0.1784336481
 31
0.0
  0
LINE
  5
D1
330
C7
100
AcDbEntity
  8
BLOCKS
 62
     0
100
AcDbLine
 10
0.4301697734
 20
-0.1784336481
 30
0.0
 11
0.4070216247
 21
-0.1784336481
 31
0.0
  0
LINE
  5
D2
330
C7
100
AcDbEntity
  8
BLOCKS
 62
     0
100
AcDbLine
 10
0.8941623717
 20
-0.9133913004
 30
0.0
 11
0.8941623717
 21
0.1018518422
 31
0.0
  0
LINE
  5
D3
330
C7
100
AcDbEntity
  8
BLOCKS
 62
     0
100
AcDbLine
 10
0.630279944
 20
-0.2653153354
 30
0.0
 11
0.630279944
 21
0.1018518422
 31
0.0
  0
LINE
  5
D4
330
C7
100
AcDbEntity
  8
BLOCKS
 62
     0
100
AcDbLine
 10
0.8941623717
 20
-0.0231481578
 30
0.0
 11
1.0886141195
 21
-0.0231481578
 31
0.0
  0
LINE
  5
D5
330
C7
100
AcDbEntity
  8
BLOCKS
 62
     0
100
AcDbLine
 10
0.630279944
 20
-0.0231481578
 30
0.0
 11
0.4867977184
 21
-0.0231481578
 31
0.0
  0
MTEXT
  5
D7
330
C7
100
AcDbEntity
  8
BLOCKS
 62
     0
100
AcDbMText
 10
0.0
 20
0.1342778896
 30
0.0039370079
 40
0.1041666667
 41
0.0
 71
     1
 72
     1
  1
 
  7
SLDTEXTSTYLE0
  0
MTEXT
  5
D8
330
C7
100
AcDbEntity
  8
BLOCKS
 62
     0
100
AcDbMText
 10
0.1466049406
 20
0.1342778896
 30
0.0039370079
 40
0.1041666667
 41
0.0
 71
     1
 72
     1
  1
1/8
  7
SLDTEXTSTYLE0
  0
MTEXT
  5
D9
330
C7
100
AcDbEntity
  8
BLOCKS
 62
     0
100
AcDbMText
 10
0.1080246921
 20
-0.0441557517
 30
0.0039370079
 40
0.1041666667
 41
0.0
 71
     1
 72
     1
  1
3.20
  7
SLDTEXTSTYLE0
  0
MTEXT
  5
DA
330
C7
100
AcDbEntity
  8
BLOCKS
 62
     0
100
AcDbMText
 10
0.4475308934
 20
0.1342778896
 30
0.0039370079
 40
0.1041666667
 41
0.0
 71
     1
 72
     1
  1
 
  7
SLDTEXTSTYLE0
  0
ENDBLK
  5
C9
330
C7
100
AcDbEntity
  8
0
100
AcDbBlockEnd
  0
BLOCK
  5
EC
330
EB
100
AcDbEntity
  8
0
100
AcDbBlockBegin
  2
_D
 70
     0
 10
0.0
 20
0.0
 30
0.0
  3
_D
  1

  0
SOLID
  5
EE
330
EB
100
AcDbEntity
  8
DIMENSIONS
100
AcDbTrace
 10
5.6350195832
 20
1.8095896663
 30
0.0
 11
5.6754655466
 21
2.0724884293
 31
0.0
 12
5.5945736195
 22
2.0724884292
 32
0.0
 13
5.5945736195
 23
2.0724884292
 33
0.0
  0
SOLID
  5
EF
330
EB
100
AcDbEntity
  8
DIMENSIONS
100
AcDbTrace
 10
5.6350195735
 20
18.3604088745
 30
0.0
 11
5.5945736102
 21
18.0975101114
 31
0.0
 12
5.6754655372
 22
18.0975101115
 32
0.0
 13
5.6754655372
 23
18.0975101115
 33
0.0
  0
LINE
  5
F0
330
EB
100
AcDbEntity
  8
DIMENSIONS
100
AcDbLine
 10
5.5324540031
 20
11.9702627067
 30
0.0
 11
6.0104246799
 21
11.9702627067
 31
0.0
  0
LINE
  5
F1
330
EB
100
AcDbEntity
  8
DIMENSIONS
100
AcDbLine
 10
5.0080905464
 20
11.5182719789
 30
0.0
 11
4.9479053605
 21
11.5182719789
 31
0.0
  0
LINE
  5
F2
330
EB
100
AcDbEntity
  8
DIMENSIONS
100
AcDbLine
 10
4.9479053605
 20
11.5182719789
 30
0.0
 11
4.9479053605
 21
11.1145297097
 31
0.0
  0
LINE
  5
F3
330
EB
100
AcDbEntity
  8
DIMENSIONS
100
AcDbLine
 10
4.9479053605
 20
11.1145297097
 30
0.0
 11
5.0080905464
 21
11.1145297097
 31
0.0
  0
LINE
  5
F4
330
EB
100
AcDbEntity
  8
DIMENSIONS
100
AcDbLine
 10
6.2619485718
 20
11.5182719789
 30
0.0
 11
6.3221337577
 21
11.5182719789
 31
0.0
  0
LINE
  5
F5
330
EB
100
AcDbEntity
  8
DIMENSIONS
100
AcDbLine
 10
6.3221337577
 20
11.5182719789
 30
0.0
 11
6.3221337577
 21
11.1145297097
 31
0.0
  0
LINE
  5
F6
330
EB
100
AcDbEntity
  8
DIMENSIONS
100
AcDbLine
 10
6.3221337577
 20
11.1145297097
 30
0.0
 11
6.2619485718
 21
11.1145297097
 31
0.0
  0
LINE
  5
F7
330
EB
100
AcDbEntity
  8
DIMENSIONS
100
AcDbLine
 10
5.6350195832
 20
1.8095896663
 30
0.0
 11
5.6350195778
 21
11.0543446016
 31
0.0
  0
LINE
  5
F8
330
EB
100
AcDbEntity
  8
DIMENSIONS
100
AcDbLine
 10
5.6350195735
 20
18.3604088745
 30
0.0
 11
5.6350195771
 21
12.3083529952
 31
0.0
  0
MTEXT
  5
F9
330
EB
100
AcDbEntity
  8
DIMENSIONS
100
AcDbMText
 10
5.0928513873
 20
12.111852872
 30
0.0039370079
 40
0.2708333333
 41
0.0
 71
     1
 72
     1
  1
16
  7
SLDTEXTSTYLE0
  0
MTEXT
  5
FA
330
EB
100
AcDbEntity
  8
DIMENSIONS
100
AcDbMText
 10
5.6711307028
 20
12.2963643921
 30
0.0039370079
 40
0.2708333333
 41
0.0
 71
     1
 72
     1
  1
9
  7
SLDTEXTSTYLE0
  0
MTEXT
  5
FB
330
EB
100
AcDbEntity
  8
DIMENSIONS
100
AcDbMText
 10
5.570822064
 20
11.9275796549
 30
0.0039370079
 40
0.2708333333
 41
0.0
 71
     1
 72
     1
  1
16
  7
SLDTEXTSTYLE0
  0
MTEXT
  5
FC
330
EB
100
AcDbEntity
  8
DIMENSIONS
100
AcDbMText
 10
6.0487927042
 20
12.111852872
 30
0.0039370079
 40
0.2708333333
 41
0.0
 71
     1
 72
     1
  1
"
  7
SLDTEXTSTYLE0
  0
MTEXT
  5
FD
330
EB
100
AcDbEntity
  8
DIMENSIONS
100
AcDbMText
 10
5.0833220324
 20
11.4636522134
 30
0.0039370079
 40
0.2708333333
 41
0.0
 71
     1
 72
     1
  1
420.39
  7
SLDTEXTSTYLE0
  0
ENDBLK
  5
ED
330
EB
100
AcDbEntity
  8
0
100
AcDbBlockEnd
  0
BLOCK
  5
100
330
FF
100
AcDbEntity
  8
0
100
AcDbBlockBegin
  2
_D_1
 70
     0
 10
0.0
 20
0.0
 30
0.0
  3
_D_1
  1

  0
SOLID
  5
102
330
FF
100
AcDbEntity
  8
DIMENSIONS
100
AcDbTrace
 10
2.2215883165
 20
4.4810538973
 30
0.0
 11
2.4844870797
 21
4.4406079347
 31
0.0
 12
2.4844870794
 22
4.5214998618
 32
0.0
 13
2.4844870794
 23
4.5214998618
 33
0.0
  0
SOLID
  5
103
330
FF
100
AcDbEntity
  8
DIMENSIONS
100
AcDbTrace
 10
32.7172894101
 20
4.4810540133
 30
0.0
 11
32.4543906469
 21
4.5214999758
 31
0.0
 12
32.4543906472
 22
4.4406080487
 32
0.0
 13
32.4543906472
 23
4.4406080487
 33
0.0
  0
LINE
  5
104
330
FF
100
AcDbEntity
  8
DIMENSIONS
100
AcDbLine
 10
14.5253031341
 20
4.7699678523
 30
0.0
 11
14.8026565151
 21
4.7699678523
 31
0.0
  0
LINE
  5
105
330
FF
100
AcDbEntity
  8
DIMENSIONS
100
AcDbLine
 10
13.9006310295
 20
4.3179771246
 30
0.0
 11
13.8404458435
 21
4.3179771246
 31
0.0
  0
LINE
  5
106
330
FF
100
AcDbEntity
  8
DIMENSIONS
100
AcDbLine
 10
13.8404458435
 20
4.3179771246
 30
0.0
 11
13.8404458435
 21
3.9142348553
 31
0.0
  0
LINE
  5
107
330
FF
100
AcDbEntity
  8
DIMENSIONS
100
AcDbLine
 10
13.8404458435
 20
3.9142348553
 30
0.0
 11
13.9006310295
 21
3.9142348553
 31
0.0
  0
LINE
  5
108
330
FF
100
AcDbEntity
  8
DIMENSIONS
100
AcDbLine
 10
15.1544890548
 20
4.3179771246
 30
0.0
 11
15.2146742408
 21
4.3179771246
 31
0.0
  0
LINE
  5
109
330
FF
100
AcDbEntity
  8
DIMENSIONS
100
AcDbLine
 10
15.2146742408
 20
4.3179771246
 30
0.0
 11
15.2146742408
 21
3.9142348553
 31
0.0
  0
LINE
  5
10A
330
FF
100
AcDbEntity
  8
DIMENSIONS
100
AcDbLine
 10
15.2146742408
 20
3.9142348553
 30
0.0
 11
15.1544890548
 21
3.9142348553
 31
0.0
  0
LINE
  5
10B
330
FF
100
AcDbEntity
  8
DIMENSIONS
100
AcDbLine
 10
2.2215883165
 20
4.4810538973
 30
0.0
 11
13.7351178859
 21
4.4810539411
 31
0.0
  0
LINE
  5
10C
330
FF
100
AcDbEntity
  8
DIMENSIONS
100
AcDbLine
 10
32.7172894101
 20
4.4810540133
 30
0.0
 11
15.3200022351
 21
4.4810539471
 31
0.0
  0
MTEXT
  5
10D
330
FF
100
AcDbEntity
  8
DIMENSIONS
100
AcDbMText
 10
14.0857005182
 20
4.9115580176
 30
0.0039370079
 40
0.2708333333
 41
0.0
 71
     1
 72
     1
  1
30
  7
SLDTEXTSTYLE0
  0
MTEXT
  5
10E
330
FF
100
AcDbEntity
  8
DIMENSIONS
100
AcDbMText
 10
14.5636711859
 20
5.0960695378
 30
0.0039370079
 40
0.2708333333
 41
0.0
 71
     1
 72
     1
  1
1
  7
SLDTEXTSTYLE0
  0
MTEXT
  5
10F
330
FF
100
AcDbEntity
  8
DIMENSIONS
100
AcDbMText
 10
14.5636711859
 20
4.7272848005
 30
0.0039370079
 40
0.2708333333
 41
0.0
 71
     1
 72
     1
  1
2
  7
SLDTEXTSTYLE0
  0
MTEXT
  5
110
330
FF
100
AcDbEntity
  8
DIMENSIONS
100
AcDbMText
 10
14.8410245393
 20
4.9115580176
 30
0.0039370079
 40
0.2708333333
 41
0.0
 71
     1
 72
     1
  1
"
  7
SLDTEXTSTYLE0
  0
MTEXT
  5
111
330
FF
100
AcDbEntity
  8
DIMENSIONS
100
AcDbMText
 10
13.9758625154
 20
4.263357359
 30
0.0039370079
 40
0.2708333333
 41
0.0
 71
     1
 72
     1
  1
774.59
  7
SLDTEXTSTYLE0
  0
ENDBLK
  5
101
330
FF
100
AcDbEntity
  8
0
100
AcDbBlockEnd
  0
BLOCK
  5
115
330
114
100
AcDbEntity
  8
0
100
AcDbBlockBegin
  2
_D_2
 70
     0
 10
0.0
 20
0.0
 30
0.0
  3
_D_2
  1

  0
SOLID
  5
117
330
114
100
AcDbEntity
  8
DIMENSIONS
100
AcDbTrace
 10
2.4137650662
 20
18.2466696132
 30
0.0
 11
2.5470474789
 21
18.0164796178
 31
0.0
 12
2.6100741868
 22
18.0671860075
 32
0.0
 13
2.6100741868
 23
18.0671860075
 33
0.0
  0
LINE
  5
118
330
114
100
AcDbEntity
  8
DIMENSIONS
100
AcDbLine
 10
4.1362739618
 20
17.3354496892
 30
0.0
 11
4.4136273427
 21
17.3354496892
 31
0.0
  0
LINE
  5
119
330
114
100
AcDbEntity
  8
DIMENSIONS
100
AcDbLine
 10
3.6821265806
 20
16.8834589615
 30
0.0
 11
3.6219413946
 21
16.8834589615
 31
0.0
  0
LINE
  5
11A
330
114
100
AcDbEntity
  8
DIMENSIONS
100
AcDbLine
 10
3.6219413946
 20
16.8834589615
 30
0.0
 11
3.6219413946
 21
16.4797166922
 31
0.0
  0
LINE
  5
11B
330
114
100
AcDbEntity
  8
DIMENSIONS
100
AcDbLine
 10
3.6219413946
 20
16.4797166922
 30
0.0
 11
3.6821265806
 21
16.4797166922
 31
0.0
  0
LINE
  5
11C
330
114
100
AcDbEntity
  8
DIMENSIONS
100
AcDbLine
 10
4.7353673101
 20
16.8834589615
 30
0.0
 11
4.7955524961
 21
16.8834589615
 31
0.0
  0
LINE
  5
11D
330
114
100
AcDbEntity
  8
DIMENSIONS
100
AcDbLine
 10
4.7955524961
 20
16.8834589615
 30
0.0
 11
4.7955524961
 21
16.4797166922
 31
0.0
  0
LINE
  5
11E
330
114
100
AcDbEntity
  8
DIMENSIONS
100
AcDbLine
 10
4.7955524961
 20
16.4797166922
 30
0.0
 11
4.7353673101
 21
16.4797166922
 31
0.0
  0
LINE
  5
11F
330
114
100
AcDbEntity
  8
DIMENSIONS
100
AcDbLine
 10
2.4137650662
 20
18.2466696132
 30
0.0
 11
3.326802504
 21
17.1117881088
 31
0.0
  0
LINE
  5
120
330
114
100
AcDbEntity
  8
DIMENSIONS
100
AcDbLine
 10
3.326802504
 20
17.1117881088
 30
0.0
 11
3.576802504
 21
17.1117881088
 31
0.0
  0
MTEXT
  5
121
330
114
100
AcDbEntity
  8
DIMENSIONS
100
AcDbMText
 10
3.8371034236
 20
17.4770398545
 30
0.0039370079
 40
0.2708333333
 41
0.0
 71
     1
 72
     1
  1
R
  7
SLDTEXTSTYLE0
  0
MTEXT
  5
122
330
114
100
AcDbEntity
  8
DIMENSIONS
100
AcDbMText
 10
4.1746420135
 20
17.6615513747
 30
0.0039370079
 40
0.2708333333
 41
0.0
 71
     1
 72
     1
  1
1
  7
SLDTEXTSTYLE0
  0
MTEXT
  5
123
330
114
100
AcDbEntity
  8
DIMENSIONS
100
AcDbMText
 10
4.1746420135
 20
17.2927666374
 30
0.0039370079
 40
0.2708333333
 41
0.0
 71
     1
 72
     1
  1
2
  7
SLDTEXTSTYLE0
  0
MTEXT
  5
124
330
114
100
AcDbEntity
  8
DIMENSIONS
100
AcDbMText
 10
4.4519954037
 20
17.4770398545
 30
0.0039370079
 40
0.2708333333
 41
0.0
 71
     1
 72
     1
  1
"
  7
SLDTEXTSTYLE0
  0
MTEXT
  5
125
330
114
100
AcDbEntity
  8
DIMENSIONS
100
AcDbMText
 10
3.7573580665
 20
16.8288391959
 30
0.0039370079
 40
0.2708333333
 41
0.0
 71
     1
 72
     1
  1
13.08
  7
SLDTEXTSTYLE0
  0
ENDBLK
  5
116
330
114
100
AcDbEntity
  8
0
100
AcDbBlockEnd
  0
BLOCK
  5
128
330
127
100
AcDbEntity
  8
0
100
AcDbBlockBegin
  2
SW_NOTE_0
 70
     0
 10
0.0
 20
0.0
 30
0.0
  3
SW_NOTE_0
  1

  0
MTEXT
  5
12A
330
127
100
AcDbEntity
  8
NOTES
 62
     0
100
AcDbMText
 10
0.0
 20
0.2685557791
 30
0.0
 40
0.2083333333
 41
0.0
 71
     1
 72
     1
  1
NOTES:
  7
SLDTEXTSTYLE0
  0
MTEXT
  5
12B
330
127
100
AcDbEntity
  8
NOTES
 62
     0
100
AcDbMText
 10
0.4399970804
 20
-0.2869997697
 30
0.0
 40
0.2083333333
 41
0.0
 71
     1
 72
     1
  1
THOROUGHLY READ ALL  INSTALLATION INSTRUCTIONS
  7
SLDTEXTSTYLE0
  0
MTEXT
  5
12C
330
127
100
AcDbEntity
  8
NOTES
 62
     0
100
AcDbMText
 10
0.0
 20
-0.2869997697
 30
0.0
 40
0.2083333333
 41
0.0
 71
     1
 72
     1
  1
1.
  7
SLDTEXTSTYLE0
  0
MTEXT
  5
12D
330
127
100
AcDbEntity
  8
NOTES
 62
     0
100
AcDbMText
 10
0.0
 20
-0.5647775441
 30
0.0
 40
0.2083333333
 41
0.0
 71
     1
 72
     1
  1
BEFORE CUTTING COUNTERTOP.
  7
SLDTEXTSTYLE0
  0
MTEXT
  5
12E
330
127
100
AcDbEntity
  8
NOTES
 62
     0
100
AcDbMText
 10
0.0
 20
-1.120333093
 30
0.0
 40
0.2083333333
 41
0.0
 71
     1
 72
     1
  1
2.  DIMENSIONS ARE IN INCHES [MM].
  7
SLDTEXTSTYLE0
  0
MTEXT
  5
130
330
127
100
AcDbEntity
  8
NOTES
 62
     0
100
AcDbMText
 10
0.0
 20
-1.9536664162
 30
0.0
 40
0.2083333333
 41
0.0
 71
     1
 72
     1
  1
PLEASE CHECK TEMPLATE AGAINST PHYSICAL SINK FOR MOST ACCURATE CUT.
  7
SLDTEXTSTYLE1
  0
MTEXT
  5
131
330
127
100
AcDbEntity
  8
NOTES
 62
     0
100
AcDbMText
 10
0.0
 20
-3.0647775139
 30
0.0
 40
0.2083333333
 41
0.0
 71
     1
 72
     1
  1
NOTAS:
  7
SLDTEXTSTYLE0
  0
MTEXT
  5
132
330
127
100
AcDbEntity
  8
NOTES
 62
     0
100
AcDbMText
 10
0.0
 20
-3.6203330628
 30
0.0
 40
0.2083333333
 41
0.0
 71
     1
 72
     1
  1
1.  LEA ATENTAMENTE LAS INSTRUCCIONES DE INSTALACIÓN ANTES DE CORTAR LA ENCIMERA.
  7
SLDTEXTSTYLE0
  0
MTEXT
  5
133
330
127
100
AcDbEntity
  8
NOTES
 62
     0
100
AcDbMText
 10
0.0
 20
-4.1758886116
 30
0.0
 40
0.2083333333
 41
0.0
 71
     1
 72
     1
  1
2.  DIMENSIONES EN PULGADAS [MM].
  7
SLDTEXTSTYLE0
  0
MTEXT
  5
134
330
127
100
AcDbEntity
  8
NOTES
 62
     0
100
AcDbMText
 10
0.0
 20
-5.0092219349
 30
0.0
 40
0.2083333333
 41
0.0
 71
     1
 72
     1
  1
POR FAVOR COMPRUEBE PLANTILLA CONTRA FREGADERO FÍSICO PARA CORTE MÁS EXACTO.
  7
SLDTEXTSTYLE1
  0
ENDBLK
  5
129
330
127
100
AcDbEntity
  8
0
100
AcDbBlockEnd
  0
BLOCK
  5
137
330
136
100
AcDbEntity
  8
0
100
AcDbBlockBegin
  2
SW_NOTE_1
 70
     0
 10
0.0
 20
0.0
 30
0.0
  3
SW_NOTE_1
  1

  0
MTEXT
  5
139
330
136
100
AcDbEntity
  8
NOTES
 62
     0
100
AcDbMText
 10
6.8619791667
 20
1.0742231165
 30
0.0
 40
0.8333333333
 41
0.0
 71
     2
 72
     1
  1
TEMPLATE #: 1000003468
  7
SLDTEXTSTYLE0
  0
MTEXT
  5
13A
330
136
100
AcDbEntity
  8
NOTES
 62
     0
100
AcDbMText
 10
6.878187403
 20
-0.0184439723
 30
0.0
 40
0.4166666667
 41
0.0
 71
     2
 72
     1
  1
REVEAL UNDERMOUNT TEMPLATE 30-1/4" X 16-5/16" W/ 3/8" RADIUS
  7
SLDTEXTSTYLE0
  0
ENDBLK
  5
138
330
136
100
AcDbEntity
  8
0
100
AcDbBlockEnd
  0
BLOCK
  5
13D
330
13C
100
AcDbEntity
  8
0
100
AcDbBlockBegin
  2
SW_NOTE_2
 70
     0
 10
0.0
 20
0.0
 30
0.0
  3
SW_NOTE_2
  1

  0
MTEXT
  5
13F
330
13C
100
AcDbEntity
  8
NOTES
 62
     0
100
AcDbMText
 10
1.0855406382
 20
0.8253495074
 30
0.0
 40
0.25
 41
0.0
 71
     2
 72
     1
  1
TEMPLATE
  7
SLDTEXTSTYLE0
  0
MTEXT
  5
140
330
13C
100
AcDbEntity
  8
NOTES
 62
     0
100
AcDbMText
 10
1.0893022572
 20
0.4920161781
 30
0.0
 40
0.25
 41
0.0
 71
     2
 72
     1
  1
CENTERLINE
  7
SLDTEXTSTYLE0
  0
MTEXT
  5
141
330
13C
100
AcDbEntity
  8
NOTES
 62
     0
100
AcDbMText
 10
1.0894468882
 20
-0.1746504805
 30
0.0
 40
0.25
 41
0.0
 71
     2
 72
     1
  1
PLANTILLA
  7
SLDTEXTSTYLE0
  0
MTEXT
  5
142
330
13C
100
AcDbEntity
  8
NOTES
 62
     0
100
AcDbMText
 10
1.0858299949
 20
-0.5079838098
 30
0.0
 40
0.25
 41
0.0
 71
     2
 72
     1
  1
CENTRAL
  7
SLDTEXTSTYLE0
  0
ENDBLK
  5
13E
330
13C
100
AcDbEntity
  8
0
100
AcDbBlockEnd
  0
BLOCK
  5
148
330
147
100
AcDbEntity
  8
0
100
AcDbBlockBegin
  2
SW_NOTE_3
 70
     0
 10
0.0
 20
0.0
 30
0.0
  3
SW_NOTE_3
  1

  0
MTEXT
  5
14A
330
147
100
AcDbEntity
  8
NOTES
 62
     0
100
AcDbMText
 10
2.1740359382
 20
0.2671488775
 30
0.0
 40
0.2083333333
 41
0.0
 71
     3
 72
     1
  1
1/8" REVEAL
  7
SLDTEXTSTYLE0
  0
MTEXT
  5
14B
330
147
100
AcDbEntity
  8
NOTES
 62
     0
100
AcDbMText
 10
2.1770743033
 20
-0.0106288969
 30
0.0
 40
0.2083333333
 41
0.0
 71
     3
 72
     1
  1
[3.2 REVELADO]
  7
SLDTEXTSTYLE0
  0
ENDBLK
  5
149
330
147
100
AcDbEntity
  8
0
100
AcDbBlockEnd
  0
ENDSEC
  0
SECTION
  2
ENTITIES
  0
LINE
  5
DC
330
1F
100
AcDbEntity
  8
OBJECTS
  6
CENTERX2
100
AcDbLine
 10
32.7172894183
 20
10.0849992789
 30
0.0
 11
31.444478073
 21
10.0849992789
 31
0.0
  0
LINE
  5
DD
330
1F
100
AcDbEntity
  8
OBJECTS
  6
CENTERX2
100
AcDbLine
 10
17.4694388518
 20
18.3604088728
 30
0.0
 11
17.4694388518
 21
17.0875975275
 31
0.0
  0
LINE
  5
DE
330
1F
100
AcDbEntity
  8
OBJECTS
  6
CENTERX2
100
AcDbLine
 10
2.2215883247
 20
10.0849992789
 30
0.0
 11
3.49439967
 21
10.0849992789
 31
0.0
  0
LINE
  5
DF
330
1F
100
AcDbEntity
  8
OBJECTS
  6
CENTERX2
100
AcDbLine
 10
17.4694388518
 20
1.8095896646
 30
0.0
 11
17.4694388518
 21
3.0824010099
 31
0.0
  0
LINE
  5
E0
330
1F
100
AcDbEntity
  8
OBJECTS
100
AcDbLine
 10
2.736588325
 20
1.8095896646
 30
0.0
 11
32.2022894186
 21
1.8095896817
 31
0.0
  0
LINE
  5
E1
330
1F
100
AcDbEntity
  8
OBJECTS
100
AcDbLine
 10
32.7172894183
 20
2.3245896811
 30
0.0
 11
32.7172894381
 21
17.8454088768
 31
0.0
  0
LINE
  5
E2
330
1F
100
AcDbEntity
  8
OBJECTS
100
AcDbLine
 10
32.202289438
 20
18.3604088774
 30
0.0
 11
2.7365882656
 21
18.3604088728
 31
0.0
  0
LINE
  5
E3
330
1F
100
AcDbEntity
  8
OBJECTS
100
AcDbLine
 10
2.2215882657
 20
17.8454088708
 30
0.0
 11
2.2215883247
 21
2.3245896626
 31
0.0
  0
ARC
  5
E4
330
1F
100
AcDbEntity
  8
OBJECTS
100
AcDbCircle
 10
32.2022894183
 20
2.3245896817
 30
0.0
 40
0.5150000000000006
100
AcDbArc
 50
270.0000000334
 51
359.9999999269
  0
ARC
  5
E5
330
1F
100
AcDbEntity
  8
OBJECTS
100
AcDbCircle
 10
32.2022894381
 20
17.8454088774
 30
0.0
 40
0.5150000000000006
100
AcDbArc
 50
359.9999999269
 51
90.0000000091
  0
ARC
  5
E6
330
1F
100
AcDbEntity
  8
OBJECTS
100
AcDbCircle
 10
2.7365882657
 20
17.8454088728
 30
0.0
 40
0.5150000000000023
100
AcDbArc
 50
90.0000000091
 51
180.0000002179
  0
ARC
  5
E7
330
1F
100
AcDbEntity
  8
OBJECTS
100
AcDbCircle
 10
2.7365883247
 20
2.3245896646
 30
0.0
 40
0.5150000000000006
100
AcDbArc
 50
180.0000002179
 51
270.0000000334
  0
INSERT
  5
E8
330
1F
100
AcDbEntity
  8
NOTES
100
AcDbBlockReference
  2
REVEAL_-__125
 10
23.7201461295
 20
15.4310712715
 30
0.0
  0
DIMENSION
  5
E9
330
1F
100
AcDbEntity
  8
DIMENSIONS
100
AcDbDimension
  2
_D
 10
5.6350195735
 20
18.3604088745
 30
0.0
 11
5.6350195774
 21
11.6813487984
 31
0.0
 70
   160
  1
<>
  3
SLDDIMSTYLE0
100
AcDbAlignedDimension
 13
2.736588325
 23
1.8095896646
 33
0.0
 14
2.7365882656
 24
18.3604088728
 34
0.0
 50
90.0
100
AcDbRotatedDimension
  0
DIMENSION
  5
FE
330
1F
100
AcDbEntity
  8
DIMENSIONS
100
AcDbDimension
  2
_D_1
 10
32.7172894101
 20
4.4810540133
 30
0.0
 11
14.5275600605
 21
4.4810539441
 31
0.0
 70
   160
  1
<>
  3
SLDDIMSTYLE0
100
AcDbAlignedDimension
 13
2.2215883247
 23
2.3245896626
 33
0.0
 14
32.7172894183
 24
2.3245896811
 34
0.0
 50
0.0000002179
100
AcDbRotatedDimension
  0
DIMENSION
  5
112
330
1F
100
AcDbEntity
  8
DIMENSIONS
100
AcDbDimension
  2
_D_2
 10
2.7365882657
 20
17.8454088728
 30
0.0
 11
4.2087469637
 21
17.0465357809
 31
0.0
 70
   164
  1
<>
  3
SLDDIMSTYLE1
100
AcDbRadialDimension
 15
2.4137650662
 25
18.2466696132
 35
0.0
 40
0.0
  0
MTEXT
  5
126
330
1F
100
AcDbEntity
  8
NOTES
100
AcDbMText
 10
27.6806360048
 20
2.5119183671
 30
0.0
 40
0.2083333333
 41
0.0
 71
     1
 72
     1
  1
REV_A  4/16
  7
SLDTEXTSTYLE0
  0
INSERT
  5
135
330
1F
100
AcDbEntity
  8
NOTES
100
AcDbBlockReference
  2
SW_NOTE_0
 10
11.3241126062
 20
16.368656032
 30
0.0
  0
INSERT
  5
13B
330
1F
100
AcDbEntity
  8
NOTES
100
AcDbBlockReference
  2
SW_NOTE_1
 10
10.7169678166
 20
7.907724614
 30
0.0
  0
INSERT
  5
143
102
{ACAD_REACTORS
330
145
330
146
102
}
330
1F
100
AcDbEntity
  8
NOTES
100
AcDbBlockReference
  2
SW_NOTE_2
 10
25.0430646889
 20
15.8457725058
 30
0.0
  0
LEADER
  5
145
330
1F
100
AcDbEntity
  8
NOTES
100
AcDbLeader
  3
SLDDIMSTYLE2
 73
     2
 76
     3
 10
17.4694388518
 20
17.6507154368
 30
0.0
 10
24.7930646889
 20
15.8457725058
 30
0.0
 10
25.0430646889
 20
15.8457725058
 30
0.0
340
143
1001
ACAD
1000
DSTYLE
1002
{
1070
     6
1000

1002
}
  0
LEADER
  5
146
330
1F
100
AcDbEntity
  8
NOTES
100
AcDbLeader
  3
SLDDIMSTYLE2
 73
     2
 76
     3
 10
31.9412932231
 20
10.0849992789
 30
0.0
 10
27.4436405789
 20
15.8457725058
 30
0.0
 10
27.1936405789
 20
15.8457725058
 30
0.0
340
143
212
2.150575890029632
222
0.0
232
0.0
1001
ACAD
1000
DSTYLE
1002
{
1070
     6
1000

1002
}
  0
INSERT
  5
14C
102
{ACAD_REACTORS
330
14D
102
}
330
1F
100
AcDbEntity
  8
NOTES
100
AcDbBlockReference
  2
SW_NOTE_3
 10
23.6864194731
 20
3.2723690075
 30
0.0
  0
LEADER
  5
14D
330
1F
100
AcDbEntity
  8
NOTES
100
AcDbLeader
  3
SLDDIMSTYLE2
 73
     2
 76
     3
 10
22.8434109193
 20
1.8095896763
 30
0.0
 10
23.4364194731
 20
3.2723690075
 30
0.0
 10
23.6864194731
 20
3.2723690075
 30
0.0
340
14C
1001
ACAD
1000
DSTYLE
1002
{
1070
     6
1000

1002
}
  0
ENDSEC
  0
SECTION
  2
OBJECTS
  0
DICTIONARY
  5
C
330
0
100
AcDbDictionary
  3
ACAD_GROUP
350
D
  3
ACAD_MLINESTYLE
350
17
1001
ACAD
1000
TREAT_AS_HARD
1070
     0
  0
DICTIONARY
  5
D
102
{ACAD_REACTORS
330
C
102
}
330
C
100
AcDbDictionary
1001
ACAD
1000
TREAT_AS_HARD
1070
     0
  0
DICTIONARY
  5
17
102
{ACAD_REACTORS
330
C
102
}
330
C
100
AcDbDictionary
  3
STANDARD
350
18
1001
ACAD
1000
TREAT_AS_HARD
1070
     0
  0
MLINESTYLE
  5
18
102
{ACAD_REACTORS
330
17
102
}
330
17
100
AcDbMlineStyle
  2
Standard
 70
     0
  3

 62
   256
 51
90.0
 52
90.0
 71
     2
 49
0.5
 62
   256
  6
BYLAYER
 49
-0.5
 62
   256
  6
BYLAYER
  0
ENDSEC
  0
EOF
