  0
SECTION
  2
HEADER
  9
$ACADVER
  1
AC1015
  9
$ACADMAINTVER
 70
     6
  9
$DWGCODEPAGE
  3
ANSI_1252
  9
$INSBASE
 10
0.0
 20
0.0
 30
0.0
  9
$EXTMIN
 10
0.0
 20
0.0
 30
0.0
  9
$EXTMAX
 10
34.0
 20
22.0
 30
0.0
  9
$LIMMIN
 10
0.0
 20
0.0
  9
$LIMMAX
 10
34.0
 20
22.0
  9
$ORTHOMODE
 70
     0
  9
$REGENMODE
 70
     1
  9
$FILLMODE
 70
     1
  9
$QTEXTMODE
 70
     0
  9
$MIRRTEXT
 70
     1
  9
$LTSCALE
 40
1.0
  9
$ATTMODE
 70
     1
  9
$TEXTSIZE
 40
0.2777777778
  9
$TRACEWID
 40
0.05
  9
$TEXTSTYLE
  7
STANDARD
  9
$CLAYER
  8
0
  9
$CELTYPE
  6
ByLayer
  9
$CECOLOR
 62
   256
  9
$CELTSCALE
 40
1.0
  9
$DISPSILH
 70
     0
  9
$DIMSCALE
 40
1.0
  9
$DIMASZ
 40
0.3640136719
  9
$DIMEXO
 40
0.05
  9
$DIMDLI
 40
0.38
  9
$DIMRND
 40
0.0
  9
$DIMDLE
 40
0.0
  9
$DIMEXE
 40
0.125
  9
$DIMTP
 40
0.0
  9
$DIMTM
 40
0.0
  9
$DIMTXT
 40
0.5
  9
$DIMCEN
 40
0.09
  9
$DIMTSZ
 40
0.0
  9
$DIMTOL
 70
     0
  9
$DIMLIM
 70
     0
  9
$DIMTIH
 70
     1
  9
$DIMTOH
 70
     1
  9
$DIMSE1
 70
     0
  9
$DIMSE2
 70
     0
  9
$DIMTAD
 70
     0
  9
$DIMZIN
 70
     0
  9
$DIMBLK
  1

  9
$DIMASO
 70
     1
  9
$DIMSHO
 70
     1
  9
$DIMPOST
  1

  9
$DIMAPOST
  1

  9
$DIMALT
 70
     0
  9
$DIMALTD
 70
     2
  9
$DIMALTF
 40
25.4
  9
$DIMLFAC
 40
1.0
  9
$DIMTOFL
 70
     0
  9
$DIMTVP
 40
0.0
  9
$DIMTIX
 70
     0
  9
$DIMSOXD
 70
     0
  9
$DIMSAH
 70
     0
  9
$DIMBLK1
  1

  9
$DIMBLK2
  1

  9
$DIMSTYLE
  2
Standard
  9
$DIMCLRD
 70
     0
  9
$DIMCLRE
 70
     0
  9
$DIMCLRT
 70
     0
  9
$DIMTFAC
 40
1.0
  9
$DIMGAP
 40
0.06
  9
$DIMJUST
 70
     0
  9
$DIMSD1
 70
     0
  9
$DIMSD2
 70
     0
  9
$DIMTOLJ
 70
     1
  9
$DIMTZIN
 70
     0
  9
$DIMALTZ
 70
     0
  9
$DIMALTTZ
 70
     0
  9
$DIMUPT
 70
     0
  9
$DIMDEC
 70
     3
  9
$DIMTDEC
 70
     3
  9
$DIMALTU
 70
     2
  9
$DIMALTTD
 70
     2
  9
$DIMTXSTY
  7
STANDARD
  9
$DIMAUNIT
 70
     0
  9
$DIMADEC
 70
     1
  9
$DIMALTRND
 40
0.0
  9
$DIMAZIN
 70
     0
  9
$DIMDSEP
 70
    46
  9
$DIMATFIT
 70
     3
  9
$DIMFRAC
 70
     0
  9
$DIMLDRBLK
  1

  9
$DIMLUNIT
 70
     2
  9
$DIMLWD
 70
    -2
  9
$DIMLWE
 70
    -2
  9
$DIMTMOVE
 70
     0
  9
$LUNITS
 70
     2
  9
$LUPREC
 70
     3
  9
$SKETCHINC
 40
0.1
  9
$FILLETRAD
 40
0.5
  9
$AUNITS
 70
     0
  9
$AUPREC
 70
     1
  9
$MENU
  1
.
  9
$ELEVATION
 40
0.0
  9
$PELEVATION
 40
0.0
  9
$THICKNESS
 40
0.0
  9
$LIMCHECK
 70
     0
  9
$CHAMFERA
 40
0.5
  9
$CHAMFERB
 40
0.5
  9
$CHAMFERC
 40
1.0
  9
$CHAMFERD
 40
0.0
  9
$SKPOLY
 70
     0
  9
$TDCREATE
 40
2456847.402007373
  9
$TDUCREATE
 40
2456847.610340706
  9
$TDUPDATE
 40
2456847.402009167
  9
$TDUUPDATE
 40
2456847.6103425
  9
$TDINDWG
 40
0.0000000116
  9
$TDUSRTIMER
 40
0.0000000116
  9
$USRTIMER
 70
     1
  9
$ANGBASE
 50
0.0
  9
$ANGDIR
 70
     0
  9
$PDMODE
 70
     0
  9
$PDSIZE
 40
-1.0
  9
$PLINEWID
 40
0.0
  9
$SPLFRAME
 70
     0
  9
$SPLINETYPE
 70
     6
  9
$SPLINESEGS
 70
     8
  9
$HANDSEED
  5
ED
  9
$SURFTAB1
 70
     6
  9
$SURFTAB2
 70
     6
  9
$SURFTYPE
 70
     6
  9
$SURFU
 70
     6
  9
$SURFV
 70
     6
  9
$UCSBASE
  2

  9
$UCSNAME
  2

  9
$UCSORG
 10
0.0
 20
0.0
 30
0.0
  9
$UCSXDIR
 10
1.0
 20
0.0
 30
0.0
  9
$UCSYDIR
 10
0.0
 20
1.0
 30
0.0
  9
$UCSORTHOREF
  2

  9
$UCSORTHOVIEW
 70
     0
  9
$UCSORGTOP
 10
0.0
 20
0.0
 30
0.0
  9
$UCSORGBOTTOM
 10
0.0
 20
0.0
 30
0.0
  9
$UCSORGLEFT
 10
0.0
 20
0.0
 30
0.0
  9
$UCSORGRIGHT
 10
0.0
 20
0.0
 30
0.0
  9
$UCSORGFRONT
 10
0.0
 20
0.0
 30
0.0
  9
$UCSORGBACK
 10
0.0
 20
0.0
 30
0.0
  9
$PUCSBASE
  2

  9
$PUCSNAME
  2

  9
$PUCSORG
 10
0.0
 20
0.0
 30
0.0
  9
$PUCSXDIR
 10
1.0
 20
0.0
 30
0.0
  9
$PUCSYDIR
 10
0.0
 20
1.0
 30
0.0
  9
$PUCSORTHOREF
  2

  9
$PUCSORTHOVIEW
 70
     0
  9
$PUCSORGTOP
 10
0.0
 20
0.0
 30
0.0
  9
$PUCSORGBOTTOM
 10
0.0
 20
0.0
 30
0.0
  9
$PUCSORGLEFT
 10
0.0
 20
0.0
 30
0.0
  9
$PUCSORGRIGHT
 10
0.0
 20
0.0
 30
0.0
  9
$PUCSORGFRONT
 10
0.0
 20
0.0
 30
0.0
  9
$PUCSORGBACK
 10
0.0
 20
0.0
 30
0.0
  9
$USERI1
 70
     0
  9
$USERI2
 70
     0
  9
$USERI3
 70
     0
  9
$USERI4
 70
     0
  9
$USERI5
 70
     0
  9
$USERR1
 40
0.0
  9
$USERR2
 40
0.0
  9
$USERR3
 40
0.0
  9
$USERR4
 40
0.0
  9
$USERR5
 40
0.0
  9
$WORLDVIEW
 70
     1
  9
$SHADEDGE
 70
     3
  9
$SHADEDIF
 70
    70
  9
$TILEMODE
 70
     1
  9
$MAXACTVP
 70
    64
  9
$PINSBASE
 10
0.0
 20
0.0
 30
0.0
  9
$PLIMCHECK
 70
     0
  9
$PEXTMIN
 10
1.0000000000E+20
 20
1.0000000000E+20
 30
1.0000000000E+20
  9
$PEXTMAX
 10
-1.0000000000E+20
 20
-1.0000000000E+20
 30
-1.0000000000E+20
  9
$PLIMMIN
 10
0.0
 20
0.0
  9
$PLIMMAX
 10
12.0
 20
9.0
  9
$UNITMODE
 70
     0
  9
$VISRETAIN
 70
     1
  9
$PLINEGEN
 70
     0
  9
$PSLTSCALE
 70
     1
  9
$TREEDEPTH
 70
  3020
  9
$CMLSTYLE
  2
Standard
  9
$CMLJUST
 70
     0
  9
$CMLSCALE
 40
1.0
  9
$PROXYGRAPHICS
 70
     1
  9
$MEASUREMENT
 70
     0
  9
$CELWEIGHT
370
    -1
  9
$ENDCAPS
280
     0
  9
$JOINSTYLE
280
     0
  9
$LWDISPLAY
290
     1
  9
$INSUNITS
 70
     1
  9
$HYPERLINKBASE
  1

  9
$STYLESHEET
  1

  9
$XEDIT
290
     1
  9
$CEPSNTYPE
380
     0
  9
$PSTYLEMODE
290
     1
  9
$FINGERPRINTGUID
  2
{4308C9C3-A87A-492C-B8A5-492505C037FF}
  9
$VERSIONGUID
  2
{FAEB1C32-E019-11D5-929B-00C0DF256EC4}
  9
$EXTNAMES
290
     1
  9
$PSVPSCALE
 40
0.0
  9
$OLESTARTUP
290
     0
  0
ENDSEC
  0
SECTION
  2
CLASSES
  0
CLASS
  1
ACDBDICTIONARYWDFLT
  2
AcDbDictionaryWithDefault
  3
ObjectDBX Classes
 90
        0
280
     0
281
     0
  0
CLASS
  1
VISUALSTYLE
  2
AcDbVisualStyle
  3
ObjectDBX Classes
 90
     4095
280
     0
281
     0
  0
CLASS
  1
MATERIAL
  2
AcDbMaterial
  3
ObjectDBX Classes
 90
     1153
280
     0
281
     0
  0
CLASS
  1
ACDBPLACEHOLDER
  2
AcDbPlaceHolder
  3
ObjectDBX Classes
 90
        0
280
     0
281
     0
  0
CLASS
  1
LAYOUT
  2
AcDbLayout
  3
ObjectDBX Classes
 90
        0
280
     0
281
     0
  0
ENDSEC
  0
SECTION
  2
TABLES
  0
TABLE
  2
VPORT
  5
8
330
0
100
AcDbSymbolTable
 70
     1
  0
VPORT
  5
29
330
8
100
AcDbSymbolTableRecord
100
AcDbViewportTableRecord
  2
*Active
 70
     0
 10
0.0
 20
0.0
 11
1.0
 21
1.0
 12
17.0
 22
11.0
 13
0.0
 23
0.0
 14
0.5
 24
0.5
 15
0.5
 25
0.5
 16
0.0
 26
0.0
 36
1.0
 17
0.0
 27
0.0
 37
0.0
 40
22.0
 41
1.5454545455
 42
50.0
 43
0.0
 44
0.0
 50
0.0
 51
0.0
 71
     0
 72
  2000
 73
     1
 74
     3
 75
     0
 76
     0
 77
     0
 78
     0
281
     0
 65
     1
110
0.0
120
0.0
130
0.0
111
1.0
121
0.0
131
0.0
112
0.0
122
1.0
132
0.0
 79
     0
146
0.0
  0
ENDTAB
  0
TABLE
  2
LTYPE
  5
5
330
0
100
AcDbSymbolTable
 70
     6
  0
LTYPE
  5
14
330
5
100
AcDbSymbolTableRecord
100
AcDbLinetypeTableRecord
  2
ByBlock
 70
     0
  3

 72
    65
 73
     0
 40
0.0
  0
LTYPE
  5
15
330
5
100
AcDbSymbolTableRecord
100
AcDbLinetypeTableRecord
  2
ByLayer
 70
     0
  3

 72
    65
 73
     0
 40
0.0
  0
LTYPE
  5
16
330
5
100
AcDbSymbolTableRecord
100
AcDbLinetypeTableRecord
  2
Continuous
 70
     0
  3
Solid line
 72
    65
 73
     0
 40
0.0
  0
LTYPE
  5
3F
330
5
100
AcDbSymbolTableRecord
100
AcDbLinetypeTableRecord
  2
HIDDEN
 70
     0
  3
Hidden __ __ __ __ __ __ __ __ __ __ __ __ __ __
 72
    65
 73
     2
 40
0.075
 49
0.05
 74
     0
 49
-0.025
 74
     0
  0
LTYPE
  5
40
330
5
100
AcDbSymbolTableRecord
100
AcDbLinetypeTableRecord
  2
PHANTOM
 70
     0
  3
Phantom ______  __  __  ______  __  __  ______
 72
    65
 73
     6
 40
0.5
 49
0.25
 74
     0
 49
-0.05
 74
     0
 49
0.05
 74
     0
 49
-0.05
 74
     0
 49
0.05
 74
     0
 49
-0.05
 74
     0
  0
LTYPE
  5
41
330
5
100
AcDbSymbolTableRecord
100
AcDbLinetypeTableRecord
  2
CENTER
 70
     0
  3
Center ____ _ ____ _ ____ _ ____ _ ____ _ ____
 72
    65
 73
     4
 40
0.4
 49
0.25
 74
     0
 49
-0.05
 74
     0
 49
0.05
 74
     0
 49
-0.05
 74
     0
  0
LTYPE
  5
42
330
5
100
AcDbSymbolTableRecord
100
AcDbLinetypeTableRecord
  2
CENTERX2
 70
     0
  3
Center (2x) ________  __  ________  __  _____
 72
    65
 73
     4
 40
0.8
 49
0.5
 74
     0
 49
-0.1
 74
     0
 49
0.1
 74
     0
 49
-0.1
 74
     0
  0
LTYPE
  5
43
330
5
100
AcDbSymbolTableRecord
100
AcDbLinetypeTableRecord
  2
DOT2
 70
     0
  3
Dot (.5x) ........................................
 72
    65
 73
     2
 40
0.025
 49
0.0
 74
     0
 49
-0.025
 74
     0
  0
ENDTAB
  0
TABLE
  2
LAYER
  5
2
330
0
100
AcDbSymbolTable
 70
     8
  0
LAYER
  5
10
330
2
100
AcDbSymbolTableRecord
100
AcDbLayerTableRecord
  2
0
 70
     0
 62
     7
  6
Continuous
370
    -3
390
F
  0
LAYER
  5
44
330
2
100
AcDbSymbolTableRecord
100
AcDbLayerTableRecord
  2
SLD-0
 70
     0
 62
   179
  6
Continuous
370
    -3
390
F
  0
LAYER
  5
45
330
2
100
AcDbSymbolTableRecord
100
AcDbLayerTableRecord
  2
OBJECTS
 70
     0
 62
     5
  6
Continuous
370
    -3
390
F
  0
LAYER
  5
46
330
2
100
AcDbSymbolTableRecord
100
AcDbLayerTableRecord
  2
DIMS
 70
     0
 62
     1
  6
Continuous
370
    -3
390
F
  0
LAYER
  5
47
330
2
100
AcDbSymbolTableRecord
100
AcDbLayerTableRecord
  2
NOTES
 70
     0
 62
     7
  6
Continuous
370
    -3
390
F
  0
LAYER
  5
48
330
2
100
AcDbSymbolTableRecord
100
AcDbLayerTableRecord
  2
IMAGES
 70
     0
 62
     7
  6
Continuous
370
    -3
390
F
  0
LAYER
  5
49
330
2
100
AcDbSymbolTableRecord
100
AcDbLayerTableRecord
  2
CENTERLINES
 70
     0
 62
     7
  6
HIDDEN
370
    -3
390
F
  0
LAYER
  5
4A
330
2
100
AcDbSymbolTableRecord
100
AcDbLayerTableRecord
  2
BLOCKS
 70
     0
 62
    16
  6
Continuous
370
    -3
390
F
  0
ENDTAB
  0
TABLE
  2
STYLE
  5
3
330
0
100
AcDbSymbolTable
 70
     3
  0
STYLE
  5
11
330
3
100
AcDbSymbolTableRecord
100
AcDbTextStyleTableRecord
  2
STANDARD
 70
     0
 40
0.0
 41
1.0
 50
0.0
 71
     0
 42
0.2777777778
  3
ARIAL.TTF
  4

1001
ACAD
1000
ARIAL
1071
       34
  0
STYLE
  5
5D
330
3
100
AcDbSymbolTableRecord
100
AcDbTextStyleTableRecord
  2
SLDTEXTSTYLE0
 70
     0
 40
0.0
 41
0.948
 50
0.0
 71
     0
 42
0.2
  3
ARIAL.TTF
  4

1001
ACAD
1000
Arial
1071
      290
  0
STYLE
  5
E3
330
3
100
AcDbSymbolTableRecord
100
AcDbTextStyleTableRecord
  2
SLDTEXTSTYLE1
 70
     0
 40
0.0
 41
0.948
 50
0.0
 71
     0
 42
0.2
  3
ARIALBD.TTF
  4

1001
ACAD
1000
Arial
1071
 33554722
  0
ENDTAB
  0
TABLE
  2
VIEW
  5
6
330
0
100
AcDbSymbolTable
 70
     0
  0
ENDTAB
  0
TABLE
  2
UCS
  5
7
330
0
100
AcDbSymbolTable
 70
     0
  0
ENDTAB
  0
TABLE
  2
APPID
  5
9
330
0
100
AcDbSymbolTable
 70
     1
  0
APPID
  5
12
330
9
100
AcDbSymbolTableRecord
100
AcDbRegAppTableRecord
  2
ACAD
 70
     0
  0
ENDTAB
  0
TABLE
  2
DIMSTYLE
  5
A
330
0
100
AcDbSymbolTable
 70
     5
100
AcDbDimStyleTable
  0
DIMSTYLE
105
27
330
A
100
AcDbSymbolTableRecord
100
AcDbDimStyleTableRecord
  2
Standard
 70
     0
178
     0
340
11
  0
DIMSTYLE
105
5E
102
{ACAD_REACTORS
330
5C
102
}
330
A
100
AcDbSymbolTableRecord
100
AcDbDimStyleTableRecord
  2
SLDDIMSTYLE0
 70
     0
 41
0.3640136719
 44
0.0
 45
0.000000001
 78
    12
 79
     3
140
0.3640136719
141
0.0
147
0.091003418
148
0.000000001
170
     1
171
     0
173
     1
178
     0
271
     3
272
     3
274
     0
276
     2
277
     5
279
     1
284
    12
340
5D
  0
DIMSTYLE
105
71
102
{ACAD_REACTORS
330
70
330
99
330
AD
102
}
330
A
100
AcDbSymbolTableRecord
100
AcDbDimStyleTableRecord
  2
SLDDIMSTYLE1
 70
     0
 41
0.3640136719
 44
0.0
 45
0.000000001
 78
    12
 79
     3
140
0.3640136719
147
0.091003418
148
0.000000001
170
     1
171
     0
173
     1
178
     0
271
     3
272
     3
274
     0
276
     2
277
     5
284
    12
340
5D
  0
DIMSTYLE
105
86
102
{ACAD_REACTORS
330
85
102
}
330
A
100
AcDbSymbolTableRecord
100
AcDbDimStyleTableRecord
  2
SLDDIMSTYLE2
 70
     0
 41
0.3640136719
 44
0.0
 45
0.000000001
 78
    12
 79
     3
140
0.3640136719
141
0.0
147
0.091003418
148
0.000000001
170
     1
171
     0
173
     1
178
     0
271
     3
272
     3
274
     0
276
     2
277
     5
284
    12
340
5D
  0
DIMSTYLE
105
C9
330
A
100
AcDbSymbolTableRecord
100
AcDbDimStyleTableRecord
  2
SLDDIMSTYLE3
 70
     0
 41
0.3640136719
 44
0.0
 45
0.000000001
140
0.0
146
0.3640136719
147
0.0
173
     1
178
     0
271
     0
272
     0
276
     2
277
     5
340
11
  0
ENDTAB
  0
TABLE
  2
BLOCK_RECORD
  5
1
330
0
100
AcDbSymbolTable
 70
    10
  0
BLOCK_RECORD
  5
1F
330
1
100
AcDbSymbolTableRecord
100
AcDbBlockTableRecord
  2
*Model_Space
340
22
  0
BLOCK_RECORD
  5
1B
330
1
100
AcDbSymbolTableRecord
100
AcDbBlockTableRecord
  2
*Paper_Space
340
1E
  0
BLOCK_RECORD
  5
23
330
1
100
AcDbSymbolTableRecord
100
AcDbBlockTableRecord
  2
*Paper_Space0
340
26
  0
BLOCK_RECORD
  5
5F
330
1
100
AcDbSymbolTableRecord
100
AcDbBlockTableRecord
  2
_D
340
0
  0
BLOCK_RECORD
  5
72
330
1
100
AcDbSymbolTableRecord
100
AcDbBlockTableRecord
  2
_D_1
340
0
  0
BLOCK_RECORD
  5
87
330
1
100
AcDbSymbolTableRecord
100
AcDbBlockTableRecord
  2
_D_2
340
0
  0
BLOCK_RECORD
  5
9A
330
1
100
AcDbSymbolTableRecord
100
AcDbBlockTableRecord
  2
_D_3
340
0
  0
BLOCK_RECORD
  5
AE
330
1
100
AcDbSymbolTableRecord
100
AcDbBlockTableRecord
  2
_D_4
340
0
  0
BLOCK_RECORD
  5
C1
330
1
100
AcDbSymbolTableRecord
100
AcDbBlockTableRecord
  2
SW_NOTE_0
340
0
102
{BLKREFS
331
C8
102
}
  0
BLOCK_RECORD
  5
CC
330
1
100
AcDbSymbolTableRecord
100
AcDbBlockTableRecord
  2
SW_NOTE_1
340
0
102
{BLKREFS
331
D3
102
}
  0
BLOCK_RECORD
  5
D5
330
1
100
AcDbSymbolTableRecord
100
AcDbBlockTableRecord
  2
SW_NOTE_2
340
0
102
{BLKREFS
331
DA
102
}
  0
BLOCK_RECORD
  5
DB
330
1
100
AcDbSymbolTableRecord
100
AcDbBlockTableRecord
  2
SW_NOTE_3
340
0
102
{BLKREFS
331
EC
102
}
  0
ENDTAB
  0
ENDSEC
  0
SECTION
  2
BLOCKS
  0
BLOCK
  5
20
330
1F
100
AcDbEntity
  8
0
100
AcDbBlockBegin
  2
*Model_Space
 70
     0
 10
0.0
 20
0.0
 30
0.0
  3
*Model_Space
  1

  0
ENDBLK
  5
21
330
1F
100
AcDbEntity
  8
0
100
AcDbBlockEnd
  0
BLOCK
  5
1C
330
1B
100
AcDbEntity
 67
     1
  8
0
100
AcDbBlockBegin
  2
*Paper_Space
 70
     0
 10
0.0
 20
0.0
 30
0.0
  3
*Paper_Space
  1

  0
ENDBLK
  5
1D
330
1B
100
AcDbEntity
 67
     1
  8
0
100
AcDbBlockEnd
  0
BLOCK
  5
24
330
23
100
AcDbEntity
  8
0
100
AcDbBlockBegin
  2
*Paper_Space0
 70
     0
 10
0.0
 20
0.0
 30
0.0
  3
*Paper_Space0
  1

  0
ENDBLK
  5
25
330
23
100
AcDbEntity
  8
0
100
AcDbBlockEnd
  0
BLOCK
  5
60
330
5F
100
AcDbEntity
  8
0
100
AcDbBlockBegin
  2
_D
 70
     0
 10
0.0
 20
0.0
 30
0.0
  3
_D
  1

  0
SOLID
  5
62
330
5F
100
AcDbEntity
  8
DIMS
100
AcDbTrace
 10
1.9235490319
 20
2.9390869477
 30
0.0
 11
2.254205054
 21
3.1012867749
 31
0.0
 12
2.1901608968
 22
3.1931741422
 32
0.0
 13
2.1901608968
 23
3.1931741422
 33
0.0
  0
LINE
  5
63
330
5F
100
AcDbEntity
  8
DIMS
100
AcDbLine
 10
4.5689688075
 20
4.436021357
 30
0.0
 11
4.9529965912
 21
4.436021357
 31
0.0
  0
LINE
  5
64
330
5F
100
AcDbEntity
  8
DIMS
100
AcDbLine
 10
4.3151493843
 20
3.8101880509
 30
0.0
 11
4.2318160519
 21
3.8101880509
 31
0.0
  0
LINE
  5
65
330
5F
100
AcDbEntity
  8
DIMS
100
AcDbLine
 10
4.2318160519
 20
3.8101880509
 30
0.0
 11
4.2318160519
 21
3.2511602821
 31
0.0
  0
LINE
  5
66
330
5F
100
AcDbEntity
  8
DIMS
100
AcDbLine
 10
4.2318160519
 20
3.2511602821
 30
0.0
 11
4.3151493843
 21
3.2511602821
 31
0.0
  0
LINE
  5
67
330
5F
100
AcDbEntity
  8
DIMS
100
AcDbLine
 10
5.0790382639
 20
3.8101880509
 30
0.0
 11
5.1623715962
 21
3.8101880509
 31
0.0
  0
LINE
  5
68
330
5F
100
AcDbEntity
  8
DIMS
100
AcDbLine
 10
5.1623715962
 20
3.8101880509
 30
0.0
 11
5.1623715962
 21
3.2511602821
 31
0.0
  0
LINE
  5
69
330
5F
100
AcDbEntity
  8
DIMS
100
AcDbLine
 10
5.1623715962
 20
3.2511602821
 30
0.0
 11
5.0790382639
 21
3.2511602821
 31
0.0
  0
LINE
  5
6A
330
5F
100
AcDbEntity
  8
DIMS
100
AcDbLine
 10
1.9235490319
 20
2.9390869477
 30
0.0
 11
3.6269549034
 21
4.1263360404
 31
0.0
  0
MTEXT
  5
6B
330
5F
100
AcDbEntity
  8
DIMS
100
AcDbMText
 10
3.8769549034
 20
4.6320692923
 30
0.0039370079
 40
0.375
 41
0.0
 71
     1
 72
     1
  1
R1
  7
SLDTEXTSTYLE0
 73
     1
 44
1.0
  0
MTEXT
  5
6C
330
5F
100
AcDbEntity
  8
DIMS
100
AcDbMText
 10
4.6220938122
 20
4.8875467677
 30
0.0039370079
 40
0.375
 41
0.0
 71
     1
 72
     1
  1
1
  7
SLDTEXTSTYLE0
 73
     1
 44
1.0
  0
MTEXT
  5
6D
330
5F
100
AcDbEntity
  8
DIMS
100
AcDbMText
 10
4.6220938122
 20
4.376921773
 30
0.0039370079
 40
0.375
 41
0.0
 71
     1
 72
     1
  1
8
  7
SLDTEXTSTYLE0
 73
     1
 44
1.0
  0
MTEXT
  5
6E
330
5F
100
AcDbEntity
  8
DIMS
100
AcDbMText
 10
5.0061216325
 20
4.6320692923
 30
0.0039370079
 40
0.375
 41
0.0
 71
     1
 72
     1
  1
"
  7
SLDTEXTSTYLE0
 73
     1
 44
1.0
  0
MTEXT
  5
6F
330
5F
100
AcDbEntity
  8
DIMS
100
AcDbMText
 10
4.4193160497
 20
3.7345606937
 30
0.0039370079
 40
0.375
 41
0.0
 71
     1
 72
     1
  1
28
  7
SLDTEXTSTYLE0
 73
     1
 44
1.0
  0
ENDBLK
  5
61
330
5F
100
AcDbEntity
  8
0
100
AcDbBlockEnd
  0
BLOCK
  5
73
330
72
100
AcDbEntity
  8
0
100
AcDbBlockBegin
  2
_D_1
 70
     0
 10
0.0
 20
0.0
 30
0.0
  3
_D_1
  1

  0
SOLID
  5
75
330
72
100
AcDbEntity
  8
DIMS
100
AcDbTrace
 10
6.0274502466
 20
20.8303024113
 30
0.0
 11
5.9714481433
 21
20.4662887395
 31
0.0
 12
6.08345235
 22
20.4662887395
 32
0.0
 13
6.08345235
 23
20.4662887395
 33
0.0
  0
SOLID
  5
76
330
72
100
AcDbEntity
  8
DIMS
100
AcDbTrace
 10
6.0274502466
 20
2.4698150251
 30
0.0
 11
6.08345235
 21
2.833828697
 31
0.0
 12
5.9714481433
 22
2.833828697
 32
0.0
 13
5.9714481433
 23
2.833828697
 33
0.0
  0
LINE
  5
77
330
72
100
AcDbEntity
  8
DIMS
100
AcDbLine
 10
5.8576586464
 20
15.3497661341
 30
0.0
 11
6.2416864301
 21
15.3497661341
 31
0.0
  0
LINE
  5
78
330
72
100
AcDbEntity
  8
DIMS
100
AcDbLine
 10
5.5066169196
 20
14.723932828
 30
0.0
 11
5.4232835873
 21
14.723932828
 31
0.0
  0
LINE
  5
79
330
72
100
AcDbEntity
  8
DIMS
100
AcDbLine
 10
5.4232835873
 20
14.723932828
 30
0.0
 11
5.4232835873
 21
14.1649050592
 31
0.0
  0
LINE
  5
7A
330
72
100
AcDbEntity
  8
DIMS
100
AcDbLine
 10
5.4232835873
 20
14.1649050592
 30
0.0
 11
5.5066169196
 21
14.1649050592
 31
0.0
  0
LINE
  5
7B
330
72
100
AcDbEntity
  8
DIMS
100
AcDbLine
 10
6.5482836103
 20
14.723932828
 30
0.0
 11
6.6316169427
 21
14.723932828
 31
0.0
  0
LINE
  5
7C
330
72
100
AcDbEntity
  8
DIMS
100
AcDbLine
 10
6.6316169427
 20
14.723932828
 30
0.0
 11
6.6316169427
 21
14.1649050592
 31
0.0
  0
LINE
  5
7D
330
72
100
AcDbEntity
  8
DIMS
100
AcDbLine
 10
6.6316169427
 20
14.1649050592
 30
0.0
 11
6.5482836103
 21
14.1649050592
 31
0.0
  0
LINE
  5
7E
330
72
100
AcDbEntity
  8
DIMS
100
AcDbLine
 10
6.0274502466
 20
20.8303024113
 30
0.0
 11
6.0274502466
 21
15.8178911271
 31
0.0
  0
LINE
  5
7F
330
72
100
AcDbEntity
  8
DIMS
100
AcDbLine
 10
6.0274502466
 20
2.4698150251
 30
0.0
 11
6.0274502466
 21
14.0815717452
 31
0.0
  0
MTEXT
  5
80
330
72
100
AcDbEntity
  8
DIMS
100
AcDbMText
 10
5.248978093
 20
15.5458140694
 30
0.0039370079
 40
0.375
 41
0.0
 71
     1
 72
     1
  1
18
  7
SLDTEXTSTYLE0
 73
     1
 44
1.0
  0
MTEXT
  5
81
330
72
100
AcDbEntity
  8
DIMS
100
AcDbMText
 10
5.9107836511
 20
15.8012915448
 30
0.0039370079
 40
0.375
 41
0.0
 71
     1
 72
     1
  1
3
  7
SLDTEXTSTYLE0
 73
     1
 44
1.0
  0
MTEXT
  5
82
330
72
100
AcDbEntity
  8
DIMS
100
AcDbMText
 10
5.9107836511
 20
15.2906665501
 30
0.0039370079
 40
0.375
 41
0.0
 71
     1
 72
     1
  1
8
  7
SLDTEXTSTYLE0
 73
     1
 44
1.0
  0
MTEXT
  5
83
330
72
100
AcDbEntity
  8
DIMS
100
AcDbMText
 10
6.2948113981
 20
15.5458140694
 30
0.0039370079
 40
0.375
 41
0.0
 71
     1
 72
     1
  1
"
  7
SLDTEXTSTYLE0
 73
     1
 44
1.0
  0
MTEXT
  5
84
330
72
100
AcDbEntity
  8
DIMS
100
AcDbMText
 10
5.610783585
 20
14.6483054708
 30
0.0039370079
 40
0.375
 41
0.0
 71
     1
 72
     1
  1
466
  7
SLDTEXTSTYLE0
 73
     1
 44
1.0
  0
ENDBLK
  5
74
330
72
100
AcDbEntity
  8
0
100
AcDbBlockEnd
  0
BLOCK
  5
88
330
87
100
AcDbEntity
  8
0
100
AcDbBlockBegin
  2
_D_2
 70
     0
 10
0.0
 20
0.0
 30
0.0
  3
_D_2
  1

  0
SOLID
  5
8A
330
87
100
AcDbEntity
  8
DIMS
100
AcDbTrace
 10
16.6117553885
 20
18.9986867558
 30
0.0
 11
16.3301103693
 21
18.7613720449
 31
0.0
 12
16.4144660058
 22
18.6876898292
 32
0.0
 13
16.4144660058
 23
18.6876898292
 33
0.0
  0
LINE
  5
8B
330
87
100
AcDbEntity
  8
DIMS
100
AcDbLine
 10
14.4331653919
 20
18.5040544481
 30
0.0
 11
15.09497095
 21
18.5040544481
 31
0.0
  0
LINE
  5
8C
330
87
100
AcDbEntity
  8
DIMS
100
AcDbLine
 10
14.4571237431
 20
17.8782211419
 30
0.0
 11
14.3737904108
 21
17.8782211419
 31
0.0
  0
LINE
  5
8D
330
87
100
AcDbEntity
  8
DIMS
100
AcDbLine
 10
14.3737904108
 20
17.8782211419
 30
0.0
 11
14.3737904108
 21
17.3191933732
 31
0.0
  0
LINE
  5
8E
330
87
100
AcDbEntity
  8
DIMS
100
AcDbLine
 10
14.3737904108
 20
17.3191933732
 30
0.0
 11
14.4571237431
 21
17.3191933732
 31
0.0
  0
LINE
  5
8F
330
87
100
AcDbEntity
  8
DIMS
100
AcDbLine
 10
15.2210126228
 20
17.8782211419
 30
0.0
 11
15.3043459551
 21
17.8782211419
 31
0.0
  0
LINE
  5
90
330
87
100
AcDbEntity
  8
DIMS
100
AcDbLine
 10
15.3043459551
 20
17.8782211419
 30
0.0
 11
15.3043459551
 21
17.3191933732
 31
0.0
  0
LINE
  5
91
330
87
100
AcDbEntity
  8
DIMS
100
AcDbLine
 10
15.3043459551
 20
17.3191933732
 30
0.0
 11
15.2210126228
 21
17.3191933732
 31
0.0
  0
LINE
  5
92
330
87
100
AcDbEntity
  8
DIMS
100
AcDbLine
 10
16.6117553885
 20
18.9986867558
 30
0.0
 11
15.9092071403
 21
18.1943691314
 31
0.0
  0
LINE
  5
93
330
87
100
AcDbEntity
  8
DIMS
100
AcDbLine
 10
15.9092071403
 20
18.1943691314
 30
0.0
 11
15.6592071403
 21
18.1943691314
 31
0.0
  0
MTEXT
  5
94
330
87
100
AcDbEntity
  8
DIMS
100
AcDbMText
 10
14.0189292622
 20
18.7001023834
 30
0.0039370079
 40
0.375
 41
0.0
 71
     1
 72
     1
  1
R
  7
SLDTEXTSTYLE0
 73
     1
 44
1.0
  0
MTEXT
  5
95
330
87
100
AcDbEntity
  8
DIMS
100
AcDbMText
 10
14.4862903966
 20
18.9555798587
 30
0.0039370079
 40
0.375
 41
0.0
 71
     1
 72
     1
  1
11
  7
SLDTEXTSTYLE0
 73
     1
 44
1.0
  0
MTEXT
  5
96
330
87
100
AcDbEntity
  8
DIMS
100
AcDbMText
 10
14.4862903966
 20
18.4449548641
 30
0.0039370079
 40
0.375
 41
0.0
 71
     1
 72
     1
  1
16
  7
SLDTEXTSTYLE0
 73
     1
 44
1.0
  0
MTEXT
  5
97
330
87
100
AcDbEntity
  8
DIMS
100
AcDbMText
 10
15.1480959913
 20
18.7001023834
 30
0.0039370079
 40
0.375
 41
0.0
 71
     1
 72
     1
  1
"
  7
SLDTEXTSTYLE0
 73
     1
 44
1.0
  0
MTEXT
  5
98
330
87
100
AcDbEntity
  8
DIMS
100
AcDbMText
 10
14.5612904085
 20
17.8025937848
 30
0.0039370079
 40
0.375
 41
0.0
 71
     1
 72
     1
  1
17
  7
SLDTEXTSTYLE0
 73
     1
 44
1.0
  0
ENDBLK
  5
89
330
87
100
AcDbEntity
  8
0
100
AcDbBlockEnd
  0
BLOCK
  5
9B
330
9A
100
AcDbEntity
  8
0
100
AcDbBlockBegin
  2
_D_3
 70
     0
 10
0.0
 20
0.0
 30
0.0
  3
_D_3
  1

  0
SOLID
  5
9D
330
9A
100
AcDbEntity
  8
DIMS
100
AcDbTrace
 10
1.7267129561
 20
5.5623746429
 30
0.0
 11
2.090726628
 21
5.5063725395
 31
0.0
 12
2.090726628
 22
5.6183767462
 32
0.0
 13
2.090726628
 23
5.6183767462
 33
0.0
  0
SOLID
  5
9E
330
9A
100
AcDbEntity
  8
DIMS
100
AcDbTrace
 10
32.2470472527
 20
5.5623746429
 30
0.0
 11
31.8830335808
 21
5.6183767462
 31
0.0
 12
31.8830335808
 22
5.5063725395
 32
0.0
 13
31.8830335808
 23
5.5063725395
 33
0.0
  0
LINE
  5
9F
330
9A
100
AcDbEntity
  8
DIMS
100
AcDbLine
 10
8.683081285
 20
5.9624093408
 30
0.0
 11
9.0671090686
 21
5.9624093408
 31
0.0
  0
LINE
  5
A0
330
9A
100
AcDbEntity
  8
DIMS
100
AcDbLine
 10
8.3320395581
 20
5.3365760346
 30
0.0
 11
8.2487062258
 21
5.3365760346
 31
0.0
  0
LINE
  5
A1
330
9A
100
AcDbEntity
  8
DIMS
100
AcDbLine
 10
8.2487062258
 20
5.3365760346
 30
0.0
 11
8.2487062258
 21
4.7775482659
 31
0.0
  0
LINE
  5
A2
330
9A
100
AcDbEntity
  8
DIMS
100
AcDbLine
 10
8.2487062258
 20
4.7775482659
 30
0.0
 11
8.3320395581
 21
4.7775482659
 31
0.0
  0
LINE
  5
A3
330
9A
100
AcDbEntity
  8
DIMS
100
AcDbLine
 10
9.3737062489
 20
5.3365760346
 30
0.0
 11
9.4570395812
 21
5.3365760346
 31
0.0
  0
LINE
  5
A4
330
9A
100
AcDbEntity
  8
DIMS
100
AcDbLine
 10
9.4570395812
 20
5.3365760346
 30
0.0
 11
9.4570395812
 21
4.7775482659
 31
0.0
  0
LINE
  5
A5
330
9A
100
AcDbEntity
  8
DIMS
100
AcDbLine
 10
9.4570395812
 20
4.7775482659
 30
0.0
 11
9.3737062489
 21
4.7775482659
 31
0.0
  0
LINE
  5
A6
330
9A
100
AcDbEntity
  8
DIMS
100
AcDbLine
 10
1.7267129561
 20
5.5623746429
 30
0.0
 11
7.9910188038
 21
5.5623746429
 31
0.0
  0
LINE
  5
A7
330
9A
100
AcDbEntity
  8
DIMS
100
AcDbLine
 10
32.2470472527
 20
5.5623746429
 30
0.0
 11
9.7147269666
 21
5.5623746429
 31
0.0
  0
MTEXT
  5
A8
330
9A
100
AcDbEntity
  8
DIMS
100
AcDbMText
 10
8.0744007315
 20
6.1584572761
 30
0.0039370079
 40
0.375
 41
0.0
 71
     1
 72
     1
  1
30
  7
SLDTEXTSTYLE0
 73
     1
 44
1.0
  0
MTEXT
  5
A9
330
9A
100
AcDbEntity
  8
DIMS
100
AcDbMText
 10
8.7362062896
 20
6.4139347514
 30
0.0039370079
 40
0.375
 41
0.0
 71
     1
 72
     1
  1
1
  7
SLDTEXTSTYLE0
 73
     1
 44
1.0
  0
MTEXT
  5
AA
330
9A
100
AcDbEntity
  8
DIMS
100
AcDbMText
 10
8.7362062896
 20
5.9033097568
 30
0.0039370079
 40
0.375
 41
0.0
 71
     1
 72
     1
  1
2
  7
SLDTEXTSTYLE0
 73
     1
 44
1.0
  0
MTEXT
  5
AB
330
9A
100
AcDbEntity
  8
DIMS
100
AcDbMText
 10
9.1202340366
 20
6.1584572761
 30
0.0039370079
 40
0.375
 41
0.0
 71
     1
 72
     1
  1
"
  7
SLDTEXTSTYLE0
 73
     1
 44
1.0
  0
MTEXT
  5
AC
330
9A
100
AcDbEntity
  8
DIMS
100
AcDbMText
 10
8.4362062235
 20
5.2609486775
 30
0.0039370079
 40
0.375
 41
0.0
 71
     1
 72
     1
  1
775
  7
SLDTEXTSTYLE0
 73
     1
 44
1.0
  0
ENDBLK
  5
9C
330
9A
100
AcDbEntity
  8
0
100
AcDbBlockEnd
  0
BLOCK
  5
AF
330
AE
100
AcDbEntity
  8
0
100
AcDbBlockBegin
  2
_D_4
 70
     0
 10
0.0
 20
0.0
 30
0.0
  3
_D_4
  1

  0
SOLID
  5
B1
330
AE
100
AcDbEntity
  8
DIMS
100
AcDbTrace
 10
29.4221385606
 20
18.8305758686
 30
0.0
 11
29.3661364572
 21
18.4665621967
 31
0.0
 12
29.4781406639
 22
18.4665621967
 32
0.0
 13
29.4781406639
 23
18.4665621967
 33
0.0
  0
SOLID
  5
B2
330
AE
100
AcDbEntity
  8
DIMS
100
AcDbTrace
 10
29.4221385606
 20
2.4698150251
 30
0.0
 11
29.4781406639
 21
2.833828697
 31
0.0
 12
29.3661364572
 22
2.833828697
 32
0.0
 13
29.3661364572
 23
2.833828697
 33
0.0
  0
LINE
  5
B3
330
AE
100
AcDbEntity
  8
DIMS
100
AcDbLine
 10
29.2523469603
 20
15.9088735363
 30
0.0
 11
29.636374744
 21
15.9088735363
 31
0.0
  0
LINE
  5
B4
330
AE
100
AcDbEntity
  8
DIMS
100
AcDbLine
 10
28.9013052335
 20
15.2830402301
 30
0.0
 11
28.8179719012
 21
15.2830402301
 31
0.0
  0
LINE
  5
B5
330
AE
100
AcDbEntity
  8
DIMS
100
AcDbLine
 10
28.8179719012
 20
15.2830402301
 30
0.0
 11
28.8179719012
 21
14.7240124614
 31
0.0
  0
LINE
  5
B6
330
AE
100
AcDbEntity
  8
DIMS
100
AcDbLine
 10
28.8179719012
 20
14.7240124614
 30
0.0
 11
28.9013052335
 21
14.7240124614
 31
0.0
  0
LINE
  5
B7
330
AE
100
AcDbEntity
  8
DIMS
100
AcDbLine
 10
29.9429719243
 20
15.2830402301
 30
0.0
 11
30.0263052566
 21
15.2830402301
 31
0.0
  0
LINE
  5
B8
330
AE
100
AcDbEntity
  8
DIMS
100
AcDbLine
 10
30.0263052566
 20
15.2830402301
 30
0.0
 11
30.0263052566
 21
14.7240124614
 31
0.0
  0
LINE
  5
B9
330
AE
100
AcDbEntity
  8
DIMS
100
AcDbLine
 10
30.0263052566
 20
14.7240124614
 30
0.0
 11
29.9429719243
 21
14.7240124614
 31
0.0
  0
LINE
  5
BA
330
AE
100
AcDbEntity
  8
DIMS
100
AcDbLine
 10
29.4221385606
 20
18.8305758686
 30
0.0
 11
29.4221385606
 21
16.3769985293
 31
0.0
  0
LINE
  5
BB
330
AE
100
AcDbEntity
  8
DIMS
100
AcDbLine
 10
29.4221385606
 20
2.4698150251
 30
0.0
 11
29.4221385606
 21
14.6406791474
 31
0.0
  0
MTEXT
  5
BC
330
AE
100
AcDbEntity
  8
DIMS
100
AcDbMText
 10
28.6436664069
 20
16.1049214716
 30
0.0039370079
 40
0.375
 41
0.0
 71
     1
 72
     1
  1
16
  7
SLDTEXTSTYLE0
 73
     1
 44
1.0
  0
MTEXT
  5
BD
330
AE
100
AcDbEntity
  8
DIMS
100
AcDbMText
 10
29.305471965
 20
16.3603989469
 30
0.0039370079
 40
0.375
 41
0.0
 71
     1
 72
     1
  1
3
  7
SLDTEXTSTYLE0
 73
     1
 44
1.0
  0
MTEXT
  5
BE
330
AE
100
AcDbEntity
  8
DIMS
100
AcDbMText
 10
29.305471965
 20
15.8497739523
 30
0.0039370079
 40
0.375
 41
0.0
 71
     1
 72
     1
  1
8
  7
SLDTEXTSTYLE0
 73
     1
 44
1.0
  0
MTEXT
  5
BF
330
AE
100
AcDbEntity
  8
DIMS
100
AcDbMText
 10
29.689499712
 20
16.1049214716
 30
0.0039370079
 40
0.375
 41
0.0
 71
     1
 72
     1
  1
"
  7
SLDTEXTSTYLE0
 73
     1
 44
1.0
  0
MTEXT
  5
C0
330
AE
100
AcDbEntity
  8
DIMS
100
AcDbMText
 10
29.0054718989
 20
15.207412873
 30
0.0039370079
 40
0.375
 41
0.0
 71
     1
 72
     1
  1
416
  7
SLDTEXTSTYLE0
 73
     1
 44
1.0
  0
ENDBLK
  5
B0
330
AE
100
AcDbEntity
  8
0
100
AcDbBlockEnd
  0
BLOCK
  5
C2
330
C1
100
AcDbEntity
  8
0
100
AcDbBlockBegin
  2
SW_NOTE_0
 70
     0
 10
0.0
 20
0.0
 30
0.0
  3
SW_NOTE_0
  1

  0
MTEXT
  5
C4
330
C1
100
AcDbEntity
  8
NOTES
 62
     0
100
AcDbMText
 10
-0.8893586328
 20
0.687822112
 30
0.0
 40
0.2083333333
 41
0.0
 71
     2
 72
     1
  1
TEMPLATE
  7
SLDTEXTSTYLE0
 73
     1
 44
1.0
  0
MTEXT
  5
C5
330
C1
100
AcDbEntity
  8
NOTES
 62
     0
100
AcDbMText
 10
-0.8862239626
 20
0.4100443376
 30
0.0
 40
0.2083333333
 41
0.0
 71
     2
 72
     1
  1
CENTERLINE
  7
SLDTEXTSTYLE0
 73
     1
 44
1.0
  0
MTEXT
  5
C6
330
C1
100
AcDbEntity
  8
NOTES
 62
     0
100
AcDbMText
 10
-0.8861034245
 20
-0.1455112113
 30
0.0
 40
0.2083333333
 41
0.0
 71
     2
 72
     1
  1
PLANTILLA
  7
SLDTEXTSTYLE0
 73
     1
 44
1.0
  0
MTEXT
  5
C7
330
C1
100
AcDbEntity
  8
NOTES
 62
     0
100
AcDbMText
 10
-0.88911749
 20
-0.4232889857
 30
0.0
 40
0.2083333333
 41
0.0
 71
     2
 72
     1
  1
CENTRAL
  7
SLDTEXTSTYLE0
 73
     1
 44
1.0
  0
ENDBLK
  5
C3
330
C1
100
AcDbEntity
  8
0
100
AcDbBlockEnd
  0
BLOCK
  5
CD
330
CC
100
AcDbEntity
  8
0
100
AcDbBlockBegin
  2
SW_NOTE_1
 70
     0
 10
0.0
 20
0.0
 30
0.0
  3
SW_NOTE_1
  1

  0
MTEXT
  5
CF
330
CC
100
AcDbEntity
  8
NOTES
 62
     0
100
AcDbMText
 10
-1.2606212422
 20
0.6858213401
 30
0.0
 40
0.2083333333
 41
0.0
 71
     2
 72
     1
  1
CENTERLINE
  7
SLDTEXTSTYLE0
 73
     1
 44
1.0
  0
MTEXT
  5
D0
330
CC
100
AcDbEntity
  8
NOTES
 62
     0
100
AcDbMText
 10
-1.2601390432
 20
0.4080435657
 30
0.0
 40
0.2083333333
 41
0.0
 71
     2
 72
     1
  1
OF SINK BRIDGE
  7
SLDTEXTSTYLE0
 73
     1
 44
1.0
  0
MTEXT
  5
D1
330
CC
100
AcDbEntity
  8
NOTES
 62
     0
100
AcDbMText
 10
-1.2566426986
 20
-0.1475119831
 30
0.0
 40
0.2083333333
 41
0.0
 71
     2
 72
     1
  1
PUENTE CENTRAL
  7
SLDTEXTSTYLE0
 73
     1
 44
1.0
  0
MTEXT
  5
D2
330
CC
100
AcDbEntity
  8
NOTES
 62
     0
100
AcDbMText
 10
-1.2609829964
 20
-0.4252897576
 30
0.0
 40
0.2083333333
 41
0.0
 71
     2
 72
     1
  1
DE FREGADERO
  7
SLDTEXTSTYLE0
 73
     1
 44
1.0
  0
ENDBLK
  5
CE
330
CC
100
AcDbEntity
  8
0
100
AcDbBlockEnd
  0
BLOCK
  5
D6
330
D5
100
AcDbEntity
  8
0
100
AcDbBlockBegin
  2
SW_NOTE_2
 70
     0
 10
0.0
 20
0.0
 30
0.0
  3
SW_NOTE_2
  1

  0
MTEXT
  5
D8
330
D5
100
AcDbEntity
  8
NOTES
 62
     0
100
AcDbMText
 10
6.0042317708
 20
0.9399452269
 30
0.0
 40
0.7291666667
 41
0.0
 71
     2
 72
     1
  1
TEMPLATE #: 0000001439
  7
SLDTEXTSTYLE0
 73
     1
 44
1.0
  0
MTEXT
  5
D9
330
D5
100
AcDbEntity
  8
NOTES
 62
     0
100
AcDbMText
 10
6.0403766369
 20
-0.0221327521
 30
0.0
 40
0.5
 41
0.0
 71
     2
 72
     1
  1
REVEAL RIGHT UNDERMOUNT TEMPLATE 33" X 20-1/2" W/ 1" RADIUS
  7
SLDTEXTSTYLE0
 73
     1
 44
1.0
  0
ENDBLK
  5
D7
330
D5
100
AcDbEntity
  8
0
100
AcDbBlockEnd
  0
BLOCK
  5
DC
330
DB
100
AcDbEntity
  8
0
100
AcDbBlockBegin
  2
SW_NOTE_3
 70
     0
 10
0.0
 20
0.0
 30
0.0
  3
SW_NOTE_3
  1

  0
MTEXT
  5
DE
330
DB
100
AcDbEntity
  8
NOTES
 62
     0
100
AcDbMText
 10
0.0
 20
0.2148446233
 30
0.0
 40
0.1666666667
 41
0.0
 71
     1
 72
     1
  1
NOTES:
  7
SLDTEXTSTYLE0
 73
     1
 44
1.0
  0
MTEXT
  5
DF
330
DB
100
AcDbEntity
  8
NOTES
 62
     0
100
AcDbMText
 10
0.3937007786
 20
-0.2295998158
 30
0.0
 40
0.1666666667
 41
0.0
 71
     1
 72
     1
  1
THOROUGHLY READ ALL  INSTALLATION INSTRUCTIONS
  7
SLDTEXTSTYLE0
 73
     1
 44
1.0
  0
MTEXT
  5
E0
330
DB
100
AcDbEntity
  8
NOTES
 62
     0
100
AcDbMText
 10
0.0
 20
-0.2295998158
 30
0.0
 40
0.1666666667
 41
0.0
 71
     1
 72
     1
  1
1.
  7
SLDTEXTSTYLE0
 73
     1
 44
1.0
  0
MTEXT
  5
E1
330
DB
100
AcDbEntity
  8
NOTES
 62
     0
100
AcDbMText
 10
0.0
 20
-0.4518220353
 30
0.0
 40
0.1666666667
 41
0.0
 71
     1
 72
     1
  1
BEFORE CUTTING COUNTERTOP.
  7
SLDTEXTSTYLE0
 73
     1
 44
1.0
  0
MTEXT
  5
E2
330
DB
100
AcDbEntity
  8
NOTES
 62
     0
100
AcDbMText
 10
0.0
 20
-0.8962664744
 30
0.0
 40
0.1666666667
 41
0.0
 71
     1
 72
     1
  1
2.  DIMENSIONS ARE IN INCHES [MM].
  7
SLDTEXTSTYLE0
 73
     1
 44
1.0
  0
MTEXT
  5
E4
330
DB
100
AcDbEntity
  8
NOTES
 62
     0
100
AcDbMText
 10
0.0
 20
-1.562933133
 30
0.0
 40
0.1666666667
 41
0.0
 71
     1
 72
     1
  1
PLEASE CHECK TEMPLATE AGAINST PHYSICAL SINK FOR MOST 
  7
SLDTEXTSTYLE1
 73
     1
 44
1.0
  0
MTEXT
  5
E5
330
DB
100
AcDbEntity
  8
NOTES
 62
     0
100
AcDbMText
 10
0.0
 20
-1.7851553525
 30
0.0
 40
0.1666666667
 41
0.0
 71
     1
 72
     1
  1
ACCURATE CUT.
  7
SLDTEXTSTYLE1
 73
     1
 44
1.0
  0
MTEXT
  5
E6
330
DB
100
AcDbEntity
  8
NOTES
 62
     0
100
AcDbMText
 10
0.0
 20
-2.6740442307
 30
0.0
 40
0.1666666667
 41
0.0
 71
     1
 72
     1
  1
NOTAS:
  7
SLDTEXTSTYLE0
 73
     1
 44
1.0
  0
MTEXT
  5
E7
330
DB
100
AcDbEntity
  8
NOTES
 62
     0
100
AcDbMText
 10
0.0
 20
-3.1184886698
 30
0.0
 40
0.1666666667
 41
0.0
 71
     1
 72
     1
  1
1.  LEA ATENTAMENTE LAS INSTRUCCIONES DE INSTALACIÓN ANTES 
  7
SLDTEXTSTYLE0
 73
     1
 44
1.0
  0
MTEXT
  5
E8
330
DB
100
AcDbEntity
  8
NOTES
 62
     0
100
AcDbMText
 10
0.0
 20
-3.3407108893
 30
0.0
 40
0.1666666667
 41
0.0
 71
     1
 72
     1
  1
DE CORTAR LA ENCIMERA.
  7
SLDTEXTSTYLE0
 73
     1
 44
1.0
  0
MTEXT
  5
E9
330
DB
100
AcDbEntity
  8
NOTES
 62
     0
100
AcDbMText
 10
0.0
 20
-3.7851553284
 30
0.0
 40
0.1666666667
 41
0.0
 71
     1
 72
     1
  1
2.  DIMENSIONES EN PULGADAS [MM].
  7
SLDTEXTSTYLE0
 73
     1
 44
1.0
  0
MTEXT
  5
EA
330
DB
100
AcDbEntity
  8
NOTES
 62
     0
100
AcDbMText
 10
0.0
 20
-4.451821987
 30
0.0
 40
0.1666666667
 41
0.0
 71
     1
 72
     1
  1
POR FAVOR COMPRUEBE PLANTILLA CONTRA FREGADERO FÍSICO 
  7
SLDTEXTSTYLE1
 73
     1
 44
1.0
  0
MTEXT
  5
EB
330
DB
100
AcDbEntity
  8
NOTES
 62
     0
100
AcDbMText
 10
0.0
 20
-4.6740442065
 30
0.0
 40
0.1666666667
 41
0.0
 71
     1
 72
     1
  1
PARA CORTE MÁS EXACTO.
  7
SLDTEXTSTYLE1
 73
     1
 44
1.0
  0
ENDBLK
  5
DD
330
DB
100
AcDbEntity
  8
0
100
AcDbBlockEnd
  0
ENDSEC
  0
SECTION
  2
ENTITIES
  0
LINE
  5
4B
330
1F
100
AcDbEntity
  8
OBJECTS
  6
CENTERX2
100
AcDbLine
 10
1.7267129561
 20
11.6500587182
 30
0.0
 11
3.7499383139
 21
11.6500587182
 31
0.0
  0
LINE
  5
4C
330
1F
100
AcDbEntity
  8
OBJECTS
  6
CENTERX2
100
AcDbLine
 10
16.9868801044
 20
2.4698150251
 30
0.0
 11
16.9868801044
 21
4.4930403829
 31
0.0
  0
LINE
  5
4D
330
1F
100
AcDbEntity
  8
OBJECTS
100
AcDbLine
 10
16.9117129561
 20
2.4698150251
 30
0.0
 11
16.9117129561
 21
6.096626506
 31
0.0
  0
LINE
  5
4E
330
1F
100
AcDbEntity
  8
OBJECTS
  6
CENTERX2
100
AcDbLine
 10
17.0597634617
 20
18.8305758686
 30
0.0
 11
17.0565759581
 21
16.8073530216
 31
0.0
  0
LINE
  5
4F
330
1F
100
AcDbEntity
  8
OBJECTS
  6
CENTERX2
100
AcDbLine
 10
32.2470472527
 20
11.597385706
 30
0.0
 11
30.2238253509
 21
11.6011253553
 31
0.0
  0
LINE
  5
50
330
1F
100
AcDbEntity
  8
OBJECTS
100
AcDbLine
 10
31.1511261699
 20
18.8305758686
 30
0.0
 11
17.0597634617
 21
18.8305758686
 31
0.0
  0
LINE
  5
51
330
1F
100
AcDbEntity
  8
OBJECTS
100
AcDbLine
 10
16.3787471761
 20
19.5115921542
 30
0.0
 11
16.3787471761
 21
19.7343813286
 31
0.0
  0
LINE
  5
52
330
1F
100
AcDbEntity
  8
OBJECTS
100
AcDbLine
 10
15.2828260934
 20
20.8303024113
 30
0.0
 11
2.8226340388
 21
20.8303024113
 31
0.0
  0
LINE
  5
53
330
1F
100
AcDbEntity
  8
OBJECTS
100
AcDbLine
 10
1.7267129561
 20
19.7343813286
 30
0.0
 11
1.7267129561
 21
3.5657361078
 31
0.0
  0
LINE
  5
54
330
1F
100
AcDbEntity
  8
OBJECTS
100
AcDbLine
 10
2.8226340388
 20
2.4698150251
 30
0.0
 11
31.1511261699
 21
2.4698150251
 31
0.0
  0
LINE
  5
55
330
1F
100
AcDbEntity
  8
OBJECTS
100
AcDbLine
 10
32.2470472527
 20
3.5657361078
 30
0.0
 11
32.2470472527
 21
17.7346547859
 31
0.0
  0
ARC
  5
56
330
1F
100
AcDbEntity
  8
OBJECTS
100
AcDbCircle
 10
2.8226340388
 20
19.7343813286
 30
0.0
 40
1.095921082706683
100
AcDbArc
 50
90.0
 51
180.0
  0
ARC
  5
57
330
1F
100
AcDbEntity
  8
OBJECTS
100
AcDbCircle
 10
2.8226340388
 20
3.5657361078
 30
0.0
 40
1.095921082706683
100
AcDbArc
 50
180.0
 51
270.0
  0
ARC
  5
58
330
1F
100
AcDbEntity
  8
OBJECTS
100
AcDbCircle
 10
31.1511261699
 20
3.5657361078
 30
0.0
 40
1.095921082706685
100
AcDbArc
 50
270.0
 51
0.0
  0
ARC
  5
59
330
1F
100
AcDbEntity
  8
OBJECTS
100
AcDbCircle
 10
31.1511261699
 20
17.7346547859
 30
0.0
 40
1.095921082706685
100
AcDbArc
 50
0.0
 51
90.0
  0
ARC
  5
5A
330
1F
100
AcDbEntity
  8
OBJECTS
100
AcDbCircle
 10
17.0597634617
 20
19.5115921542
 30
0.0
 40
0.6810162856426025
100
AcDbArc
 50
180.0
 51
270.0
  0
ARC
  5
5B
330
1F
100
AcDbEntity
  8
OBJECTS
100
AcDbCircle
 10
15.2828260934
 20
19.7343813286
 30
0.0
 40
1.095921082706681
100
AcDbArc
 50
0.0
 51
90.0
  0
DIMENSION
  5
5C
330
1F
100
AcDbEntity
  8
DIMS
100
AcDbDimension
  2
_D
 10
2.8226340388
 20
3.5657361078
 30
0.0
 11
4.6970938424
 21
4.0359866591
 31
0.0
 70
   164
  1
<>
 71
     1
 42
-1.0
  3
SLDDIMSTYLE0
100
AcDbRadialDimension
 15
1.9235490319
 25
2.9390869477
 35
0.0
 40
0.0
  0
DIMENSION
  5
70
330
1F
100
AcDbEntity
  8
DIMS
100
AcDbDimension
  2
_D_1
 10
6.0274502466
 20
2.4698150251
 30
0.0
 11
6.0274502466
 21
14.9497314362
 31
0.0
 70
   160
  1
<>
 71
     2
 42
-1.0
  3
SLDDIMSTYLE1
100
AcDbAlignedDimension
 13
2.8226340388
 23
20.8303024113
 33
0.0
 14
2.8226340388
 24
2.4698150251
 34
0.0
 50
90.0
100
AcDbRotatedDimension
  0
DIMENSION
  5
85
330
1F
100
AcDbEntity
  8
DIMS
100
AcDbDimension
  2
_D_2
 10
17.0597634617
 20
19.5115921542
 30
0.0
 11
14.8390682013
 21
18.1040197502
 31
0.0
 70
   164
  1
<>
 71
     1
 42
-1.0
  3
SLDDIMSTYLE2
100
AcDbRadialDimension
 15
16.6117553885
 25
18.9986867558
 35
0.0
 40
0.0
  0
DIMENSION
  5
99
330
1F
100
AcDbEntity
  8
DIMS
100
AcDbDimension
  2
_D_3
 10
32.2470472527
 20
5.5623746429
 30
0.0
 11
8.8528728852
 21
5.5623746429
 31
0.0
 70
   160
  1
<>
 71
     2
 42
-1.0
  3
SLDDIMSTYLE1
100
AcDbAlignedDimension
 13
1.7267129561
 23
3.5657361078
 33
0.0
 14
32.2470472527
 24
3.5657361078
 34
0.0
 50
0.0
100
AcDbRotatedDimension
  0
DIMENSION
  5
AD
330
1F
100
AcDbEntity
  8
DIMS
100
AcDbDimension
  2
_D_4
 10
29.4221385606
 20
2.4698150251
 30
0.0
 11
29.4221385606
 21
15.5088388384
 31
0.0
 70
   160
  1
<>
 71
     2
 42
-1.0
  3
SLDDIMSTYLE1
100
AcDbAlignedDimension
 13
31.1511261699
 23
18.8305758686
 33
0.0
 14
31.1511261699
 24
2.4698150251
 34
0.0
 50
90.0
100
AcDbRotatedDimension
  0
INSERT
  5
C8
102
{ACAD_REACTORS
330
CA
330
CB
102
}
330
1F
100
AcDbEntity
  8
NOTES
100
AcDbBlockReference
  2
SW_NOTE_0
 10
27.6757639003
 20
7.2444394615
 30
0.0
  0
LEADER
  5
CA
330
1F
100
AcDbEntity
  8
NOTES
100
AcDbLeader
  3
SLDDIMSTYLE3
 73
     2
 76
     3
 10
31.2515397583
 20
11.5992257656
 30
0.0
 10
27.9257639003
 20
7.2444394615
 30
0.0
 10
27.6757639003
 20
7.2444394615
 30
0.0
340
C8
  0
LEADER
  5
CB
330
1F
100
AcDbEntity
  8
NOTES
100
AcDbLeader
  3
SLDDIMSTYLE3
 73
     2
 76
     3
 10
16.9868801044
 20
3.466746988
 30
0.0
 10
25.6270299523
 20
7.2444394615
 30
0.0
 10
25.8770299523
 20
7.2444394615
 30
0.0
340
C8
212
-1.79873394796077
222
0.0
232
0.0
  0
INSERT
  5
D3
102
{ACAD_REACTORS
330
D4
102
}
330
1F
100
AcDbEntity
  8
NOTES
100
AcDbBlockReference
  2
SW_NOTE_1
 10
14.9936826763
 20
3.5596933187
 30
0.0
  0
LEADER
  5
D4
330
1F
100
AcDbEntity
  8
NOTES
100
AcDbLeader
  3
SLDDIMSTYLE3
 73
     2
 76
     3
 10
16.9117129561
 20
5.1626506024
 30
0.0
 10
15.2436826763
 20
3.5596933187
 30
0.0
 10
14.9936826763
 20
3.5596933187
 30
0.0
340
D3
  0
INSERT
  5
DA
330
1F
100
AcDbEntity
  8
NOTES
100
AcDbBlockReference
  2
SW_NOTE_2
 10
11.6298031832
 20
13.3518366616
 30
0.0
  0
INSERT
  5
EC
330
1F
100
AcDbEntity
  8
NOTES
100
AcDbBlockReference
  2
SW_NOTE_3
 10
14.1909129562
 20
11.7730175269
 30
0.0
  0
ENDSEC
  0
SECTION
  2
OBJECTS
  0
DICTIONARY
  5
C
330
0
100
AcDbDictionary
281
     1
  3
ACAD_GROUP
350
D
  3
ACAD_LAYOUT
350
1A
  3
ACAD_MLINESTYLE
350
17
  3
ACAD_PLOTSETTINGS
350
19
  3
ACAD_PLOTSTYLENAME
350
E
  0
DICTIONARY
  5
D
102
{ACAD_REACTORS
330
C
102
}
330
C
100
AcDbDictionary
281
     1
  0
DICTIONARY
  5
1A
102
{ACAD_REACTORS
330
C
102
}
330
C
100
AcDbDictionary
281
     1
  3
Layout1
350
1E
  3
Layout2
350
26
  3
Model
350
22
  0
DICTIONARY
  5
17
102
{ACAD_REACTORS
330
C
102
}
330
C
100
AcDbDictionary
281
     1
  3
Standard
350
18
  0
DICTIONARY
  5
19
102
{ACAD_REACTORS
330
C
102
}
330
C
100
AcDbDictionary
281
     1
  0
ACDBDICTIONARYWDFLT
  5
E
102
{ACAD_REACTORS
330
C
102
}
330
C
100
AcDbDictionary
281
     1
  3
Normal
350
F
100
AcDbDictionaryWithDefault
340
F
  0
LAYOUT
  5
1E
102
{ACAD_REACTORS
330
1A
102
}
330
1A
100
AcDbPlotSettings
  1

  2
none_device
  4

  6

 40
0.0
 41
0.0
 42
0.0
 43
0.0
 44
0.0
 45
0.0
 46
0.0
 47
0.0
 48
0.0
 49
0.0
140
0.0
141
0.0
142
1.0
143
1.0
 70
   688
 72
     0
 73
     0
 74
     5
  7

 75
    16
147
1.0
148
0.0
149
0.0
100
AcDbLayout
  1
Layout1
 70
     1
 71
     1
 10
0.0
 20
0.0
 11
12.0
 21
9.0
 12
0.0
 22
0.0
 32
0.0
 14
1.0000000000E+20
 24
1.0000000000E+20
 34
1.0000000000E+20
 15
-1.0000000000E+20
 25
-1.0000000000E+20
 35
-1.0000000000E+20
146
0.0
 13
0.0
 23
0.0
 33
0.0
 16
1.0
 26
0.0
 36
0.0
 17
0.0
 27
1.0
 37
0.0
 76
     0
330
1B
  0
LAYOUT
  5
26
102
{ACAD_REACTORS
330
1A
102
}
330
1A
100
AcDbPlotSettings
  1

  2
none_device
  4

  6

 40
0.0
 41
0.0
 42
0.0
 43
0.0
 44
0.0
 45
0.0
 46
0.0
 47
0.0
 48
0.0
 49
0.0
140
0.0
141
0.0
142
1.0
143
1.0
 70
   688
 72
     0
 73
     0
 74
     5
  7

 75
    16
147
1.0
148
0.0
149
0.0
100
AcDbLayout
  1
Layout2
 70
     1
 71
     2
 10
0.0
 20
0.0
 11
0.0
 21
0.0
 12
0.0
 22
0.0
 32
0.0
 14
0.0
 24
0.0
 34
0.0
 15
0.0
 25
0.0
 35
0.0
146
0.0
 13
0.0
 23
0.0
 33
0.0
 16
1.0
 26
0.0
 36
0.0
 17
0.0
 27
1.0
 37
0.0
 76
     0
330
23
  0
LAYOUT
  5
22
102
{ACAD_REACTORS
330
1A
102
}
330
1A
100
AcDbPlotSettings
  1

  2
none_device
  4

  6

 40
0.0
 41
0.0
 42
0.0
 43
0.0
 44
0.0
 45
0.0
 46
0.0
 47
0.0
 48
0.0
 49
0.0
140
0.0
141
0.0
142
1.0
143
1.0
 70
  1712
 72
     0
 73
     0
 74
     0
  7

 75
     0
147
1.0
148
0.0
149
0.0
100
AcDbLayout
  1
Model
 70
     1
 71
     0
 10
0.0
 20
0.0
 11
34.0
 21
22.0
 12
0.0
 22
0.0
 32
0.0
 14
0.0
 24
0.0
 34
0.0
 15
34.0
 25
22.0
 35
0.0
146
0.0
 13
0.0
 23
0.0
 33
0.0
 16
1.0
 26
0.0
 36
0.0
 17
0.0
 27
1.0
 37
0.0
 76
     0
330
1F
331
29
  0
MLINESTYLE
  5
18
102
{ACAD_REACTORS
330
17
102
}
330
17
100
AcDbMlineStyle
  2
Standard
 70
     0
  3

 62
   256
 51
90.0
 52
90.0
 71
     2
 49
0.5
 62
   256
  6
BYLAYER
 49
-0.5
 62
   256
  6
BYLAYER
  0
ACDBPLACEHOLDER
  5
F
102
{ACAD_REACTORS
330
E
102
}
330
E
  0
ENDSEC
  0
EOF
