  0
SECTION
  2
HEADER
  9
$ACADVER
  1
AC1015
  9
$ACADMAINTVER
 70
    20
  9
$DWGCODEPAGE
  3
ANSI_1252
  9
$INSBASE
 10
0.0
 20
0.0
 30
0.0
  9
$EXTMIN
 10
4.49441538622419
 20
1.148437566529537
 30
-0.0015258207003583
  9
$EXTMAX
 10
35.61181649660205
 20
21.25250249874371
 30
0.0000000349246037
  9
$LIMMIN
 10
0.0
 20
0.0
  9
$LIMMAX
 10
42.0
 20
28.0
  9
$ORTHOMODE
 70
     1
  9
$REGENMODE
 70
     1
  9
$FILLMODE
 70
     1
  9
$QTEXTMODE
 70
     0
  9
$MIRRTEXT
 70
     1
  9
$LTSCALE
 40
1.0
  9
$ATTMODE
 70
     1
  9
$TEXTSIZE
 40
0.1377952756
  9
$TRACEWID
 40
0.05
  9
$TEXTSTYLE
  7
Standard
  9
$CLAYER
  8
0
  9
$CELTYPE
  6
ByLayer
  9
$CECOLOR
 62
   256
  9
$CELTSCALE
 40
1.0
  9
$DISPSILH
 70
     0
  9
$DIMSCALE
 40
1.0
  9
$DIMASZ
 40
0.25
  9
$DIMEXO
 40
0.05
  9
$DIMDLI
 40
0.38
  9
$DIMRND
 40
0.0
  9
$DIMDLE
 40
0.0
  9
$DIMEXE
 40
0.125
  9
$DIMTP
 40
0.0
  9
$DIMTM
 40
0.0
  9
$DIMTXT
 40
0.6666666667
  9
$DIMCEN
 40
0.09
  9
$DIMTSZ
 40
0.0
  9
$DIMTOL
 70
     0
  9
$DIMLIM
 70
     0
  9
$DIMTIH
 70
     1
  9
$DIMTOH
 70
     1
  9
$DIMSE1
 70
     0
  9
$DIMSE2
 70
     0
  9
$DIMTAD
 70
     0
  9
$DIMZIN
 70
     0
  9
$DIMBLK
  1

  9
$DIMASO
 70
     1
  9
$DIMSHO
 70
     1
  9
$DIMPOST
  1

  9
$DIMAPOST
  1

  9
$DIMALT
 70
     0
  9
$DIMALTD
 70
     2
  9
$DIMALTF
 40
25.4
  9
$DIMLFAC
 40
1.0
  9
$DIMTOFL
 70
     0
  9
$DIMTVP
 40
0.0
  9
$DIMTIX
 70
     0
  9
$DIMSOXD
 70
     0
  9
$DIMSAH
 70
     0
  9
$DIMBLK1
  1

  9
$DIMBLK2
  1

  9
$DIMSTYLE
  2
Standard
  9
$DIMCLRD
 70
     0
  9
$DIMCLRE
 70
     0
  9
$DIMCLRT
 70
     0
  9
$DIMTFAC
 40
1.0
  9
$DIMGAP
 40
0.06
  9
$DIMJUST
 70
     0
  9
$DIMSD1
 70
     0
  9
$DIMSD2
 70
     0
  9
$DIMTOLJ
 70
     1
  9
$DIMTZIN
 70
     0
  9
$DIMALTZ
 70
     0
  9
$DIMALTTZ
 70
     0
  9
$DIMUPT
 70
     0
  9
$DIMDEC
 70
     3
  9
$DIMTDEC
 70
     3
  9
$DIMALTU
 70
     2
  9
$DIMALTTD
 70
     2
  9
$DIMTXSTY
  7
Standard
  9
$DIMAUNIT
 70
     0
  9
$DIMADEC
 70
     1
  9
$DIMALTRND
 40
0.0
  9
$DIMAZIN
 70
     0
  9
$DIMDSEP
 70
    46
  9
$DIMATFIT
 70
     3
  9
$DIMFRAC
 70
     0
  9
$DIMLDRBLK
  1

  9
$DIMLUNIT
 70
     2
  9
$DIMLWD
 70
    -2
  9
$DIMLWE
 70
    -2
  9
$DIMTMOVE
 70
     0
  9
$LUNITS
 70
     2
  9
$LUPREC
 70
     3
  9
$SKETCHINC
 40
0.1
  9
$FILLETRAD
 40
0.5
  9
$AUNITS
 70
     0
  9
$AUPREC
 70
     1
  9
$MENU
  1
.
  9
$ELEVATION
 40
0.0
  9
$PELEVATION
 40
0.0
  9
$THICKNESS
 40
0.0
  9
$LIMCHECK
 70
     0
  9
$CHAMFERA
 40
0.5
  9
$CHAMFERB
 40
0.5
  9
$CHAMFERC
 40
1.0
  9
$CHAMFERD
 40
0.0
  9
$SKPOLY
 70
     0
  9
$TDCREATE
 40
2456325.434271725
  9
$TDUCREATE
 40
2456325.684271725
  9
$TDUPDATE
 40
2456325.445980648
  9
$TDUUPDATE
 40
2456325.695980648
  9
$TDINDWG
 40
0.0056003935
  9
$TDUSRTIMER
 40
0.0055999653
  9
$USRTIMER
 70
     1
  9
$ANGBASE
 50
0.0
  9
$ANGDIR
 70
     0
  9
$PDMODE
 70
     0
  9
$PDSIZE
 40
-1.0
  9
$PLINEWID
 40
0.0
  9
$SPLFRAME
 70
     0
  9
$SPLINETYPE
 70
     6
  9
$SPLINESEGS
 70
     8
  9
$HANDSEED
  5
720
  9
$SURFTAB1
 70
     6
  9
$SURFTAB2
 70
     6
  9
$SURFTYPE
 70
     6
  9
$SURFU
 70
     6
  9
$SURFV
 70
     6
  9
$UCSBASE
  2

  9
$UCSNAME
  2

  9
$UCSORG
 10
0.0
 20
0.0
 30
0.0
  9
$UCSXDIR
 10
1.0
 20
0.0
 30
0.0
  9
$UCSYDIR
 10
0.0
 20
1.0
 30
0.0
  9
$UCSORTHOREF
  2

  9
$UCSORTHOVIEW
 70
     0
  9
$UCSORGTOP
 10
0.0
 20
0.0
 30
0.0
  9
$UCSORGBOTTOM
 10
0.0
 20
0.0
 30
0.0
  9
$UCSORGLEFT
 10
0.0
 20
0.0
 30
0.0
  9
$UCSORGRIGHT
 10
0.0
 20
0.0
 30
0.0
  9
$UCSORGFRONT
 10
0.0
 20
0.0
 30
0.0
  9
$UCSORGBACK
 10
0.0
 20
0.0
 30
0.0
  9
$PUCSBASE
  2

  9
$PUCSNAME
  2

  9
$PUCSORG
 10
0.0
 20
0.0
 30
0.0
  9
$PUCSXDIR
 10
1.0
 20
0.0
 30
0.0
  9
$PUCSYDIR
 10
0.0
 20
1.0
 30
0.0
  9
$PUCSORTHOREF
  2

  9
$PUCSORTHOVIEW
 70
     0
  9
$PUCSORGTOP
 10
0.0
 20
0.0
 30
0.0
  9
$PUCSORGBOTTOM
 10
0.0
 20
0.0
 30
0.0
  9
$PUCSORGLEFT
 10
0.0
 20
0.0
 30
0.0
  9
$PUCSORGRIGHT
 10
0.0
 20
0.0
 30
0.0
  9
$PUCSORGFRONT
 10
0.0
 20
0.0
 30
0.0
  9
$PUCSORGBACK
 10
0.0
 20
0.0
 30
0.0
  9
$USERI1
 70
     0
  9
$USERI2
 70
     0
  9
$USERI3
 70
     0
  9
$USERI4
 70
     0
  9
$USERI5
 70
     0
  9
$USERR1
 40
0.0
  9
$USERR2
 40
0.0
  9
$USERR3
 40
0.0
  9
$USERR4
 40
0.0
  9
$USERR5
 40
0.0
  9
$WORLDVIEW
 70
     1
  9
$SHADEDGE
 70
     3
  9
$SHADEDIF
 70
    70
  9
$TILEMODE
 70
     1
  9
$MAXACTVP
 70
    64
  9
$PINSBASE
 10
0.0
 20
0.0
 30
0.0
  9
$PLIMCHECK
 70
     0
  9
$PEXTMIN
 10
1.000000000000000E+20
 20
1.000000000000000E+20
 30
1.000000000000000E+20
  9
$PEXTMAX
 10
-1.000000000000000E+20
 20
-1.000000000000000E+20
 30
-1.000000000000000E+20
  9
$PLIMMIN
 10
0.0
 20
0.0
  9
$PLIMMAX
 10
12.0
 20
9.0
  9
$UNITMODE
 70
     0
  9
$VISRETAIN
 70
     1
  9
$PLINEGEN
 70
     0
  9
$PSLTSCALE
 70
     1
  9
$TREEDEPTH
 70
  3020
  9
$CMLSTYLE
  2
Standard
  9
$CMLJUST
 70
     0
  9
$CMLSCALE
 40
1.0
  9
$PROXYGRAPHICS
 70
     1
  9
$MEASUREMENT
 70
     0
  9
$CELWEIGHT
370
    -1
  9
$ENDCAPS
280
     0
  9
$JOINSTYLE
280
     0
  9
$LWDISPLAY
290
     1
  9
$INSUNITS
 70
     1
  9
$HYPERLINKBASE
  1

  9
$STYLESHEET
  1
monochrome.ctb
  9
$XEDIT
290
     1
  9
$CEPSNTYPE
380
     0
  9
$PSTYLEMODE
290
     1
  9
$FINGERPRINTGUID
  2
{09B431F9-E758-4D32-B48C-C0595A714B26}
  9
$VERSIONGUID
  2
{1A204D39-85A3-468B-917D-C36B05FCAD7A}
  9
$EXTNAMES
290
     1
  9
$PSVPSCALE
 40
0.0
  9
$OLESTARTUP
290
     0
  0
ENDSEC
  0
SECTION
  2
CLASSES
  0
CLASS
  1
ACDBDICTIONARYWDFLT
  2
AcDbDictionaryWithDefault
  3
ObjectDBX Classes
 90
        0
280
     0
281
     0
  0
CLASS
  1
VISUALSTYLE
  2
AcDbVisualStyle
  3
ObjectDBX Classes
 90
     4095
280
     0
281
     0
  0
CLASS
  1
MATERIAL
  2
AcDbMaterial
  3
ObjectDBX Classes
 90
     1153
280
     0
281
     0
  0
CLASS
  1
ACDBPLACEHOLDER
  2
AcDbPlaceHolder
  3
ObjectDBX Classes
 90
        0
280
     0
281
     0
  0
CLASS
  1
LAYOUT
  2
AcDbLayout
  3
ObjectDBX Classes
 90
        0
280
     0
281
     0
  0
CLASS
  1
TABLESTYLE
  2
AcDbTableStyle
  3
ObjectDBX Classes
 90
     4095
280
     0
281
     0
  0
CLASS
  1
SCALE
  2
AcDbScale
  3
ObjectDBX Classes
 90
     1153
280
     0
281
     0
  0
CLASS
  1
MLEADERSTYLE
  2
AcDbMLeaderStyle
  3
ACDB_MLEADERSTYLE_CLASS
 90
     4095
280
     0
281
     0
  0
CLASS
  1
ACME_DOCUMENT
  2
AcMeDbDoc
  3
AcMeServices
 90
     1024
280
     0
281
     0
  0
CLASS
  1
ACMESCOPE
  2
AcMeScope
  3
AcMeServices
 90
     1024
280
     0
281
     0
  0
CLASS
  1
ACMECOMMANDHISTORY
  2
AcMeCommandHistory
  3
AcMeServices
 90
     1024
280
     0
281
     0
  0
CLASS
  1
ACIMSYSVARMAN
  2
AcImSysVarManager
  3
AcMeServices
 90
     1024
280
     0
281
     0
  0
CLASS
  1
ACIMINTSYSVAR
  2
AcImIntSysVar
  3
AcMeServices
 90
     1024
280
     0
281
     0
  0
CLASS
  1
ACMEDRAWINGMAN
  2
AcMeDrawingMan
  3
AcMeServices
 90
     1024
280
     0
281
     0
  0
CLASS
  1
ACMEVIEW
  2
AcMeView
  3
AcMeServices
 90
     1024
280
     0
281
     0
  0
CLASS
  1
ACDBENTITYCACHE
  2
AcMeEntityCache
  3
AcMeServices
 90
     1024
280
     0
281
     0
  0
CLASS
  1
ACMESTATEMGR
  2
AcMeStateMgr
  3
AcMeServices
 90
     1024
280
     0
281
     0
  0
CLASS
  1
ACGREFMASTER
  2
AcGrefMaster
  3
AcAttribServices
 90
     1024
280
     0
281
     0
  0
CLASS
  1
AM_DRAWING_MGR
  2
AcDmDwgMgr
  3
AcMechDwgViewMgmt
 90
     1024
280
     0
281
     0
  0
CLASS
  1
AM_DWG_DOCUMENT
  2
AcDmDwgDocument
  3
AcMechDwgViewMgmt
 90
     1024
280
     0
281
     0
  0
CLASS
  1
AM_DWG_SHEET
  2
AcDmSheet
  3
AcMechDwgViewMgmt
 90
     1024
280
     0
281
     0
  0
CLASS
  1
AM_VIEWDIMPARMAP
  2
AcDmViewDimParMap
  3
AcMechDwgViewMgmt
 90
     1024
280
     0
281
     0
  0
CLASS
  1
AMDTINTERNALREACTOR
  2
AmdtInternalReactor
  3
AcMeServices
 90
     1024
280
     0
281
     0
  0
CLASS
  1
ACIMREALSYSVAR
  2
AcImRealSysVar
  3
AcMeServices
 90
     1024
280
     0
281
     0
  0
CLASS
  1
AM_DWGMGR_NAME
  2
AcDmDwgMgrName
  3
AcMechDwgViewMgmt
 90
     1024
280
     0
281
     0
  0
CLASS
  1
ACME_DATABASE
  2
AcMeDbDatabase
  3
AcMeServices
 90
     1024
280
     0
281
     0
  0
CLASS
  1
ACRFINSADJUSTERMGR
  2
AcRfInsAdjusterMgr
  3
AcMeServices
 90
     1024
280
     0
281
     0
  0
CLASS
  1
ACGREFACADMASTER
  2
AcGrefacadMaster
  3
AcGrefServices
 90
     1024
280
     0
281
     0
  0
CLASS
  1
AMDTMENUSTATEMGR
  2
AmdtMenuStateMgr
  3
McadcomServices
 90
     1024
280
     0
281
     0
  0
CLASS
  1
AMDTMCOMMENUSTATE
  2
AmdtMcomMenuState
  3
McadcomServices
 90
     1024
280
     0
281
     0
  0
CLASS
  1
AMIMASTER
  2
AmiMaster
  3
AmiServices
 90
     1024
280
     0
281
     0
  0
CLASS
  1
AMGSETTINGSOBJ
  2
AmgSettingsObj
  3
"AcadM|Product Description: AutoCAD Mechanical|Company: Autodesk, Inc."
 90
     1024
280
     0
281
     0
  0
CLASS
  1
MAPIAMMOUDLE
  2
MApiAmModule
  3
MApiAmServices
 90
     1024
280
     0
281
     0
  0
CLASS
  1
ACIMSTRSYSVAR
  2
AcImStrSysVar
  3
AcMeServices
 90
     1024
280
     0
281
     0
  0
CLASS
  1
AMDTADMENUSTATE
  2
AmdtAdMenuState
  3
DesignerServices
 90
     1024
280
     0
281
     0
  0
CLASS
  1
ADAPPL
  2
AcAdAppl
  3
DesignerServices
 90
     1024
280
     0
281
     0
  0
CLASS
  1
DEPMGR
  2
AcAdDepMgr
  3
DesignerServices
 90
     1024
280
     0
281
     0
  0
CLASS
  1
PARAMMGR
  2
AcAdParamMgr
  3
DesignerServices
 90
     1024
280
     0
281
     0
  0
CLASS
  1
PARAMSCOPE
  2
AcAdParamScope
  3
DesignerServices
 90
     1024
280
     0
281
     0
  0
CLASS
  1
NAMEDAPPL
  2
AcAdNamedAppl
  3
DesignerServices
 90
     1024
280
     0
281
     0
  0
CLASS
  1
AMDTDMMENUSTATE
  2
AmdtDmMenuState
  3
AcMechDwgViewMgmt
 90
     1024
280
     0
281
     0
  0
CLASS
  1
AMDTAMMENUSTATE
  2
AmdtAmMenuState
  3
DesignerAssemblies
 90
     1024
280
     0
281
     0
  0
CLASS
  1
ACAMPROJECT
  2
AcAmProject
  3
DesignerAssemblies
 90
     1024
280
     0
281
     0
  0
CLASS
  1
ACAMGRCOMPDEF
  2
AcAmGrCompDef
  3
DesignerAssemblies
 90
     1024
280
     0
281
     0
  0
CLASS
  1
ACAMCOMPDEF
  2
AcAmCompDef
  3
DesignerAssemblies
 90
     1024
280
     0
281
     0
  0
CLASS
  1
ACAMCOMPDEFMGR
  2
AcAmCompDefMgr
  3
DesignerAssemblies
 90
     1024
280
     0
281
     0
  0
CLASS
  1
AMCONTEXTMGR
  2
AcAmContextMgr
  3
DesignerAssemblies
 90
     1024
280
     0
281
     0
  0
CLASS
  1
ACAMCONTEXTMODELER
  2
AcAmContextModeler
  3
DesignerAssemblies
 90
     1024
280
     0
281
     0
  0
CLASS
  1
ACMDATADICTIONARY
  2
AcmDataDictionary
  3
"AcmSymBB|Product Description: AutoCAD Mechanical|Company: Autodesk, Inc."
 90
     1024
280
     0
281
     0
  0
CLASS
  1
CATALOGSTATE
  2
AcAmCatalogState
  3
DesignerAssemblies
 90
     1024
280
     0
281
     0
  0
CLASS
  1
ACAMGRCOMPDEFSET
  2
AcAmGrCompDefSet
  3
DesignerAssemblies
 90
     1024
280
     0
281
     0
  0
CLASS
  1
AMDTBROWSERDBTAB
  2
AmdtBrowserDbTab
  3
McadcomServices
 90
     1024
280
     0
281
     0
  0
CLASS
  1
CBROWSERAPPOBJECT
  2
CBrowserAppObject
  3
McadcomServices
 90
     1024
280
     0
281
     0
  0
CLASS
  1
DM_PLACEHOLDER
  2
AcDmSelsetPlaceholder
  3
AcMechDwgViewMgmt
 90
     1024
280
     0
281
     0
  0
CLASS
  1
ACMSTANDARDANSI
  2
AcmStandardANSI
  3
"Amdt_StdImp|Product Description: AutoCAD Mechanical|Company: Autodesk, Inc."
 90
     1024
280
     0
281
     0
  0
CLASS
  1
ACMSURFSTANDARDANSI
  2
AcmSurfTextStdANSI
  3
"Amdt_StdImp|Product Description: AutoCAD Mechanical|Company: Autodesk, Inc."
 90
     1024
280
     0
281
     0
  0
CLASS
  1
ACMFCFSTANDARDANSI
  2
AcmFCFStdANSI
  3
"Amdt_StdImp|Product Description: AutoCAD Mechanical|Company: Autodesk, Inc."
 90
     1024
280
     0
281
     0
  0
CLASS
  1
ACMWELDSTANDARDANSI
  2
AcmWeldingStdANSI
  3
"Amdt_StdImp|Product Description: AutoCAD Mechanical|Company: Autodesk, Inc."
 90
     1024
280
     0
281
     0
  0
CLASS
  1
ACMIDSTANDARDANSI
  2
AcmIdStdANSI
  3
"Amdt_StdImp|Product Description: AutoCAD Mechanical|Company: Autodesk, Inc."
 90
     1024
280
     0
281
     0
  0
CLASS
  1
ACMDATUMSTANDARDANSI
  2
AcmDatumStdANSI
  3
"Amdt_StdImp|Product Description: AutoCAD Mechanical|Company: Autodesk, Inc."
 90
     1024
280
     0
281
     0
  0
CLASS
  1
ACMBOMSTANDARDANSI
  2
AcmBOMStdANSI
  3
"Amdt_StdImp|Product Description: AutoCAD Mechanical|Company: Autodesk, Inc."
 90
     1024
280
     0
281
     0
  0
CLASS
  1
ACMDETAILSTANDARDANSI
  2
AmdtDetailSymStdANSI
  3
"Amdt_StdImp|Product Description: AutoCAD Mechanical|Company: Autodesk, Inc."
 90
     1024
280
     0
281
     0
  0
CLASS
  1
ACMSECTIONSTANDARDANSI
  2
AmdtSectionSymStdANSI
  3
"Amdt_StdImp|Product Description: AutoCAD Mechanical|Company: Autodesk, Inc."
 90
     1024
280
     0
281
     0
  0
CLASS
  1
ACMCENTERLINESTANDARDANSI
  2
AmdtCenterLineStdANSI
  3
"Amdt_StdImp|Product Description: AutoCAD Mechanical|Company: Autodesk, Inc."
 90
     1024
280
     0
281
     0
  0
CLASS
  1
ACMTHREADLINESTANDARDANSI
  2
AmdtThreadLineStdANSI
  3
"Amdt_StdImp|Product Description: AutoCAD Mechanical|Company: Autodesk, Inc."
 90
     1024
280
     0
281
     0
  0
CLASS
  1
ACMNOTESTANDARDANSI
  2
AmdtNoteStdANSI
  3
"Amdt_StdImp|Product Description: AutoCAD Mechanical|Company: Autodesk, Inc."
 90
     1024
280
     0
281
     0
  0
CLASS
  1
ACMTAPERSTANDARDANSI
  2
AcmTaperStdANSI
  3
"Amdt_StdImp|Product Description: AutoCAD Mechanical|Company: Autodesk, Inc."
 90
     1024
280
     0
281
     0
  0
CLASS
  1
ACMANOOTATIONVIEWSTANDARDANSI
  2
AmdtAnViewStdANSI
  3
"Amdt_StdImp|Product Description: AutoCAD Mechanical|Company: Autodesk, Inc."
 90
     1024
280
     0
281
     0
  0
CLASS
  1
ACAMGLAYSTD
  2
AcAmgLayStd
  3
"AmgLay|Product Description: AutoCAD Mechanical|Company: Autodesk, Inc."
 90
     1024
280
     0
281
     0
  0
CLASS
  1
ACAMGDIMSTD
  2
AcAmgDimStd
  3
"AmgDim|Product Description: AutoCAD Mechanical|Company: Autodesk, Inc."
 90
     1024
280
     0
281
     0
  0
CLASS
  1
AMGOBJPROPCFG
  2
AmgObjPropCfg
  3
"AmgLay|Product Description: AutoCAD Mechanical|Company: Autodesk, Inc."
 90
     1025
280
     0
281
     0
  0
CLASS
  1
ACAMGHOLECHARTSTDANSI
  2
AcAmgHoleChartStdANSI
  3
AmgDim|Product Description: AutoCAD Mechanical|Company: Autodesk, Inc.
 90
     1024
280
     0
281
     0
  0
CLASS
  1
ACAMGTITLESTD
  2
AcAmgTitleStd
  3
"AmgTitle|Product Description: AutoCAD Mechanical|Company: Autodesk, Inc."
 90
     4095
280
     0
281
     0
  0
CLASS
  1
AMDTNOTETEMPLATEDB
  2
AmdtNoteTemplateDB
  3
AcmSymBB|Product Description: AutoCAD Mechanical|Company: Autodesk, Inc.
 90
     1024
280
     0
281
     0
  0
CLASS
  1
ACAMGFILTERDAT
  2
AcAmgFilterDat
  3
"AcadM|Product Description: AutoCAD Mechanical|Company: Autodesk, Inc."
 90
     1024
280
     0
281
     0
  0
CLASS
  1
CELLSTYLEMAP
  2
AcDbCellStyleMap
  3
ObjectDBX Classes
 90
     1152
280
     0
281
     0
  0
CLASS
  1
DICTIONARYVAR
  2
AcDbDictionaryVar
  3
ObjectDBX Classes
 90
        0
280
     0
281
     0
  0
ENDSEC
  0
SECTION
  2
TABLES
  0
TABLE
  2
VPORT
  5
8
330
0
100
AcDbSymbolTable
 70
     1
  0
VPORT
  5
29
330
8
100
AcDbSymbolTableRecord
100
AcDbViewportTableRecord
  2
*Active
 70
     0
 10
0.0
 20
0.0
 11
1.0
 21
1.0
 12
20.05311594141312
 22
11.20047003263662
 13
0.0
 23
0.0
 14
0.5
 24
0.5
 15
0.5
 25
0.5
 16
0.0
 26
0.0
 36
1.0
 17
0.0
 27
0.0
 37
0.0
 40
20.25269528658971
 41
1.961916461916461
 42
50.0
 43
0.0
 44
0.0
 50
0.0
 51
0.0
 71
     0
 72
  2000
 73
     1
 74
     3
 75
     0
 76
     0
 77
     0
 78
     0
281
     0
 65
     0
110
0.0
120
0.0
130
0.0
111
1.0
121
0.0
131
0.0
112
0.0
122
1.0
132
0.0
 79
     0
146
0.0
  0
ENDTAB
  0
TABLE
  2
LTYPE
  5
5
330
0
100
AcDbSymbolTable
 70
    20
  0
LTYPE
  5
14
330
5
100
AcDbSymbolTableRecord
100
AcDbLinetypeTableRecord
  2
ByBlock
 70
     0
  3

 72
    65
 73
     0
 40
0.0
  0
LTYPE
  5
15
330
5
100
AcDbSymbolTableRecord
100
AcDbLinetypeTableRecord
  2
ByLayer
 70
     0
  3

 72
    65
 73
     0
 40
0.0
  0
LTYPE
  5
16
330
5
100
AcDbSymbolTableRecord
100
AcDbLinetypeTableRecord
  2
Continuous
 70
     0
  3
Solid line
 72
    65
 73
     0
 40
0.0
  0
LTYPE
  5
3F
330
5
100
AcDbSymbolTableRecord
100
AcDbLinetypeTableRecord
  2
HIDDEN
 70
     0
  3
Hidden __ __ __ __ __ __ __ __ __ __ __ __ __ __
 72
    65
 73
     2
 40
0.075
 49
0.05
 74
     0
 49
-0.025
 74
     0
  0
LTYPE
  5
40
330
5
100
AcDbSymbolTableRecord
100
AcDbLinetypeTableRecord
  2
PHANTOM
 70
     0
  3
Phantom ______  __  __  ______  __  __  ______
 72
    65
 73
     6
 40
0.5
 49
0.25
 74
     0
 49
-0.05
 74
     0
 49
0.05
 74
     0
 49
-0.05
 74
     0
 49
0.05
 74
     0
 49
-0.05
 74
     0
  0
LTYPE
  5
41
330
5
100
AcDbSymbolTableRecord
100
AcDbLinetypeTableRecord
  2
CENTER
 70
     0
  3
Center ____ _ ____ _ ____ _ ____ _ ____ _ ____
 72
    65
 73
     4
 40
0.4
 49
0.25
 74
     0
 49
-0.05
 74
     0
 49
0.05
 74
     0
 49
-0.05
 74
     0
  0
LTYPE
  5
42
330
5
100
AcDbSymbolTableRecord
100
AcDbLinetypeTableRecord
  2
CENTERX2
 70
     0
  3
Center (2x) ________  __  ________  __  _____
 72
    65
 73
     4
 40
0.8
 49
0.5
 74
     0
 49
-0.1
 74
     0
 49
0.1
 74
     0
 49
-0.1
 74
     0
  0
LTYPE
  5
43
330
5
100
AcDbSymbolTableRecord
100
AcDbLinetypeTableRecord
  2
DOT2
 70
     0
  3
Dot (.5x) ........................................
 72
    65
 73
     2
 40
0.025
 49
0.0
 74
     0
 49
-0.025
 74
     0
  0
LTYPE
  5
369
330
5
100
AcDbSymbolTableRecord
100
AcDbLinetypeTableRecord
  2
PHANTOM2
 70
     0
  3
Phantom (.5x) ___ _ _ ___ _ _ ___ _ _ ___ _ _
 72
    65
 73
     6
 40
1.25
 49
0.625
 74
     0
 49
-0.125
 74
     0
 49
0.125
 74
     0
 49
-0.125
 74
     0
 49
0.125
 74
     0
 49
-0.125
 74
     0
  0
LTYPE
  5
3B2
330
5
100
AcDbSymbolTableRecord
100
AcDbLinetypeTableRecord
  2
AM_ISO02W050
 70
     0
  3
__ __ __ __ __ __ __ __ __ __ __ __ __ __ __
 72
    65
 73
     2
 40
7.5
 49
6.0
 74
     0
 49
-1.5
 74
     0
  0
LTYPE
  5
3B3
330
5
100
AcDbSymbolTableRecord
100
AcDbLinetypeTableRecord
  2
AM_ISO08W050
 70
     0
  3
____ . ____ . ____ . ____ . ____ . ____ . ____
 72
    65
 73
     4
 40
18.0
 49
12.0
 74
     0
 49
-1.5
 74
     0
 49
3.0
 74
     0
 49
-1.5
 74
     0
  0
LTYPE
  5
3B4
330
5
100
AcDbSymbolTableRecord
100
AcDbLinetypeTableRecord
  2
AM_ISO09W050
 70
     0
  3
_____ . . _____ . . _____ . . ____ .. ____
 72
    65
 73
     6
 40
22.5
 49
12.0
 74
     0
 49
-1.5
 74
     0
 49
3.0
 74
     0
 49
-1.5
 74
     0
 49
3.0
 74
     0
 49
-1.5
 74
     0
  0
LTYPE
  5
3B5
330
5
100
AcDbSymbolTableRecord
100
AcDbLinetypeTableRecord
  2
Amconstr
 70
     0
  3
_______________________
 72
    65
 73
     2
 40
9999.0
 49
9999.0
 74
     0
 49
0.0
 74
     0
  0
LTYPE
  5
3B6
330
5
100
AcDbSymbolTableRecord
100
AcDbLinetypeTableRecord
  2
AM_ISO08W050x2
 70
     0
  3
__ . __ . __ . __ . __ . __
 72
    65
 73
     4
 40
9.0
 49
6.0
 74
     0
 49
-0.75
 74
     0
 49
1.5
 74
     0
 49
-0.75
 74
     0
  0
LTYPE
  5
3B7
330
5
100
AcDbSymbolTableRecord
100
AcDbLinetypeTableRecord
  2
AM_ISO02W050x2
 70
     0
  3
 _ _ _ _ _ _ _ _ _ _ _ _
 72
    65
 73
     2
 40
3.75
 49
3.0
 74
     0
 49
-0.75
 74
     0
  0
LTYPE
  5
3BA
330
5
100
AcDbSymbolTableRecord
100
AcDbLinetypeTableRecord
  2
Amzigzag
 70
     0
  3
/\/-/\/-/\/-/\/-/\/-/\/
 72
    65
 73
     2
 40
11.0001
 49
0.0001
 74
     4
 75
   136
340
3B9
 46
0.04
 50
0.0
 44
0.0
 45
0.0
 49
-11.0
 74
     0
  0
LTYPE
  5
3BB
330
5
100
AcDbSymbolTableRecord
100
AcDbLinetypeTableRecord
  2
CENTER2
 70
     0
  3
Center (.5x) ___ _ ___ _ ___ _ ___ _ ___ _ ___
 72
    65
 73
     4
 40
1.125
 49
0.75
 74
     0
 49
-0.125
 74
     0
 49
0.125
 74
     0
 49
-0.125
 74
     0
  0
LTYPE
  5
3BC
330
5
100
AcDbSymbolTableRecord
100
AcDbLinetypeTableRecord
  2
HIDDEN2
 70
     0
  3
Hidden (.5x) _ _ _ _ _ _ _ _ _ _ _ _ _ _ _ _ _
 72
    65
 73
     2
 40
0.1875
 49
0.125
 74
     0
 49
-0.0625
 74
     0
  0
LTYPE
  5
3BD
330
5
100
AcDbSymbolTableRecord
100
AcDbLinetypeTableRecord
  2
Amzigzag2
 70
     0
  3
/\/-/\/-/\/-/\/-/\/-/\/
 72
    65
 73
     2
 40
0.4401
 49
0.0001
 74
     4
 75
   136
340
3B9
 46
0.0016
 50
0.0
 44
0.0
 45
0.0
 49
-0.4400000000000001
 74
     0
  0
LTYPE
  5
3CB
330
5
100
AcDbSymbolTableRecord
100
AcDbLinetypeTableRecord
  2
ACANSTGB
 70
     0
  3
__ . . __ . .
 72
    65
 73
     6
 40
0.35433070866
 49
0.15748031496
 74
     0
 49
-0.03937007874
 74
     0
 49
0.03937007874
 74
     0
 49
-0.03937007874
 74
     0
 49
0.03937007874
 74
     0
 49
-0.03937007874
 74
     0
  0
LTYPE
  5
3CC
330
5
100
AcDbSymbolTableRecord
100
AcDbLinetypeTableRecord
  2
ACANSTGL
 70
     0
  3
_ _ _ _ _
 72
    65
 73
     2
 40
0.11811023622
 49
0.07874015748
 74
     0
 49
-0.03937007874
 74
     0
  0
ENDTAB
  0
TABLE
  2
LAYER
  5
2
330
0
100
AcDbSymbolTable
 70
   184
  0
LAYER
  5
10
102
{ACAD_XDICTIONARY
360
3E0
102
}
330
2
100
AcDbSymbolTableRecord
100
AcDbLayerTableRecord
  2
0
 70
     0
 62
     7
  6
Continuous
370
    -3
390
F
  0
LAYER
  5
44
102
{ACAD_XDICTIONARY
360
3E2
102
}
330
2
100
AcDbSymbolTableRecord
100
AcDbLayerTableRecord
  2
SLD-0
 70
     0
 62
   179
  6
Continuous
370
    -3
390
F
  0
LAYER
  5
45
102
{ACAD_XDICTIONARY
360
3E4
102
}
330
2
100
AcDbSymbolTableRecord
100
AcDbLayerTableRecord
  2
1
 70
     0
 62
   179
  6
Continuous
370
    -3
390
F
  0
LAYER
  5
46
102
{ACAD_XDICTIONARY
360
3E6
102
}
330
2
100
AcDbSymbolTableRecord
100
AcDbLayerTableRecord
  2
2
 70
     0
 62
   179
  6
Continuous
370
    -3
390
F
  0
LAYER
  5
47
102
{ACAD_XDICTIONARY
360
3E8
102
}
330
2
100
AcDbSymbolTableRecord
100
AcDbLayerTableRecord
  2
3
 70
     0
 62
   179
  6
Continuous
370
    -3
390
F
  0
LAYER
  5
48
102
{ACAD_XDICTIONARY
360
3EA
102
}
330
2
100
AcDbSymbolTableRecord
100
AcDbLayerTableRecord
  2
4
 70
     0
 62
   179
  6
Continuous
370
    -3
390
F
  0
LAYER
  5
49
102
{ACAD_XDICTIONARY
360
3EC
102
}
330
2
100
AcDbSymbolTableRecord
100
AcDbLayerTableRecord
  2
5
 70
     0
 62
   179
  6
Continuous
370
    -3
390
F
  0
LAYER
  5
4A
102
{ACAD_XDICTIONARY
360
3EE
102
}
330
2
100
AcDbSymbolTableRecord
100
AcDbLayerTableRecord
  2
6
 70
     0
 62
   179
  6
Continuous
370
    -3
390
F
  0
LAYER
  5
4B
102
{ACAD_XDICTIONARY
360
3F0
102
}
330
2
100
AcDbSymbolTableRecord
100
AcDbLayerTableRecord
  2
7
 70
     0
 62
   179
  6
Continuous
370
    -3
390
F
  0
LAYER
  5
4C
102
{ACAD_XDICTIONARY
360
3F2
102
}
330
2
100
AcDbSymbolTableRecord
100
AcDbLayerTableRecord
  2
8
 70
     0
 62
   179
  6
Continuous
370
    -3
390
F
  0
LAYER
  5
4D
102
{ACAD_XDICTIONARY
360
3F4
102
}
330
2
100
AcDbSymbolTableRecord
100
AcDbLayerTableRecord
  2
9
 70
     0
 62
   179
  6
Continuous
370
    -3
390
F
  0
LAYER
  5
4E
102
{ACAD_XDICTIONARY
360
3F6
102
}
330
2
100
AcDbSymbolTableRecord
100
AcDbLayerTableRecord
  2
10
 70
     0
 62
   179
  6
Continuous
370
    -3
390
F
  0
LAYER
  5
4F
102
{ACAD_XDICTIONARY
360
3F8
102
}
330
2
100
AcDbSymbolTableRecord
100
AcDbLayerTableRecord
  2
11
 70
     0
 62
   179
  6
Continuous
370
    -3
390
F
  0
LAYER
  5
50
102
{ACAD_XDICTIONARY
360
3FA
102
}
330
2
100
AcDbSymbolTableRecord
100
AcDbLayerTableRecord
  2
12
 70
     0
 62
   179
  6
Continuous
370
    -3
390
F
  0
LAYER
  5
51
102
{ACAD_XDICTIONARY
360
3FC
102
}
330
2
100
AcDbSymbolTableRecord
100
AcDbLayerTableRecord
  2
13
 70
     0
 62
   179
  6
Continuous
370
    -3
390
F
  0
LAYER
  5
52
102
{ACAD_XDICTIONARY
360
3FE
102
}
330
2
100
AcDbSymbolTableRecord
100
AcDbLayerTableRecord
  2
14
 70
     0
 62
   179
  6
Continuous
370
    -3
390
F
  0
LAYER
  5
53
102
{ACAD_XDICTIONARY
360
400
102
}
330
2
100
AcDbSymbolTableRecord
100
AcDbLayerTableRecord
  2
15
 70
     0
 62
   179
  6
Continuous
370
    -3
390
F
  0
LAYER
  5
54
102
{ACAD_XDICTIONARY
360
402
102
}
330
2
100
AcDbSymbolTableRecord
100
AcDbLayerTableRecord
  2
16
 70
     0
 62
   179
  6
Continuous
370
    -3
390
F
  0
LAYER
  5
55
102
{ACAD_XDICTIONARY
360
404
102
}
330
2
100
AcDbSymbolTableRecord
100
AcDbLayerTableRecord
  2
17
 70
     0
 62
   179
  6
Continuous
370
    -3
390
F
  0
LAYER
  5
56
102
{ACAD_XDICTIONARY
360
406
102
}
330
2
100
AcDbSymbolTableRecord
100
AcDbLayerTableRecord
  2
18
 70
     0
 62
   179
  6
Continuous
370
    -3
390
F
  0
LAYER
  5
57
102
{ACAD_XDICTIONARY
360
408
102
}
330
2
100
AcDbSymbolTableRecord
100
AcDbLayerTableRecord
  2
19
 70
     0
 62
   179
  6
Continuous
370
    -3
390
F
  0
LAYER
  5
58
102
{ACAD_XDICTIONARY
360
40A
102
}
330
2
100
AcDbSymbolTableRecord
100
AcDbLayerTableRecord
  2
20
 70
     0
 62
   179
  6
Continuous
370
    -3
390
F
  0
LAYER
  5
59
102
{ACAD_XDICTIONARY
360
40C
102
}
330
2
100
AcDbSymbolTableRecord
100
AcDbLayerTableRecord
  2
21
 70
     0
 62
   179
  6
Continuous
370
    -3
390
F
  0
LAYER
  5
5A
102
{ACAD_XDICTIONARY
360
40E
102
}
330
2
100
AcDbSymbolTableRecord
100
AcDbLayerTableRecord
  2
22
 70
     0
 62
   179
  6
Continuous
370
    -3
390
F
  0
LAYER
  5
5B
102
{ACAD_XDICTIONARY
360
410
102
}
330
2
100
AcDbSymbolTableRecord
100
AcDbLayerTableRecord
  2
23
 70
     0
 62
   179
  6
Continuous
370
    -3
390
F
  0
LAYER
  5
5C
102
{ACAD_XDICTIONARY
360
412
102
}
330
2
100
AcDbSymbolTableRecord
100
AcDbLayerTableRecord
  2
24
 70
     0
 62
   179
  6
Continuous
370
    -3
390
F
  0
LAYER
  5
5D
102
{ACAD_XDICTIONARY
360
414
102
}
330
2
100
AcDbSymbolTableRecord
100
AcDbLayerTableRecord
  2
25
 70
     0
 62
   179
  6
Continuous
370
    -3
390
F
  0
LAYER
  5
5E
102
{ACAD_XDICTIONARY
360
416
102
}
330
2
100
AcDbSymbolTableRecord
100
AcDbLayerTableRecord
  2
26
 70
     0
 62
   179
  6
Continuous
370
    -3
390
F
  0
LAYER
  5
5F
102
{ACAD_XDICTIONARY
360
418
102
}
330
2
100
AcDbSymbolTableRecord
100
AcDbLayerTableRecord
  2
27
 70
     0
 62
   179
  6
Continuous
370
    -3
390
F
  0
LAYER
  5
60
102
{ACAD_XDICTIONARY
360
41A
102
}
330
2
100
AcDbSymbolTableRecord
100
AcDbLayerTableRecord
  2
28
 70
     0
 62
   179
  6
Continuous
370
    -3
390
F
  0
LAYER
  5
61
102
{ACAD_XDICTIONARY
360
41C
102
}
330
2
100
AcDbSymbolTableRecord
100
AcDbLayerTableRecord
  2
29
 70
     0
 62
   179
  6
Continuous
370
    -3
390
F
  0
LAYER
  5
62
102
{ACAD_XDICTIONARY
360
41E
102
}
330
2
100
AcDbSymbolTableRecord
100
AcDbLayerTableRecord
  2
30
 70
     0
 62
   179
  6
Continuous
370
    -3
390
F
  0
LAYER
  5
63
102
{ACAD_XDICTIONARY
360
420
102
}
330
2
100
AcDbSymbolTableRecord
100
AcDbLayerTableRecord
  2
31
 70
     0
 62
   179
  6
Continuous
370
    -3
390
F
  0
LAYER
  5
64
102
{ACAD_XDICTIONARY
360
422
102
}
330
2
100
AcDbSymbolTableRecord
100
AcDbLayerTableRecord
  2
32
 70
     0
 62
   179
  6
Continuous
370
    -3
390
F
  0
LAYER
  5
65
102
{ACAD_XDICTIONARY
360
424
102
}
330
2
100
AcDbSymbolTableRecord
100
AcDbLayerTableRecord
  2
33
 70
     0
 62
   179
  6
Continuous
370
    -3
390
F
  0
LAYER
  5
66
102
{ACAD_XDICTIONARY
360
426
102
}
330
2
100
AcDbSymbolTableRecord
100
AcDbLayerTableRecord
  2
34
 70
     0
 62
   179
  6
Continuous
370
    -3
390
F
  0
LAYER
  5
67
102
{ACAD_XDICTIONARY
360
428
102
}
330
2
100
AcDbSymbolTableRecord
100
AcDbLayerTableRecord
  2
35
 70
     0
 62
   179
  6
Continuous
370
    -3
390
F
  0
LAYER
  5
68
102
{ACAD_XDICTIONARY
360
42A
102
}
330
2
100
AcDbSymbolTableRecord
100
AcDbLayerTableRecord
  2
36
 70
     0
 62
   179
  6
Continuous
370
    -3
390
F
  0
LAYER
  5
69
102
{ACAD_XDICTIONARY
360
42C
102
}
330
2
100
AcDbSymbolTableRecord
100
AcDbLayerTableRecord
  2
37
 70
     0
 62
   179
  6
Continuous
370
    -3
390
F
  0
LAYER
  5
6A
102
{ACAD_XDICTIONARY
360
42E
102
}
330
2
100
AcDbSymbolTableRecord
100
AcDbLayerTableRecord
  2
38
 70
     0
 62
   179
  6
Continuous
370
    -3
390
F
  0
LAYER
  5
6B
102
{ACAD_XDICTIONARY
360
430
102
}
330
2
100
AcDbSymbolTableRecord
100
AcDbLayerTableRecord
  2
39
 70
     0
 62
   179
  6
Continuous
370
    -3
390
F
  0
LAYER
  5
6C
102
{ACAD_XDICTIONARY
360
432
102
}
330
2
100
AcDbSymbolTableRecord
100
AcDbLayerTableRecord
  2
40
 70
     0
 62
   179
  6
Continuous
370
    -3
390
F
  0
LAYER
  5
6D
102
{ACAD_XDICTIONARY
360
434
102
}
330
2
100
AcDbSymbolTableRecord
100
AcDbLayerTableRecord
  2
41
 70
     0
 62
   179
  6
Continuous
370
    -3
390
F
  0
LAYER
  5
6E
102
{ACAD_XDICTIONARY
360
436
102
}
330
2
100
AcDbSymbolTableRecord
100
AcDbLayerTableRecord
  2
42
 70
     0
 62
   179
  6
Continuous
370
    -3
390
F
  0
LAYER
  5
6F
102
{ACAD_XDICTIONARY
360
438
102
}
330
2
100
AcDbSymbolTableRecord
100
AcDbLayerTableRecord
  2
43
 70
     0
 62
   179
  6
Continuous
370
    -3
390
F
  0
LAYER
  5
70
102
{ACAD_XDICTIONARY
360
43A
102
}
330
2
100
AcDbSymbolTableRecord
100
AcDbLayerTableRecord
  2
44
 70
     0
 62
   179
  6
Continuous
370
    -3
390
F
  0
LAYER
  5
71
102
{ACAD_XDICTIONARY
360
43C
102
}
330
2
100
AcDbSymbolTableRecord
100
AcDbLayerTableRecord
  2
45
 70
     0
 62
   179
  6
Continuous
370
    -3
390
F
  0
LAYER
  5
72
102
{ACAD_XDICTIONARY
360
43E
102
}
330
2
100
AcDbSymbolTableRecord
100
AcDbLayerTableRecord
  2
46
 70
     0
 62
  -179
  6
Continuous
370
    -3
390
F
  0
LAYER
  5
73
102
{ACAD_XDICTIONARY
360
440
102
}
330
2
100
AcDbSymbolTableRecord
100
AcDbLayerTableRecord
  2
47
 70
     0
 62
   179
  6
Continuous
370
    -3
390
F
  0
LAYER
  5
74
102
{ACAD_XDICTIONARY
360
442
102
}
330
2
100
AcDbSymbolTableRecord
100
AcDbLayerTableRecord
  2
48
 70
     0
 62
   179
  6
Continuous
370
    -3
390
F
  0
LAYER
  5
75
102
{ACAD_XDICTIONARY
360
444
102
}
330
2
100
AcDbSymbolTableRecord
100
AcDbLayerTableRecord
  2
49
 70
     0
 62
   179
  6
Continuous
370
    -3
390
F
  0
LAYER
  5
76
102
{ACAD_XDICTIONARY
360
446
102
}
330
2
100
AcDbSymbolTableRecord
100
AcDbLayerTableRecord
  2
50
 70
     0
 62
   179
  6
Continuous
370
    -3
390
F
  0
LAYER
  5
77
102
{ACAD_XDICTIONARY
360
448
102
}
330
2
100
AcDbSymbolTableRecord
100
AcDbLayerTableRecord
  2
51
 70
     0
 62
   179
  6
Continuous
370
    -3
390
F
  0
LAYER
  5
78
102
{ACAD_XDICTIONARY
360
44A
102
}
330
2
100
AcDbSymbolTableRecord
100
AcDbLayerTableRecord
  2
52
 70
     0
 62
   179
  6
Continuous
370
    -3
390
F
  0
LAYER
  5
79
102
{ACAD_XDICTIONARY
360
44C
102
}
330
2
100
AcDbSymbolTableRecord
100
AcDbLayerTableRecord
  2
53
 70
     0
 62
   179
  6
Continuous
370
    -3
390
F
  0
LAYER
  5
7A
102
{ACAD_XDICTIONARY
360
44E
102
}
330
2
100
AcDbSymbolTableRecord
100
AcDbLayerTableRecord
  2
54
 70
     0
 62
   179
  6
Continuous
370
    -3
390
F
  0
LAYER
  5
7B
102
{ACAD_XDICTIONARY
360
450
102
}
330
2
100
AcDbSymbolTableRecord
100
AcDbLayerTableRecord
  2
55
 70
     0
 62
   179
  6
Continuous
370
    -3
390
F
  0
LAYER
  5
7C
102
{ACAD_XDICTIONARY
360
452
102
}
330
2
100
AcDbSymbolTableRecord
100
AcDbLayerTableRecord
  2
56
 70
     0
 62
   179
  6
Continuous
370
    -3
390
F
  0
LAYER
  5
7D
102
{ACAD_XDICTIONARY
360
454
102
}
330
2
100
AcDbSymbolTableRecord
100
AcDbLayerTableRecord
  2
57
 70
     0
 62
   179
  6
Continuous
370
    -3
390
F
  0
LAYER
  5
7E
102
{ACAD_XDICTIONARY
360
456
102
}
330
2
100
AcDbSymbolTableRecord
100
AcDbLayerTableRecord
  2
58
 70
     0
 62
   179
  6
Continuous
370
    -3
390
F
  0
LAYER
  5
7F
102
{ACAD_XDICTIONARY
360
458
102
}
330
2
100
AcDbSymbolTableRecord
100
AcDbLayerTableRecord
  2
59
 70
     0
 62
   179
  6
Continuous
370
    -3
390
F
  0
LAYER
  5
80
102
{ACAD_XDICTIONARY
360
45A
102
}
330
2
100
AcDbSymbolTableRecord
100
AcDbLayerTableRecord
  2
60
 70
     0
 62
   179
  6
Continuous
370
    -3
390
F
  0
LAYER
  5
81
102
{ACAD_XDICTIONARY
360
45C
102
}
330
2
100
AcDbSymbolTableRecord
100
AcDbLayerTableRecord
  2
61
 70
     0
 62
   179
  6
Continuous
370
    -3
390
F
  0
LAYER
  5
82
102
{ACAD_XDICTIONARY
360
45E
102
}
330
2
100
AcDbSymbolTableRecord
100
AcDbLayerTableRecord
  2
62
 70
     0
 62
   179
  6
Continuous
370
    -3
390
F
  0
LAYER
  5
83
102
{ACAD_XDICTIONARY
360
460
102
}
330
2
100
AcDbSymbolTableRecord
100
AcDbLayerTableRecord
  2
63
 70
     0
 62
   179
  6
Continuous
370
    -3
390
F
  0
LAYER
  5
84
102
{ACAD_XDICTIONARY
360
462
102
}
330
2
100
AcDbSymbolTableRecord
100
AcDbLayerTableRecord
  2
64
 70
     0
 62
   179
  6
Continuous
370
    -3
390
F
  0
LAYER
  5
85
102
{ACAD_XDICTIONARY
360
464
102
}
330
2
100
AcDbSymbolTableRecord
100
AcDbLayerTableRecord
  2
65
 70
     0
 62
   179
  6
Continuous
370
    -3
390
F
  0
LAYER
  5
86
102
{ACAD_XDICTIONARY
360
466
102
}
330
2
100
AcDbSymbolTableRecord
100
AcDbLayerTableRecord
  2
66
 70
     0
 62
   179
  6
Continuous
370
    -3
390
F
  0
LAYER
  5
87
102
{ACAD_XDICTIONARY
360
468
102
}
330
2
100
AcDbSymbolTableRecord
100
AcDbLayerTableRecord
  2
67
 70
     0
 62
   179
  6
Continuous
370
    -3
390
F
  0
LAYER
  5
88
102
{ACAD_XDICTIONARY
360
46A
102
}
330
2
100
AcDbSymbolTableRecord
100
AcDbLayerTableRecord
  2
68
 70
     0
 62
   179
  6
Continuous
370
    -3
390
F
  0
LAYER
  5
89
102
{ACAD_XDICTIONARY
360
46C
102
}
330
2
100
AcDbSymbolTableRecord
100
AcDbLayerTableRecord
  2
69
 70
     0
 62
   179
  6
Continuous
370
    -3
390
F
  0
LAYER
  5
8A
102
{ACAD_XDICTIONARY
360
46E
102
}
330
2
100
AcDbSymbolTableRecord
100
AcDbLayerTableRecord
  2
70
 70
     0
 62
   179
  6
Continuous
370
    -3
390
F
  0
LAYER
  5
8B
102
{ACAD_XDICTIONARY
360
470
102
}
330
2
100
AcDbSymbolTableRecord
100
AcDbLayerTableRecord
  2
71
 70
     0
 62
   179
  6
Continuous
370
    -3
390
F
  0
LAYER
  5
8C
102
{ACAD_XDICTIONARY
360
472
102
}
330
2
100
AcDbSymbolTableRecord
100
AcDbLayerTableRecord
  2
72
 70
     0
 62
   179
  6
Continuous
370
    -3
390
F
  0
LAYER
  5
8D
102
{ACAD_XDICTIONARY
360
474
102
}
330
2
100
AcDbSymbolTableRecord
100
AcDbLayerTableRecord
  2
73
 70
     0
 62
   179
  6
Continuous
370
    -3
390
F
  0
LAYER
  5
8E
102
{ACAD_XDICTIONARY
360
476
102
}
330
2
100
AcDbSymbolTableRecord
100
AcDbLayerTableRecord
  2
74
 70
     0
 62
   179
  6
Continuous
370
    -3
390
F
  0
LAYER
  5
8F
102
{ACAD_XDICTIONARY
360
478
102
}
330
2
100
AcDbSymbolTableRecord
100
AcDbLayerTableRecord
  2
75
 70
     0
 62
   179
  6
Continuous
370
    -3
390
F
  0
LAYER
  5
90
102
{ACAD_XDICTIONARY
360
47A
102
}
330
2
100
AcDbSymbolTableRecord
100
AcDbLayerTableRecord
  2
76
 70
     0
 62
   179
  6
Continuous
370
    -3
390
F
  0
LAYER
  5
91
102
{ACAD_XDICTIONARY
360
47C
102
}
330
2
100
AcDbSymbolTableRecord
100
AcDbLayerTableRecord
  2
77
 70
     0
 62
   179
  6
Continuous
370
    -3
390
F
  0
LAYER
  5
92
102
{ACAD_XDICTIONARY
360
47E
102
}
330
2
100
AcDbSymbolTableRecord
100
AcDbLayerTableRecord
  2
78
 70
     0
 62
   179
  6
Continuous
370
    -3
390
F
  0
LAYER
  5
93
102
{ACAD_XDICTIONARY
360
480
102
}
330
2
100
AcDbSymbolTableRecord
100
AcDbLayerTableRecord
  2
79
 70
     0
 62
   179
  6
Continuous
370
    -3
390
F
  0
LAYER
  5
94
102
{ACAD_XDICTIONARY
360
482
102
}
330
2
100
AcDbSymbolTableRecord
100
AcDbLayerTableRecord
  2
80
 70
     0
 62
   179
  6
Continuous
370
    -3
390
F
  0
LAYER
  5
95
102
{ACAD_XDICTIONARY
360
484
102
}
330
2
100
AcDbSymbolTableRecord
100
AcDbLayerTableRecord
  2
81
 70
     0
 62
   179
  6
Continuous
370
    -3
390
F
  0
LAYER
  5
96
102
{ACAD_XDICTIONARY
360
486
102
}
330
2
100
AcDbSymbolTableRecord
100
AcDbLayerTableRecord
  2
82
 70
     0
 62
   179
  6
Continuous
370
    -3
390
F
  0
LAYER
  5
97
102
{ACAD_XDICTIONARY
360
488
102
}
330
2
100
AcDbSymbolTableRecord
100
AcDbLayerTableRecord
  2
83
 70
     0
 62
   179
  6
Continuous
370
    -3
390
F
  0
LAYER
  5
98
102
{ACAD_XDICTIONARY
360
48A
102
}
330
2
100
AcDbSymbolTableRecord
100
AcDbLayerTableRecord
  2
84
 70
     0
 62
   179
  6
Continuous
370
    -3
390
F
  0
LAYER
  5
99
102
{ACAD_XDICTIONARY
360
48C
102
}
330
2
100
AcDbSymbolTableRecord
100
AcDbLayerTableRecord
  2
85
 70
     0
 62
   179
  6
Continuous
370
    -3
390
F
  0
LAYER
  5
9A
102
{ACAD_XDICTIONARY
360
48E
102
}
330
2
100
AcDbSymbolTableRecord
100
AcDbLayerTableRecord
  2
86
 70
     0
 62
   179
  6
Continuous
370
    -3
390
F
  0
LAYER
  5
9B
102
{ACAD_XDICTIONARY
360
490
102
}
330
2
100
AcDbSymbolTableRecord
100
AcDbLayerTableRecord
  2
87
 70
     0
 62
   179
  6
Continuous
370
    -3
390
F
  0
LAYER
  5
9C
102
{ACAD_XDICTIONARY
360
492
102
}
330
2
100
AcDbSymbolTableRecord
100
AcDbLayerTableRecord
  2
88
 70
     0
 62
   179
  6
Continuous
370
    -3
390
F
  0
LAYER
  5
9D
102
{ACAD_XDICTIONARY
360
494
102
}
330
2
100
AcDbSymbolTableRecord
100
AcDbLayerTableRecord
  2
89
 70
     0
 62
   179
  6
Continuous
370
    -3
390
F
  0
LAYER
  5
9E
102
{ACAD_XDICTIONARY
360
496
102
}
330
2
100
AcDbSymbolTableRecord
100
AcDbLayerTableRecord
  2
90
 70
     0
 62
   179
  6
Continuous
370
    -3
390
F
  0
LAYER
  5
9F
102
{ACAD_XDICTIONARY
360
498
102
}
330
2
100
AcDbSymbolTableRecord
100
AcDbLayerTableRecord
  2
91
 70
     0
 62
   179
  6
Continuous
370
    -3
390
F
  0
LAYER
  5
A0
102
{ACAD_XDICTIONARY
360
49A
102
}
330
2
100
AcDbSymbolTableRecord
100
AcDbLayerTableRecord
  2
92
 70
     0
 62
   179
  6
Continuous
370
    -3
390
F
  0
LAYER
  5
A1
102
{ACAD_XDICTIONARY
360
49C
102
}
330
2
100
AcDbSymbolTableRecord
100
AcDbLayerTableRecord
  2
93
 70
     0
 62
   179
  6
Continuous
370
    -3
390
F
  0
LAYER
  5
A2
102
{ACAD_XDICTIONARY
360
49E
102
}
330
2
100
AcDbSymbolTableRecord
100
AcDbLayerTableRecord
  2
94
 70
     0
 62
   179
  6
Continuous
370
    -3
390
F
  0
LAYER
  5
A3
102
{ACAD_XDICTIONARY
360
4A0
102
}
330
2
100
AcDbSymbolTableRecord
100
AcDbLayerTableRecord
  2
95
 70
     0
 62
   179
  6
Continuous
370
    -3
390
F
  0
LAYER
  5
A4
102
{ACAD_XDICTIONARY
360
4A2
102
}
330
2
100
AcDbSymbolTableRecord
100
AcDbLayerTableRecord
  2
96
 70
     0
 62
   179
  6
Continuous
370
    -3
390
F
  0
LAYER
  5
A5
102
{ACAD_XDICTIONARY
360
4A4
102
}
330
2
100
AcDbSymbolTableRecord
100
AcDbLayerTableRecord
  2
97
 70
     0
 62
   179
  6
Continuous
370
    -3
390
F
  0
LAYER
  5
A6
102
{ACAD_XDICTIONARY
360
4A6
102
}
330
2
100
AcDbSymbolTableRecord
100
AcDbLayerTableRecord
  2
98
 70
     0
 62
   179
  6
Continuous
370
    -3
390
F
  0
LAYER
  5
A7
102
{ACAD_XDICTIONARY
360
4A8
102
}
330
2
100
AcDbSymbolTableRecord
100
AcDbLayerTableRecord
  2
99
 70
     0
 62
   179
  6
Continuous
370
    -3
390
F
  0
LAYER
  5
A8
102
{ACAD_XDICTIONARY
360
4AA
102
}
330
2
100
AcDbSymbolTableRecord
100
AcDbLayerTableRecord
  2
100
 70
     0
 62
   179
  6
Continuous
370
    -3
390
F
  0
LAYER
  5
A9
102
{ACAD_XDICTIONARY
360
4AC
102
}
330
2
100
AcDbSymbolTableRecord
100
AcDbLayerTableRecord
  2
101
 70
     0
 62
   179
  6
Continuous
370
    -3
390
F
  0
LAYER
  5
AA
102
{ACAD_XDICTIONARY
360
4AE
102
}
330
2
100
AcDbSymbolTableRecord
100
AcDbLayerTableRecord
  2
102
 70
     0
 62
   179
  6
Continuous
370
    -3
390
F
  0
LAYER
  5
AB
102
{ACAD_XDICTIONARY
360
4B0
102
}
330
2
100
AcDbSymbolTableRecord
100
AcDbLayerTableRecord
  2
103
 70
     0
 62
   179
  6
Continuous
370
    -3
390
F
  0
LAYER
  5
AC
102
{ACAD_XDICTIONARY
360
4B2
102
}
330
2
100
AcDbSymbolTableRecord
100
AcDbLayerTableRecord
  2
104
 70
     0
 62
   179
  6
Continuous
370
    -3
390
F
  0
LAYER
  5
AD
102
{ACAD_XDICTIONARY
360
4B4
102
}
330
2
100
AcDbSymbolTableRecord
100
AcDbLayerTableRecord
  2
105
 70
     0
 62
   179
  6
Continuous
370
    -3
390
F
  0
LAYER
  5
AE
102
{ACAD_XDICTIONARY
360
4B6
102
}
330
2
100
AcDbSymbolTableRecord
100
AcDbLayerTableRecord
  2
106
 70
     0
 62
   179
  6
Continuous
370
    -3
390
F
  0
LAYER
  5
AF
102
{ACAD_XDICTIONARY
360
4B8
102
}
330
2
100
AcDbSymbolTableRecord
100
AcDbLayerTableRecord
  2
107
 70
     0
 62
   179
  6
Continuous
370
    -3
390
F
  0
LAYER
  5
B0
102
{ACAD_XDICTIONARY
360
4BA
102
}
330
2
100
AcDbSymbolTableRecord
100
AcDbLayerTableRecord
  2
108
 70
     0
 62
   179
  6
Continuous
370
    -3
390
F
  0
LAYER
  5
B1
102
{ACAD_XDICTIONARY
360
4BC
102
}
330
2
100
AcDbSymbolTableRecord
100
AcDbLayerTableRecord
  2
109
 70
     0
 62
   179
  6
Continuous
370
    -3
390
F
  0
LAYER
  5
B2
102
{ACAD_XDICTIONARY
360
4BE
102
}
330
2
100
AcDbSymbolTableRecord
100
AcDbLayerTableRecord
  2
110
 70
     0
 62
   179
  6
Continuous
370
    -3
390
F
  0
LAYER
  5
B3
102
{ACAD_XDICTIONARY
360
4C0
102
}
330
2
100
AcDbSymbolTableRecord
100
AcDbLayerTableRecord
  2
111
 70
     0
 62
   179
  6
Continuous
370
    -3
390
F
  0
LAYER
  5
B4
102
{ACAD_XDICTIONARY
360
4C2
102
}
330
2
100
AcDbSymbolTableRecord
100
AcDbLayerTableRecord
  2
112
 70
     0
 62
   179
  6
Continuous
370
    -3
390
F
  0
LAYER
  5
B5
102
{ACAD_XDICTIONARY
360
4C4
102
}
330
2
100
AcDbSymbolTableRecord
100
AcDbLayerTableRecord
  2
113
 70
     0
 62
   179
  6
Continuous
370
    -3
390
F
  0
LAYER
  5
B6
102
{ACAD_XDICTIONARY
360
4C6
102
}
330
2
100
AcDbSymbolTableRecord
100
AcDbLayerTableRecord
  2
114
 70
     0
 62
   179
  6
Continuous
370
    -3
390
F
  0
LAYER
  5
B7
102
{ACAD_XDICTIONARY
360
4C8
102
}
330
2
100
AcDbSymbolTableRecord
100
AcDbLayerTableRecord
  2
115
 70
     0
 62
   179
  6
Continuous
370
    -3
390
F
  0
LAYER
  5
B8
102
{ACAD_XDICTIONARY
360
4CA
102
}
330
2
100
AcDbSymbolTableRecord
100
AcDbLayerTableRecord
  2
116
 70
     0
 62
   179
  6
Continuous
370
    -3
390
F
  0
LAYER
  5
B9
102
{ACAD_XDICTIONARY
360
4CC
102
}
330
2
100
AcDbSymbolTableRecord
100
AcDbLayerTableRecord
  2
117
 70
     0
 62
   179
  6
Continuous
370
    -3
390
F
  0
LAYER
  5
BA
102
{ACAD_XDICTIONARY
360
4CE
102
}
330
2
100
AcDbSymbolTableRecord
100
AcDbLayerTableRecord
  2
118
 70
     0
 62
   179
  6
Continuous
370
    -3
390
F
  0
LAYER
  5
BB
102
{ACAD_XDICTIONARY
360
4D0
102
}
330
2
100
AcDbSymbolTableRecord
100
AcDbLayerTableRecord
  2
119
 70
     0
 62
   179
  6
Continuous
370
    -3
390
F
  0
LAYER
  5
BC
102
{ACAD_XDICTIONARY
360
4D2
102
}
330
2
100
AcDbSymbolTableRecord
100
AcDbLayerTableRecord
  2
120
 70
     0
 62
   179
  6
Continuous
370
    -3
390
F
  0
LAYER
  5
BD
102
{ACAD_XDICTIONARY
360
4D4
102
}
330
2
100
AcDbSymbolTableRecord
100
AcDbLayerTableRecord
  2
121
 70
     0
 62
   179
  6
Continuous
370
    -3
390
F
  0
LAYER
  5
BE
102
{ACAD_XDICTIONARY
360
4D6
102
}
330
2
100
AcDbSymbolTableRecord
100
AcDbLayerTableRecord
  2
122
 70
     0
 62
   179
  6
Continuous
370
    -3
390
F
  0
LAYER
  5
BF
102
{ACAD_XDICTIONARY
360
4D8
102
}
330
2
100
AcDbSymbolTableRecord
100
AcDbLayerTableRecord
  2
123
 70
     0
 62
   179
  6
Continuous
370
    -3
390
F
  0
LAYER
  5
C0
102
{ACAD_XDICTIONARY
360
4DA
102
}
330
2
100
AcDbSymbolTableRecord
100
AcDbLayerTableRecord
  2
124
 70
     0
 62
   179
  6
Continuous
370
    -3
390
F
  0
LAYER
  5
C1
102
{ACAD_XDICTIONARY
360
4DC
102
}
330
2
100
AcDbSymbolTableRecord
100
AcDbLayerTableRecord
  2
125
 70
     0
 62
   179
  6
Continuous
370
    -3
390
F
  0
LAYER
  5
C2
102
{ACAD_XDICTIONARY
360
4DE
102
}
330
2
100
AcDbSymbolTableRecord
100
AcDbLayerTableRecord
  2
126
 70
     0
 62
   179
  6
Continuous
370
    -3
390
F
  0
LAYER
  5
C3
102
{ACAD_XDICTIONARY
360
4E0
102
}
330
2
100
AcDbSymbolTableRecord
100
AcDbLayerTableRecord
  2
127
 70
     0
 62
   179
  6
Continuous
370
    -3
390
F
  0
LAYER
  5
C4
102
{ACAD_XDICTIONARY
360
4E2
102
}
330
2
100
AcDbSymbolTableRecord
100
AcDbLayerTableRecord
  2
128
 70
     0
 62
   179
  6
Continuous
370
    -3
390
F
  0
LAYER
  5
C5
102
{ACAD_XDICTIONARY
360
4E4
102
}
330
2
100
AcDbSymbolTableRecord
100
AcDbLayerTableRecord
  2
129
 70
     0
 62
   179
  6
Continuous
370
    -3
390
F
  0
LAYER
  5
C6
102
{ACAD_XDICTIONARY
360
4E6
102
}
330
2
100
AcDbSymbolTableRecord
100
AcDbLayerTableRecord
  2
130
 70
     0
 62
   179
  6
Continuous
370
    -3
390
F
  0
LAYER
  5
C7
102
{ACAD_XDICTIONARY
360
4E8
102
}
330
2
100
AcDbSymbolTableRecord
100
AcDbLayerTableRecord
  2
131
 70
     0
 62
   179
  6
Continuous
370
    -3
390
F
  0
LAYER
  5
C8
102
{ACAD_XDICTIONARY
360
4EA
102
}
330
2
100
AcDbSymbolTableRecord
100
AcDbLayerTableRecord
  2
132
 70
     0
 62
   179
  6
Continuous
370
    -3
390
F
  0
LAYER
  5
C9
102
{ACAD_XDICTIONARY
360
4EC
102
}
330
2
100
AcDbSymbolTableRecord
100
AcDbLayerTableRecord
  2
133
 70
     0
 62
   179
  6
Continuous
370
    -3
390
F
  0
LAYER
  5
CA
102
{ACAD_XDICTIONARY
360
4EE
102
}
330
2
100
AcDbSymbolTableRecord
100
AcDbLayerTableRecord
  2
134
 70
     0
 62
   179
  6
Continuous
370
    -3
390
F
  0
LAYER
  5
CB
102
{ACAD_XDICTIONARY
360
4F0
102
}
330
2
100
AcDbSymbolTableRecord
100
AcDbLayerTableRecord
  2
135
 70
     0
 62
   179
  6
Continuous
370
    -3
390
F
  0
LAYER
  5
CC
102
{ACAD_XDICTIONARY
360
4F2
102
}
330
2
100
AcDbSymbolTableRecord
100
AcDbLayerTableRecord
  2
136
 70
     0
 62
   179
  6
Continuous
370
    -3
390
F
  0
LAYER
  5
CD
102
{ACAD_XDICTIONARY
360
4F4
102
}
330
2
100
AcDbSymbolTableRecord
100
AcDbLayerTableRecord
  2
137
 70
     0
 62
   179
  6
Continuous
370
    -3
390
F
  0
LAYER
  5
CE
102
{ACAD_XDICTIONARY
360
4F6
102
}
330
2
100
AcDbSymbolTableRecord
100
AcDbLayerTableRecord
  2
138
 70
     0
 62
   179
  6
Continuous
370
    -3
390
F
  0
LAYER
  5
CF
102
{ACAD_XDICTIONARY
360
4F8
102
}
330
2
100
AcDbSymbolTableRecord
100
AcDbLayerTableRecord
  2
139
 70
     0
 62
   179
  6
Continuous
370
    -3
390
F
  0
LAYER
  5
D0
102
{ACAD_XDICTIONARY
360
4FA
102
}
330
2
100
AcDbSymbolTableRecord
100
AcDbLayerTableRecord
  2
140
 70
     0
 62
   179
  6
Continuous
370
    -3
390
F
  0
LAYER
  5
D1
102
{ACAD_XDICTIONARY
360
4FC
102
}
330
2
100
AcDbSymbolTableRecord
100
AcDbLayerTableRecord
  2
141
 70
     0
 62
   179
  6
Continuous
370
    -3
390
F
  0
LAYER
  5
D2
102
{ACAD_XDICTIONARY
360
4FE
102
}
330
2
100
AcDbSymbolTableRecord
100
AcDbLayerTableRecord
  2
142
 70
     0
 62
   179
  6
Continuous
370
    -3
390
F
  0
LAYER
  5
D3
102
{ACAD_XDICTIONARY
360
500
102
}
330
2
100
AcDbSymbolTableRecord
100
AcDbLayerTableRecord
  2
143
 70
     0
 62
   179
  6
Continuous
370
    -3
390
F
  0
LAYER
  5
D4
102
{ACAD_XDICTIONARY
360
502
102
}
330
2
100
AcDbSymbolTableRecord
100
AcDbLayerTableRecord
  2
144
 70
     0
 62
   179
  6
Continuous
370
    -3
390
F
  0
LAYER
  5
D5
102
{ACAD_XDICTIONARY
360
504
102
}
330
2
100
AcDbSymbolTableRecord
100
AcDbLayerTableRecord
  2
145
 70
     0
 62
   179
  6
Continuous
370
    -3
390
F
  0
LAYER
  5
D6
102
{ACAD_XDICTIONARY
360
506
102
}
330
2
100
AcDbSymbolTableRecord
100
AcDbLayerTableRecord
  2
146
 70
     0
 62
   179
  6
Continuous
370
    -3
390
F
  0
LAYER
  5
D7
102
{ACAD_XDICTIONARY
360
508
102
}
330
2
100
AcDbSymbolTableRecord
100
AcDbLayerTableRecord
  2
147
 70
     0
 62
   179
  6
Continuous
370
    -3
390
F
  0
LAYER
  5
D8
102
{ACAD_XDICTIONARY
360
50A
102
}
330
2
100
AcDbSymbolTableRecord
100
AcDbLayerTableRecord
  2
148
 70
     0
 62
   179
  6
Continuous
370
    -3
390
F
  0
LAYER
  5
D9
102
{ACAD_XDICTIONARY
360
50C
102
}
330
2
100
AcDbSymbolTableRecord
100
AcDbLayerTableRecord
  2
149
 70
     0
 62
   179
  6
Continuous
370
    -3
390
F
  0
LAYER
  5
DA
102
{ACAD_XDICTIONARY
360
50E
102
}
330
2
100
AcDbSymbolTableRecord
100
AcDbLayerTableRecord
  2
150
 70
     0
 62
   179
  6
Continuous
370
    -3
390
F
  0
LAYER
  5
DB
102
{ACAD_XDICTIONARY
360
510
102
}
330
2
100
AcDbSymbolTableRecord
100
AcDbLayerTableRecord
  2
151
 70
     0
 62
   179
  6
Continuous
370
    -3
390
F
  0
LAYER
  5
DC
102
{ACAD_XDICTIONARY
360
512
102
}
330
2
100
AcDbSymbolTableRecord
100
AcDbLayerTableRecord
  2
152
 70
     0
 62
   179
  6
Continuous
370
    -3
390
F
  0
LAYER
  5
DD
102
{ACAD_XDICTIONARY
360
514
102
}
330
2
100
AcDbSymbolTableRecord
100
AcDbLayerTableRecord
  2
153
 70
     0
 62
   179
  6
Continuous
370
    -3
390
F
  0
LAYER
  5
DE
102
{ACAD_XDICTIONARY
360
516
102
}
330
2
100
AcDbSymbolTableRecord
100
AcDbLayerTableRecord
  2
154
 70
     0
 62
   179
  6
Continuous
370
    -3
390
F
  0
LAYER
  5
DF
102
{ACAD_XDICTIONARY
360
518
102
}
330
2
100
AcDbSymbolTableRecord
100
AcDbLayerTableRecord
  2
155
 70
     0
 62
   179
  6
Continuous
370
    -3
390
F
  0
LAYER
  5
E0
102
{ACAD_XDICTIONARY
360
51A
102
}
330
2
100
AcDbSymbolTableRecord
100
AcDbLayerTableRecord
  2
156
 70
     0
 62
   179
  6
Continuous
370
    -3
390
F
  0
LAYER
  5
E1
102
{ACAD_XDICTIONARY
360
51C
102
}
330
2
100
AcDbSymbolTableRecord
100
AcDbLayerTableRecord
  2
157
 70
     0
 62
   179
  6
Continuous
370
    -3
390
F
  0
LAYER
  5
E2
102
{ACAD_XDICTIONARY
360
51E
102
}
330
2
100
AcDbSymbolTableRecord
100
AcDbLayerTableRecord
  2
158
 70
     0
 62
   179
  6
Continuous
370
    -3
390
F
  0
LAYER
  5
E3
102
{ACAD_XDICTIONARY
360
520
102
}
330
2
100
AcDbSymbolTableRecord
100
AcDbLayerTableRecord
  2
159
 70
     0
 62
   179
  6
Continuous
370
    -3
390
F
  0
LAYER
  5
E4
102
{ACAD_XDICTIONARY
360
522
102
}
330
2
100
AcDbSymbolTableRecord
100
AcDbLayerTableRecord
  2
160
 70
     0
 62
   179
  6
Continuous
370
    -3
390
F
  0
LAYER
  5
E5
102
{ACAD_XDICTIONARY
360
524
102
}
330
2
100
AcDbSymbolTableRecord
100
AcDbLayerTableRecord
  2
161
 70
     0
 62
   179
  6
Continuous
370
    -3
390
F
  0
LAYER
  5
E6
102
{ACAD_XDICTIONARY
360
526
102
}
330
2
100
AcDbSymbolTableRecord
100
AcDbLayerTableRecord
  2
162
 70
     0
 62
   179
  6
Continuous
370
    -3
390
F
  0
LAYER
  5
E7
102
{ACAD_XDICTIONARY
360
528
102
}
330
2
100
AcDbSymbolTableRecord
100
AcDbLayerTableRecord
  2
163
 70
     0
 62
   179
  6
Continuous
370
    -3
390
F
  0
LAYER
  5
E8
102
{ACAD_XDICTIONARY
360
52A
102
}
330
2
100
AcDbSymbolTableRecord
100
AcDbLayerTableRecord
  2
164
 70
     0
 62
   179
  6
Continuous
370
    -3
390
F
  0
LAYER
  5
E9
102
{ACAD_XDICTIONARY
360
52C
102
}
330
2
100
AcDbSymbolTableRecord
100
AcDbLayerTableRecord
  2
165
 70
     0
 62
   179
  6
Continuous
370
    -3
390
F
  0
LAYER
  5
EA
102
{ACAD_XDICTIONARY
360
52E
102
}
330
2
100
AcDbSymbolTableRecord
100
AcDbLayerTableRecord
  2
166
 70
     0
 62
   179
  6
Continuous
370
    -3
390
F
  0
LAYER
  5
EB
102
{ACAD_XDICTIONARY
360
530
102
}
330
2
100
AcDbSymbolTableRecord
100
AcDbLayerTableRecord
  2
167
 70
     0
 62
   179
  6
Continuous
370
    -3
390
F
  0
LAYER
  5
EC
102
{ACAD_XDICTIONARY
360
532
102
}
330
2
100
AcDbSymbolTableRecord
100
AcDbLayerTableRecord
  2
168
 70
     0
 62
   179
  6
Continuous
370
    -3
390
F
  0
LAYER
  5
ED
102
{ACAD_XDICTIONARY
360
534
102
}
330
2
100
AcDbSymbolTableRecord
100
AcDbLayerTableRecord
  2
169
 70
     0
 62
   179
  6
Continuous
370
    -3
390
F
  0
LAYER
  5
EE
102
{ACAD_XDICTIONARY
360
536
102
}
330
2
100
AcDbSymbolTableRecord
100
AcDbLayerTableRecord
  2
170
 70
     0
 62
   179
  6
Continuous
370
    -3
390
F
  0
LAYER
  5
EF
102
{ACAD_XDICTIONARY
360
538
102
}
330
2
100
AcDbSymbolTableRecord
100
AcDbLayerTableRecord
  2
171
 70
     0
 62
   179
  6
Continuous
370
    -3
390
F
  0
LAYER
  5
F0
102
{ACAD_XDICTIONARY
360
53A
102
}
330
2
100
AcDbSymbolTableRecord
100
AcDbLayerTableRecord
  2
172
 70
     0
 62
   179
  6
Continuous
370
    -3
390
F
  0
LAYER
  5
F1
102
{ACAD_XDICTIONARY
360
53C
102
}
330
2
100
AcDbSymbolTableRecord
100
AcDbLayerTableRecord
  2
173
 70
     0
 62
   179
  6
Continuous
370
    -3
390
F
  0
LAYER
  5
F2
102
{ACAD_XDICTIONARY
360
53E
102
}
330
2
100
AcDbSymbolTableRecord
100
AcDbLayerTableRecord
  2
174
 70
     0
 62
   179
  6
Continuous
370
    -3
390
F
  0
LAYER
  5
F3
102
{ACAD_XDICTIONARY
360
540
102
}
330
2
100
AcDbSymbolTableRecord
100
AcDbLayerTableRecord
  2
175
 70
     0
 62
   179
  6
Continuous
370
    -3
390
F
  0
LAYER
  5
F4
102
{ACAD_XDICTIONARY
360
542
102
}
330
2
100
AcDbSymbolTableRecord
100
AcDbLayerTableRecord
  2
176
 70
     0
 62
   179
  6
Continuous
370
    -3
390
F
  0
LAYER
  5
F5
102
{ACAD_XDICTIONARY
360
544
102
}
330
2
100
AcDbSymbolTableRecord
100
AcDbLayerTableRecord
  2
177
 70
     0
 62
   179
  6
Continuous
370
    -3
390
F
  0
LAYER
  5
F6
102
{ACAD_XDICTIONARY
360
546
102
}
330
2
100
AcDbSymbolTableRecord
100
AcDbLayerTableRecord
  2
178
 70
     0
 62
   179
  6
Continuous
370
    -3
390
F
  0
LAYER
  5
F7
102
{ACAD_XDICTIONARY
360
548
102
}
330
2
100
AcDbSymbolTableRecord
100
AcDbLayerTableRecord
  2
179
 70
     0
 62
   179
  6
Continuous
370
    -3
390
F
  0
LAYER
  5
F8
102
{ACAD_XDICTIONARY
360
54A
102
}
330
2
100
AcDbSymbolTableRecord
100
AcDbLayerTableRecord
  2
180
 70
     0
 62
   179
  6
Continuous
370
    -3
390
F
  0
LAYER
  5
F9
102
{ACAD_XDICTIONARY
360
54C
102
}
330
2
100
AcDbSymbolTableRecord
100
AcDbLayerTableRecord
  2
DRAFTING_HIDDEN_ENTITIES
 70
     0
 62
   179
  6
Continuous
370
    -3
390
F
  0
LAYER
  5
557
330
2
100
AcDbSymbolTableRecord
100
AcDbLayerTableRecord
  2
Defpoints
 70
     0
 62
     7
  6
Continuous
290
     0
370
    -3
390
F
  0
ENDTAB
  0
TABLE
  2
STYLE
  5
3
330
0
100
AcDbSymbolTable
 70
     8
  0
STYLE
  5
11
330
3
100
AcDbSymbolTableRecord
100
AcDbTextStyleTableRecord
  2
Standard
 70
     0
 40
0.0
 41
1.0
 50
0.0
 71
     0
 42
0.1377952756
  3
txt
  4

  0
STYLE
  5
259
330
3
100
AcDbSymbolTableRecord
100
AcDbTextStyleTableRecord
  2
SLDTEXTSTYLE0
 70
     0
 40
0.0
 41
0.75
 50
0.0
 71
     0
 42
0.2
  3
TXT
  4

  0
STYLE
  5
3B9
330
3
100
AcDbSymbolTableRecord
100
AcDbTextStyleTableRecord
  2

 70
     1
 40
0.0
 41
1.0
 50
0.0
 71
     0
 42
0.1377952756
  3
genltshp.shx
  4

  0
STYLE
  5
3C9
330
3
100
AcDbSymbolTableRecord
100
AcDbTextStyleTableRecord
  2
ACANSTS
 70
     0
 40
1.0
 41
1.0
 50
0.0
 71
     0
 42
0.1377952756
  3
romans.shx
  4

  0
STYLE
  5
3CA
330
3
100
AcDbSymbolTableRecord
100
AcDbTextStyleTableRecord
  2
ACANSGDT
 70
     0
 40
0.0
 41
1.0
 50
0.0
 71
     0
 42
0.1377952756
  3
amgdt.shx
  4

  0
ENDTAB
  0
TABLE
  2
VIEW
  5
6
330
0
100
AcDbSymbolTable
 70
     0
  0
ENDTAB
  0
TABLE
  2
UCS
  5
7
330
0
100
AcDbSymbolTable
 70
     0
  0
ENDTAB
  0
TABLE
  2
APPID
  5
9
330
0
100
AcDbSymbolTable
 70
    17
  0
APPID
  5
12
330
9
100
AcDbSymbolTableRecord
100
AcDbRegAppTableRecord
  2
ACAD
 70
     0
  0
APPID
  5
33C
330
9
100
AcDbSymbolTableRecord
100
AcDbRegAppTableRecord
  2
MCAD_NO_VIS
 70
     0
  0
APPID
  5
33D
330
9
100
AcDbSymbolTableRecord
100
AcDbRegAppTableRecord
  2
ACAD_TEMP_GRAPHIC
 70
     0
  0
APPID
  5
36B
330
9
100
AcDbSymbolTableRecord
100
AcDbRegAppTableRecord
  2
AD_DRAW
 70
     0
  0
APPID
  5
36E
330
9
100
AcDbSymbolTableRecord
100
AcDbRegAppTableRecord
  2
ACATTRIBSERVICES
 70
     0
  0
APPID
  5
392
330
9
100
AcDbSymbolTableRecord
100
AcDbRegAppTableRecord
  2
DESIGNERASSEMBLIES
 70
     0
  0
APPID
  5
398
330
9
100
AcDbSymbolTableRecord
100
AcDbRegAppTableRecord
  2
ACADM_DIM_EDIT
 70
     0
  0
APPID
  5
399
330
9
100
AcDbSymbolTableRecord
100
AcDbRegAppTableRecord
  2
AMDT_DM_ADJ
 70
     0
  0
APPID
  5
3AF
330
9
100
AcDbSymbolTableRecord
100
AcDbRegAppTableRecord
  2
ACAD_DSTYLE_DIMJAG
 70
     0
  0
APPID
  5
3B0
330
9
100
AcDbSymbolTableRecord
100
AcDbRegAppTableRecord
  2
ACAD_DSTYLE_DIMBREAK
 70
     0
  0
APPID
  5
54E
330
9
100
AcDbSymbolTableRecord
100
AcDbRegAppTableRecord
  2
ACAD_PSEXT
 70
     0
  0
APPID
  5
55E
330
9
100
AcDbSymbolTableRecord
100
AcDbRegAppTableRecord
  2
ACAD_DSTYLE_DIMINSPECT
 70
     0
  0
APPID
  5
71B
330
9
100
AcDbSymbolTableRecord
100
AcDbRegAppTableRecord
  2
ACAD_MLEADERVER
 70
     0
  0
APPID
  5
71C
330
9
100
AcDbSymbolTableRecord
100
AcDbRegAppTableRecord
  2
ACAD_DSTYLE_DIMARC_LENGTH_SYMBOL
 70
     0
  0
APPID
  5
71D
330
9
100
AcDbSymbolTableRecord
100
AcDbRegAppTableRecord
  2
ACAD_DSTYLE_DIM_LINETYPE
 70
     0
  0
APPID
  5
71E
330
9
100
AcDbSymbolTableRecord
100
AcDbRegAppTableRecord
  2
ACAD_DSTYLE_DIM_EXT1_LINETYPE
 70
     0
  0
APPID
  5
71F
330
9
100
AcDbSymbolTableRecord
100
AcDbRegAppTableRecord
  2
ACAD_DSTYLE_DIM_EXT2_LINETYPE
 70
     0
  0
ENDTAB
  0
TABLE
  2
DIMSTYLE
  5
A
330
0
100
AcDbSymbolTable
 70
    14
100
AcDbDimStyleTable
 71
     1
340
27
  0
DIMSTYLE
105
27
330
A
100
AcDbSymbolTableRecord
100
AcDbDimStyleTableRecord
  2
Standard
 70
     0
340
11
  0
DIMSTYLE
105
292
102
{ACAD_REACTORS
330
291
330
2A5
330
2C8
102
}
330
A
100
AcDbSymbolTableRecord
100
AcDbDimStyleTableRecord
  2
SLDDIMSTYLE0
 70
     0
 41
0.25
 44
0.0
 45
0.000000001
 78
     4
 79
     1
140
0.5
147
0.125
148
0.000000001
170
     1
171
     3
173
     1
271
     3
272
     3
274
     3
276
     2
284
    12
340
259
  0
DIMSTYLE
105
2B8
102
{ACAD_REACTORS
330
2B7
102
}
330
A
100
AcDbSymbolTableRecord
100
AcDbDimStyleTableRecord
  2
SLDDIMSTYLE1
 70
     0
 41
0.25
 44
0.0
 45
0.000000001
 78
    12
 79
     3
140
0.5
141
0.0
147
0.125
148
0.000000001
170
     1
171
     3
173
     1
271
     3
272
     3
274
     3
276
     2
284
    12
340
259
  0
DIMSTYLE
105
2E1
330
A
100
AcDbSymbolTableRecord
100
AcDbDimStyleTableRecord
  2
SLDDIMSTYLE2
 70
     0
 41
0.25
 44
0.0
 45
0.000000001
140
0.0
146
0.25
147
0.0
173
     1
271
     0
272
     0
276
     2
340
11
  0
DIMSTYLE
105
3AE
102
{ACAD_REACTORS
330
39E
102
}
330
A
100
AcDbSymbolTableRecord
100
AcDbDimStyleTableRecord
  2
AM_ANSI
 70
     0
  4
mm
 41
0.12
 42
0.05
 43
0.5
 44
0.1
 47
0.1
 48
0.1
 78
     7
 79
     2
140
0.12
141
0.0
146
0.71
147
0.06
176
   256
177
   256
178
     2
274
     4
284
     7
340
11
371
    -1
372
    -1
1001
ACAD_DSTYLE_DIMJAG
1070
   388
1040
1.5
1001
ACAD_DSTYLE_DIMBREAK
1070
   391
1040
0.125
1001
ACAD_DSTYLE_DIMARC_LENGTH_SYMBOL
1070
   379
1070
     1
1001
ACAD_DSTYLE_DIM_LINETYPE
1070
   380
1005
14
1001
ACAD_DSTYLE_DIM_EXT1_LINETYPE
1070
   381
1005
14
1001
ACAD_DSTYLE_DIM_EXT2_LINETYPE
1070
   382
1005
14
  0
DIMSTYLE
105
3BE
330
A
100
AcDbSymbolTableRecord
100
AcDbDimStyleTableRecord
  2
AM_ANSI$3
 70
     0
  4
mm
 41
0.12
 42
0.05
 43
0.5
 44
0.1
 47
0.1
 48
0.1
 78
     7
 79
     2
140
0.12
141
0.0
146
0.71
147
0.06
176
   256
177
   256
178
     2
274
     4
284
     7
288
     1
289
     0
340
11
371
    -1
372
    -1
1001
ACAD_DSTYLE_DIMBREAK
1070
   391
1040
0.125
1001
ACAD_DSTYLE_DIMJAG
1070
   388
1040
1.5
1001
ACAD_DSTYLE_DIMARC_LENGTH_SYMBOL
1070
   379
1070
     1
1001
ACAD_DSTYLE_DIM_LINETYPE
1070
   380
1005
14
1001
ACAD_DSTYLE_DIM_EXT1_LINETYPE
1070
   381
1005
14
1001
ACAD_DSTYLE_DIM_EXT2_LINETYPE
1070
   382
1005
14
  0
DIMSTYLE
105
3BF
330
A
100
AcDbSymbolTableRecord
100
AcDbDimStyleTableRecord
  2
AM_ANSI$4
 70
     0
  4
mm
 41
0.12
 42
0.05
 43
0.5
 44
0.1
 47
0.1
 48
0.1
 78
     7
 79
     2
140
0.12
141
0.0
146
0.71
147
0.06
176
   256
177
   256
178
     2
274
     4
284
     7
288
     1
289
     0
340
11
371
    -1
372
    -1
1001
ACAD_DSTYLE_DIMBREAK
1070
   391
1040
0.125
1001
ACAD_DSTYLE_DIMJAG
1070
   388
1040
1.5
1001
ACAD_DSTYLE_DIMARC_LENGTH_SYMBOL
1070
   379
1070
     1
1001
ACAD_DSTYLE_DIM_LINETYPE
1070
   380
1005
14
1001
ACAD_DSTYLE_DIM_EXT1_LINETYPE
1070
   381
1005
14
1001
ACAD_DSTYLE_DIM_EXT2_LINETYPE
1070
   382
1005
14
  0
DIMSTYLE
105
3C0
330
A
100
AcDbSymbolTableRecord
100
AcDbDimStyleTableRecord
  2
AM_ANSI$7
 70
     0
  4
mm
 41
0.12
 42
0.05
 43
0.5
 44
0.1
 47
0.1
 48
0.1
 78
     7
 79
     2
140
0.12
141
0.0
146
0.71
147
0.06
176
   256
177
   256
178
     2
274
     4
284
     7
340
11
371
    -1
372
    -1
1001
ACAD_DSTYLE_DIMBREAK
1070
   391
1040
0.125
1001
ACAD_DSTYLE_DIMJAG
1070
   388
1040
1.5
1001
ACAD_DSTYLE_DIMARC_LENGTH_SYMBOL
1070
   379
1070
     1
1001
ACAD_DSTYLE_DIM_LINETYPE
1070
   380
1005
14
1001
ACAD_DSTYLE_DIM_EXT1_LINETYPE
1070
   381
1005
14
1001
ACAD_DSTYLE_DIM_EXT2_LINETYPE
1070
   382
1005
14
  0
DIMSTYLE
105
3C1
330
A
100
AcDbSymbolTableRecord
100
AcDbDimStyleTableRecord
  2
AM_ANSI$SF
 70
     0
  4
mm
 41
0.12
 42
0.05
 43
0.5
 44
0.1
 47
0.1
 48
0.1
 75
     1
 76
     1
 78
     7
 79
     2
140
0.12
141
0.0
146
0.71
147
0.06
176
   256
177
   256
178
     2
274
     4
284
     7
340
11
371
    -1
372
    -1
1001
ACAD_DSTYLE_DIMBREAK
1070
   391
1040
0.125
1001
ACAD_DSTYLE_DIMJAG
1070
   388
1040
1.5
1001
ACAD_DSTYLE_DIMARC_LENGTH_SYMBOL
1070
   379
1070
     1
1001
ACAD_DSTYLE_DIM_LINETYPE
1070
   380
1005
14
1001
ACAD_DSTYLE_DIM_EXT1_LINETYPE
1070
   381
1005
14
1001
ACAD_DSTYLE_DIM_EXT2_LINETYPE
1070
   382
1005
14
  0
DIMSTYLE
105
3C6
330
A
100
AcDbSymbolTableRecord
100
AcDbDimStyleTableRecord
  2
AM_ANSI$SH
 70
     0
  4
mm
 41
0.12
 42
0.05
 43
0.5
 44
0.1
 47
0.1
 48
0.1
 75
     1
 76
     1
 78
     7
 79
     2
140
0.12
141
0.0
146
0.71
147
0.06
173
     1
176
   256
177
   256
178
     2
274
     4
284
     7
340
11
343
3C2
371
    -1
372
    -1
1001
ACAD_DSTYLE_DIMBREAK
1070
   391
1040
0.125
1001
ACAD_DSTYLE_DIMJAG
1070
   388
1040
1.5
1001
ACAD_DSTYLE_DIMARC_LENGTH_SYMBOL
1070
   379
1070
     1
1001
ACAD_DSTYLE_DIM_LINETYPE
1070
   380
1005
14
1001
ACAD_DSTYLE_DIM_EXT1_LINETYPE
1070
   381
1005
14
1001
ACAD_DSTYLE_DIM_EXT2_LINETYPE
1070
   382
1005
14
  0
ENDTAB
  0
TABLE
  2
BLOCK_RECORD
  5
1
330
0
100
AcDbSymbolTable
 70
    15
  0
BLOCK_RECORD
  5
1F
330
1
100
AcDbSymbolTableRecord
100
AcDbBlockTableRecord
  2
*Model_Space
340
22
  0
BLOCK_RECORD
  5
1B
330
1
100
AcDbSymbolTableRecord
100
AcDbBlockTableRecord
  2
*Paper_Space
340
1E
  0
BLOCK_RECORD
  5
23
330
1
100
AcDbSymbolTableRecord
100
AcDbBlockTableRecord
  2
*Paper_Space0
340
26
  0
BLOCK_RECORD
  5
25C
330
1
100
AcDbSymbolTableRecord
100
AcDbBlockTableRecord
  2
SW_NOTE_0
340
0
102
{BLKREFS
331
263
102
}
  0
BLOCK_RECORD
  5
264
330
1
100
AcDbSymbolTableRecord
100
AcDbBlockTableRecord
  2
SW_NOTE_1
340
0
102
{BLKREFS
331
26C
102
}
  0
BLOCK_RECORD
  5
27B
330
1
100
AcDbSymbolTableRecord
100
AcDbBlockTableRecord
  2
SW_NOTE_2
340
0
102
{BLKREFS
331
280
102
}
  0
BLOCK_RECORD
  5
293
330
1
100
AcDbSymbolTableRecord
100
AcDbBlockTableRecord
  2
_D
340
0
  0
BLOCK_RECORD
  5
2A6
330
1
100
AcDbSymbolTableRecord
100
AcDbBlockTableRecord
  2
_D_1
340
0
  0
BLOCK_RECORD
  5
2B9
330
1
100
AcDbSymbolTableRecord
100
AcDbBlockTableRecord
  2
_D_2
340
0
  0
BLOCK_RECORD
  5
2C9
330
1
100
AcDbSymbolTableRecord
100
AcDbBlockTableRecord
  2
_D_3
340
0
  0
BLOCK_RECORD
  5
2DA
330
1
100
AcDbSymbolTableRecord
100
AcDbBlockTableRecord
  2
SW_NOTE_3
340
0
102
{BLKREFS
331
2E0
102
}
  0
BLOCK_RECORD
  5
3C2
330
1
100
AcDbSymbolTableRecord
100
AcDbBlockTableRecord
  2
GENAXEH
340
0
  0
ENDTAB
  0
ENDSEC
  0
SECTION
  2
BLOCKS
  0
BLOCK
  5
20
330
1F
100
AcDbEntity
  8
0
100
AcDbBlockBegin
  2
*Model_Space
 70
     0
 10
0.0
 20
0.0
 30
0.0
  3
*Model_Space
  1

  0
ENDBLK
  5
21
330
1F
100
AcDbEntity
  8
0
100
AcDbBlockEnd
  0
BLOCK
  5
1C
330
1B
100
AcDbEntity
 67
     1
  8
0
100
AcDbBlockBegin
  2
*Paper_Space
 70
     0
 10
0.0
 20
0.0
 30
0.0
  3
*Paper_Space
  1

  0
ENDBLK
  5
1D
330
1B
100
AcDbEntity
 67
     1
  8
0
100
AcDbBlockEnd
  0
BLOCK
  5
24
330
23
100
AcDbEntity
 67
     1
  8
0
100
AcDbBlockBegin
  2
*Paper_Space0
 70
     0
 10
0.0
 20
0.0
 30
0.0
  3
*Paper_Space0
  1

  0
ENDBLK
  5
25
330
23
100
AcDbEntity
 67
     1
  8
0
100
AcDbBlockEnd
  0
BLOCK
  5
25D
330
25C
100
AcDbEntity
  8
0
100
AcDbBlockBegin
  2
SW_NOTE_0
 70
     0
 10
0.0
 20
0.0
 30
0.0
  3
SW_NOTE_0
  1

  0
MTEXT
  5
25F
330
25C
100
AcDbEntity
  8
1
 62
     0
100
AcDbMText
 10
0.0
 20
0.3222669349
 30
0.0
 40
0.25
 41
0.0
 71
     1
 72
     1
  1
NOTES:
  7
SLDTEXTSTYLE0
 73
     1
 44
1.0
1001
ACAD
1000
MTEXTBEGIN
1070
    73
1070
     1
1070
    44
1040
1.0
1070
    74
1070
     0
1000
MTEXTEND
  0
MTEXT
  5
260
330
25C
100
AcDbEntity
  8
1
 62
     0
100
AcDbMText
 10
0.0
 20
-0.3443997237
 30
0.0
 40
0.25
 41
0.0
 71
     1
 72
     1
  1
1) TOLERANCES ARE +-0.031IN (0.78MM)
  7
SLDTEXTSTYLE0
 73
     1
 44
1.0
1001
ACAD
1000
MTEXTBEGIN
1070
    73
1070
     1
1070
    44
1040
1.0
1070
    74
1070
     0
1000
MTEXTEND
  0
MTEXT
  5
261
330
25C
100
AcDbEntity
  8
1
 62
     0
100
AcDbMText
 10
0.0
 20
-0.677733053
 30
0.0
 40
0.25
 41
0.0
 71
     1
 72
     1
  1
2) ALL MARKING ON THE TEMPLATE ARE INK,
  7
SLDTEXTSTYLE0
 73
     1
 44
1.0
1001
ACAD
1000
MTEXTBEGIN
1070
    73
1070
     1
1070
    44
1040
1.0
1070
    74
1070
     0
1000
MTEXTEND
  0
MTEXT
  5
262
330
25C
100
AcDbEntity
  8
1
 62
     0
100
AcDbMText
 10
0.0
 20
-1.0110663823
 30
0.0
 40
0.25
 41
0.0
 71
     1
 72
     1
  1
LABEL, OR EMBOSS, UNLESS NOTED
  7
SLDTEXTSTYLE0
 73
     1
 44
1.0
1001
ACAD
1000
MTEXTBEGIN
1070
    73
1070
     1
1070
    44
1040
1.0
1070
    74
1070
     0
1000
MTEXTEND
  0
ENDBLK
  5
25E
330
25C
100
AcDbEntity
  8
0
100
AcDbBlockEnd
  0
BLOCK
  5
265
330
264
100
AcDbEntity
  8
0
100
AcDbBlockBegin
  2
SW_NOTE_1
 70
     0
 10
0.0
 20
0.0
 30
0.0
  3
SW_NOTE_1
  1

  0
MTEXT
  5
267
330
264
100
AcDbEntity
  8
1
 62
     0
100
AcDbMText
 10
0.0
 20
0.1074223116
 30
0.0
 40
0.0833333333
 41
0.0
 71
     1
 72
     1
  1
THIS PRINT IS THE PROPERTY OF ELKAY
  7
SLDTEXTSTYLE0
 73
     1
 44
1.0
1001
ACAD
1000
MTEXTBEGIN
1070
    73
1070
     1
1070
    44
1040
1.0
1070
    74
1070
     0
1000
MTEXTEND
  0
MTEXT
  5
268
330
264
100
AcDbEntity
  8
1
 62
     0
100
AcDbMText
 10
0.0
 20
-0.0036887981
 30
0.0
 40
0.0833333333
 41
0.0
 71
     1
 72
     1
  1
AND IS LOANED SUBJECT TO RETURN UPON THE EXPRESS
  7
SLDTEXTSTYLE0
 73
     1
 44
1.0
1001
ACAD
1000
MTEXTBEGIN
1070
    73
1070
     1
1070
    44
1040
1.0
1070
    74
1070
     0
1000
MTEXTEND
  0
MTEXT
  5
269
330
264
100
AcDbEntity
  8
1
 62
     0
100
AcDbMText
 10
0.0
 20
-0.1147999079
 30
0.0
 40
0.0833333333
 41
0.0
 71
     1
 72
     1
  1
CONDITION THAT IT IS NOT TO BE USED DIRECTLY OR
  7
SLDTEXTSTYLE0
 73
     1
 44
1.0
1001
ACAD
1000
MTEXTBEGIN
1070
    73
1070
     1
1070
    44
1040
1.0
1070
    74
1070
     0
1000
MTEXTEND
  0
MTEXT
  5
26A
330
264
100
AcDbEntity
  8
1
 62
     0
100
AcDbMText
 10
0.0
 20
-0.2259110177
 30
0.0
 40
0.0833333333
 41
0.0
 71
     1
 72
     1
  1
INDIRECTLY WITHOUT OUR PERMISSION FOR PURPOSES OTHER
  7
SLDTEXTSTYLE0
 73
     1
 44
1.0
1001
ACAD
1000
MTEXTBEGIN
1070
    73
1070
     1
1070
    44
1040
1.0
1070
    74
1070
     0
1000
MTEXTEND
  0
MTEXT
  5
26B
330
264
100
AcDbEntity
  8
1
 62
     0
100
AcDbMText
 10
0.0
 20
-0.3370221274
 30
0.0
 40
0.0833333333
 41
0.0
 71
     1
 72
     1
  1
THAN THOSE FOR WHICH IT WAS FURNISHED.
  7
SLDTEXTSTYLE0
 73
     1
 44
1.0
1001
ACAD
1000
MTEXTBEGIN
1070
    73
1070
     1
1070
    44
1040
1.0
1070
    74
1070
     0
1000
MTEXTEND
  0
ENDBLK
  5
266
330
264
100
AcDbEntity
  8
0
100
AcDbBlockEnd
  0
BLOCK
  5
27C
330
27B
100
AcDbEntity
  8
0
100
AcDbBlockBegin
  2
SW_NOTE_2
 70
     0
 10
0.0
 20
0.0
 30
0.0
  3
SW_NOTE_2
  1

  0
MTEXT
  5
27E
330
27B
100
AcDbEntity
  8
1
 62
     0
100
AcDbMText
 10
0.6286909449
 20
0.1776274445
 30
0.0
 40
0.1377952756
 41
0.0
 71
     2
 72
     1
  1
32-ECT E-FLUTE
  7
SLDTEXTSTYLE0
 73
     1
 44
1.0
1001
ACAD
1000
MTEXTBEGIN
1070
    73
1070
     1
1070
    44
1040
1.0
1070
    74
1070
     0
1000
MTEXTEND
  0
MTEXT
  5
27F
330
27B
100
AcDbEntity
  8
1
 62
     0
100
AcDbMText
 10
0.6288584504000001
 20
0.0004620978
 30
0.0
 40
0.1377952756
 41
0.0
 71
     2
 72
     1
  1
KRAFT BOTH SIDES
  7
SLDTEXTSTYLE0
 73
     1
 44
1.0
1001
ACAD
1000
MTEXTBEGIN
1070
    73
1070
     1
1070
    44
1040
1.0
1070
    74
1070
     0
1000
MTEXTEND
  0
ENDBLK
  5
27D
330
27B
100
AcDbEntity
  8
0
100
AcDbBlockEnd
  0
BLOCK
  5
294
330
293
100
AcDbEntity
  8
0
100
AcDbBlockBegin
  2
_D
 70
     0
 10
0.0
 20
0.0
 30
0.0
  3
_D
  1

  0
LINE
  5
611
330
293
100
AcDbEntity
  8
1
 62
     0
370
    -2
100
AcDbLine
 10
25.4325065929
 20
13.6537237712
 30
0.0
 11
26.33652480983748
 21
13.6537237712
 31
0.0
  0
LINE
  5
612
330
293
100
AcDbEntity
  8
1
 62
     0
370
    -2
100
AcDbLine
 10
25.4325065929
 20
14.6537237712
 30
0.0
 11
26.33652480983748
 21
14.6537237712
 31
0.0
  0
LINE
  5
613
330
293
100
AcDbEntity
  8
1
 62
     0
370
    -2
100
AcDbLine
 10
26.33652480983748
 20
13.9037237712
 30
0.0
 11
26.33652480983748
 21
14.4037237712
 31
0.0
  0
LINE
  5
614
330
293
100
AcDbEntity
  8
1
 62
     0
370
    -2
100
AcDbLine
 10
26.33652480983748
 20
14.6537237712
 30
0.0
 11
26.33652480983748
 21
15.79261315699999
 31
0.0
  0
LINE
  5
615
330
293
100
AcDbEntity
  8
1
 62
     0
370
    -2
100
AcDbLine
 10
26.33652480983748
 20
15.79261315699999
 30
0.0
 11
26.58652480983748
 21
15.79261315699999
 31
0.0
  0
SOLID
  5
616
330
293
100
AcDbEntity
  8
1
 62
     0
100
AcDbTrace
 10
26.29485814317081
 20
13.9037237712
 30
0.0
 11
26.37819147650415
 21
13.9037237712
 31
0.0
 12
26.33652480983748
 22
13.6537237712
 32
0.0
 13
26.33652480983748
 23
13.6537237712
 33
0.0
  0
SOLID
  5
617
330
293
100
AcDbEntity
  8
1
 62
     0
100
AcDbTrace
 10
26.29485814317081
 20
14.4037237712
 30
0.0
 11
26.37819147650415
 21
14.4037237712
 31
0.0
 12
26.33652480983748
 22
14.6537237712
 32
0.0
 13
26.33652480983748
 23
14.6537237712
 33
0.0
  0
MTEXT
  5
618
330
293
100
AcDbEntity
  8
1
 62
     0
100
AcDbMText
 10
27.63027480983748
 20
16.25927982366667
 30
0.0
 40
0.35
 41
0.0
 71
     2
 72
     1
  1
\A1;1.000\P [25.400]
  7
SLDTEXTSTYLE0
 73
     1
 44
1.0
1001
ACAD
1000
MTEXTBEGIN
1070
    73
1070
     1
1070
    44
1040
1.0
1070
    74
1070
     0
1000
MTEXTEND
  0
POINT
  5
619
330
293
100
AcDbEntity
  8
Defpoints
 62
     0
100
AcDbPoint
 10
25.3700065929
 20
13.6537237712
 30
0.0
  0
POINT
  5
61A
330
293
100
AcDbEntity
  8
Defpoints
 62
     0
100
AcDbPoint
 10
25.3700065929
 20
14.6537237712
 30
0.0
  0
POINT
  5
61B
330
293
100
AcDbEntity
  8
Defpoints
 62
     0
100
AcDbPoint
 10
26.33652480983748
 20
14.6537237712
 30
0.0
  0
ENDBLK
  5
295
330
293
100
AcDbEntity
  8
0
100
AcDbBlockEnd
  0
BLOCK
  5
2A7
330
2A6
100
AcDbEntity
  8
0
100
AcDbBlockBegin
  2
_D_1
 70
     0
 10
0.0
 20
0.0
 30
0.0
  3
_D_1
  1

  0
LINE
  5
61C
330
2A6
100
AcDbEntity
  8
1
 62
     0
370
    -2
100
AcDbLine
 10
10.7485089702
 20
20.6864636743
 30
0.0
 11
8.723736369906395
 21
20.6864636743
 31
0.0
  0
LINE
  5
61D
330
2A6
100
AcDbEntity
  8
1
 62
     0
370
    -2
100
AcDbLine
 10
10.7485089702
 20
5.186463674299999
 30
0.0
 11
8.723736369906392
 21
5.1864636743
 31
0.0
  0
LINE
  5
61E
330
2A6
100
AcDbEntity
  8
1
 62
     0
370
    -2
100
AcDbLine
 10
8.723736369906395
 20
20.4364636743
 30
0.0
 11
8.723736369906394
 21
13.52813034096666
 31
0.0
  0
LINE
  5
61F
330
2A6
100
AcDbEntity
  8
1
 62
     0
370
    -2
100
AcDbLine
 10
8.723736369906392
 20
5.4364636743
 30
0.0
 11
8.723736369906394
 21
12.34479700763333
 31
0.0
  0
SOLID
  5
620
330
2A6
100
AcDbEntity
  8
1
 62
     0
100
AcDbTrace
 10
8.682069703239729
 20
20.4364636743
 30
0.0
 11
8.765403036573061
 21
20.4364636743
 31
0.0
 12
8.723736369906395
 22
20.6864636743
 32
0.0
 13
8.723736369906395
 23
20.6864636743
 33
0.0
  0
SOLID
  5
621
330
2A6
100
AcDbEntity
  8
1
 62
     0
100
AcDbTrace
 10
8.682069703239726
 20
5.4364636743
 30
0.0
 11
8.765403036573058
 21
5.4364636743
 31
0.0
 12
8.723736369906392
 22
5.1864636743
 32
0.0
 13
8.723736369906392
 23
5.1864636743
 33
0.0
  0
MTEXT
  5
622
330
2A6
100
AcDbEntity
  8
1
 62
     0
100
AcDbMText
 10
8.72373636990639
 20
13.40313034096667
 30
0.0
 40
0.35
 41
0.0
 71
     2
 72
     1
  1
\A1;15.500\P [393.700]
  7
SLDTEXTSTYLE0
 73
     1
 44
1.0
1001
ACAD
1000
MTEXTBEGIN
1070
    73
1070
     1
1070
    44
1040
1.0
1070
    74
1070
     0
1000
MTEXTEND
  0
POINT
  5
623
330
2A6
100
AcDbEntity
  8
Defpoints
 62
     0
100
AcDbPoint
 10
10.8110089702
 20
20.6864636743
 30
0.0
  0
POINT
  5
624
330
2A6
100
AcDbEntity
  8
Defpoints
 62
     0
100
AcDbPoint
 10
10.8110089702
 20
5.186463674299999
 30
0.0
  0
POINT
  5
625
330
2A6
100
AcDbEntity
  8
Defpoints
 62
     0
100
AcDbPoint
 10
8.723736369906392
 20
5.1864636743
 30
0.0
  0
ENDBLK
  5
2A8
330
2A6
100
AcDbEntity
  8
0
100
AcDbBlockEnd
  0
BLOCK
  5
2BA
330
2B9
100
AcDbEntity
  8
0
100
AcDbBlockBegin
  2
_D_2
 70
     0
 10
0.0
 20
0.0
 30
0.0
  3
_D_2
  1

  0
LINE
  5
64B
330
2B9
100
AcDbEntity
  8
1
 62
     0
370
    -2
100
AcDbLine
 10
12.55752864366451
 20
19.21271817405964
 30
0.0
 11
12.30752864366451
 21
19.21271817405964
 31
0.0
  0
LINE
  5
64C
330
2B9
100
AcDbEntity
  8
1
 62
     0
370
    -2
100
AcDbLine
 10
12.30752864366451
 20
19.21271817405964
 30
0.0
 11
10.66105583173997
 21
20.29782474089919
 31
0.0
  0
MTEXT
  5
64D
330
2B9
100
AcDbEntity
  8
1
 62
     0
100
AcDbMText
 10
12.68252864366451
 20
19.6793848407263
 30
0.0
 40
0.35
 41
0.0
 71
     1
 72
     1
  1
\A1;R.466\P [R11.825]
  7
SLDTEXTSTYLE0
 73
     1
 44
1.0
1001
ACAD
1000
MTEXTBEGIN
1070
    73
1070
     1
1070
    44
1040
1.0
1070
    74
1070
     0
1000
MTEXTEND
  0
SOLID
  5
64E
330
2B9
100
AcDbEntity
  8
1
 62
     0
100
AcDbTrace
 10
10.68398454318765
 20
20.33261533305368
 30
0.0
 11
10.63812712029229
 21
20.26303414874469
 31
0.0
 12
10.45231227881303
 22
20.43539700958528
 32
0.0
 13
10.45231227881303
 23
20.43539700958528
 33
0.0
  0
POINT
  5
64F
330
2B9
100
AcDbEntity
  8
Defpoints
 62
     0
100
AcDbPoint
 10
10.45231227881303
 20
20.43539700958528
 30
0.0
  0
POINT
  5
650
330
2B9
100
AcDbEntity
  8
Defpoints
 62
     0
100
AcDbPoint
 10
10.06358904926688
 20
20.69158473768422
 30
0.0
  0
ENDBLK
  5
2BB
330
2B9
100
AcDbEntity
  8
0
100
AcDbBlockEnd
  0
BLOCK
  5
2CA
330
2C9
100
AcDbEntity
  8
0
100
AcDbBlockBegin
  2
_D_3
 70
     0
 10
0.0
 20
0.0
 30
0.0
  3
_D_3
  1

  0
LINE
  5
607
330
2C9
100
AcDbEntity
  8
1
 62
     0
370
    -2
100
AcDbLine
 10
10.3454577902
 20
5.589514854299999
 30
0.0
 11
10.3454577902
 21
3.847880997099999
 31
0.0
  0
LINE
  5
608
330
2C9
100
AcDbEntity
  8
1
 62
     0
370
    -2
100
AcDbLine
 10
32.0954577902
 20
5.589514854299999
 30
0.0
 11
32.0954577902
 21
3.847880997099999
 31
0.0
  0
LINE
  5
609
330
2C9
100
AcDbEntity
  8
1
 62
     0
370
    -2
100
AcDbLine
 10
10.5954577902
 20
3.847880997099999
 30
0.0
 11
20.0235827902
 21
3.847880997099999
 31
0.0
  0
LINE
  5
60A
330
2C9
100
AcDbEntity
  8
1
 62
     0
370
    -2
100
AcDbLine
 10
31.8454577902
 20
3.847880997099999
 30
0.0
 11
22.4173327902
 21
3.847880997099999
 31
0.0
  0
SOLID
  5
60B
330
2C9
100
AcDbEntity
  8
1
 62
     0
100
AcDbTrace
 10
10.5954577902
 20
3.889547663766666
 30
0.0
 11
10.5954577902
 21
3.806214330433333
 31
0.0
 12
10.3454577902
 22
3.847880997099999
 32
0.0
 13
10.3454577902
 23
3.847880997099999
 33
0.0
  0
SOLID
  5
60C
330
2C9
100
AcDbEntity
  8
1
 62
     0
100
AcDbTrace
 10
31.8454577902
 20
3.889547663766666
 30
0.0
 11
31.8454577902
 21
3.806214330433333
 31
0.0
 12
32.0954577902
 22
3.847880997099999
 32
0.0
 13
32.0954577902
 23
3.847880997099999
 33
0.0
  0
MTEXT
  5
60D
330
2C9
100
AcDbEntity
  8
1
 62
     0
100
AcDbMText
 10
21.2204577902
 20
4.314547663766666
 30
0.0
 40
0.35
 41
0.0
 71
     2
 72
     1
  1
\A1;21.750\P [552.450]
  7
SLDTEXTSTYLE0
 73
     1
 44
1.0
1001
ACAD
1000
MTEXTBEGIN
1070
    73
1070
     1
1070
    44
1040
1.0
1070
    74
1070
     0
1000
MTEXTEND
  0
POINT
  5
60E
330
2C9
100
AcDbEntity
  8
Defpoints
 62
     0
100
AcDbPoint
 10
10.3454577902
 20
5.652014854299999
 30
0.0
  0
POINT
  5
60F
330
2C9
100
AcDbEntity
  8
Defpoints
 62
     0
100
AcDbPoint
 10
32.0954577902
 20
5.652014854299999
 30
0.0
  0
POINT
  5
610
330
2C9
100
AcDbEntity
  8
Defpoints
 62
     0
100
AcDbPoint
 10
32.0954577902
 20
3.847880997099999
 30
0.0
  0
ENDBLK
  5
2CB
330
2C9
100
AcDbEntity
  8
0
100
AcDbBlockEnd
  0
BLOCK
  5
2DB
330
2DA
100
AcDbEntity
  8
0
100
AcDbBlockBegin
  2
SW_NOTE_3
 70
     0
 10
0.0
 20
0.0
 30
0.0
  3
SW_NOTE_3
  1

  0
MTEXT
  5
2DD
330
2DA
100
AcDbEntity
  8
1
 62
     0
100
AcDbMText
 10
-3.107577389499999
 20
0.9177640435999999
 30
0.0
 40
0.2916666667
 41
0.0
 71
     1
 72
     1
  1
CENTER CREASE
  7
SLDTEXTSTYLE0
 73
     1
 44
1.0
1001
ACAD
1000
MTEXTBEGIN
1070
    73
1070
     1
1070
    44
1040
1.0
1070
    74
1070
     0
1000
MTEXTEND
  0
MTEXT
  5
2DE
330
2DA
100
AcDbEntity
  8
1
 62
     0
100
AcDbMText
 10
-3.107577389499999
 20
0.5288751595000001
 30
0.0
 40
0.2916666667
 41
0.0
 71
     1
 72
     1
  1
OR INK LINE
  7
SLDTEXTSTYLE0
 73
     1
 44
1.0
1001
ACAD
1000
MTEXTBEGIN
1070
    73
1070
     1
1070
    44
1040
1.0
1070
    74
1070
     0
1000
MTEXTEND
  0
MTEXT
  5
2DF
330
2DA
100
AcDbEntity
  8
1
 62
     0
100
AcDbMText
 10
-3.107577389499999
 20
0.1399862753
 30
0.0
 40
0.2916666667
 41
0.0
 71
     1
 72
     1
  1
4 PLCS
  7
SLDTEXTSTYLE0
 73
     1
 44
1.0
1001
ACAD
1000
MTEXTBEGIN
1070
    73
1070
     1
1070
    44
1040
1.0
1070
    74
1070
     0
1000
MTEXTEND
  0
ENDBLK
  5
2DC
330
2DA
100
AcDbEntity
  8
0
100
AcDbBlockEnd
  0
BLOCK
  5
3C4
330
3C2
100
AcDbEntity
  8
0
100
AcDbBlockBegin
  2
GENAXEH
 70
     0
 10
0.0
 20
0.0
 30
0.0
  3
GENAXEH
  1

  0
LINE
  5
3C3
330
3C2
100
AcDbEntity
  8
0
100
AcDbLine
 10
-1.0
 20
0.0
 30
0.0
 11
1.0
 21
0.0
 31
0.0
  0
ENDBLK
  5
3C5
330
3C2
100
AcDbEntity
  8
0
100
AcDbBlockEnd
  0
ENDSEC
  0
SECTION
  2
ENTITIES
  0
LINE
  5
FE
330
1F
100
AcDbEntity
  8
126
  6
Continuous
 62
     3
100
AcDbLine
 10
32.00767417057454
 20
2.995142343245089
 30
0.0
 11
32.19730517057454
 21
2.995142343245089
 31
0.0
  0
LINE
  5
FF
330
1F
100
AcDbEntity
  8
126
  6
Continuous
 62
     3
100
AcDbLine
 10
31.68124917057454
 20
3.156196743245089
 30
0.0
 11
31.94355617057454
 21
3.156196743245089
 31
0.0
  0
LINE
  5
100
330
1F
100
AcDbEntity
  8
126
  6
Continuous
 62
     3
100
AcDbLine
 10
31.64802317057454
 20
2.967767343245089
 30
0.0
 11
31.92302317057454
 21
2.967767343245089
 31
0.0
  0
LINE
  5
101
330
1F
100
AcDbEntity
  8
126
  6
Continuous
 62
     3
100
AcDbLine
 10
31.64802317057454
 20
2.967767343245089
 30
0.0
 11
31.68124917057454
 21
3.156196743245089
 31
0.0
  0
LINE
  5
102
330
1F
100
AcDbEntity
  8
126
  6
Continuous
 62
     3
100
AcDbLine
 10
31.72856317057454
 20
3.128821743245089
 30
0.0
 11
31.93872917057454
 21
3.128821743245089
 31
0.0
  0
LINE
  5
103
330
1F
100
AcDbEntity
  8
126
  6
Continuous
 62
     3
100
AcDbLine
 10
31.95068017057454
 20
2.967767343245089
 30
0.0
 11
31.98390517057454
 21
3.156196743245089
 31
0.0
  0
LINE
  5
104
330
1F
100
AcDbEntity
  8
126
  6
Continuous
 62
     3
100
AcDbLine
 10
31.98390517057454
 20
3.156196743245089
 30
0.0
 11
32.03607217057454
 21
3.156196743245089
 31
0.0
  0
LINE
  5
105
330
1F
100
AcDbEntity
  8
126
  6
Continuous
 62
     3
100
AcDbLine
 10
31.95068017057454
 20
2.967767343245089
 30
0.0
 11
32.19247817057454
 21
2.967767343245089
 31
0.0
  0
LINE
  5
106
330
1F
100
AcDbEntity
  8
126
  6
Continuous
 62
     3
100
AcDbLine
 10
32.00767417057454
 20
2.995142343245089
 30
0.0
 11
32.03607217057454
 21
3.156196743245089
 31
0.0
  0
LINE
  5
107
330
1F
100
AcDbEntity
  8
126
  6
Continuous
 62
     3
100
AcDbLine
 10
31.71920117057454
 20
3.075732043245089
 30
0.0
 11
31.72856317057454
 21
3.128821743245089
 31
0.0
  0
LINE
  5
108
330
1F
100
AcDbEntity
  8
126
  6
Continuous
 62
     3
100
AcDbLine
 10
31.93872917057454
 20
3.128821743245089
 30
0.0
 11
31.94355617057454
 21
3.156196743245089
 31
0.0
  0
LINE
  5
109
330
1F
100
AcDbEntity
  8
126
  6
Continuous
 62
     3
100
AcDbLine
 10
31.91182617057453
 20
3.048232043245088
 30
0.0
 11
31.91667517057453
 21
3.075732043245089
 31
0.0
  0
LINE
  5
10A
330
1F
100
AcDbEntity
  8
126
  6
Continuous
 62
     3
100
AcDbLine
 10
33.14560417057454
 20
3.156196743245089
 30
0.0
 11
32.99132817057454
 21
3.041017343245089
 31
0.0
  0
LINE
  5
10B
330
1F
100
AcDbEntity
  8
126
  6
Continuous
 62
     3
100
AcDbLine
 10
33.14560417057454
 20
3.156196743245089
 30
0.0
 11
33.08438417057454
 21
3.156196743245089
 31
0.0
  0
LINE
  5
10C
330
1F
100
AcDbEntity
  8
126
  6
Continuous
 62
     3
100
AcDbLine
 10
33.08438417057454
 20
3.156196743245089
 30
0.0
 11
32.97103217057454
 21
3.071570843245089
 31
0.0
  0
LINE
  5
10D
330
1F
100
AcDbEntity
  8
126
  6
Continuous
 62
     3
100
AcDbLine
 10
31.92302317057454
 20
2.967767343245089
 30
0.0
 11
31.92785017057454
 21
2.995142343245089
 31
0.0
  0
LINE
  5
10E
330
1F
100
AcDbEntity
  8
126
  6
Continuous
 62
     3
100
AcDbLine
 10
31.70857217057454
 20
2.995142343245089
 30
0.0
 11
31.71793317057454
 21
3.048232043245088
 31
0.0
  0
LINE
  5
10F
330
1F
100
AcDbEntity
  8
126
  6
Continuous
 62
     3
100
AcDbLine
 10
31.91667517057453
 20
3.075732043245089
 30
0.0
 11
31.71920117057454
 21
3.075732043245089
 31
0.0
  0
LINE
  5
110
330
1F
100
AcDbEntity
  8
126
  6
Continuous
 62
     3
100
AcDbLine
 10
31.71793317057454
 20
3.048232043245088
 30
0.0
 11
31.91182617057453
 21
3.048232043245088
 31
0.0
  0
LINE
  5
111
330
1F
100
AcDbEntity
  8
126
  6
Continuous
 62
     3
100
AcDbLine
 10
32.54617817057454
 20
3.156196743245089
 30
0.0
 11
32.40305417057454
 21
3.075005043245089
 31
0.0
  0
LINE
  5
112
330
1F
100
AcDbEntity
  8
126
  6
Continuous
 62
     3
100
AcDbLine
 10
31.70857217057454
 20
2.995142343245089
 30
0.0
 11
31.92785017057454
 21
2.995142343245089
 31
0.0
  0
LINE
  5
113
330
1F
100
AcDbEntity
  8
126
  6
Continuous
 62
     3
100
AcDbLine
 10
32.19247817057454
 20
2.967767343245089
 30
0.0
 11
32.19730517057454
 21
2.995142343245089
 31
0.0
  0
LINE
  5
114
330
1F
100
AcDbEntity
  8
126
  6
Continuous
 62
     3
100
AcDbLine
 10
32.47195117057454
 20
3.156196743245089
 30
0.0
 11
32.54617817057454
 21
3.156196743245089
 31
0.0
  0
LINE
  5
115
330
1F
100
AcDbEntity
  8
126
  6
Continuous
 62
     3
100
AcDbLine
 10
32.43855717057454
 20
2.967767343245089
 30
0.0
 11
32.51977817057454
 21
2.967767343245089
 31
0.0
  0
LINE
  5
116
330
1F
100
AcDbEntity
  8
126
  6
Continuous
 62
     3
100
AcDbLine
 10
32.27857917057454
 20
3.004392343245088
 30
0.0
 11
32.27212117057454
 21
2.967767343245089
 31
0.0
  0
LINE
  5
117
330
1F
100
AcDbEntity
  8
126
  6
Continuous
 62
     3
100
AcDbLine
 10
32.30534617057454
 20
3.156196743245089
 30
0.0
 11
32.28682917057454
 21
3.051180143245089
 31
0.0
  0
LINE
  5
118
330
1F
100
AcDbEntity
  8
126
  6
Continuous
 62
     3
100
AcDbLine
 10
32.69381617057454
 20
3.156196743245089
 30
0.0
 11
32.78531617057454
 21
3.156196743245089
 31
0.0
  0
LINE
  5
119
330
1F
100
AcDbEntity
  8
126
  6
Continuous
 62
     3
100
AcDbLine
 10
32.81592217057454
 20
2.967767343245089
 30
0.0
 11
32.87694117057454
 21
2.967767343245089
 31
0.0
  0
LINE
  5
11A
330
1F
100
AcDbEntity
  8
126
  6
Continuous
 62
     3
100
AcDbLine
 10
32.35283917057454
 20
3.046518943245088
 30
0.0
 11
32.27857917057454
 21
3.004392343245088
 31
0.0
  0
LINE
  5
11B
330
1F
100
AcDbEntity
  8
126
  6
Continuous
 62
     3
100
AcDbLine
 10
32.47195117057454
 20
3.156196743245089
 30
0.0
 11
32.28682917057454
 21
3.051180143245089
 31
0.0
  0
LINE
  5
11C
330
1F
100
AcDbEntity
  8
126
  6
Continuous
 62
     3
100
AcDbLine
 10
32.30534617057454
 20
3.156196743245089
 30
0.0
 11
32.25317817057454
 21
3.156196743245089
 31
0.0
  0
LINE
  5
11D
330
1F
100
AcDbEntity
  8
126
  6
Continuous
 62
     3
100
AcDbLine
 10
32.21995317057454
 20
2.967767343245089
 30
0.0
 11
32.25317817057454
 21
3.156196743245089
 31
0.0
  0
LINE
  5
11E
330
1F
100
AcDbEntity
  8
126
  6
Continuous
 62
     3
100
AcDbLine
 10
32.51977817057454
 20
2.967767343245089
 30
0.0
 11
32.40305417057454
 21
3.075005043245089
 31
0.0
  0
LINE
  5
11F
330
1F
100
AcDbEntity
  8
126
  6
Continuous
 62
     3
100
AcDbLine
 10
32.43855717057454
 20
2.967767343245089
 30
0.0
 11
32.35283917057454
 21
3.046518943245088
 31
0.0
  0
LINE
  5
120
330
1F
100
AcDbEntity
  8
126
  6
Continuous
 62
     3
100
AcDbLine
 10
32.27212117057454
 20
2.967767343245089
 30
0.0
 11
32.21995317057454
 21
2.967767343245089
 31
0.0
  0
LINE
  5
121
330
1F
100
AcDbEntity
  8
126
  6
Continuous
 62
     3
100
AcDbLine
 10
32.52894117057454
 20
2.967767343245089
 30
0.0
 11
32.57760717057454
 21
2.967767343245089
 31
0.0
  0
LINE
  5
122
330
1F
100
AcDbEntity
  8
126
  6
Continuous
 62
     3
100
AcDbLine
 10
32.63273217057454
 20
3.030767343245089
 30
0.0
 11
32.73079317057454
 21
3.142837943245089
 31
0.0
  0
LINE
  5
123
330
1F
100
AcDbEntity
  8
126
  6
Continuous
 62
     3
100
AcDbLine
 10
32.78528817057454
 20
3.030767343245089
 30
0.0
 11
32.73079317057454
 21
3.142837943245089
 31
0.0
  0
LINE
  5
124
330
1F
100
AcDbEntity
  8
126
  6
Continuous
 62
     3
100
AcDbLine
 10
32.52894117057454
 20
2.967767343245089
 30
0.0
 11
32.69381617057454
 21
3.156196743245089
 31
0.0
  0
LINE
  5
125
330
1F
100
AcDbEntity
  8
126
  6
Continuous
 62
     3
100
AcDbLine
 10
32.60965417057454
 20
3.004392343245088
 30
0.0
 11
32.79811317057454
 21
3.004392343245088
 31
0.0
  0
LINE
  5
126
330
1F
100
AcDbEntity
  8
126
  6
Continuous
 62
     3
100
AcDbLine
 10
32.87694117057454
 20
2.967767343245089
 30
0.0
 11
32.78531617057454
 21
3.156196743245089
 31
0.0
  0
LINE
  5
127
330
1F
100
AcDbEntity
  8
126
  6
Continuous
 62
     3
100
AcDbLine
 10
32.63273217057454
 20
3.030767343245089
 30
0.0
 11
32.78528817057454
 21
3.030767343245089
 31
0.0
  0
LINE
  5
128
330
1F
100
AcDbEntity
  8
126
  6
Continuous
 62
     3
100
AcDbLine
 10
32.57760717057454
 20
2.967767343245089
 30
0.0
 11
32.60965417057454
 21
3.004392343245088
 31
0.0
  0
LINE
  5
129
330
1F
100
AcDbEntity
  8
126
  6
Continuous
 62
     3
100
AcDbLine
 10
32.81592217057454
 20
2.967767343245089
 30
0.0
 11
32.79811317057454
 21
3.004392343245088
 31
0.0
  0
LINE
  5
12A
330
1F
100
AcDbEntity
  8
126
  6
Continuous
 62
     3
100
AcDbLine
 10
33.08438417057454
 20
3.156196743245089
 30
0.0
 11
33.14560417057454
 21
3.156196743245089
 31
0.0
  0
LINE
  5
12B
330
1F
100
AcDbEntity
  8
126
  6
Continuous
 62
     3
100
AcDbLine
 10
32.92269117057454
 20
2.967767343245089
 30
0.0
 11
32.97841217057454
 21
2.967767343245089
 31
0.0
  0
LINE
  5
12C
330
1F
100
AcDbEntity
  8
126
  6
Continuous
 62
     3
100
AcDbLine
 10
32.92269117057454
 20
2.967767343245089
 30
0.0
 11
32.93382617057454
 21
3.030918143245088
 31
0.0
  0
LINE
  5
12D
330
1F
100
AcDbEntity
  8
126
  6
Continuous
 62
     3
100
AcDbLine
 10
32.97841217057454
 20
2.967767343245089
 30
0.0
 11
32.99132817057454
 21
3.041017343245089
 31
0.0
  0
LINE
  5
12E
330
1F
100
AcDbEntity
  8
126
  6
Continuous
 62
     3
100
AcDbLine
 10
32.89135017057454
 20
3.156196743245089
 30
0.0
 11
32.97103217057454
 21
3.071570843245089
 31
0.0
  0
LINE
  5
12F
330
1F
100
AcDbEntity
  8
126
  6
Continuous
 62
     3
100
AcDbLine
 10
32.93382617057454
 20
3.030918143245088
 30
0.0
 11
32.81586717057454
 21
3.156196743245089
 31
0.0
  0
LINE
  5
130
330
1F
100
AcDbEntity
  8
126
  6
Continuous
 62
     3
100
AcDbLine
 10
32.81586717057454
 20
3.156196743245089
 30
0.0
 11
32.89135017057454
 21
3.156196743245089
 31
0.0
  0
LINE
  5
131
330
1F
100
AcDbEntity
  8
126
  6
Continuous
 62
     3
100
AcDbLine
 10
33.13455617057454
 20
3.156196743245089
 30
0.0
 11
33.13927917057454
 21
3.151474043245089
 31
0.0
  0
LINE
  5
132
330
1F
100
AcDbEntity
  8
126
  6
Continuous
 62
     3
100
AcDbLine
 10
33.12350717057454
 20
3.156196743245089
 30
0.0
 11
33.13295317057454
 21
3.146751243245089
 31
0.0
  0
LINE
  5
133
330
1F
100
AcDbEntity
  8
126
  6
Continuous
 62
     3
100
AcDbLine
 10
33.11245917057454
 20
3.156196743245089
 30
0.0
 11
33.12662717057454
 21
3.142028543245089
 31
0.0
  0
LINE
  5
134
330
1F
100
AcDbEntity
  8
126
  6
Continuous
 62
     3
100
AcDbLine
 10
33.10141017057454
 20
3.156196743245089
 30
0.0
 11
33.12030117057453
 21
3.137305843245089
 31
0.0
  0
LINE
  5
135
330
1F
100
AcDbEntity
  8
126
  6
Continuous
 62
     3
100
AcDbLine
 10
33.09036217057454
 20
3.156196743245089
 30
0.0
 11
33.11397517057454
 21
3.132583043245089
 31
0.0
  0
LINE
  5
136
330
1F
100
AcDbEntity
  8
126
  6
Continuous
 62
     3
100
AcDbLine
 10
33.08148017057454
 20
3.154029343245089
 30
0.0
 11
33.10764917057454
 21
3.127860343245089
 31
0.0
  0
LINE
  5
137
330
1F
100
AcDbEntity
  8
126
  6
Continuous
 62
     3
100
AcDbLine
 10
33.07515517057454
 20
3.149306643245088
 30
0.0
 11
33.10132417057454
 21
3.123137643245089
 31
0.0
  0
LINE
  5
138
330
1F
100
AcDbEntity
  8
126
  6
Continuous
 62
     3
100
AcDbLine
 10
33.06882917057454
 20
3.144583843245089
 30
0.0
 11
33.09499817057453
 21
3.118414943245089
 31
0.0
  0
LINE
  5
139
330
1F
100
AcDbEntity
  8
126
  6
Continuous
 62
     3
100
AcDbLine
 10
33.06250317057454
 20
3.139861143245088
 30
0.0
 11
33.08867217057454
 21
3.113692143245089
 31
0.0
  0
LINE
  5
13A
330
1F
100
AcDbEntity
  8
126
  6
Continuous
 62
     3
100
AcDbLine
 10
33.05617717057454
 20
3.135138443245089
 30
0.0
 11
33.08234617057454
 21
3.108969443245089
 31
0.0
  0
LINE
  5
13B
330
1F
100
AcDbEntity
  8
126
  6
Continuous
 62
     3
100
AcDbLine
 10
33.04985117057454
 20
3.130415743245089
 30
0.0
 11
33.07602017057454
 21
3.104246743245089
 31
0.0
  0
LINE
  5
13C
330
1F
100
AcDbEntity
  8
126
  6
Continuous
 62
     3
100
AcDbLine
 10
33.04352617057454
 20
3.125692943245089
 30
0.0
 11
33.06969517057454
 21
3.099523943245089
 31
0.0
  0
LINE
  5
13D
330
1F
100
AcDbEntity
  8
126
  6
Continuous
 62
     3
100
AcDbLine
 10
33.03720017057454
 20
3.120970243245089
 30
0.0
 11
33.06336917057454
 21
3.094801243245089
 31
0.0
  0
LINE
  5
13E
330
1F
100
AcDbEntity
  8
126
  6
Continuous
 62
     3
100
AcDbLine
 10
33.03087417057454
 20
3.116247543245088
 30
0.0
 11
33.05704317057454
 21
3.090078543245089
 31
0.0
  0
LINE
  5
13F
330
1F
100
AcDbEntity
  8
126
  6
Continuous
 62
     3
100
AcDbLine
 10
33.02454817057454
 20
3.111524743245089
 30
0.0
 11
33.05071717057454
 21
3.085355843245089
 31
0.0
  0
LINE
  5
140
330
1F
100
AcDbEntity
  8
126
  6
Continuous
 62
     3
100
AcDbLine
 10
33.01822217057454
 20
3.106802043245088
 30
0.0
 11
33.04439117057454
 21
3.080633043245089
 31
0.0
  0
LINE
  5
141
330
1F
100
AcDbEntity
  8
126
  6
Continuous
 62
     3
100
AcDbLine
 10
33.01189617057454
 20
3.102079343245089
 30
0.0
 11
33.03806517057454
 21
3.075910343245089
 31
0.0
  0
LINE
  5
142
330
1F
100
AcDbEntity
  8
126
  6
Continuous
 62
     3
100
AcDbLine
 10
33.00557117057454
 20
3.097356643245089
 30
0.0
 11
33.03174017057454
 21
3.071187643245089
 31
0.0
  0
LINE
  5
143
330
1F
100
AcDbEntity
  8
126
  6
Continuous
 62
     3
100
AcDbLine
 10
32.99924517057454
 20
3.092633843245089
 30
0.0
 11
33.02541417057454
 21
3.066464943245089
 31
0.0
  0
LINE
  5
144
330
1F
100
AcDbEntity
  8
126
  6
Continuous
 62
     3
100
AcDbLine
 10
32.99291917057454
 20
3.087911143245089
 30
0.0
 11
33.01908817057454
 21
3.061742143245089
 31
0.0
  0
LINE
  5
145
330
1F
100
AcDbEntity
  8
126
  6
Continuous
 62
     3
100
AcDbLine
 10
32.98659317057454
 20
3.083188443245088
 30
0.0
 11
33.01276217057454
 21
3.057019443245089
 31
0.0
  0
LINE
  5
146
330
1F
100
AcDbEntity
  8
126
  6
Continuous
 62
     3
100
AcDbLine
 10
32.98026717057453
 20
3.078465643245089
 30
0.0
 11
33.00643617057454
 21
3.052296743245089
 31
0.0
  0
LINE
  5
147
330
1F
100
AcDbEntity
  8
126
  6
Continuous
 62
     3
100
AcDbLine
 10
32.97394217057454
 20
3.073742943245088
 30
0.0
 11
33.00011117057453
 21
3.047574043245089
 31
0.0
  0
LINE
  5
148
330
1F
100
AcDbEntity
  8
126
  6
Continuous
 62
     3
100
AcDbLine
 10
32.88043917057454
 20
3.156196743245089
 30
0.0
 11
32.99378517057454
 21
3.042851243245089
 31
0.0
  0
LINE
  5
149
330
1F
100
AcDbEntity
  8
126
  6
Continuous
 62
     3
100
AcDbLine
 10
32.86939117057454
 20
3.156196743245089
 30
0.0
 11
32.99031517057454
 21
3.035272143245089
 31
0.0
  0
LINE
  5
14A
330
1F
100
AcDbEntity
  8
126
  6
Continuous
 62
     3
100
AcDbLine
 10
32.85834217057454
 20
3.156196743245089
 30
0.0
 11
32.98865917057454
 21
3.025879743245089
 31
0.0
  0
LINE
  5
14B
330
1F
100
AcDbEntity
  8
126
  6
Continuous
 62
     3
100
AcDbLine
 10
32.84729417057454
 20
3.156196743245089
 30
0.0
 11
32.98700317057454
 21
3.016487343245088
 31
0.0
  0
LINE
  5
14C
330
1F
100
AcDbEntity
  8
126
  6
Continuous
 62
     3
100
AcDbLine
 10
32.83624517057454
 20
3.156196743245089
 30
0.0
 11
32.98534717057453
 21
3.007094943245089
 31
0.0
  0
LINE
  5
14D
330
1F
100
AcDbEntity
  8
126
  6
Continuous
 62
     3
100
AcDbLine
 10
32.82519717057454
 20
3.156196743245089
 30
0.0
 11
32.98369117057454
 21
2.997702543245089
 31
0.0
  0
LINE
  5
14E
330
1F
100
AcDbEntity
  8
126
  6
Continuous
 62
     3
100
AcDbLine
 10
32.84356717057454
 20
3.126777543245089
 30
0.0
 11
32.98203517057454
 21
2.988310143245088
 31
0.0
  0
LINE
  5
14F
330
1F
100
AcDbEntity
  8
126
  6
Continuous
 62
     3
100
AcDbLine
 10
32.93300917057454
 20
3.026286843245089
 30
0.0
 11
32.98037817057454
 21
2.978917743245089
 31
0.0
  0
LINE
  5
150
330
1F
100
AcDbEntity
  8
126
  6
Continuous
 62
     3
100
AcDbLine
 10
32.93135317057454
 20
3.016894443245089
 30
0.0
 11
32.97872217057454
 21
2.969525343245089
 31
0.0
  0
LINE
  5
151
330
1F
100
AcDbEntity
  8
126
  6
Continuous
 62
     3
100
AcDbLine
 10
32.78100217057454
 20
3.156196743245089
 30
0.0
 11
32.78939917057454
 21
3.147800643245088
 31
0.0
  0
LINE
  5
152
330
1F
100
AcDbEntity
  8
126
  6
Continuous
 62
     3
100
AcDbLine
 10
32.92969717057454
 20
3.007501943245089
 30
0.0
 11
32.96943217057453
 21
2.967767343245089
 31
0.0
  0
LINE
  5
153
330
1F
100
AcDbEntity
  8
126
  6
Continuous
 62
     3
100
AcDbLine
 10
32.76995417057454
 20
3.156196743245089
 30
0.0
 11
32.79985617057454
 21
3.126294643245089
 31
0.0
  0
LINE
  5
154
330
1F
100
AcDbEntity
  8
126
  6
Continuous
 62
     3
100
AcDbLine
 10
32.92804117057454
 20
2.998109543245089
 30
0.0
 11
32.95838317057454
 21
2.967767343245089
 31
0.0
  0
LINE
  5
155
330
1F
100
AcDbEntity
  8
126
  6
Continuous
 62
     3
100
AcDbLine
 10
32.75890517057454
 20
3.156196743245089
 30
0.0
 11
32.81031317057454
 21
3.104788743245089
 31
0.0
  0
LINE
  5
156
330
1F
100
AcDbEntity
  8
126
  6
Continuous
 62
     3
100
AcDbLine
 10
32.92638517057454
 20
2.988717143245088
 30
0.0
 11
32.94733517057454
 21
2.967767343245089
 31
0.0
  0
LINE
  5
157
330
1F
100
AcDbEntity
  8
126
  6
Continuous
 62
     3
100
AcDbLine
 10
32.74785717057454
 20
3.156196743245089
 30
0.0
 11
32.82077117057454
 21
3.083282743245089
 31
0.0
  0
LINE
  5
158
330
1F
100
AcDbEntity
  8
126
  6
Continuous
 62
     3
100
AcDbLine
 10
32.92472917057454
 20
2.979324743245089
 30
0.0
 11
32.93628617057454
 21
2.967767343245089
 31
0.0
  0
LINE
  5
159
330
1F
100
AcDbEntity
  8
126
  6
Continuous
 62
     3
100
AcDbLine
 10
32.73680817057454
 20
3.156196743245089
 30
0.0
 11
32.83122817057454
 21
3.061776743245089
 31
0.0
  0
LINE
  5
15A
330
1F
100
AcDbEntity
  8
126
  6
Continuous
 62
     3
100
AcDbLine
 10
32.92307317057454
 20
2.969932343245089
 30
0.0
 11
32.92523817057454
 21
2.967767343245089
 31
0.0
  0
LINE
  5
15B
330
1F
100
AcDbEntity
  8
126
  6
Continuous
 62
     3
100
AcDbLine
 10
32.72576017057454
 20
3.156196743245089
 30
0.0
 11
32.84168617057454
 21
3.040270843245088
 31
0.0
  0
LINE
  5
15C
330
1F
100
AcDbEntity
  8
126
  6
Continuous
 62
     3
100
AcDbLine
 10
32.71471117057454
 20
3.156196743245089
 30
0.0
 11
32.72952217057454
 21
3.141385643245089
 31
0.0
  0
LINE
  5
15D
330
1F
100
AcDbEntity
  8
126
  6
Continuous
 62
     3
100
AcDbLine
 10
32.73337117057454
 20
3.137537343245089
 30
0.0
 11
32.85214317057454
 21
3.018764843245089
 31
0.0
  0
LINE
  5
15E
330
1F
100
AcDbEntity
  8
126
  6
Continuous
 62
     3
100
AcDbLine
 10
32.70366317057454
 20
3.156196743245089
 30
0.0
 11
32.72436617057454
 21
3.135493043245089
 31
0.0
  0
LINE
  5
15F
330
1F
100
AcDbEntity
  8
180
  6
Continuous
 62
     6
100
AcDbLine
 10
27.61152017057454
 20
1.150137243245088
 30
0.0
 11
27.61152017057454
 21
3.212637543245089
 31
0.0
  0
LINE
  5
160
330
1F
100
AcDbEntity
  8
180
  6
Continuous
 62
     6
100
AcDbLine
 10
27.61152017057454
 20
3.212637543245089
 30
0.0
 11
35.61152317057454
 21
3.212637543245089
 31
0.0
  0
LINE
  5
161
330
1F
100
AcDbEntity
  8
180
  6
Continuous
 62
     6
100
AcDbLine
 10
31.61152117057454
 20
3.212637543245089
 30
0.0
 11
31.61152117057454
 21
1.150137243245088
 31
0.0
  0
LINE
  5
162
330
1F
100
AcDbEntity
  8
180
  6
Continuous
 62
     6
100
AcDbLine
 10
31.61152117057454
 20
1.462637243245088
 30
0.0
 11
35.61152317057454
 21
1.462637243245088
 31
0.0
  0
LINE
  5
163
330
1F
100
AcDbEntity
  8
180
  6
Continuous
 62
     6
100
AcDbLine
 10
35.61152317057454
 20
1.775137343245089
 30
0.0
 11
31.61152117057454
 21
1.775137343245089
 31
0.0
  0
LINE
  5
164
330
1F
100
AcDbEntity
  8
180
  6
Continuous
 62
     6
100
AcDbLine
 10
31.61152117057454
 20
2.275137343245089
 30
0.0
 11
35.61152317057454
 21
2.275137343245089
 31
0.0
  0
LINE
  5
165
330
1F
100
AcDbEntity
  8
180
  6
Continuous
 62
     6
100
AcDbLine
 10
31.61152117057454
 20
3.212637543245089
 30
0.0
 11
31.61152117057454
 21
2.775137343245089
 31
0.0
  0
LINE
  5
166
330
1F
100
AcDbEntity
  8
180
  6
Continuous
 62
     6
100
AcDbLine
 10
31.61152117057454
 20
2.775137343245089
 30
0.0
 11
35.61152317057454
 21
2.775137343245089
 31
0.0
  0
LINE
  5
167
330
1F
100
AcDbEntity
  8
180
  6
Continuous
 62
     6
100
AcDbLine
 10
33.61152117057454
 20
2.275137343245089
 30
0.0
 11
33.61152117057454
 21
1.462637243245088
 31
0.0
  0
LINE
  5
168
330
1F
100
AcDbEntity
  8
180
  6
Continuous
 62
     6
100
AcDbLine
 10
31.61152117057454
 20
2.087637343245089
 30
0.0
 11
33.61152117057454
 21
2.087637343245089
 31
0.0
  0
LINE
  5
169
330
1F
100
AcDbEntity
  8
180
  6
Continuous
 62
     6
100
AcDbLine
 10
32.61152117057454
 20
2.087637343245089
 30
0.0
 11
32.61152117057454
 21
2.275137343245089
 31
0.0
  0
LINE
  5
16A
330
1F
100
AcDbEntity
  8
180
  6
Continuous
 62
     6
100
AcDbLine
 10
31.61152117057454
 20
2.775137343245089
 30
0.0
 11
27.61152017057454
 21
2.775137343245089
 31
0.0
  0
LINE
  5
16B
330
1F
100
AcDbEntity
  8
180
  6
Continuous
 62
     6
100
AcDbLine
 10
31.61152117057454
 20
1.775137343245089
 30
0.0
 11
27.61152017057454
 21
1.775137343245089
 31
0.0
  0
LINE
  5
16C
330
1F
100
AcDbEntity
  8
126
  6
Continuous
 62
     3
100
AcDbLine
 10
32.74382817057454
 20
3.116031343245089
 30
0.0
 11
32.86260017057454
 21
2.997258943245089
 31
0.0
  0
LINE
  5
16D
330
1F
100
AcDbEntity
  8
126
  6
Continuous
 62
     3
100
AcDbLine
 10
32.69325517057454
 20
3.155555743245089
 30
0.0
 11
32.71921017057453
 21
3.129600443245089
 31
0.0
  0
LINE
  5
16E
330
1F
100
AcDbEntity
  8
126
  6
Continuous
 62
     3
100
AcDbLine
 10
32.75428517057454
 20
3.094525443245089
 30
0.0
 11
32.87305817057454
 21
2.975752943245089
 31
0.0
  0
LINE
  5
16F
330
1F
100
AcDbEntity
  8
126
  6
Continuous
 62
     3
100
AcDbLine
 10
32.68809917057454
 20
3.149663243245089
 30
0.0
 11
32.71405417057454
 21
3.123707943245089
 31
0.0
  0
LINE
  5
170
330
1F
100
AcDbEntity
  8
126
  6
Continuous
 62
     3
100
AcDbLine
 10
32.76474317057454
 20
3.073019443245089
 30
0.0
 11
32.86999517057454
 21
2.967767343245089
 31
0.0
  0
LINE
  5
171
330
1F
100
AcDbEntity
  8
126
  6
Continuous
 62
     3
100
AcDbLine
 10
32.68294317057454
 20
3.143770643245089
 30
0.0
 11
32.70889817057454
 21
3.117815343245089
 31
0.0
  0
LINE
  5
172
330
1F
100
AcDbEntity
  8
126
  6
Continuous
 62
     3
100
AcDbLine
 10
32.77520017057454
 20
3.051513543245089
 30
0.0
 11
32.85894617057454
 21
2.967767343245089
 31
0.0
  0
LINE
  5
173
330
1F
100
AcDbEntity
  8
126
  6
Continuous
 62
     3
100
AcDbLine
 10
32.67778717057454
 20
3.137878043245089
 30
0.0
 11
32.70374217057454
 21
3.111922743245089
 31
0.0
  0
LINE
  5
174
330
1F
100
AcDbEntity
  8
126
  6
Continuous
 62
     3
100
AcDbLine
 10
32.78489817057454
 20
3.030767343245089
 30
0.0
 11
32.84789817057454
 21
2.967767343245089
 31
0.0
  0
LINE
  5
175
330
1F
100
AcDbEntity
  8
126
  6
Continuous
 62
     3
100
AcDbLine
 10
32.67263117057454
 20
3.131985443245089
 30
0.0
 11
32.69858617057454
 21
3.106030243245089
 31
0.0
  0
LINE
  5
176
330
1F
100
AcDbEntity
  8
126
  6
Continuous
 62
     3
100
AcDbLine
 10
32.77384917057454
 20
3.030767343245089
 30
0.0
 11
32.83684917057454
 21
2.967767343245089
 31
0.0
  0
LINE
  5
177
330
1F
100
AcDbEntity
  8
126
  6
Continuous
 62
     3
100
AcDbLine
 10
32.66747517057454
 20
3.126092943245089
 30
0.0
 11
32.69343017057454
 21
3.100137643245088
 31
0.0
  0
LINE
  5
178
330
1F
100
AcDbEntity
  8
126
  6
Continuous
 62
     3
100
AcDbLine
 10
32.76280117057454
 20
3.030767343245089
 30
0.0
 11
32.78917617057454
 21
3.004392343245088
 31
0.0
  0
LINE
  5
179
330
1F
100
AcDbEntity
  8
126
  6
Continuous
 62
     3
100
AcDbLine
 10
32.80657217057454
 20
2.986995643245089
 30
0.0
 11
32.82580117057454
 21
2.967767343245089
 31
0.0
  0
LINE
  5
17A
330
1F
100
AcDbEntity
  8
126
  6
Continuous
 62
     3
100
AcDbLine
 10
32.66231917057454
 20
3.120200343245089
 30
0.0
 11
32.68827417057454
 21
3.094245043245089
 31
0.0
  0
LINE
  5
17B
330
1F
100
AcDbEntity
  8
126
  6
Continuous
 62
     3
100
AcDbLine
 10
32.75175217057454
 20
3.030767343245089
 30
0.0
 11
32.77812717057454
 21
3.004392343245088
 31
0.0
  0
LINE
  5
17C
330
1F
100
AcDbEntity
  8
126
  6
Continuous
 62
     3
100
AcDbLine
 10
32.65716317057453
 20
3.114307743245089
 30
0.0
 11
32.68311817057454
 21
3.088352543245088
 31
0.0
  0
LINE
  5
17D
330
1F
100
AcDbEntity
  8
126
  6
Continuous
 62
     3
100
AcDbLine
 10
32.74070417057454
 20
3.030767343245089
 30
0.0
 11
32.76707917057454
 21
3.004392343245088
 31
0.0
  0
LINE
  5
17E
330
1F
100
AcDbEntity
  8
126
  6
Continuous
 62
     3
100
AcDbLine
 10
32.65200717057453
 20
3.108415243245089
 30
0.0
 11
32.67796217057454
 21
3.082459943245089
 31
0.0
  0
LINE
  5
17F
330
1F
100
AcDbEntity
  8
126
  6
Continuous
 62
     3
100
AcDbLine
 10
32.72965517057454
 20
3.030767343245089
 30
0.0
 11
32.75603017057454
 21
3.004392343245088
 31
0.0
  0
LINE
  5
180
330
1F
100
AcDbEntity
  8
126
  6
Continuous
 62
     3
100
AcDbLine
 10
32.64685117057454
 20
3.102522643245089
 30
0.0
 11
32.67280717057454
 21
3.076567343245089
 31
0.0
  0
LINE
  5
181
330
1F
100
AcDbEntity
  8
126
  6
Continuous
 62
     3
100
AcDbLine
 10
32.71860717057454
 20
3.030767343245089
 30
0.0
 11
32.74498217057454
 21
3.004392343245088
 31
0.0
  0
LINE
  5
182
330
1F
100
AcDbEntity
  8
126
  6
Continuous
 62
     3
100
AcDbLine
 10
32.64169517057454
 20
3.096630043245089
 30
0.0
 11
32.66765117057454
 21
3.070674843245089
 31
0.0
  0
LINE
  5
183
330
1F
100
AcDbEntity
  8
126
  6
Continuous
 62
     3
100
AcDbLine
 10
32.70755817057454
 20
3.030767343245089
 30
0.0
 11
32.73393317057454
 21
3.004392343245088
 31
0.0
  0
LINE
  5
184
330
1F
100
AcDbEntity
  8
126
  6
Continuous
 62
     3
100
AcDbLine
 10
32.63653917057454
 20
3.090737543245089
 30
0.0
 11
32.66249517057454
 21
3.064782243245089
 31
0.0
  0
LINE
  5
185
330
1F
100
AcDbEntity
  8
126
  6
Continuous
 62
     3
100
AcDbLine
 10
32.69650917057454
 20
3.030767343245089
 30
0.0
 11
32.72288417057454
 21
3.004392343245088
 31
0.0
  0
LINE
  5
186
330
1F
100
AcDbEntity
  8
126
  6
Continuous
 62
     3
100
AcDbLine
 10
32.63138317057454
 20
3.084844943245089
 30
0.0
 11
32.65733917057454
 21
3.058889643245088
 31
0.0
  0
LINE
  5
187
330
1F
100
AcDbEntity
  8
126
  6
Continuous
 62
     3
100
AcDbLine
 10
32.68546117057454
 20
3.030767343245089
 30
0.0
 11
32.71183617057454
 21
3.004392343245088
 31
0.0
  0
LINE
  5
188
330
1F
100
AcDbEntity
  8
126
  6
Continuous
 62
     3
100
AcDbLine
 10
32.62622717057454
 20
3.078952343245088
 30
0.0
 11
32.65218317057454
 21
3.052997143245089
 31
0.0
  0
LINE
  5
189
330
1F
100
AcDbEntity
  8
126
  6
Continuous
 62
     3
100
AcDbLine
 10
32.67441217057454
 20
3.030767343245089
 30
0.0
 11
32.70078717057454
 21
3.004392343245088
 31
0.0
  0
LINE
  5
18A
330
1F
100
AcDbEntity
  8
126
  6
Continuous
 62
     3
100
AcDbLine
 10
32.53793417057454
 20
3.156196743245089
 30
0.0
 11
32.54091817057453
 21
3.153212843245089
 31
0.0
  0
LINE
  5
18B
330
1F
100
AcDbEntity
  8
126
  6
Continuous
 62
     3
100
AcDbLine
 10
32.62107117057454
 20
3.073059843245089
 30
0.0
 11
32.64702717057454
 21
3.047104543245088
 31
0.0
  0
LINE
  5
18C
330
1F
100
AcDbEntity
  8
126
  6
Continuous
 62
     3
100
AcDbLine
 10
32.66336417057454
 20
3.030767343245089
 30
0.0
 11
32.68973917057454
 21
3.004392343245088
 31
0.0
  0
LINE
  5
18D
330
1F
100
AcDbEntity
  8
126
  6
Continuous
 62
     3
100
AcDbLine
 10
32.52688617057454
 20
3.156196743245089
 30
0.0
 11
32.53386917057454
 21
3.149213843245088
 31
0.0
  0
LINE
  5
18E
330
1F
100
AcDbEntity
  8
126
  6
Continuous
 62
     3
100
AcDbLine
 10
32.61591517057454
 20
3.067167243245088
 30
0.0
 11
32.64187117057454
 21
3.041211943245089
 31
0.0
  0
LINE
  5
18F
330
1F
100
AcDbEntity
  8
126
  6
Continuous
 62
     3
100
AcDbLine
 10
32.65231517057454
 20
3.030767343245089
 30
0.0
 11
32.67869017057454
 21
3.004392343245088
 31
0.0
  0
LINE
  5
190
330
1F
100
AcDbEntity
  8
126
  6
Continuous
 62
     3
100
AcDbLine
 10
32.51583717057453
 20
3.156196743245089
 30
0.0
 11
32.52681917057454
 21
3.145214743245089
 31
0.0
  0
LINE
  5
191
330
1F
100
AcDbEntity
  8
126
  6
Continuous
 62
     3
100
AcDbLine
 10
32.61075917057454
 20
3.061274643245089
 30
0.0
 11
32.63671517057454
 21
3.035319343245089
 31
0.0
  0
LINE
  5
192
330
1F
100
AcDbEntity
  8
126
  6
Continuous
 62
     3
100
AcDbLine
 10
32.64126717057454
 20
3.030767343245089
 30
0.0
 11
32.66764217057454
 21
3.004392343245088
 31
0.0
  0
LINE
  5
193
330
1F
100
AcDbEntity
  8
126
  6
Continuous
 62
     3
100
AcDbLine
 10
32.50478917057454
 20
3.156196743245089
 30
0.0
 11
32.51977017057454
 21
3.141215743245088
 31
0.0
  0
LINE
  5
194
330
1F
100
AcDbEntity
  8
126
  6
Continuous
 62
     3
100
AcDbLine
 10
32.60560317057454
 20
3.055382143245088
 30
0.0
 11
32.65659317057454
 21
3.004392343245088
 31
0.0
  0
LINE
  5
195
330
1F
100
AcDbEntity
  8
126
  6
Continuous
 62
     3
100
AcDbLine
 10
32.49374017057454
 20
3.156196743245089
 30
0.0
 11
32.51272017057454
 21
3.137216643245089
 31
0.0
  0
LINE
  5
196
330
1F
100
AcDbEntity
  8
126
  6
Continuous
 62
     3
100
AcDbLine
 10
32.60044717057454
 20
3.049489543245089
 30
0.0
 11
32.64554517057454
 21
3.004392343245088
 31
0.0
  0
LINE
  5
197
330
1F
100
AcDbEntity
  8
126
  6
Continuous
 62
     3
100
AcDbLine
 10
32.48269217057454
 20
3.156196743245089
 30
0.0
 11
32.50567117057454
 21
3.133217643245089
 31
0.0
  0
LINE
  5
198
330
1F
100
AcDbEntity
  8
126
  6
Continuous
 62
     3
100
AcDbLine
 10
32.59529117057454
 20
3.043596943245089
 30
0.0
 11
32.63449617057454
 21
3.004392343245088
 31
0.0
  0
LINE
  5
199
330
1F
100
AcDbEntity
  8
126
  6
Continuous
 62
     3
100
AcDbLine
 10
32.47175517057454
 20
3.156085343245089
 30
0.0
 11
32.49862117057454
 21
3.129218543245089
 31
0.0
  0
LINE
  5
19A
330
1F
100
AcDbEntity
  8
126
  6
Continuous
 62
     3
100
AcDbLine
 10
32.59013617057454
 20
3.037704443245089
 30
0.0
 11
32.62344817057454
 21
3.004392343245088
 31
0.0
  0
LINE
  5
19B
330
1F
100
AcDbEntity
  8
126
  6
Continuous
 62
     3
100
AcDbLine
 10
32.46470517057454
 20
3.152086243245089
 30
0.0
 11
32.49157217057454
 21
3.125219543245089
 31
0.0
  0
LINE
  5
19C
330
1F
100
AcDbEntity
  8
126
  6
Continuous
 62
     3
100
AcDbLine
 10
32.58498017057454
 20
3.031811843245089
 30
0.0
 11
32.61239917057454
 21
3.004392343245088
 31
0.0
  0
LINE
  5
19D
330
1F
100
AcDbEntity
  8
126
  6
Continuous
 62
     3
100
AcDbLine
 10
32.45765617057454
 20
3.148087243245089
 30
0.0
 11
32.48452217057454
 21
3.121220443245089
 31
0.0
  0
LINE
  5
19E
330
1F
100
AcDbEntity
  8
126
  6
Continuous
 62
     3
100
AcDbLine
 10
32.57982417057454
 20
3.025919243245088
 30
0.0
 11
32.60577917057454
 21
2.999964043245089
 31
0.0
  0
LINE
  5
19F
330
1F
100
AcDbEntity
  8
126
  6
Continuous
 62
     3
100
AcDbLine
 10
32.45060617057454
 20
3.144088143245089
 30
0.0
 11
32.47747317057454
 21
3.117221443245089
 31
0.0
  0
LINE
  5
1A0
330
1F
100
AcDbEntity
  8
126
  6
Continuous
 62
     3
100
AcDbLine
 10
32.57466817057454
 20
3.020026743245089
 30
0.0
 11
32.60062317057454
 21
2.994071443245088
 31
0.0
  0
LINE
  5
1A1
330
1F
100
AcDbEntity
  8
126
  6
Continuous
 62
     3
100
AcDbLine
 10
32.44355717057454
 20
3.140089143245089
 30
0.0
 11
32.47042317057454
 21
3.113222343245089
 31
0.0
  0
LINE
  5
1A2
330
1F
100
AcDbEntity
  8
126
  6
Continuous
 62
     3
100
AcDbLine
 10
32.56951217057454
 20
3.014134143245088
 30
0.0
 11
32.59546717057454
 21
2.988178843245089
 31
0.0
  0
LINE
  5
1A3
330
1F
100
AcDbEntity
  8
126
  6
Continuous
 62
     3
100
AcDbLine
 10
32.43650717057454
 20
3.136090043245089
 30
0.0
 11
32.46337417057454
 21
3.109223343245089
 31
0.0
  0
LINE
  5
1A4
330
1F
100
AcDbEntity
  8
126
  6
Continuous
 62
     3
100
AcDbLine
 10
32.56435617057454
 20
3.008241543245089
 30
0.0
 11
32.59031117057454
 21
2.982286243245089
 31
0.0
  0
LINE
  5
1A5
330
1F
100
AcDbEntity
  8
126
  6
Continuous
 62
     3
100
AcDbLine
 10
32.42945817057453
 20
3.132091043245089
 30
0.0
 11
32.45632417057454
 21
3.105224243245089
 31
0.0
  0
LINE
  5
1A6
330
1F
100
AcDbEntity
  8
126
  6
Continuous
 62
     3
100
AcDbLine
 10
32.55920017057454
 20
3.002348943245089
 30
0.0
 11
32.58515517057454
 21
2.976393743245089
 31
0.0
  0
LINE
  5
1A7
330
1F
100
AcDbEntity
  8
126
  6
Continuous
 62
     3
100
AcDbLine
 10
32.42240817057453
 20
3.128091943245089
 30
0.0
 11
32.44927517057454
 21
3.101225243245089
 31
0.0
  0
LINE
  5
1A8
330
1F
100
AcDbEntity
  8
126
  6
Continuous
 62
     3
100
AcDbLine
 10
32.55404417057454
 20
2.996456443245089
 30
0.0
 11
32.57999917057454
 21
2.970501143245089
 31
0.0
  0
LINE
  5
1A9
330
1F
100
AcDbEntity
  8
126
  6
Continuous
 62
     3
100
AcDbLine
 10
32.41535917057454
 20
3.124092943245089
 30
0.0
 11
32.44222517057454
 21
3.097226143245089
 31
0.0
  0
LINE
  5
1AA
330
1F
100
AcDbEntity
  8
126
  6
Continuous
 62
     3
100
AcDbLine
 10
32.54888817057454
 20
2.990563843245089
 30
0.0
 11
32.57168417057453
 21
2.967767343245089
 31
0.0
  0
LINE
  5
1AB
330
1F
100
AcDbEntity
  8
126
  6
Continuous
 62
     3
100
AcDbLine
 10
32.40830917057454
 20
3.120093843245089
 30
0.0
 11
32.43517617057454
 21
3.093227143245089
 31
0.0
  0
LINE
  5
1AC
330
1F
100
AcDbEntity
  8
126
  6
Continuous
 62
     3
100
AcDbLine
 10
32.54373217057454
 20
2.984671343245089
 30
0.0
 11
32.56063617057454
 21
2.967767343245089
 31
0.0
  0
LINE
  5
1AD
330
1F
100
AcDbEntity
  8
126
  6
Continuous
 62
     3
100
AcDbLine
 10
32.40126017057454
 20
3.116094843245089
 30
0.0
 11
32.42812617057454
 21
3.089228043245089
 31
0.0
  0
LINE
  5
1AE
330
1F
100
AcDbEntity
  8
126
  6
Continuous
 62
     3
100
AcDbLine
 10
32.53857617057454
 20
2.978778743245089
 30
0.0
 11
32.54958717057454
 21
2.967767343245089
 31
0.0
  0
LINE
  5
1AF
330
1F
100
AcDbEntity
  8
126
  6
Continuous
 62
     3
100
AcDbLine
 10
32.39421017057454
 20
3.112095743245089
 30
0.0
 11
32.42107717057454
 21
3.085229043245089
 31
0.0
  0
LINE
  5
1B0
330
1F
100
AcDbEntity
  8
126
  6
Continuous
 62
     3
100
AcDbLine
 10
32.53342017057454
 20
2.972886143245089
 30
0.0
 11
32.53853917057454
 21
2.967767343245089
 31
0.0
  0
LINE
  5
1B1
330
1F
100
AcDbEntity
  8
126
  6
Continuous
 62
     3
100
AcDbLine
 10
32.38716117057454
 20
3.108096743245089
 30
0.0
 11
32.41402717057454
 21
3.081229943245089
 31
0.0
  0
LINE
  5
1B2
330
1F
100
AcDbEntity
  8
126
  6
Continuous
 62
     3
100
AcDbLine
 10
32.38011117057454
 20
3.104097643245089
 30
0.0
 11
32.40697817057454
 21
3.077230943245089
 31
0.0
  0
LINE
  5
1B3
330
1F
100
AcDbEntity
  8
126
  6
Continuous
 62
     3
100
AcDbLine
 10
32.47872117057454
 20
3.005488143245089
 30
0.0
 11
32.51644117057454
 21
2.967767343245089
 31
0.0
  0
LINE
  5
1B4
330
1F
100
AcDbEntity
  8
126
  6
Continuous
 62
     3
100
AcDbLine
 10
32.37306217057454
 20
3.100098643245089
 30
0.0
 11
32.50539317057454
 21
2.967767343245089
 31
0.0
  0
LINE
  5
1B5
330
1F
100
AcDbEntity
  8
126
  6
Continuous
 62
     3
100
AcDbLine
 10
32.36601217057454
 20
3.096099543245089
 30
0.0
 11
32.49434417057454
 21
2.967767343245089
 31
0.0
  0
LINE
  5
1B6
330
1F
100
AcDbEntity
  8
126
  6
Continuous
 62
     3
100
AcDbLine
 10
32.29486617057454
 20
3.156196743245089
 30
0.0
 11
32.30377517057454
 21
3.147288243245089
 31
0.0
  0
LINE
  5
1B7
330
1F
100
AcDbEntity
  8
126
  6
Continuous
 62
     3
100
AcDbLine
 10
32.35896317057454
 20
3.092100543245089
 30
0.0
 11
32.48329617057454
 21
2.967767343245089
 31
0.0
  0
LINE
  5
1B8
330
1F
100
AcDbEntity
  8
126
  6
Continuous
 62
     3
100
AcDbLine
 10
32.28381817057454
 20
3.156196743245089
 30
0.0
 11
32.30211917057454
 21
3.137895843245089
 31
0.0
  0
LINE
  5
1B9
330
1F
100
AcDbEntity
  8
126
  6
Continuous
 62
     3
100
AcDbLine
 10
32.35191317057454
 20
3.088101443245089
 30
0.0
 11
32.47224717057454
 21
2.967767343245089
 31
0.0
  0
LINE
  5
1BA
330
1F
100
AcDbEntity
  8
126
  6
Continuous
 62
     3
100
AcDbLine
 10
32.27276917057454
 20
3.156196743245089
 30
0.0
 11
32.30046317057454
 21
3.128503443245089
 31
0.0
  0
LINE
  5
1BB
330
1F
100
AcDbEntity
  8
126
  6
Continuous
 62
     3
100
AcDbLine
 10
32.34486417057454
 20
3.084102443245089
 30
0.0
 11
32.46119917057454
 21
2.967767343245089
 31
0.0
  0
LINE
  5
1BC
330
1F
100
AcDbEntity
  8
126
  6
Continuous
 62
     3
100
AcDbLine
 10
32.26172117057454
 20
3.156196743245089
 30
0.0
 11
32.29880717057454
 21
3.119111043245089
 31
0.0
  0
LINE
  5
1BD
330
1F
100
AcDbEntity
  8
126
  6
Continuous
 62
     3
100
AcDbLine
 10
32.33781417057454
 20
3.080103343245089
 30
0.0
 11
32.45015017057454
 21
2.967767343245089
 31
0.0
  0
LINE
  5
1BE
330
1F
100
AcDbEntity
  8
126
  6
Continuous
 62
     3
100
AcDbLine
 10
32.25280317057454
 20
3.154066443245089
 30
0.0
 11
32.29715017057454
 21
3.109718643245089
 31
0.0
  0
LINE
  5
1BF
330
1F
100
AcDbEntity
  8
126
  6
Continuous
 62
     3
100
AcDbLine
 10
32.33076517057454
 20
3.076104343245089
 30
0.0
 11
32.43910217057454
 21
2.967767343245089
 31
0.0
  0
LINE
  5
1C0
330
1F
100
AcDbEntity
  8
126
  6
Continuous
 62
     3
100
AcDbLine
 10
32.25114617057454
 20
3.144674043245089
 30
0.0
 11
32.29549417057454
 21
3.100326243245089
 31
0.0
  0
LINE
  5
1C1
330
1F
100
AcDbEntity
  8
126
  6
Continuous
 62
     3
100
AcDbLine
 10
32.32371517057454
 20
3.072105243245089
 30
0.0
 11
32.35058217057454
 21
3.045238543245089
 31
0.0
  0
LINE
  5
1C2
330
1F
100
AcDbEntity
  8
126
  6
Continuous
 62
     3
100
AcDbLine
 10
32.24949017057454
 20
3.135281643245089
 30
0.0
 11
32.29383817057454
 21
3.090933743245089
 31
0.0
  0
LINE
  5
1C3
330
1F
100
AcDbEntity
  8
126
  6
Continuous
 62
     3
100
AcDbLine
 10
32.31666617057454
 20
3.068106243245089
 30
0.0
 11
32.34353217057454
 21
3.041239543245088
 31
0.0
  0
LINE
  5
1C4
330
1F
100
AcDbEntity
  8
126
  6
Continuous
 62
     3
100
AcDbLine
 10
32.24783417057454
 20
3.125889243245089
 30
0.0
 11
32.29218217057454
 21
3.081541343245089
 31
0.0
  0
LINE
  5
1C5
330
1F
100
AcDbEntity
  8
126
  6
Continuous
 62
     3
100
AcDbLine
 10
32.30961617057454
 20
3.064107143245089
 30
0.0
 11
32.33648317057454
 21
3.037240443245089
 31
0.0
  0
LINE
  5
1C6
330
1F
100
AcDbEntity
  8
126
  6
Continuous
 62
     3
100
AcDbLine
 10
32.24617817057454
 20
3.116496743245089
 30
0.0
 11
32.29052617057454
 21
3.072148943245089
 31
0.0
  0
LINE
  5
1C7
330
1F
100
AcDbEntity
  8
126
  6
Continuous
 62
     3
100
AcDbLine
 10
32.30256717057454
 20
3.060108143245089
 30
0.0
 11
32.32943317057454
 21
3.033241443245088
 31
0.0
  0
LINE
  5
1C8
330
1F
100
AcDbEntity
  8
126
  6
Continuous
 62
     3
100
AcDbLine
 10
32.24452217057454
 20
3.107104343245089
 30
0.0
 11
32.28887017057454
 21
3.062756543245089
 31
0.0
  0
LINE
  5
1C9
330
1F
100
AcDbEntity
  8
126
  6
Continuous
 62
     3
100
AcDbLine
 10
32.29551717057454
 20
3.056109043245089
 30
0.0
 11
32.32238417057454
 21
3.029242343245089
 31
0.0
  0
LINE
  5
1CA
330
1F
100
AcDbEntity
  8
126
  6
Continuous
 62
     3
100
AcDbLine
 10
32.24286617057454
 20
3.097711943245089
 30
0.0
 11
32.28721417057454
 21
3.053364143245089
 31
0.0
  0
LINE
  5
1CB
330
1F
100
AcDbEntity
  8
126
  6
Continuous
 62
     3
100
AcDbLine
 10
32.28846817057454
 20
3.052110043245089
 30
0.0
 11
32.31533417057454
 21
3.025243343245088
 31
0.0
  0
LINE
  5
1CC
330
1F
100
AcDbEntity
  8
126
  6
Continuous
 62
     3
100
AcDbLine
 10
32.24121017057454
 20
3.088319543245089
 30
0.0
 11
32.30828517057453
 21
3.021244243245089
 31
0.0
  0
LINE
  5
1CD
330
1F
100
AcDbEntity
  8
126
  6
Continuous
 62
     3
100
AcDbLine
 10
32.23955417057454
 20
3.078927143245089
 30
0.0
 11
32.30123517057454
 21
3.017245243245088
 31
0.0
  0
LINE
  5
1CE
330
1F
100
AcDbEntity
  8
126
  6
Continuous
 62
     3
100
AcDbLine
 10
32.23789717057454
 20
3.069534743245089
 30
0.0
 11
32.29418617057454
 21
3.013246143245089
 31
0.0
  0
LINE
  5
1CF
330
1F
100
AcDbEntity
  8
126
  6
Continuous
 62
     3
100
AcDbLine
 10
32.23624117057454
 20
3.060142343245089
 30
0.0
 11
32.28713617057454
 21
3.009247143245088
 31
0.0
  0
LINE
  5
1D0
330
1F
100
AcDbEntity
  8
126
  6
Continuous
 62
     3
100
AcDbLine
 10
32.23458517057454
 20
3.050749943245089
 30
0.0
 11
32.28008717057454
 21
3.005248043245089
 31
0.0
  0
LINE
  5
1D1
330
1F
100
AcDbEntity
  8
126
  6
Continuous
 62
     3
100
AcDbLine
 10
32.23292917057454
 20
3.041357543245089
 30
0.0
 11
32.27727717057454
 21
2.997009743245089
 31
0.0
  0
LINE
  5
1D2
330
1F
100
AcDbEntity
  8
126
  6
Continuous
 62
     3
100
AcDbLine
 10
32.23127317057454
 20
3.031965143245089
 30
0.0
 11
32.27562117057454
 21
2.987617243245089
 31
0.0
  0
LINE
  5
1D3
330
1F
100
AcDbEntity
  8
126
  6
Continuous
 62
     3
100
AcDbLine
 10
32.22961717057454
 20
3.022572743245089
 30
0.0
 11
32.27396517057453
 21
2.978224843245089
 31
0.0
  0
LINE
  5
1D4
330
1F
100
AcDbEntity
  8
126
  6
Continuous
 62
     3
100
AcDbLine
 10
32.22796117057454
 20
3.013180243245089
 30
0.0
 11
32.27230817057454
 21
2.968832443245089
 31
0.0
  0
LINE
  5
1D5
330
1F
100
AcDbEntity
  8
126
  6
Continuous
 62
     3
100
AcDbLine
 10
32.22630417057454
 20
3.003787943245089
 30
0.0
 11
32.26232517057454
 21
2.967767343245089
 31
0.0
  0
LINE
  5
1D6
330
1F
100
AcDbEntity
  8
126
  6
Continuous
 62
     3
100
AcDbLine
 10
32.22464817057454
 20
2.994395443245089
 30
0.0
 11
32.25127617057454
 21
2.967767343245089
 31
0.0
  0
LINE
  5
1D7
330
1F
100
AcDbEntity
  8
126
  6
Continuous
 62
     3
100
AcDbLine
 10
32.22299217057454
 20
2.985003043245089
 30
0.0
 11
32.24022817057454
 21
2.967767343245089
 31
0.0
  0
LINE
  5
1D8
330
1F
100
AcDbEntity
  8
126
  6
Continuous
 62
     3
100
AcDbLine
 10
32.22133617057454
 20
2.975610643245089
 30
0.0
 11
32.22917917057454
 21
2.967767343245089
 31
0.0
  0
LINE
  5
1D9
330
1F
100
AcDbEntity
  8
126
  6
Continuous
 62
     3
100
AcDbLine
 10
32.02970117057454
 20
3.156196743245089
 30
0.0
 11
32.03511717057454
 21
3.150780843245089
 31
0.0
  0
LINE
  5
1DA
330
1F
100
AcDbEntity
  8
126
  6
Continuous
 62
     3
100
AcDbLine
 10
32.19075617057454
 20
2.995142343245089
 30
0.0
 11
32.19632317057454
 21
2.989574843245089
 31
0.0
  0
LINE
  5
1DB
330
1F
100
AcDbEntity
  8
126
  6
Continuous
 62
     3
100
AcDbLine
 10
32.01865317057454
 20
3.156196743245089
 30
0.0
 11
32.03346117057454
 21
3.141388443245089
 31
0.0
  0
LINE
  5
1DC
330
1F
100
AcDbEntity
  8
126
  6
Continuous
 62
     3
100
AcDbLine
 10
32.17970717057454
 20
2.995142343245089
 30
0.0
 11
32.19466717057454
 21
2.980182443245089
 31
0.0
  0
LINE
  5
1DD
330
1F
100
AcDbEntity
  8
126
  6
Continuous
 62
     3
100
AcDbLine
 10
32.00760417057454
 20
3.156196743245089
 30
0.0
 11
32.03180517057454
 21
3.131996043245089
 31
0.0
  0
LINE
  5
1DE
330
1F
100
AcDbEntity
  8
126
  6
Continuous
 62
     3
100
AcDbLine
 10
32.16865917057454
 20
2.995142343245089
 30
0.0
 11
32.19301117057454
 21
2.970790043245089
 31
0.0
  0
LINE
  5
1DF
330
1F
100
AcDbEntity
  8
126
  6
Continuous
 62
     3
100
AcDbLine
 10
31.99655617057454
 20
3.156196743245089
 30
0.0
 11
32.03014917057454
 21
3.122603543245089
 31
0.0
  0
LINE
  5
1E0
330
1F
100
AcDbEntity
  8
126
  6
Continuous
 62
     3
100
AcDbLine
 10
32.15761017057454
 20
2.995142343245089
 30
0.0
 11
32.18498517057454
 21
2.967767343245089
 31
0.0
  0
LINE
  5
1E1
330
1F
100
AcDbEntity
  8
126
  6
Continuous
 62
     3
100
AcDbLine
 10
31.98550717057454
 20
3.156196743245089
 30
0.0
 11
32.02849317057454
 21
3.113211143245089
 31
0.0
  0
LINE
  5
1E2
330
1F
100
AcDbEntity
  8
126
  6
Continuous
 62
     3
100
AcDbLine
 10
32.14656217057454
 20
2.995142343245089
 30
0.0
 11
32.17393717057454
 21
2.967767343245089
 31
0.0
  0
LINE
  5
1E3
330
1F
100
AcDbEntity
  8
126
  6
Continuous
 62
     3
100
AcDbLine
 10
31.98248917057454
 20
3.148166543245089
 30
0.0
 11
32.02683717057454
 21
3.103818743245088
 31
0.0
  0
LINE
  5
1E4
330
1F
100
AcDbEntity
  8
126
  6
Continuous
 62
     3
100
AcDbLine
 10
32.13551317057454
 20
2.995142343245089
 30
0.0
 11
32.16288817057454
 21
2.967767343245089
 31
0.0
  0
LINE
  5
1E5
330
1F
100
AcDbEntity
  8
126
  6
Continuous
 62
     3
100
AcDbLine
 10
31.98083317057454
 20
3.138774243245089
 30
0.0
 11
32.02518117057454
 21
3.094426343245089
 31
0.0
  0
LINE
  5
1E6
330
1F
100
AcDbEntity
  8
126
  6
Continuous
 62
     3
100
AcDbLine
 10
32.12446517057454
 20
2.995142343245089
 30
0.0
 11
32.15184017057454
 21
2.967767343245089
 31
0.0
  0
LINE
  5
1E7
330
1F
100
AcDbEntity
  8
126
  6
Continuous
 62
     3
100
AcDbLine
 10
31.97917717057454
 20
3.129381743245088
 30
0.0
 11
32.02352417057454
 21
3.085033943245089
 31
0.0
  0
LINE
  5
1E8
330
1F
100
AcDbEntity
  8
126
  6
Continuous
 62
     3
100
AcDbLine
 10
32.11341617057454
 20
2.995142343245089
 30
0.0
 11
32.14079117057454
 21
2.967767343245089
 31
0.0
  0
LINE
  5
1E9
330
1F
100
AcDbEntity
  8
126
  6
Continuous
 62
     3
100
AcDbLine
 10
31.94131317057454
 20
3.156196743245089
 30
0.0
 11
31.94322017057454
 21
3.154290243245088
 31
0.0
  0
LINE
  5
1EA
330
1F
100
AcDbEntity
  8
126
  6
Continuous
 62
     3
100
AcDbLine
 10
31.97752017057454
 20
3.119989343245089
 30
0.0
 11
32.02186817057454
 21
3.075641543245088
 31
0.0
  0
LINE
  5
1EB
330
1F
100
AcDbEntity
  8
126
  6
Continuous
 62
     3
100
AcDbLine
 10
32.10236717057454
 20
2.995142343245089
 30
0.0
 11
32.12974217057454
 21
2.967767343245089
 31
0.0
  0
LINE
  5
1EC
330
1F
100
AcDbEntity
  8
126
  6
Continuous
 62
     3
100
AcDbLine
 10
31.93026517057454
 20
3.156196743245089
 30
0.0
 11
31.94156317057454
 21
3.144897843245089
 31
0.0
  0
LINE
  5
1ED
330
1F
100
AcDbEntity
  8
126
  6
Continuous
 62
     3
100
AcDbLine
 10
31.97586417057454
 20
3.110596943245089
 30
0.0
 11
32.02021217057454
 21
3.066249143245089
 31
0.0
  0
LINE
  5
1EE
330
1F
100
AcDbEntity
  8
126
  6
Continuous
 62
     3
100
AcDbLine
 10
32.09131917057454
 20
2.995142343245089
 30
0.0
 11
32.11869417057453
 21
2.967767343245089
 31
0.0
  0
LINE
  5
1EF
330
1F
100
AcDbEntity
  8
126
  6
Continuous
 62
     3
100
AcDbLine
 10
31.91921617057454
 20
3.156196743245089
 30
0.0
 11
31.93990717057454
 21
3.135505443245089
 31
0.0
  0
LINE
  5
1F0
330
1F
100
AcDbEntity
  8
126
  6
Continuous
 62
     3
100
AcDbLine
 10
31.97420817057454
 20
3.101204543245088
 30
0.0
 11
32.01855617057454
 21
3.056856743245089
 31
0.0
  0
LINE
  5
1F1
330
1F
100
AcDbEntity
  8
126
  6
Continuous
 62
     3
100
AcDbLine
 10
32.08027017057454
 20
2.995142343245089
 30
0.0
 11
32.10764517057454
 21
2.967767343245089
 31
0.0
  0
LINE
  5
1F2
330
1F
100
AcDbEntity
  8
126
  6
Continuous
 62
     3
100
AcDbLine
 10
31.90816717057454
 20
3.156196743245089
 30
0.0
 11
31.93554217057454
 21
3.128821743245089
 31
0.0
  0
LINE
  5
1F3
330
1F
100
AcDbEntity
  8
126
  6
Continuous
 62
     3
100
AcDbLine
 10
31.97255217057454
 20
3.091812143245089
 30
0.0
 11
32.01690017057454
 21
3.047464343245088
 31
0.0
  0
LINE
  5
1F4
330
1F
100
AcDbEntity
  8
126
  6
Continuous
 62
     3
100
AcDbLine
 10
32.06922217057454
 20
2.995142343245089
 30
0.0
 11
32.09659717057454
 21
2.967767343245089
 31
0.0
  0
LINE
  5
1F5
330
1F
100
AcDbEntity
  8
126
  6
Continuous
 62
     3
100
AcDbLine
 10
31.89711917057454
 20
3.156196743245089
 30
0.0
 11
31.92449417057454
 21
3.128821743245089
 31
0.0
  0
LINE
  5
1F6
330
1F
100
AcDbEntity
  8
126
  6
Continuous
 62
     3
100
AcDbLine
 10
31.97089617057454
 20
3.082419743245089
 30
0.0
 11
32.01524417057454
 21
3.038071943245089
 31
0.0
  0
LINE
  5
1F7
330
1F
100
AcDbEntity
  8
126
  6
Continuous
 62
     3
100
AcDbLine
 10
32.05817317057454
 20
2.995142343245089
 30
0.0
 11
32.08554817057454
 21
2.967767343245089
 31
0.0
  0
LINE
  5
1F8
330
1F
100
AcDbEntity
  8
126
  6
Continuous
 62
     3
100
AcDbLine
 10
31.88607017057454
 20
3.156196743245089
 30
0.0
 11
31.91344517057454
 21
3.128821743245089
 31
0.0
  0
LINE
  5
1F9
330
1F
100
AcDbEntity
  8
126
  6
Continuous
 62
     3
100
AcDbLine
 10
31.96924017057454
 20
3.073027343245088
 30
0.0
 11
32.01358817057454
 21
3.028679543245089
 31
0.0
  0
LINE
  5
1FA
330
1F
100
AcDbEntity
  8
126
  6
Continuous
 62
     3
100
AcDbLine
 10
32.04712517057454
 20
2.995142343245089
 30
0.0
 11
32.07450017057454
 21
2.967767343245089
 31
0.0
  0
LINE
  5
1FB
330
1F
100
AcDbEntity
  8
126
  6
Continuous
 62
     3
100
AcDbLine
 10
31.87502217057454
 20
3.156196743245089
 30
0.0
 11
31.90239717057454
 21
3.128821743245089
 31
0.0
  0
LINE
  5
1FC
330
1F
100
AcDbEntity
  8
126
  6
Continuous
 62
     3
100
AcDbLine
 10
31.96758417057454
 20
3.063634943245089
 30
0.0
 11
32.01193117057453
 21
3.019287043245089
 31
0.0
  0
LINE
  5
1FD
330
1F
100
AcDbEntity
  8
126
  6
Continuous
 62
     3
100
AcDbLine
 10
32.03607617057454
 20
2.995142343245089
 30
0.0
 11
32.06345117057454
 21
2.967767343245089
 31
0.0
  0
LINE
  5
1FE
330
1F
100
AcDbEntity
  8
126
  6
Continuous
 62
     3
100
AcDbLine
 10
31.86397317057454
 20
3.156196743245089
 30
0.0
 11
31.89134817057454
 21
3.128821743245089
 31
0.0
  0
LINE
  5
1FF
330
1F
100
AcDbEntity
  8
126
  6
Continuous
 62
     3
100
AcDbLine
 10
31.96592817057454
 20
3.054242543245089
 30
0.0
 11
32.01027517057454
 21
3.009894743245089
 31
0.0
  0
LINE
  5
200
330
1F
100
AcDbEntity
  8
126
  6
Continuous
 62
     3
100
AcDbLine
 10
32.02502817057454
 20
2.995142343245089
 30
0.0
 11
32.05240317057454
 21
2.967767343245089
 31
0.0
  0
LINE
  5
201
330
1F
100
AcDbEntity
  8
126
  6
Continuous
 62
     3
100
AcDbLine
 10
31.85292517057454
 20
3.156196743245089
 30
0.0
 11
31.88030017057454
 21
3.128821743245089
 31
0.0
  0
LINE
  5
202
330
1F
100
AcDbEntity
  8
126
  6
Continuous
 62
     3
100
AcDbLine
 10
31.96427117057454
 20
3.044850143245088
 30
0.0
 11
32.00861917057454
 21
3.000502243245088
 31
0.0
  0
LINE
  5
203
330
1F
100
AcDbEntity
  8
126
  6
Continuous
 62
     3
100
AcDbLine
 10
32.01397917057454
 20
2.995142343245089
 30
0.0
 11
32.04135417057454
 21
2.967767343245089
 31
0.0
  0
LINE
  5
204
330
1F
100
AcDbEntity
  8
126
  6
Continuous
 62
     3
100
AcDbLine
 10
31.84187617057454
 20
3.156196743245089
 30
0.0
 11
31.86925117057454
 21
3.128821743245089
 31
0.0
  0
LINE
  5
205
330
1F
100
AcDbEntity
  8
126
  6
Continuous
 62
     3
100
AcDbLine
 10
31.96261517057454
 20
3.035457743245089
 30
0.0
 11
32.03030617057454
 21
2.967767343245089
 31
0.0
  0
LINE
  5
206
330
1F
100
AcDbEntity
  8
126
  6
Continuous
 62
     3
100
AcDbLine
 10
31.83082817057453
 20
3.156196743245089
 30
0.0
 11
31.85820317057454
 21
3.128821743245089
 31
0.0
  0
LINE
  5
207
330
1F
100
AcDbEntity
  8
126
  6
Continuous
 62
     3
100
AcDbLine
 10
31.91129217057454
 20
3.075732043245089
 30
0.0
 11
31.91586817057454
 21
3.071156443245089
 31
0.0
  0
LINE
  5
208
330
1F
100
AcDbEntity
  8
126
  6
Continuous
 62
     3
100
AcDbLine
 10
31.96095917057454
 20
3.026065343245089
 30
0.0
 11
32.01925717057454
 21
2.967767343245089
 31
0.0
  0
LINE
  5
209
330
1F
100
AcDbEntity
  8
126
  6
Continuous
 62
     3
100
AcDbLine
 10
31.81977917057454
 20
3.156196743245089
 30
0.0
 11
31.84715417057454
 21
3.128821743245089
 31
0.0
  0
LINE
  5
20A
330
1F
100
AcDbEntity
  8
126
  6
Continuous
 62
     3
100
AcDbLine
 10
31.90024417057454
 20
3.075732043245089
 30
0.0
 11
31.91421217057454
 21
3.061764043245088
 31
0.0
  0
LINE
  5
20B
330
1F
100
AcDbEntity
  8
126
  6
Continuous
 62
     3
100
AcDbLine
 10
31.95930317057454
 20
3.016672843245089
 30
0.0
 11
32.00820817057454
 21
2.967767343245089
 31
0.0
  0
LINE
  5
20C
330
1F
100
AcDbEntity
  8
126
  6
Continuous
 62
     3
100
AcDbLine
 10
31.80873117057454
 20
3.156196743245089
 30
0.0
 11
31.83610617057454
 21
3.128821743245089
 31
0.0
  0
LINE
  5
20D
330
1F
100
AcDbEntity
  8
126
  6
Continuous
 62
     3
100
AcDbLine
 10
31.88919517057454
 20
3.075732043245089
 30
0.0
 11
31.91255617057454
 21
3.052371643245089
 31
0.0
  0
LINE
  5
20E
330
1F
100
AcDbEntity
  8
126
  6
Continuous
 62
     3
100
AcDbLine
 10
31.95764717057454
 20
3.007280443245089
 30
0.0
 11
31.99716017057454
 21
2.967767343245089
 31
0.0
  0
LINE
  5
20F
330
1F
100
AcDbEntity
  8
126
  6
Continuous
 62
     3
100
AcDbLine
 10
31.79768217057454
 20
3.156196743245089
 30
0.0
 11
31.82505717057454
 21
3.128821743245089
 31
0.0
  0
LINE
  5
210
330
1F
100
AcDbEntity
  8
126
  6
Continuous
 62
     3
100
AcDbLine
 10
31.87814717057454
 20
3.075732043245089
 30
0.0
 11
31.90564717057454
 21
3.048232043245088
 31
0.0
  0
LINE
  5
211
330
1F
100
AcDbEntity
  8
126
  6
Continuous
 62
     3
100
AcDbLine
 10
31.95599117057454
 20
2.997888043245088
 30
0.0
 11
31.98611117057454
 21
2.967767343245089
 31
0.0
  0
LINE
  5
212
330
1F
100
AcDbEntity
  8
126
  6
Continuous
 62
     3
100
AcDbLine
 10
31.78663317057454
 20
3.156196743245089
 30
0.0
 11
31.81400817057454
 21
3.128821743245089
 31
0.0
  0
LINE
  5
213
330
1F
100
AcDbEntity
  8
126
  6
Continuous
 62
     3
100
AcDbLine
 10
31.86709817057454
 20
3.075732043245089
 30
0.0
 11
31.89459817057454
 21
3.048232043245088
 31
0.0
  0
LINE
  5
214
330
1F
100
AcDbEntity
  8
126
  6
Continuous
 62
     3
100
AcDbLine
 10
31.95433517057454
 20
2.988495643245089
 30
0.0
 11
31.97506317057454
 21
2.967767343245089
 31
0.0
  0
LINE
  5
215
330
1F
100
AcDbEntity
  8
126
  6
Continuous
 62
     3
100
AcDbLine
 10
31.77558517057454
 20
3.156196743245089
 30
0.0
 11
31.80296017057454
 21
3.128821743245089
 31
0.0
  0
LINE
  5
216
330
1F
100
AcDbEntity
  8
126
  6
Continuous
 62
     3
100
AcDbLine
 10
31.85605017057454
 20
3.075732043245089
 30
0.0
 11
31.88355017057454
 21
3.048232043245088
 31
0.0
  0
LINE
  5
217
330
1F
100
AcDbEntity
  8
126
  6
Continuous
 62
     3
100
AcDbLine
 10
31.95267817057454
 20
2.979103243245089
 30
0.0
 11
31.96401417057454
 21
2.967767343245089
 31
0.0
  0
LINE
  5
218
330
1F
100
AcDbEntity
  8
126
  6
Continuous
 62
     3
100
AcDbLine
 10
31.76453617057454
 20
3.156196743245089
 30
0.0
 11
31.79191117057454
 21
3.128821743245089
 31
0.0
  0
LINE
  5
219
330
1F
100
AcDbEntity
  8
126
  6
Continuous
 62
     3
100
AcDbLine
 10
31.84500117057454
 20
3.075732043245089
 30
0.0
 11
31.87250117057454
 21
3.048232043245088
 31
0.0
  0
LINE
  5
21A
330
1F
100
AcDbEntity
  8
126
  6
Continuous
 62
     3
100
AcDbLine
 10
31.92559117057454
 20
2.995142343245089
 30
0.0
 11
31.92751217057454
 21
2.993221543245089
 31
0.0
  0
LINE
  5
21B
330
1F
100
AcDbEntity
  8
126
  6
Continuous
 62
     3
100
AcDbLine
 10
31.95102217057454
 20
2.969710843245088
 30
0.0
 11
31.95296617057454
 21
2.967767343245089
 31
0.0
  0
LINE
  5
21C
330
1F
100
AcDbEntity
  8
126
  6
Continuous
 62
     3
100
AcDbLine
 10
31.75348817057454
 20
3.156196743245089
 30
0.0
 11
31.78086317057454
 21
3.128821743245089
 31
0.0
  0
LINE
  5
21D
330
1F
100
AcDbEntity
  8
126
  6
Continuous
 62
     3
100
AcDbLine
 10
31.83395317057454
 20
3.075732043245089
 30
0.0
 11
31.86145317057454
 21
3.048232043245088
 31
0.0
  0
LINE
  5
21E
330
1F
100
AcDbEntity
  8
126
  6
Continuous
 62
     3
100
AcDbLine
 10
31.91454217057454
 20
2.995142343245089
 30
0.0
 11
31.92585517057454
 21
2.983829143245089
 31
0.0
  0
LINE
  5
21F
330
1F
100
AcDbEntity
  8
126
  6
Continuous
 62
     3
100
AcDbLine
 10
31.74243917057454
 20
3.156196743245089
 30
0.0
 11
31.76981417057454
 21
3.128821743245089
 31
0.0
  0
LINE
  5
220
330
1F
100
AcDbEntity
  8
126
  6
Continuous
 62
     3
100
AcDbLine
 10
31.82290417057454
 20
3.075732043245089
 30
0.0
 11
31.85040417057454
 21
3.048232043245088
 31
0.0
  0
LINE
  5
221
330
1F
100
AcDbEntity
  8
126
  6
Continuous
 62
     3
100
AcDbLine
 10
31.90349417057454
 20
2.995142343245089
 30
0.0
 11
31.92419917057454
 21
2.974436743245089
 31
0.0
  0
LINE
  5
222
330
1F
100
AcDbEntity
  8
126
  6
Continuous
 62
     3
100
AcDbLine
 10
31.73139117057454
 20
3.156196743245089
 30
0.0
 11
31.75876617057454
 21
3.128821743245089
 31
0.0
  0
LINE
  5
223
330
1F
100
AcDbEntity
  8
126
  6
Continuous
 62
     3
100
AcDbLine
 10
31.81185517057454
 20
3.075732043245089
 30
0.0
 11
31.83935517057454
 21
3.048232043245088
 31
0.0
  0
LINE
  5
224
330
1F
100
AcDbEntity
  8
126
  6
Continuous
 62
     3
100
AcDbLine
 10
31.89244517057454
 20
2.995142343245089
 30
0.0
 11
31.91982017057454
 21
2.967767343245089
 31
0.0
  0
LINE
  5
225
330
1F
100
AcDbEntity
  8
126
  6
Continuous
 62
     3
100
AcDbLine
 10
31.72034217057454
 20
3.156196743245089
 30
0.0
 11
31.74771717057454
 21
3.128821743245089
 31
0.0
  0
LINE
  5
226
330
1F
100
AcDbEntity
  8
126
  6
Continuous
 62
     3
100
AcDbLine
 10
31.80080717057454
 20
3.075732043245089
 30
0.0
 11
31.82830717057454
 21
3.048232043245088
 31
0.0
  0
LINE
  5
227
330
1F
100
AcDbEntity
  8
126
  6
Continuous
 62
     3
100
AcDbLine
 10
31.88139717057454
 20
2.995142343245089
 30
0.0
 11
31.90877217057454
 21
2.967767343245089
 31
0.0
  0
LINE
  5
228
330
1F
100
AcDbEntity
  8
126
  6
Continuous
 62
     3
100
AcDbLine
 10
31.70929417057454
 20
3.156196743245089
 30
0.0
 11
31.73666917057454
 21
3.128821743245089
 31
0.0
  0
LINE
  5
229
330
1F
100
AcDbEntity
  8
126
  6
Continuous
 62
     3
100
AcDbLine
 10
31.78975817057454
 20
3.075732043245089
 30
0.0
 11
31.81725817057454
 21
3.048232043245088
 31
0.0
  0
LINE
  5
22A
330
1F
100
AcDbEntity
  8
126
  6
Continuous
 62
     3
100
AcDbLine
 10
31.87034817057454
 20
2.995142343245089
 30
0.0
 11
31.89772317057454
 21
2.967767343245089
 31
0.0
  0
LINE
  5
22B
330
1F
100
AcDbEntity
  8
126
  6
Continuous
 62
     3
100
AcDbLine
 10
31.69824517057454
 20
3.156196743245089
 30
0.0
 11
31.72812217057454
 21
3.126320343245089
 31
0.0
  0
LINE
  5
22C
330
1F
100
AcDbEntity
  8
126
  6
Continuous
 62
     3
100
AcDbLine
 10
31.77871017057454
 20
3.075732043245089
 30
0.0
 11
31.80621017057454
 21
3.048232043245088
 31
0.0
  0
LINE
  5
22D
330
1F
100
AcDbEntity
  8
126
  6
Continuous
 62
     3
100
AcDbLine
 10
31.85930017057454
 20
2.995142343245089
 30
0.0
 11
31.88667417057454
 21
2.967767343245089
 31
0.0
  0
LINE
  5
22E
330
1F
100
AcDbEntity
  8
126
  6
Continuous
 62
     3
100
AcDbLine
 10
31.68719717057454
 20
3.156196743245089
 30
0.0
 11
31.72646517057454
 21
3.116927943245089
 31
0.0
  0
LINE
  5
22F
330
1F
100
AcDbEntity
  8
126
  6
Continuous
 62
     3
100
AcDbLine
 10
31.76766117057454
 20
3.075732043245089
 30
0.0
 11
31.79516117057454
 21
3.048232043245088
 31
0.0
  0
LINE
  5
230
330
1F
100
AcDbEntity
  8
126
  6
Continuous
 62
     3
100
AcDbLine
 10
31.84825117057453
 20
2.995142343245089
 30
0.0
 11
31.87562617057454
 21
2.967767343245089
 31
0.0
  0
LINE
  5
231
330
1F
100
AcDbEntity
  8
126
  6
Continuous
 62
     3
100
AcDbLine
 10
31.68048417057454
 20
3.151860743245089
 30
0.0
 11
31.72480917057454
 21
3.107535543245089
 31
0.0
  0
LINE
  5
232
330
1F
100
AcDbEntity
  8
126
  6
Continuous
 62
     3
100
AcDbLine
 10
31.75661317057454
 20
3.075732043245089
 30
0.0
 11
31.78411317057454
 21
3.048232043245088
 31
0.0
  0
LINE
  5
233
330
1F
100
AcDbEntity
  8
126
  6
Continuous
 62
     3
100
AcDbLine
 10
31.83720217057454
 20
2.995142343245089
 30
0.0
 11
31.86457717057454
 21
2.967767343245089
 31
0.0
  0
LINE
  5
234
330
1F
100
AcDbEntity
  8
126
  6
Continuous
 62
     3
100
AcDbLine
 10
31.67882817057454
 20
3.142468343245089
 30
0.0
 11
31.72315317057454
 21
3.098143143245088
 31
0.0
  0
LINE
  5
235
330
1F
100
AcDbEntity
  8
126
  6
Continuous
 62
     3
100
AcDbLine
 10
31.74556417057454
 20
3.075732043245089
 30
0.0
 11
31.77306417057454
 21
3.048232043245088
 31
0.0
  0
LINE
  5
236
330
1F
100
AcDbEntity
  8
126
  6
Continuous
 62
     3
100
AcDbLine
 10
31.82615417057454
 20
2.995142343245089
 30
0.0
 11
31.85352917057454
 21
2.967767343245089
 31
0.0
  0
LINE
  5
237
330
1F
100
AcDbEntity
  8
126
  6
Continuous
 62
     3
100
AcDbLine
 10
31.67717217057454
 20
3.133075943245088
 30
0.0
 11
31.72149717057454
 21
3.088750743245089
 31
0.0
  0
LINE
  5
238
330
1F
100
AcDbEntity
  8
126
  6
Continuous
 62
     3
100
AcDbLine
 10
31.73451617057454
 20
3.075732043245089
 30
0.0
 11
31.76201617057454
 21
3.048232043245088
 31
0.0
  0
LINE
  5
239
330
1F
100
AcDbEntity
  8
126
  6
Continuous
 62
     3
100
AcDbLine
 10
31.81510517057454
 20
2.995142343245089
 30
0.0
 11
31.84248017057454
 21
2.967767343245089
 31
0.0
  0
LINE
  5
23A
330
1F
100
AcDbEntity
  8
126
  6
Continuous
 62
     3
100
AcDbLine
 10
31.67551617057454
 20
3.123683543245089
 30
0.0
 11
31.71984117057454
 21
3.079358343245089
 31
0.0
  0
LINE
  5
23B
330
1F
100
AcDbEntity
  8
126
  6
Continuous
 62
     3
100
AcDbLine
 10
31.72346717057454
 20
3.075732043245089
 30
0.0
 11
31.75096717057454
 21
3.048232043245088
 31
0.0
  0
LINE
  5
23C
330
1F
100
AcDbEntity
  8
126
  6
Continuous
 62
     3
100
AcDbLine
 10
31.80405717057454
 20
2.995142343245089
 30
0.0
 11
31.83143217057454
 21
2.967767343245089
 31
0.0
  0
LINE
  5
23D
330
1F
100
AcDbEntity
  8
126
  6
Continuous
 62
     3
100
AcDbLine
 10
31.67385917057454
 20
3.114291143245089
 30
0.0
 11
31.73991917057454
 21
3.048232043245088
 31
0.0
  0
LINE
  5
23E
330
1F
100
AcDbEntity
  8
126
  6
Continuous
 62
     3
100
AcDbLine
 10
31.79300817057454
 20
2.995142343245089
 30
0.0
 11
31.82038317057454
 21
2.967767343245089
 31
0.0
  0
LINE
  5
23F
330
1F
100
AcDbEntity
  8
126
  6
Continuous
 62
     3
100
AcDbLine
 10
31.67220317057454
 20
3.104898743245088
 30
0.0
 11
31.72887017057454
 21
3.048232043245088
 31
0.0
  0
LINE
  5
240
330
1F
100
AcDbEntity
  8
126
  6
Continuous
 62
     3
100
AcDbLine
 10
31.78196017057454
 20
2.995142343245089
 30
0.0
 11
31.80933517057454
 21
2.967767343245089
 31
0.0
  0
LINE
  5
241
330
1F
100
AcDbEntity
  8
126
  6
Continuous
 62
     3
100
AcDbLine
 10
31.67054717057454
 20
3.095506343245089
 30
0.0
 11
31.71791617057454
 21
3.048137243245089
 31
0.0
  0
LINE
  5
242
330
1F
100
AcDbEntity
  8
126
  6
Continuous
 62
     3
100
AcDbLine
 10
31.77091117057454
 20
2.995142343245089
 30
0.0
 11
31.79828617057454
 21
2.967767343245089
 31
0.0
  0
LINE
  5
243
330
1F
100
AcDbEntity
  8
126
  6
Continuous
 62
     3
100
AcDbLine
 10
31.66889117057454
 20
3.086113943245089
 30
0.0
 11
31.71626017057454
 21
3.038744843245089
 31
0.0
  0
LINE
  5
244
330
1F
100
AcDbEntity
  8
126
  6
Continuous
 62
     3
100
AcDbLine
 10
31.75986317057454
 20
2.995142343245089
 30
0.0
 11
31.78723817057454
 21
2.967767343245089
 31
0.0
  0
LINE
  5
245
330
1F
100
AcDbEntity
  8
126
  6
Continuous
 62
     3
100
AcDbLine
 10
31.66723517057454
 20
3.076721543245088
 30
0.0
 11
31.71460417057454
 21
3.029352443245088
 31
0.0
  0
LINE
  5
246
330
1F
100
AcDbEntity
  8
126
  6
Continuous
 62
     3
100
AcDbLine
 10
31.74881417057454
 20
2.995142343245089
 30
0.0
 11
31.77618917057454
 21
2.967767343245089
 31
0.0
  0
LINE
  5
247
330
1F
100
AcDbEntity
  8
126
  6
Continuous
 62
     3
100
AcDbLine
 10
31.66557917057454
 20
3.067329143245089
 30
0.0
 11
31.71294817057454
 21
3.019960043245089
 31
0.0
  0
LINE
  5
248
330
1F
100
AcDbEntity
  8
126
  6
Continuous
 62
     3
100
AcDbLine
 10
31.73776617057454
 20
2.995142343245089
 30
0.0
 11
31.76514117057454
 21
2.967767343245089
 31
0.0
  0
LINE
  5
249
330
1F
100
AcDbEntity
  8
126
  6
Continuous
 62
     3
100
AcDbLine
 10
31.66392317057454
 20
3.057936743245089
 30
0.0
 11
31.71129217057454
 21
3.010567643245089
 31
0.0
  0
LINE
  5
24A
330
1F
100
AcDbEntity
  8
126
  6
Continuous
 62
     3
100
AcDbLine
 10
31.72671717057454
 20
2.995142343245089
 30
0.0
 11
31.75409217057454
 21
2.967767343245089
 31
0.0
  0
LINE
  5
24B
330
1F
100
AcDbEntity
  8
126
  6
Continuous
 62
     3
100
AcDbLine
 10
31.66226617057454
 20
3.048544243245089
 30
0.0
 11
31.70963617057454
 21
3.001175243245089
 31
0.0
  0
LINE
  5
24C
330
1F
100
AcDbEntity
  8
126
  6
Continuous
 62
     3
100
AcDbLine
 10
31.71566817057454
 20
2.995142343245089
 30
0.0
 11
31.74304317057454
 21
2.967767343245089
 31
0.0
  0
LINE
  5
24D
330
1F
100
AcDbEntity
  8
126
  6
Continuous
 62
     3
100
AcDbLine
 10
31.66061017057454
 20
3.039151943245089
 30
0.0
 11
31.73199517057454
 21
2.967767343245089
 31
0.0
  0
LINE
  5
24E
330
1F
100
AcDbEntity
  8
126
  6
Continuous
 62
     3
100
AcDbLine
 10
31.65895417057454
 20
3.029759443245088
 30
0.0
 11
31.72094617057453
 21
2.967767343245089
 31
0.0
  0
LINE
  5
24F
330
1F
100
AcDbEntity
  8
126
  6
Continuous
 62
     3
100
AcDbLine
 10
31.65729817057453
 20
3.020367043245089
 30
0.0
 11
31.70989817057454
 21
2.967767343245089
 31
0.0
  0
LINE
  5
250
330
1F
100
AcDbEntity
  8
126
  6
Continuous
 62
     3
100
AcDbLine
 10
31.65564217057454
 20
3.010974643245089
 30
0.0
 11
31.69884917057454
 21
2.967767343245089
 31
0.0
  0
LINE
  5
251
330
1F
100
AcDbEntity
  8
126
  6
Continuous
 62
     3
100
AcDbLine
 10
31.65398617057454
 20
3.001582243245088
 30
0.0
 11
31.68780117057454
 21
2.967767343245089
 31
0.0
  0
LINE
  5
252
330
1F
100
AcDbEntity
  8
126
  6
Continuous
 62
     3
100
AcDbLine
 10
31.65233017057454
 20
2.992189843245089
 30
0.0
 11
31.67675217057454
 21
2.967767343245089
 31
0.0
  0
LINE
  5
253
330
1F
100
AcDbEntity
  8
126
  6
Continuous
 62
     3
100
AcDbLine
 10
31.65067417057454
 20
2.982797443245089
 30
0.0
 11
31.66570417057454
 21
2.967767343245089
 31
0.0
  0
LINE
  5
254
330
1F
100
AcDbEntity
  8
126
  6
Continuous
 62
     3
100
AcDbLine
 10
31.64901717057454
 20
2.973405043245088
 30
0.0
 11
31.65465517057454
 21
2.967767343245089
 31
0.0
  0
LINE
  5
255
330
1F
100
AcDbEntity
  8
1
  6
Continuous
 62
     6
100
AcDbLine
 10
4.496499062056424
 20
1.150137243245088
 30
0.0
 11
35.61152317057454
 21
1.150137243245088
 31
0.0
  0
LINE
  5
256
330
1F
100
AcDbEntity
  8
1
  6
Continuous
 62
     6
100
AcDbLine
 10
35.61152317057454
 20
1.150137243245088
 30
0.0
 11
35.61152317057454
 21
21.25172002860729
 31
0.0
  0
LINE
  5
257
330
1F
100
AcDbEntity
  8
1
  6
Continuous
 62
     6
100
AcDbLine
 10
35.61152317057454
 20
21.25172002860729
 30
0.0
 11
4.496499062056424
 21
21.25172002860729
 31
0.0
  0
LINE
  5
258
330
1F
100
AcDbEntity
  8
1
  6
Continuous
 62
     6
100
AcDbLine
 10
4.496499062056424
 20
21.25172002860729
 30
0.0
 11
4.496499062056424
 21
1.150137243245088
 31
0.0
  0
MTEXT
  5
25A
330
1F
100
AcDbEntity
  8
1
 62
     7
100
AcDbMText
 10
16.6697218641
 20
14.7869134224
 30
0.0
 40
1.0416666667
 41
0.0
 71
     1
 72
     1
  1
EFRTU252210
  7
SLDTEXTSTYLE0
 73
     1
 44
1.0
1001
ACAD
1000
MTEXTBEGIN
1070
    73
1070
     1
1070
    44
1040
1.0
1070
    74
1070
     0
1000
MTEXTEND
  0
MTEXT
  5
25B
330
1F
100
AcDbEntity
  8
1
 62
     7
100
AcDbMText
 10
21.0902399743
 20
12.9722224416
 30
0.0
 40
1.0416666667
 41
0.0
 71
     2
 72
     1
  1
74180695
  7
SLDTEXTSTYLE0
 73
     1
 44
1.0
1001
ACAD
1000
MTEXTBEGIN
1070
    73
1070
     1
1070
    44
1040
1.0
1070
    74
1070
     0
1000
MTEXTEND
  0
INSERT
  5
263
330
1F
100
AcDbEntity
  8
1
100
AcDbBlockReference
  2
SW_NOTE_0
 10
20.06968838687454
 20
2.634355433000179
 30
0.0
  0
INSERT
  5
26C
330
1F
100
AcDbEntity
  8
1
100
AcDbBlockReference
  2
SW_NOTE_1
 10
27.76559886717454
 20
1.621055800045088
 30
0.0
  0
MTEXT
  5
26D
330
1F
100
AcDbEntity
  8
1
 62
     7
100
AcDbMText
 10
33.67273403897454
 20
1.416416946845088
 30
0.0
 40
0.2083333333
 41
0.0
 71
     2
 72
     1
  1
74180695
  7
SLDTEXTSTYLE0
 73
     1
 44
1.0
1001
ACAD
1000
MTEXTBEGIN
1070
    73
1070
     1
1070
    44
1040
1.0
1070
    74
1070
     0
1000
MTEXTEND
  0
MTEXT
  5
26E
330
1F
100
AcDbEntity
  8
126
 62
     7
100
AcDbMText
 10
33.74905859157454
 20
2.225550352245089
 30
0.0
 40
0.07
 41
0.0
 71
     1
 72
     1
  1
DATE
  7
SLDTEXTSTYLE0
 73
     1
 44
1.0
1001
ACAD
1000
MTEXTBEGIN
1070
    73
1070
     1
1070
    44
1040
1.0
1070
    74
1070
     0
1000
MTEXTEND
  0
MTEXT
  5
26F
330
1F
100
AcDbEntity
  8
126
 62
     7
100
AcDbMText
 10
33.66157074467454
 20
1.745278595745088
 30
0.0
 40
0.07
 41
0.0
 71
     1
 72
     1
  1
REVISION
  7
SLDTEXTSTYLE0
 73
     1
 44
1.0
1001
ACAD
1000
MTEXTBEGIN
1070
    73
1070
     1
1070
    44
1040
1.0
1070
    74
1070
     0
1000
MTEXTEND
  0
MTEXT
  5
270
330
1F
100
AcDbEntity
  8
180
 62
     7
100
AcDbMText
 10
34.46768227197454
 20
1.743345347845089
 30
0.0
 40
0.2083333333
 41
0.0
 71
     1
 72
     1
  1
D
  7
SLDTEXTSTYLE0
 73
     1
 44
1.0
1001
ACAD
1000
MTEXTBEGIN
1070
    73
1070
     1
1070
    44
1040
1.0
1070
    74
1070
     0
1000
MTEXTEND
  0
MTEXT
  5
271
330
1F
100
AcDbEntity
  8
1
 62
     7
100
AcDbMText
 10
34.52709883617454
 20
2.044615327745089
 30
0.0
 40
0.1377952756
 41
0.0
 71
     2
 72
     1
  1
2/1/2013
  7
SLDTEXTSTYLE0
 73
     1
 44
1.0
1001
ACAD
1000
MTEXTBEGIN
1070
    73
1070
     1
1070
    44
1040
1.0
1070
    74
1070
     0
1000
MTEXTEND
  0
MTEXT
  5
272
330
1F
100
AcDbEntity
  8
1
 62
     7
100
AcDbMText
 10
34.39439584347454
 20
3.058600094145088
 30
0.0
 40
0.1041666667
 41
0.0
 71
     2
 72
     1
  1
MANUFACTURING COMPANY
  7
SLDTEXTSTYLE0
 73
     1
 44
1.0
1001
ACAD
1000
MTEXTBEGIN
1070
    73
1070
     1
1070
    44
1040
1.0
1070
    74
1070
     0
1000
MTEXTEND
  0
MTEXT
  5
273
330
1F
100
AcDbEntity
  8
126
 62
     7
100
AcDbMText
 10
31.65308422407454
 20
2.063883240245089
 30
0.0
 40
0.07
 41
0.0
 71
     1
 72
     1
  1
SCALE
  7
SLDTEXTSTYLE0
 73
     1
 44
1.0
1001
ACAD
1000
MTEXTBEGIN
1070
    73
1070
     1
1070
    44
1040
1.0
1070
    74
1070
     0
1000
MTEXTEND
  0
MTEXT
  5
274
330
1F
100
AcDbEntity
  8
126
 62
     7
100
AcDbMText
 10
31.66597833007454
 20
2.225550352245089
 30
0.0
 40
0.07
 41
0.0
 71
     1
 72
     1
  1
DR.BY
  7
SLDTEXTSTYLE0
 73
     1
 44
1.0
1001
ACAD
1000
MTEXTBEGIN
1070
    73
1070
     1
1070
    44
1040
1.0
1070
    74
1070
     0
1000
MTEXTEND
  0
MTEXT
  5
275
330
1F
100
AcDbEntity
  8
1
 62
     7
100
AcDbMText
 10
32.26820361407454
 20
2.261645116445088
 30
0.0
 40
0.1377952756
 41
0.0
 71
     2
 72
     1
  1
KF1
  7
SLDTEXTSTYLE0
 73
     1
 44
1.0
1001
ACAD
1000
MTEXTBEGIN
1070
    73
1070
     1
1070
    44
1040
1.0
1070
    74
1070
     0
1000
MTEXTEND
  0
MTEXT
  5
276
330
1F
100
AcDbEntity
  8
126
 62
     7
100
AcDbMText
 10
32.66999020907454
 20
2.225550352245089
 30
0.0
 40
0.07
 41
0.0
 71
     1
 72
     1
  1
CH.BY
  7
SLDTEXTSTYLE0
 73
     1
 44
1.0
1001
ACAD
1000
MTEXTBEGIN
1070
    73
1070
     1
1070
    44
1040
1.0
1070
    74
1070
     0
1000
MTEXTEND
  0
MTEXT
  5
277
330
1F
100
AcDbEntity
  8
1
 62
     7
100
AcDbMText
 10
32.58230755387454
 20
1.897965264545089
 30
0.0
 40
0.1
 41
0.0
 71
     2
 72
     1
  1
DO NOT SCALE
  7
SLDTEXTSTYLE0
 73
     1
 44
1.0
1001
ACAD
1000
MTEXTBEGIN
1070
    73
1070
     1
1070
    44
1040
1.0
1070
    74
1070
     0
1000
MTEXTEND
  0
MTEXT
  5
278
330
1F
100
AcDbEntity
  8
1
 62
     7
100
AcDbMText
 10
32.58761827367454
 20
2.079053288245089
 30
0.0
 40
0.1377952756
 41
0.0
 71
     2
 72
     1
  1
1:1
  7
SLDTEXTSTYLE0
 73
     1
 44
1.0
1001
ACAD
1000
MTEXTBEGIN
1070
    73
1070
     1
1070
    44
1040
1.0
1070
    74
1070
     0
1000
MTEXTEND
  0
MTEXT
  5
279
330
1F
100
AcDbEntity
  8
1
 62
     7
100
AcDbMText
 10
33.63182998227454
 20
2.633563410645089
 30
0.0
 40
0.1377952756
 41
0.0
 71
     2
 72
     1
  1
TEMPLATE
  7
SLDTEXTSTYLE0
 73
     1
 44
1.0
1001
ACAD
1000
MTEXTBEGIN
1070
    73
1070
     1
1070
    44
1040
1.0
1070
    74
1070
     0
1000
MTEXTEND
  0
MTEXT
  5
27A
330
1F
100
AcDbEntity
  8
1
100
AcDbMText
 10
32.02300635457454
 20
1.743345347845089
 30
0.0
 40
0.2083333333
 41
0.0
 71
     1
 72
     1
  1
BV11213
  7
SLDTEXTSTYLE0
 73
     1
 44
1.0
1001
ACAD
1000
MTEXTBEGIN
1070
    73
1070
     1
1070
    44
1040
1.0
1070
    74
1070
     0
1000
MTEXTEND
  0
INSERT
  5
280
330
1F
100
AcDbEntity
  8
1
 62
     7
100
AcDbBlockReference
  2
SW_NOTE_2
 10
28.98166119217454
 20
2.219540296745089
 30
0.0
  0
MTEXT
  5
281
330
1F
100
AcDbEntity
  8
1
 62
     7
100
AcDbMText
 10
27.96894014717454
 20
2.686167725045089
 30
0.0
 40
0.0833333333
 41
0.0
 71
     2
 72
     1
  1
MATERIAL
  7
SLDTEXTSTYLE0
 73
     1
 44
1.0
1001
ACAD
1000
MTEXTBEGIN
1070
    73
1070
     1
1070
    44
1040
1.0
1070
    74
1070
     0
1000
MTEXTEND
  0
LINE
  5
282
330
1F
100
AcDbEntity
  8
0
  6
Continuous
 62
     7
370
    15
100
AcDbLine
 10
32.0954578816
 20
5.6520150869
 30
0.0
 11
32.0954578816
 21
20.2209126524
 31
0.0
  0
ARC
  5
283
330
1F
100
AcDbEntity
  8
0
  6
Continuous
 62
     7
370
    15
100
AcDbCircle
 10
31.6299066102
 20
5.652014854299999
 30
0.0
 40
0.4655511800000012
100
AcDbArc
 50
270.0
 51
0.0
  0
LINE
  5
284
330
1F
100
AcDbEntity
  8
0
  6
Continuous
 62
     7
370
    15
100
AcDbLine
 10
10.8110088281
 20
5.186463504999999
 30
0.0
 11
31.6299068864
 21
5.186463504999999
 31
0.0
  0
ARC
  5
285
330
1F
100
AcDbEntity
  8
0
  6
Continuous
 62
     7
370
    15
100
AcDbCircle
 10
10.8110089702
 20
5.652014854299999
 30
0.0
 40
0.4655511800000038
100
AcDbArc
 50
180.0
 51
270.0
  0
LINE
  5
286
330
1F
100
AcDbEntity
  8
0
  6
Continuous
 62
     7
370
    15
100
AcDbLine
 10
10.3454578328
 20
20.2209126524
 30
0.0
 11
10.3454578328
 21
5.6520150869
 31
0.0
  0
ARC
  5
287
330
1F
100
AcDbEntity
  8
0
  6
Continuous
 62
     7
370
    15
100
AcDbCircle
 10
10.8110089702
 20
20.2209124943
 30
0.0
 40
0.4655511800000003
100
AcDbArc
 50
90.0
 51
180.0
  0
LINE
  5
288
330
1F
100
AcDbEntity
  8
0
  6
Continuous
 62
     7
370
    15
100
AcDbLine
 10
31.6299068864
 20
20.6864636477
 30
0.0
 11
10.8110088281
 21
20.6864636477
 31
0.0
  0
ARC
  5
289
330
1F
100
AcDbEntity
  8
0
  6
Continuous
 62
     7
370
    15
100
AcDbCircle
 10
31.6299066102
 20
20.2209124943
 30
0.0
 40
0.4655511799999985
100
AcDbArc
 50
0.0
 51
90.0
  0
LINE
  5
28A
330
1F
100
AcDbEntity
  8
1
  6
Continuous
 62
     7
370
    15
100
AcDbLine
 10
21.2204577902
 20
5.186463674299999
 30
0.0
 11
21.2204577902
 21
10.9473170732
 31
0.0
  0
LINE
  5
28B
330
1F
100
AcDbEntity
  8
1
  6
Continuous
 62
     7
370
    15
100
AcDbLine
 10
21.2204577902
 20
15.5775609756
 30
0.0
 11
21.2204577902
 21
20.6864636743
 31
0.0
  0
LINE
  5
28C
330
1F
100
AcDbEntity
  8
1
  6
Continuous
 62
     7
370
    15
100
AcDbLine
 10
10.3454577902
 20
12.9364636743
 30
0.0
 11
14.6361020954
 21
12.9364636743
 31
0.0
  0
LINE
  5
28D
330
1F
100
AcDbEntity
  8
1
  6
Continuous
 62
     7
370
    15
100
AcDbLine
 10
27.9453658537
 20
12.9364636743
 30
0.0
 11
32.0954577902
 21
12.9364636743
 31
0.0
  0
LWPOLYLINE
  5
28E
330
1F
100
AcDbEntity
  8
1
 62
     7
370
     0
100
AcDbPolyline
 90
      115
 70
   128
 43
0.0
 10
32.0954577902
 20
5.8336639135
 10
32.0954577902
 20
19.6437988176
 10
32.0954577902
 20
20.2192211053
 10
32.0947826174
 20
20.2603279444
 10
32.0898477409
 20
20.301448454
 10
32.0798135642
 20
20.342091191
 10
32.0669222609
 20
20.3814300319
 10
32.051009231
 20
20.4194332335
 10
32.0315297012
 20
20.4563626885
 10
32.008537378
 20
20.4917937281
 10
31.9822206466
 20
20.5252358764
 10
31.9528575901
 20
20.5562340798
 10
31.9208067525
 20
20.5843887774
 10
31.886492686
 20
20.6093729001
 10
31.8503874898
 20
20.6309443015
 10
31.8129899951
 20
20.6489526505
 10
31.7744906732
 20
20.6635265658
 10
31.7438293383
 20
20.6728824942
 10
31.7124313832
 20
20.6804640417
 10
31.6807315224
 20
20.685016468
 10
31.6490305411
 20
20.6863865343
 10
31.6173396077
 20
20.6864636743
 10
31.5856492739
 20
20.6864636743
 10
31.4362519858
 20
20.6864636743
 10
31.1694711141
 20
20.6864636743
 10
30.6930767005
 20
20.6864636743
 10
29.8423723904
 20
20.6864636743
 10
28.3232575509
 20
20.6864636743
 10
19.1165009482
 20
20.6864636743
 10
14.5131226468
 20
20.6864636743
 10
12.2114334961
 20
20.6864636743
 10
11.0605889208
 20
20.6864636743
 10
10.8801364914
 20
20.6864636743
 10
10.851779681
 20
20.6864636743
 10
10.8234228707
 20
20.6864636743
 10
10.795065713
 20
20.6864189759
 10
10.7667017976
 20
20.6855047334
 10
10.7383241503
 20
20.6822656658
 10
10.6964390991
 20
20.672702374
 10
10.6558260824
 20
20.6598655274
 10
10.616662358
 20
20.6439577585
 10
10.5786266153
 20
20.6243184218
 10
10.5421255561
 20
20.6009646102
 10
10.5076916428
 20
20.5740930432
 10
10.4730644503
 20
20.5411177451
 10
10.4420425994
 20
20.504816912
 10
10.4150682401
 20
20.4657978542
 10
10.3924472587
 20
20.4247359349
 10
10.3743026885
 20
20.382265325
 10
10.3599677881
 20
20.3381428529
 10
10.3494714464
 20
20.2924771934
 10
10.3459457637
 20
20.256283633
 10
10.3454577902
 20
20.2201104397
 10
10.3454577902
 20
20.1839410388
 10
10.3454577902
 20
20.1477716379
 10
10.3454577902
 20
20.1116022369
 10
10.3454577902
 20
20.075432836
 10
10.3454577902
 20
20.039263435
 10
10.3454577902
 20
6.2291285309
 10
10.3454577902
 20
5.6537062432
 10
10.3461329629
 20
5.612599404199999
 10
10.3510678395
 20
5.5714788946
 10
10.3611020161
 20
5.530836157499999
 10
10.3739933194
 20
5.491497316599999
 10
10.3899063493
 20
5.453494114999999
 10
10.4093858791
 20
5.416564660099999
 10
10.4323782023
 20
5.381133620399999
 10
10.4586949337
 20
5.3476914721
 10
10.4880579902
 20
5.316693268699999
 10
10.5201088278
 20
5.2885385712
 10
10.5544228943
 20
5.263554448399999
 10
10.5905280905
 20
5.241983047099999
 10
10.6279255852
 20
5.223974698
 10
10.6664249072
 20
5.209400782699999
 10
10.6970862421
 20
5.200044854299999
 10
10.7284841971
 20
5.192463306899999
 10
10.760184058
 20
5.187910880599999
 10
10.7918850393
 20
5.186540814299999
 10
10.8235759726
 20
5.186463674299999
 10
10.8552663064
 20
5.186463674299999
 10
11.0046635946
 20
5.186463674299999
 10
11.2714444662
 20
5.186463674299999
 10
11.7478388799
 20
5.186463674299999
 10
12.5985431899
 20
5.186463674299999
 10
14.1176580294
 20
5.186463674299999
 10
23.3244146321
 20
5.186463674299999
 10
27.9277929335
 20
5.186463674299999
 10
30.2294820842
 20
5.186463674299999
 10
31.3803266596
 20
5.186463674299999
 10
31.560779089
 20
5.186463674299999
 10
31.5891358993
 20
5.186463674299999
 10
31.6174927096
 20
5.186463674299999
 10
31.6458498673
 20
5.186508372599999
 10
31.6742137827
 20
5.1874226152
 10
31.70259143
 20
5.1906616828
 10
31.7444764812
 20
5.2002249746
 10
31.7850894979
 20
5.2130618211
 10
31.8242532223
 20
5.2289695901
 10
31.862288965
 20
5.2486089267
 10
31.8987900243
 20
5.2719627383
 10
31.9332239375
 20
5.298834305399999
 10
31.96785113
 20
5.331809603399999
 10
31.998872981
 20
5.368110436499999
 10
32.0258473402
 20
5.4071294944
 10
32.0484683216
 20
5.4481914137
 10
32.0666128918
 20
5.4906620235
 10
32.0809477922
 20
5.534784495599999
 10
32.0914441339
 20
5.580450155199999
 10
32.0949698166
 20
5.616643715599999
 10
32.0954577902
 20
5.6528169088
 10
32.0954577902
 20
5.688986309799999
 10
32.0954577902
 20
5.7251557107
 10
32.0954577902
 20
5.761325111599999
 10
32.0954577902
 20
5.7974945126
 10
32.0954577902
 20
5.8336639135
  0
POINT
  5
28F
330
1F
100
AcDbEntity
  8
1
 62
     7
370
     0
100
AcDbPoint
 10
25.3700065929
 20
14.6537237712
 30
0.0
  0
POINT
  5
290
330
1F
100
AcDbEntity
  8
1
 62
     7
370
     0
100
AcDbPoint
 10
25.3700065929
 20
13.6537237712
 30
0.0
  0
DIMENSION
  5
291
330
1F
100
AcDbEntity
  8
1
 62
     7
100
AcDbDimension
  2
_D
 10
26.33652480983748
 20
14.6537237712
 30
0.0
 11
27.63027480983748
 21
15.792613157
 31
0.0
 70
   160
  1
<>\P[]
 71
     2
  3
SLDDIMSTYLE0
100
AcDbAlignedDimension
 13
25.3700065929
 23
13.6537237712
 33
0.0
 14
25.3700065929
 24
14.6537237712
 34
0.0
 50
90.0
100
AcDbRotatedDimension
1001
ACAD
1000
DSTYLE
1002
{
1070
   140
1040
0.35
1002
}
1001
ACAD_DSTYLE_DIMINSPECT
1070
   396
1000
100%
1070
   395
1000

1070
   394
1070
    33
1070
   393
1070
     0
  0
DIMENSION
  5
2A5
330
1F
100
AcDbEntity
  8
1
 62
     7
100
AcDbDimension
  2
_D_1
 10
8.723736369906392
 20
5.1864636743
 30
0.0
 11
8.72373636990639
 21
12.9364636743
 31
0.0
 70
   160
  1
<>\P[]
 71
     2
 42
15.5
  3
SLDDIMSTYLE0
100
AcDbAlignedDimension
 13
10.8110089702
 23
20.6864636743
 33
0.0
 14
10.8110089702
 24
5.186463674299999
 34
0.0
 50
90.0
100
AcDbRotatedDimension
1001
ACAD
1000
DSTYLE
1002
{
1070
   140
1040
0.35
1002
}
1001
ACAD_DSTYLE_DIMINSPECT
1070
   396
1000
100%
1070
   395
1000

1070
   394
1070
    33
1070
   393
1070
     0
  0
DIMENSION
  5
2B7
330
1F
100
AcDbEntity
  8
1
 62
     7
100
AcDbDimension
  2
_D_2
 10
10.06358904926688
 20
20.69158473768422
 30
0.0
 11
13.68877864366451
 21
19.21271817405964
 31
0.0
 70
   164
  1
<>\P[]
 42
0.4655511800192187
  3
SLDDIMSTYLE1
100
AcDbRadialDimension
 15
10.45231227881303
 25
20.43539700958528
 35
0.0
 40
0.0
1001
ACAD_DSTYLE_DIMINSPECT
1070
   396
1000
100%
1070
   395
1000

1070
   394
1070
    33
1070
   393
1070
     0
1001
ACAD
1000
DSTYLE
1002
{
1070
   140
1040
0.35
1070
   294
1070
     0
1002
}
  0
DIMENSION
  5
2C8
330
1F
100
AcDbEntity
  8
1
 62
     7
100
AcDbDimension
  2
_D_3
 10
32.0954577902
 20
3.847880997099999
 30
0.0
 11
21.2204577902
 21
3.847880997099999
 31
0.0
 70
   160
  1
<>\P[]
 71
     2
 42
21.75
  3
SLDDIMSTYLE0
100
AcDbAlignedDimension
 13
10.3454577902
 23
5.652014854299999
 33
0.0
 14
32.0954577902
 24
5.652014854299999
 34
0.0
100
AcDbRotatedDimension
1001
ACAD
1000
DSTYLE
1002
{
1070
   140
1040
0.35
1002
}
1001
ACAD_DSTYLE_DIMINSPECT
1070
   396
1000
100%
1070
   395
1000

1070
   394
1070
    33
1070
   393
1070
     0
  0
INSERT
  5
2E0
102
{ACAD_REACTORS
330
2E2
102
}
330
1F
100
AcDbEntity
  8
1
 62
     7
100
AcDbBlockReference
  2
SW_NOTE_3
 10
19.3680946309
 20
17.8703596365
 30
0.0
  0
LEADER
  5
2E2
330
1F
100
AcDbEntity
  8
1
 62
     7
100
AcDbLeader
  3
SLDDIMSTYLE2
 73
     2
 76
     3
 10
21.2204577902
 20
18.3086206897
 30
0.0
 10
19.6180946309
 20
17.8703596365
 30
0.0
 10
19.3680946309
 20
17.8703596365
 30
0.0
340
2E0
  0
ENDSEC
  0
SECTION
  2
OBJECTS
  0
DICTIONARY
  5
C
330
0
100
AcDbDictionary
281
     1
  3
ACAD_COLOR
350
312
  3
ACAD_GROUP
350
D
  3
ACAD_LAYOUT
350
1A
  3
ACAD_MATERIAL
350
2E5
  3
ACAD_MLEADERSTYLE
350
337
  3
ACAD_MLINESTYLE
350
17
  3
ACAD_PLOTSETTINGS
350
19
  3
ACAD_PLOTSTYLENAME
350
E
  3
ACAD_SCALELIST
350
315
  3
ACAD_TABLESTYLE
350
313
  3
ACAD_VISUALSTYLE
350
2FE
  3
ACDB_RECOMPOSE_DATA
350
6E9
  3
AcDbVariableDictionary
350
6DF
  3
AcmDictionary
350
393
  3
AMG
350
373
  3
AMGSNAPSETTINGS
350
3D3
  3
DWGPROPS
350
6EA
  0
DICTIONARY
  5
3E0
330
10
100
AcDbDictionary
280
     1
281
     1
  3
ADSK_XREC_LAYER_RECONCILED
360
3E1
  0
DICTIONARY
  5
3E2
330
44
100
AcDbDictionary
280
     1
281
     1
  3
ADSK_XREC_LAYER_RECONCILED
360
3E3
  0
DICTIONARY
  5
3E4
330
45
100
AcDbDictionary
280
     1
281
     1
  3
ADSK_XREC_LAYER_RECONCILED
360
3E5
  0
DICTIONARY
  5
3E6
330
46
100
AcDbDictionary
280
     1
281
     1
  3
ADSK_XREC_LAYER_RECONCILED
360
3E7
  0
DICTIONARY
  5
3E8
330
47
100
AcDbDictionary
280
     1
281
     1
  3
ADSK_XREC_LAYER_RECONCILED
360
3E9
  0
DICTIONARY
  5
3EA
330
48
100
AcDbDictionary
280
     1
281
     1
  3
ADSK_XREC_LAYER_RECONCILED
360
3EB
  0
DICTIONARY
  5
3EC
330
49
100
AcDbDictionary
280
     1
281
     1
  3
ADSK_XREC_LAYER_RECONCILED
360
3ED
  0
DICTIONARY
  5
3EE
330
4A
100
AcDbDictionary
280
     1
281
     1
  3
ADSK_XREC_LAYER_RECONCILED
360
3EF
  0
DICTIONARY
  5
3F0
330
4B
100
AcDbDictionary
280
     1
281
     1
  3
ADSK_XREC_LAYER_RECONCILED
360
3F1
  0
DICTIONARY
  5
3F2
330
4C
100
AcDbDictionary
280
     1
281
     1
  3
ADSK_XREC_LAYER_RECONCILED
360
3F3
  0
DICTIONARY
  5
3F4
330
4D
100
AcDbDictionary
280
     1
281
     1
  3
ADSK_XREC_LAYER_RECONCILED
360
3F5
  0
DICTIONARY
  5
3F6
330
4E
100
AcDbDictionary
280
     1
281
     1
  3
ADSK_XREC_LAYER_RECONCILED
360
3F7
  0
DICTIONARY
  5
3F8
330
4F
100
AcDbDictionary
280
     1
281
     1
  3
ADSK_XREC_LAYER_RECONCILED
360
3F9
  0
DICTIONARY
  5
3FA
330
50
100
AcDbDictionary
280
     1
281
     1
  3
ADSK_XREC_LAYER_RECONCILED
360
3FB
  0
DICTIONARY
  5
3FC
330
51
100
AcDbDictionary
280
     1
281
     1
  3
ADSK_XREC_LAYER_RECONCILED
360
3FD
  0
DICTIONARY
  5
3FE
330
52
100
AcDbDictionary
280
     1
281
     1
  3
ADSK_XREC_LAYER_RECONCILED
360
3FF
  0
DICTIONARY
  5
400
330
53
100
AcDbDictionary
280
     1
281
     1
  3
ADSK_XREC_LAYER_RECONCILED
360
401
  0
DICTIONARY
  5
402
330
54
100
AcDbDictionary
280
     1
281
     1
  3
ADSK_XREC_LAYER_RECONCILED
360
403
  0
DICTIONARY
  5
404
330
55
100
AcDbDictionary
280
     1
281
     1
  3
ADSK_XREC_LAYER_RECONCILED
360
405
  0
DICTIONARY
  5
406
330
56
100
AcDbDictionary
280
     1
281
     1
  3
ADSK_XREC_LAYER_RECONCILED
360
407
  0
DICTIONARY
  5
408
330
57
100
AcDbDictionary
280
     1
281
     1
  3
ADSK_XREC_LAYER_RECONCILED
360
409
  0
DICTIONARY
  5
40A
330
58
100
AcDbDictionary
280
     1
281
     1
  3
ADSK_XREC_LAYER_RECONCILED
360
40B
  0
DICTIONARY
  5
40C
330
59
100
AcDbDictionary
280
     1
281
     1
  3
ADSK_XREC_LAYER_RECONCILED
360
40D
  0
DICTIONARY
  5
40E
330
5A
100
AcDbDictionary
280
     1
281
     1
  3
ADSK_XREC_LAYER_RECONCILED
360
40F
  0
DICTIONARY
  5
410
330
5B
100
AcDbDictionary
280
     1
281
     1
  3
ADSK_XREC_LAYER_RECONCILED
360
411
  0
DICTIONARY
  5
412
330
5C
100
AcDbDictionary
280
     1
281
     1
  3
ADSK_XREC_LAYER_RECONCILED
360
413
  0
DICTIONARY
  5
414
330
5D
100
AcDbDictionary
280
     1
281
     1
  3
ADSK_XREC_LAYER_RECONCILED
360
415
  0
DICTIONARY
  5
416
330
5E
100
AcDbDictionary
280
     1
281
     1
  3
ADSK_XREC_LAYER_RECONCILED
360
417
  0
DICTIONARY
  5
418
330
5F
100
AcDbDictionary
280
     1
281
     1
  3
ADSK_XREC_LAYER_RECONCILED
360
419
  0
DICTIONARY
  5
41A
330
60
100
AcDbDictionary
280
     1
281
     1
  3
ADSK_XREC_LAYER_RECONCILED
360
41B
  0
DICTIONARY
  5
41C
330
61
100
AcDbDictionary
280
     1
281
     1
  3
ADSK_XREC_LAYER_RECONCILED
360
41D
  0
DICTIONARY
  5
41E
330
62
100
AcDbDictionary
280
     1
281
     1
  3
ADSK_XREC_LAYER_RECONCILED
360
41F
  0
DICTIONARY
  5
420
330
63
100
AcDbDictionary
280
     1
281
     1
  3
ADSK_XREC_LAYER_RECONCILED
360
421
  0
DICTIONARY
  5
422
330
64
100
AcDbDictionary
280
     1
281
     1
  3
ADSK_XREC_LAYER_RECONCILED
360
423
  0
DICTIONARY
  5
424
330
65
100
AcDbDictionary
280
     1
281
     1
  3
ADSK_XREC_LAYER_RECONCILED
360
425
  0
DICTIONARY
  5
426
330
66
100
AcDbDictionary
280
     1
281
     1
  3
ADSK_XREC_LAYER_RECONCILED
360
427
  0
DICTIONARY
  5
428
330
67
100
AcDbDictionary
280
     1
281
     1
  3
ADSK_XREC_LAYER_RECONCILED
360
429
  0
DICTIONARY
  5
42A
330
68
100
AcDbDictionary
280
     1
281
     1
  3
ADSK_XREC_LAYER_RECONCILED
360
42B
  0
DICTIONARY
  5
42C
330
69
100
AcDbDictionary
280
     1
281
     1
  3
ADSK_XREC_LAYER_RECONCILED
360
42D
  0
DICTIONARY
  5
42E
330
6A
100
AcDbDictionary
280
     1
281
     1
  3
ADSK_XREC_LAYER_RECONCILED
360
42F
  0
DICTIONARY
  5
430
330
6B
100
AcDbDictionary
280
     1
281
     1
  3
ADSK_XREC_LAYER_RECONCILED
360
431
  0
DICTIONARY
  5
432
330
6C
100
AcDbDictionary
280
     1
281
     1
  3
ADSK_XREC_LAYER_RECONCILED
360
433
  0
DICTIONARY
  5
434
330
6D
100
AcDbDictionary
280
     1
281
     1
  3
ADSK_XREC_LAYER_RECONCILED
360
435
  0
DICTIONARY
  5
436
330
6E
100
AcDbDictionary
280
     1
281
     1
  3
ADSK_XREC_LAYER_RECONCILED
360
437
  0
DICTIONARY
  5
438
330
6F
100
AcDbDictionary
280
     1
281
     1
  3
ADSK_XREC_LAYER_RECONCILED
360
439
  0
DICTIONARY
  5
43A
330
70
100
AcDbDictionary
280
     1
281
     1
  3
ADSK_XREC_LAYER_RECONCILED
360
43B
  0
DICTIONARY
  5
43C
330
71
100
AcDbDictionary
280
     1
281
     1
  3
ADSK_XREC_LAYER_RECONCILED
360
43D
  0
DICTIONARY
  5
43E
330
72
100
AcDbDictionary
280
     1
281
     1
  3
ADSK_XREC_LAYER_RECONCILED
360
43F
  0
DICTIONARY
  5
440
330
73
100
AcDbDictionary
280
     1
281
     1
  3
ADSK_XREC_LAYER_RECONCILED
360
441
  0
DICTIONARY
  5
442
330
74
100
AcDbDictionary
280
     1
281
     1
  3
ADSK_XREC_LAYER_RECONCILED
360
443
  0
DICTIONARY
  5
444
330
75
100
AcDbDictionary
280
     1
281
     1
  3
ADSK_XREC_LAYER_RECONCILED
360
445
  0
DICTIONARY
  5
446
330
76
100
AcDbDictionary
280
     1
281
     1
  3
ADSK_XREC_LAYER_RECONCILED
360
447
  0
DICTIONARY
  5
448
330
77
100
AcDbDictionary
280
     1
281
     1
  3
ADSK_XREC_LAYER_RECONCILED
360
449
  0
DICTIONARY
  5
44A
330
78
100
AcDbDictionary
280
     1
281
     1
  3
ADSK_XREC_LAYER_RECONCILED
360
44B
  0
DICTIONARY
  5
44C
330
79
100
AcDbDictionary
280
     1
281
     1
  3
ADSK_XREC_LAYER_RECONCILED
360
44D
  0
DICTIONARY
  5
44E
330
7A
100
AcDbDictionary
280
     1
281
     1
  3
ADSK_XREC_LAYER_RECONCILED
360
44F
  0
DICTIONARY
  5
450
330
7B
100
AcDbDictionary
280
     1
281
     1
  3
ADSK_XREC_LAYER_RECONCILED
360
451
  0
DICTIONARY
  5
452
330
7C
100
AcDbDictionary
280
     1
281
     1
  3
ADSK_XREC_LAYER_RECONCILED
360
453
  0
DICTIONARY
  5
454
330
7D
100
AcDbDictionary
280
     1
281
     1
  3
ADSK_XREC_LAYER_RECONCILED
360
455
  0
DICTIONARY
  5
456
330
7E
100
AcDbDictionary
280
     1
281
     1
  3
ADSK_XREC_LAYER_RECONCILED
360
457
  0
DICTIONARY
  5
458
330
7F
100
AcDbDictionary
280
     1
281
     1
  3
ADSK_XREC_LAYER_RECONCILED
360
459
  0
DICTIONARY
  5
45A
330
80
100
AcDbDictionary
280
     1
281
     1
  3
ADSK_XREC_LAYER_RECONCILED
360
45B
  0
DICTIONARY
  5
45C
330
81
100
AcDbDictionary
280
     1
281
     1
  3
ADSK_XREC_LAYER_RECONCILED
360
45D
  0
DICTIONARY
  5
45E
330
82
100
AcDbDictionary
280
     1
281
     1
  3
ADSK_XREC_LAYER_RECONCILED
360
45F
  0
DICTIONARY
  5
460
330
83
100
AcDbDictionary
280
     1
281
     1
  3
ADSK_XREC_LAYER_RECONCILED
360
461
  0
DICTIONARY
  5
462
330
84
100
AcDbDictionary
280
     1
281
     1
  3
ADSK_XREC_LAYER_RECONCILED
360
463
  0
DICTIONARY
  5
464
330
85
100
AcDbDictionary
280
     1
281
     1
  3
ADSK_XREC_LAYER_RECONCILED
360
465
  0
DICTIONARY
  5
466
330
86
100
AcDbDictionary
280
     1
281
     1
  3
ADSK_XREC_LAYER_RECONCILED
360
467
  0
DICTIONARY
  5
468
330
87
100
AcDbDictionary
280
     1
281
     1
  3
ADSK_XREC_LAYER_RECONCILED
360
469
  0
DICTIONARY
  5
46A
330
88
100
AcDbDictionary
280
     1
281
     1
  3
ADSK_XREC_LAYER_RECONCILED
360
46B
  0
DICTIONARY
  5
46C
330
89
100
AcDbDictionary
280
     1
281
     1
  3
ADSK_XREC_LAYER_RECONCILED
360
46D
  0
DICTIONARY
  5
46E
330
8A
100
AcDbDictionary
280
     1
281
     1
  3
ADSK_XREC_LAYER_RECONCILED
360
46F
  0
DICTIONARY
  5
470
330
8B
100
AcDbDictionary
280
     1
281
     1
  3
ADSK_XREC_LAYER_RECONCILED
360
471
  0
DICTIONARY
  5
472
330
8C
100
AcDbDictionary
280
     1
281
     1
  3
ADSK_XREC_LAYER_RECONCILED
360
473
  0
DICTIONARY
  5
474
330
8D
100
AcDbDictionary
280
     1
281
     1
  3
ADSK_XREC_LAYER_RECONCILED
360
475
  0
DICTIONARY
  5
476
330
8E
100
AcDbDictionary
280
     1
281
     1
  3
ADSK_XREC_LAYER_RECONCILED
360
477
  0
DICTIONARY
  5
478
330
8F
100
AcDbDictionary
280
     1
281
     1
  3
ADSK_XREC_LAYER_RECONCILED
360
479
  0
DICTIONARY
  5
47A
330
90
100
AcDbDictionary
280
     1
281
     1
  3
ADSK_XREC_LAYER_RECONCILED
360
47B
  0
DICTIONARY
  5
47C
330
91
100
AcDbDictionary
280
     1
281
     1
  3
ADSK_XREC_LAYER_RECONCILED
360
47D
  0
DICTIONARY
  5
47E
330
92
100
AcDbDictionary
280
     1
281
     1
  3
ADSK_XREC_LAYER_RECONCILED
360
47F
  0
DICTIONARY
  5
480
330
93
100
AcDbDictionary
280
     1
281
     1
  3
ADSK_XREC_LAYER_RECONCILED
360
481
  0
DICTIONARY
  5
482
330
94
100
AcDbDictionary
280
     1
281
     1
  3
ADSK_XREC_LAYER_RECONCILED
360
483
  0
DICTIONARY
  5
484
330
95
100
AcDbDictionary
280
     1
281
     1
  3
ADSK_XREC_LAYER_RECONCILED
360
485
  0
DICTIONARY
  5
486
330
96
100
AcDbDictionary
280
     1
281
     1
  3
ADSK_XREC_LAYER_RECONCILED
360
487
  0
DICTIONARY
  5
488
330
97
100
AcDbDictionary
280
     1
281
     1
  3
ADSK_XREC_LAYER_RECONCILED
360
489
  0
DICTIONARY
  5
48A
330
98
100
AcDbDictionary
280
     1
281
     1
  3
ADSK_XREC_LAYER_RECONCILED
360
48B
  0
DICTIONARY
  5
48C
330
99
100
AcDbDictionary
280
     1
281
     1
  3
ADSK_XREC_LAYER_RECONCILED
360
48D
  0
DICTIONARY
  5
48E
330
9A
100
AcDbDictionary
280
     1
281
     1
  3
ADSK_XREC_LAYER_RECONCILED
360
48F
  0
DICTIONARY
  5
490
330
9B
100
AcDbDictionary
280
     1
281
     1
  3
ADSK_XREC_LAYER_RECONCILED
360
491
  0
DICTIONARY
  5
492
330
9C
100
AcDbDictionary
280
     1
281
     1
  3
ADSK_XREC_LAYER_RECONCILED
360
493
  0
DICTIONARY
  5
494
330
9D
100
AcDbDictionary
280
     1
281
     1
  3
ADSK_XREC_LAYER_RECONCILED
360
495
  0
DICTIONARY
  5
496
330
9E
100
AcDbDictionary
280
     1
281
     1
  3
ADSK_XREC_LAYER_RECONCILED
360
497
  0
DICTIONARY
  5
498
330
9F
100
AcDbDictionary
280
     1
281
     1
  3
ADSK_XREC_LAYER_RECONCILED
360
499
  0
DICTIONARY
  5
49A
330
A0
100
AcDbDictionary
280
     1
281
     1
  3
ADSK_XREC_LAYER_RECONCILED
360
49B
  0
DICTIONARY
  5
49C
330
A1
100
AcDbDictionary
280
     1
281
     1
  3
ADSK_XREC_LAYER_RECONCILED
360
49D
  0
DICTIONARY
  5
49E
330
A2
100
AcDbDictionary
280
     1
281
     1
  3
ADSK_XREC_LAYER_RECONCILED
360
49F
  0
DICTIONARY
  5
4A0
330
A3
100
AcDbDictionary
280
     1
281
     1
  3
ADSK_XREC_LAYER_RECONCILED
360
4A1
  0
DICTIONARY
  5
4A2
330
A4
100
AcDbDictionary
280
     1
281
     1
  3
ADSK_XREC_LAYER_RECONCILED
360
4A3
  0
DICTIONARY
  5
4A4
330
A5
100
AcDbDictionary
280
     1
281
     1
  3
ADSK_XREC_LAYER_RECONCILED
360
4A5
  0
DICTIONARY
  5
4A6
330
A6
100
AcDbDictionary
280
     1
281
     1
  3
ADSK_XREC_LAYER_RECONCILED
360
4A7
  0
DICTIONARY
  5
4A8
330
A7
100
AcDbDictionary
280
     1
281
     1
  3
ADSK_XREC_LAYER_RECONCILED
360
4A9
  0
DICTIONARY
  5
4AA
330
A8
100
AcDbDictionary
280
     1
281
     1
  3
ADSK_XREC_LAYER_RECONCILED
360
4AB
  0
DICTIONARY
  5
4AC
330
A9
100
AcDbDictionary
280
     1
281
     1
  3
ADSK_XREC_LAYER_RECONCILED
360
4AD
  0
DICTIONARY
  5
4AE
330
AA
100
AcDbDictionary
280
     1
281
     1
  3
ADSK_XREC_LAYER_RECONCILED
360
4AF
  0
DICTIONARY
  5
4B0
330
AB
100
AcDbDictionary
280
     1
281
     1
  3
ADSK_XREC_LAYER_RECONCILED
360
4B1
  0
DICTIONARY
  5
4B2
330
AC
100
AcDbDictionary
280
     1
281
     1
  3
ADSK_XREC_LAYER_RECONCILED
360
4B3
  0
DICTIONARY
  5
4B4
330
AD
100
AcDbDictionary
280
     1
281
     1
  3
ADSK_XREC_LAYER_RECONCILED
360
4B5
  0
DICTIONARY
  5
4B6
330
AE
100
AcDbDictionary
280
     1
281
     1
  3
ADSK_XREC_LAYER_RECONCILED
360
4B7
  0
DICTIONARY
  5
4B8
330
AF
100
AcDbDictionary
280
     1
281
     1
  3
ADSK_XREC_LAYER_RECONCILED
360
4B9
  0
DICTIONARY
  5
4BA
330
B0
100
AcDbDictionary
280
     1
281
     1
  3
ADSK_XREC_LAYER_RECONCILED
360
4BB
  0
DICTIONARY
  5
4BC
330
B1
100
AcDbDictionary
280
     1
281
     1
  3
ADSK_XREC_LAYER_RECONCILED
360
4BD
  0
DICTIONARY
  5
4BE
330
B2
100
AcDbDictionary
280
     1
281
     1
  3
ADSK_XREC_LAYER_RECONCILED
360
4BF
  0
DICTIONARY
  5
4C0
330
B3
100
AcDbDictionary
280
     1
281
     1
  3
ADSK_XREC_LAYER_RECONCILED
360
4C1
  0
DICTIONARY
  5
4C2
330
B4
100
AcDbDictionary
280
     1
281
     1
  3
ADSK_XREC_LAYER_RECONCILED
360
4C3
  0
DICTIONARY
  5
4C4
330
B5
100
AcDbDictionary
280
     1
281
     1
  3
ADSK_XREC_LAYER_RECONCILED
360
4C5
  0
DICTIONARY
  5
4C6
330
B6
100
AcDbDictionary
280
     1
281
     1
  3
ADSK_XREC_LAYER_RECONCILED
360
4C7
  0
DICTIONARY
  5
4C8
330
B7
100
AcDbDictionary
280
     1
281
     1
  3
ADSK_XREC_LAYER_RECONCILED
360
4C9
  0
DICTIONARY
  5
4CA
330
B8
100
AcDbDictionary
280
     1
281
     1
  3
ADSK_XREC_LAYER_RECONCILED
360
4CB
  0
DICTIONARY
  5
4CC
330
B9
100
AcDbDictionary
280
     1
281
     1
  3
ADSK_XREC_LAYER_RECONCILED
360
4CD
  0
DICTIONARY
  5
4CE
330
BA
100
AcDbDictionary
280
     1
281
     1
  3
ADSK_XREC_LAYER_RECONCILED
360
4CF
  0
DICTIONARY
  5
4D0
330
BB
100
AcDbDictionary
280
     1
281
     1
  3
ADSK_XREC_LAYER_RECONCILED
360
4D1
  0
DICTIONARY
  5
4D2
330
BC
100
AcDbDictionary
280
     1
281
     1
  3
ADSK_XREC_LAYER_RECONCILED
360
4D3
  0
DICTIONARY
  5
4D4
330
BD
100
AcDbDictionary
280
     1
281
     1
  3
ADSK_XREC_LAYER_RECONCILED
360
4D5
  0
DICTIONARY
  5
4D6
330
BE
100
AcDbDictionary
280
     1
281
     1
  3
ADSK_XREC_LAYER_RECONCILED
360
4D7
  0
DICTIONARY
  5
4D8
330
BF
100
AcDbDictionary
280
     1
281
     1
  3
ADSK_XREC_LAYER_RECONCILED
360
4D9
  0
DICTIONARY
  5
4DA
330
C0
100
AcDbDictionary
280
     1
281
     1
  3
ADSK_XREC_LAYER_RECONCILED
360
4DB
  0
DICTIONARY
  5
4DC
330
C1
100
AcDbDictionary
280
     1
281
     1
  3
ADSK_XREC_LAYER_RECONCILED
360
4DD
  0
DICTIONARY
  5
4DE
330
C2
100
AcDbDictionary
280
     1
281
     1
  3
ADSK_XREC_LAYER_RECONCILED
360
4DF
  0
DICTIONARY
  5
4E0
330
C3
100
AcDbDictionary
280
     1
281
     1
  3
ADSK_XREC_LAYER_RECONCILED
360
4E1
  0
DICTIONARY
  5
4E2
330
C4
100
AcDbDictionary
280
     1
281
     1
  3
ADSK_XREC_LAYER_RECONCILED
360
4E3
  0
DICTIONARY
  5
4E4
330
C5
100
AcDbDictionary
280
     1
281
     1
  3
ADSK_XREC_LAYER_RECONCILED
360
4E5
  0
DICTIONARY
  5
4E6
330
C6
100
AcDbDictionary
280
     1
281
     1
  3
ADSK_XREC_LAYER_RECONCILED
360
4E7
  0
DICTIONARY
  5
4E8
330
C7
100
AcDbDictionary
280
     1
281
     1
  3
ADSK_XREC_LAYER_RECONCILED
360
4E9
  0
DICTIONARY
  5
4EA
330
C8
100
AcDbDictionary
280
     1
281
     1
  3
ADSK_XREC_LAYER_RECONCILED
360
4EB
  0
DICTIONARY
  5
4EC
330
C9
100
AcDbDictionary
280
     1
281
     1
  3
ADSK_XREC_LAYER_RECONCILED
360
4ED
  0
DICTIONARY
  5
4EE
330
CA
100
AcDbDictionary
280
     1
281
     1
  3
ADSK_XREC_LAYER_RECONCILED
360
4EF
  0
DICTIONARY
  5
4F0
330
CB
100
AcDbDictionary
280
     1
281
     1
  3
ADSK_XREC_LAYER_RECONCILED
360
4F1
  0
DICTIONARY
  5
4F2
330
CC
100
AcDbDictionary
280
     1
281
     1
  3
ADSK_XREC_LAYER_RECONCILED
360
4F3
  0
DICTIONARY
  5
4F4
330
CD
100
AcDbDictionary
280
     1
281
     1
  3
ADSK_XREC_LAYER_RECONCILED
360
4F5
  0
DICTIONARY
  5
4F6
330
CE
100
AcDbDictionary
280
     1
281
     1
  3
ADSK_XREC_LAYER_RECONCILED
360
4F7
  0
DICTIONARY
  5
4F8
330
CF
100
AcDbDictionary
280
     1
281
     1
  3
ADSK_XREC_LAYER_RECONCILED
360
4F9
  0
DICTIONARY
  5
4FA
330
D0
100
AcDbDictionary
280
     1
281
     1
  3
ADSK_XREC_LAYER_RECONCILED
360
4FB
  0
DICTIONARY
  5
4FC
330
D1
100
AcDbDictionary
280
     1
281
     1
  3
ADSK_XREC_LAYER_RECONCILED
360
4FD
  0
DICTIONARY
  5
4FE
330
D2
100
AcDbDictionary
280
     1
281
     1
  3
ADSK_XREC_LAYER_RECONCILED
360
4FF
  0
DICTIONARY
  5
500
330
D3
100
AcDbDictionary
280
     1
281
     1
  3
ADSK_XREC_LAYER_RECONCILED
360
501
  0
DICTIONARY
  5
502
330
D4
100
AcDbDictionary
280
     1
281
     1
  3
ADSK_XREC_LAYER_RECONCILED
360
503
  0
DICTIONARY
  5
504
330
D5
100
AcDbDictionary
280
     1
281
     1
  3
ADSK_XREC_LAYER_RECONCILED
360
505
  0
DICTIONARY
  5
506
330
D6
100
AcDbDictionary
280
     1
281
     1
  3
ADSK_XREC_LAYER_RECONCILED
360
507
  0
DICTIONARY
  5
508
330
D7
100
AcDbDictionary
280
     1
281
     1
  3
ADSK_XREC_LAYER_RECONCILED
360
509
  0
DICTIONARY
  5
50A
330
D8
100
AcDbDictionary
280
     1
281
     1
  3
ADSK_XREC_LAYER_RECONCILED
360
50B
  0
DICTIONARY
  5
50C
330
D9
100
AcDbDictionary
280
     1
281
     1
  3
ADSK_XREC_LAYER_RECONCILED
360
50D
  0
DICTIONARY
  5
50E
330
DA
100
AcDbDictionary
280
     1
281
     1
  3
ADSK_XREC_LAYER_RECONCILED
360
50F
  0
DICTIONARY
  5
510
330
DB
100
AcDbDictionary
280
     1
281
     1
  3
ADSK_XREC_LAYER_RECONCILED
360
511
  0
DICTIONARY
  5
512
330
DC
100
AcDbDictionary
280
     1
281
     1
  3
ADSK_XREC_LAYER_RECONCILED
360
513
  0
DICTIONARY
  5
514
330
DD
100
AcDbDictionary
280
     1
281
     1
  3
ADSK_XREC_LAYER_RECONCILED
360
515
  0
DICTIONARY
  5
516
330
DE
100
AcDbDictionary
280
     1
281
     1
  3
ADSK_XREC_LAYER_RECONCILED
360
517
  0
DICTIONARY
  5
518
330
DF
100
AcDbDictionary
280
     1
281
     1
  3
ADSK_XREC_LAYER_RECONCILED
360
519
  0
DICTIONARY
  5
51A
330
E0
100
AcDbDictionary
280
     1
281
     1
  3
ADSK_XREC_LAYER_RECONCILED
360
51B
  0
DICTIONARY
  5
51C
330
E1
100
AcDbDictionary
280
     1
281
     1
  3
ADSK_XREC_LAYER_RECONCILED
360
51D
  0
DICTIONARY
  5
51E
330
E2
100
AcDbDictionary
280
     1
281
     1
  3
ADSK_XREC_LAYER_RECONCILED
360
51F
  0
DICTIONARY
  5
520
330
E3
100
AcDbDictionary
280
     1
281
     1
  3
ADSK_XREC_LAYER_RECONCILED
360
521
  0
DICTIONARY
  5
522
330
E4
100
AcDbDictionary
280
     1
281
     1
  3
ADSK_XREC_LAYER_RECONCILED
360
523
  0
DICTIONARY
  5
524
330
E5
100
AcDbDictionary
280
     1
281
     1
  3
ADSK_XREC_LAYER_RECONCILED
360
525
  0
DICTIONARY
  5
526
330
E6
100
AcDbDictionary
280
     1
281
     1
  3
ADSK_XREC_LAYER_RECONCILED
360
527
  0
DICTIONARY
  5
528
330
E7
100
AcDbDictionary
280
     1
281
     1
  3
ADSK_XREC_LAYER_RECONCILED
360
529
  0
DICTIONARY
  5
52A
330
E8
100
AcDbDictionary
280
     1
281
     1
  3
ADSK_XREC_LAYER_RECONCILED
360
52B
  0
DICTIONARY
  5
52C
330
E9
100
AcDbDictionary
280
     1
281
     1
  3
ADSK_XREC_LAYER_RECONCILED
360
52D
  0
DICTIONARY
  5
52E
330
EA
100
AcDbDictionary
280
     1
281
     1
  3
ADSK_XREC_LAYER_RECONCILED
360
52F
  0
DICTIONARY
  5
530
330
EB
100
AcDbDictionary
280
     1
281
     1
  3
ADSK_XREC_LAYER_RECONCILED
360
531
  0
DICTIONARY
  5
532
330
EC
100
AcDbDictionary
280
     1
281
     1
  3
ADSK_XREC_LAYER_RECONCILED
360
533
  0
DICTIONARY
  5
534
330
ED
100
AcDbDictionary
280
     1
281
     1
  3
ADSK_XREC_LAYER_RECONCILED
360
535
  0
DICTIONARY
  5
536
330
EE
100
AcDbDictionary
280
     1
281
     1
  3
ADSK_XREC_LAYER_RECONCILED
360
537
  0
DICTIONARY
  5
538
330
EF
100
AcDbDictionary
280
     1
281
     1
  3
ADSK_XREC_LAYER_RECONCILED
360
539
  0
DICTIONARY
  5
53A
330
F0
100
AcDbDictionary
280
     1
281
     1
  3
ADSK_XREC_LAYER_RECONCILED
360
53B
  0
DICTIONARY
  5
53C
330
F1
100
AcDbDictionary
280
     1
281
     1
  3
ADSK_XREC_LAYER_RECONCILED
360
53D
  0
DICTIONARY
  5
53E
330
F2
100
AcDbDictionary
280
     1
281
     1
  3
ADSK_XREC_LAYER_RECONCILED
360
53F
  0
DICTIONARY
  5
540
330
F3
100
AcDbDictionary
280
     1
281
     1
  3
ADSK_XREC_LAYER_RECONCILED
360
541
  0
DICTIONARY
  5
542
330
F4
100
AcDbDictionary
280
     1
281
     1
  3
ADSK_XREC_LAYER_RECONCILED
360
543
  0
DICTIONARY
  5
544
330
F5
100
AcDbDictionary
280
     1
281
     1
  3
ADSK_XREC_LAYER_RECONCILED
360
545
  0
DICTIONARY
  5
546
330
F6
100
AcDbDictionary
280
     1
281
     1
  3
ADSK_XREC_LAYER_RECONCILED
360
547
  0
DICTIONARY
  5
548
330
F7
100
AcDbDictionary
280
     1
281
     1
  3
ADSK_XREC_LAYER_RECONCILED
360
549
  0
DICTIONARY
  5
54A
330
F8
100
AcDbDictionary
280
     1
281
     1
  3
ADSK_XREC_LAYER_RECONCILED
360
54B
  0
DICTIONARY
  5
54C
330
F9
100
AcDbDictionary
280
     1
281
     1
  3
ADSK_XREC_LAYER_RECONCILED
360
54D
  0
DICTIONARY
  5
312
102
{ACAD_REACTORS
330
C
102
}
330
C
100
AcDbDictionary
281
     1
  0
DICTIONARY
  5
D
102
{ACAD_REACTORS
330
C
102
}
330
C
100
AcDbDictionary
281
     1
  0
DICTIONARY
  5
1A
102
{ACAD_REACTORS
330
C
102
}
330
C
100
AcDbDictionary
281
     1
  3
Layout1
350
1E
  3
Layout2
350
26
  3
Model
350
22
  0
DICTIONARY
  5
2E5
102
{ACAD_REACTORS
330
C
102
}
330
C
100
AcDbDictionary
281
     1
  3
ByBlock
350
2EE
  3
ByLayer
350
2E6
  3
Global
350
2F6
  0
DICTIONARY
  5
337
102
{ACAD_REACTORS
330
C
102
}
330
C
100
AcDbDictionary
281
     1
  3
Standard
350
338
  0
DICTIONARY
  5
17
102
{ACAD_REACTORS
330
C
102
}
330
C
100
AcDbDictionary
281
     1
  3
Standard
350
18
  0
DICTIONARY
  5
19
102
{ACAD_REACTORS
330
C
102
}
330
C
100
AcDbDictionary
281
     1
  0
ACDBDICTIONARYWDFLT
  5
E
102
{ACAD_REACTORS
330
C
102
}
330
C
100
AcDbDictionary
281
     1
  3
Normal
350
F
100
AcDbDictionaryWithDefault
340
F
  0
DICTIONARY
  5
315
102
{ACAD_REACTORS
330
C
102
}
330
C
100
AcDbDictionary
281
     1
  3
A0
350
316
  3
A1
350
317
  3
A2
350
318
  3
A3
350
319
  3
A4
350
31A
  3
A5
350
31B
  3
A6
350
31C
  3
A7
350
31D
  3
A8
350
31E
  3
A9
350
31F
  3
B0
350
320
  3
B1
350
321
  3
B2
350
322
  3
B3
350
323
  3
B4
350
324
  3
B5
350
325
  3
B6
350
326
  3
B7
350
327
  3
B8
350
328
  3
B9
350
329
  3
C0
350
32A
  3
C1
350
32B
  3
C2
350
32C
  3
C3
350
32D
  3
C4
350
32E
  3
C5
350
32F
  3
C6
350
330
  3
C7
350
331
  3
C8
350
332
  3
C9
350
333
  3
D0
350
334
  3
D1
350
335
  3
D2
350
336
  0
DICTIONARY
  5
313
102
{ACAD_REACTORS
330
C
102
}
330
C
100
AcDbDictionary
281
     1
  3
Standard
350
314
  0
DICTIONARY
  5
2FE
102
{ACAD_REACTORS
330
C
102
}
330
C
100
AcDbDictionary
281
     1
  3
2dWireframe
350
304
  3
3D Hidden
350
306
  3
3dWireframe
350
305
  3
Basic
350
303
  3
Brighten
350
30A
  3
ColorChange
350
30E
  3
Conceptual
350
307
  3
Dim
350
309
  3
EdgeColorOff
350
311
  3
Facepattern
350
30D
  3
Flat
350
2FF
  3
FlatWithEdges
350
300
  3
Gouraud
350
301
  3
GouraudWithEdges
350
302
  3
JitterOff
350
30F
  3
Linepattern
350
30C
  3
OverhangOff
350
310
  3
Realistic
350
308
  3
Thicken
350
30B
  0
XRECORD
  5
6E9
102
{ACAD_REACTORS
330
C
102
}
330
C
100
AcDbXrecord
280
     1
 90
        1
330
314
  0
DICTIONARY
  5
6DF
102
{ACAD_REACTORS
330
C
102
}
330
C
100
AcDbDictionary
281
     1
  3
CANNOSCALE
350
6E2
  3
CMLEADERSTYLE
350
6E1
  3
CTABLESTYLE
350
6E0
  3
DIMASSOC
350
6E5
  3
INDEXCTL
350
6E4
  3
SORTENTS
350
6E3
  3
XCLIPFRAME
350
6E6
  0
DICTIONARY
  5
393
102
{ACAD_REACTORS
330
C
102
}
330
C
100
AcDbDictionary
281
     1
  3
AcmStdDictionary
350
39D
  0
DICTIONARY
  5
373
102
{ACAD_REACTORS
330
C
102
}
330
C
100
AcDbDictionary
281
     1
  0
DICTIONARY
  5
3D3
102
{ACAD_REACTORS
330
C
102
}
330
C
100
AcDbDictionary
281
     1
  0
XRECORD
  5
6EA
102
{ACAD_REACTORS
330
C
102
}
330
C
100
AcDbXrecord
280
     1
  1
DWGPROPS COOKIE
  2

  3

  4

  6

  7

  8
nick.oyenik
  9

300
=
301
=
302
=
303
=
304
=
305
=
306
=
307
=
308
=
309
=
 40
0.0056001388888889
 41
2456325.434271725
 42
2456325.445980648
  1

 90
        0
  0
XRECORD
  5
3E1
102
{ACAD_REACTORS
330
3E0
102
}
330
3E0
100
AcDbXrecord
280
     1
290
     1
  0
XRECORD
  5
3E3
102
{ACAD_REACTORS
330
3E2
102
}
330
3E2
100
AcDbXrecord
280
     1
290
     1
  0
XRECORD
  5
3E5
102
{ACAD_REACTORS
330
3E4
102
}
330
3E4
100
AcDbXrecord
280
     1
290
     1
  0
XRECORD
  5
3E7
102
{ACAD_REACTORS
330
3E6
102
}
330
3E6
100
AcDbXrecord
280
     1
290
     1
  0
XRECORD
  5
3E9
102
{ACAD_REACTORS
330
3E8
102
}
330
3E8
100
AcDbXrecord
280
     1
290
     1
  0
XRECORD
  5
3EB
102
{ACAD_REACTORS
330
3EA
102
}
330
3EA
100
AcDbXrecord
280
     1
290
     1
  0
XRECORD
  5
3ED
102
{ACAD_REACTORS
330
3EC
102
}
330
3EC
100
AcDbXrecord
280
     1
290
     1
  0
XRECORD
  5
3EF
102
{ACAD_REACTORS
330
3EE
102
}
330
3EE
100
AcDbXrecord
280
     1
290
     1
  0
XRECORD
  5
3F1
102
{ACAD_REACTORS
330
3F0
102
}
330
3F0
100
AcDbXrecord
280
     1
290
     1
  0
XRECORD
  5
3F3
102
{ACAD_REACTORS
330
3F2
102
}
330
3F2
100
AcDbXrecord
280
     1
290
     1
  0
XRECORD
  5
3F5
102
{ACAD_REACTORS
330
3F4
102
}
330
3F4
100
AcDbXrecord
280
     1
290
     1
  0
XRECORD
  5
3F7
102
{ACAD_REACTORS
330
3F6
102
}
330
3F6
100
AcDbXrecord
280
     1
290
     1
  0
XRECORD
  5
3F9
102
{ACAD_REACTORS
330
3F8
102
}
330
3F8
100
AcDbXrecord
280
     1
290
     1
  0
XRECORD
  5
3FB
102
{ACAD_REACTORS
330
3FA
102
}
330
3FA
100
AcDbXrecord
280
     1
290
     1
  0
XRECORD
  5
3FD
102
{ACAD_REACTORS
330
3FC
102
}
330
3FC
100
AcDbXrecord
280
     1
290
     1
  0
XRECORD
  5
3FF
102
{ACAD_REACTORS
330
3FE
102
}
330
3FE
100
AcDbXrecord
280
     1
290
     1
  0
XRECORD
  5
401
102
{ACAD_REACTORS
330
400
102
}
330
400
100
AcDbXrecord
280
     1
290
     1
  0
XRECORD
  5
403
102
{ACAD_REACTORS
330
402
102
}
330
402
100
AcDbXrecord
280
     1
290
     1
  0
XRECORD
  5
405
102
{ACAD_REACTORS
330
404
102
}
330
404
100
AcDbXrecord
280
     1
290
     1
  0
XRECORD
  5
407
102
{ACAD_REACTORS
330
406
102
}
330
406
100
AcDbXrecord
280
     1
290
     1
  0
XRECORD
  5
409
102
{ACAD_REACTORS
330
408
102
}
330
408
100
AcDbXrecord
280
     1
290
     1
  0
XRECORD
  5
40B
102
{ACAD_REACTORS
330
40A
102
}
330
40A
100
AcDbXrecord
280
     1
290
     1
  0
XRECORD
  5
40D
102
{ACAD_REACTORS
330
40C
102
}
330
40C
100
AcDbXrecord
280
     1
290
     1
  0
XRECORD
  5
40F
102
{ACAD_REACTORS
330
40E
102
}
330
40E
100
AcDbXrecord
280
     1
290
     1
  0
XRECORD
  5
411
102
{ACAD_REACTORS
330
410
102
}
330
410
100
AcDbXrecord
280
     1
290
     1
  0
XRECORD
  5
413
102
{ACAD_REACTORS
330
412
102
}
330
412
100
AcDbXrecord
280
     1
290
     1
  0
XRECORD
  5
415
102
{ACAD_REACTORS
330
414
102
}
330
414
100
AcDbXrecord
280
     1
290
     1
  0
XRECORD
  5
417
102
{ACAD_REACTORS
330
416
102
}
330
416
100
AcDbXrecord
280
     1
290
     1
  0
XRECORD
  5
419
102
{ACAD_REACTORS
330
418
102
}
330
418
100
AcDbXrecord
280
     1
290
     1
  0
XRECORD
  5
41B
102
{ACAD_REACTORS
330
41A
102
}
330
41A
100
AcDbXrecord
280
     1
290
     1
  0
XRECORD
  5
41D
102
{ACAD_REACTORS
330
41C
102
}
330
41C
100
AcDbXrecord
280
     1
290
     1
  0
XRECORD
  5
41F
102
{ACAD_REACTORS
330
41E
102
}
330
41E
100
AcDbXrecord
280
     1
290
     1
  0
XRECORD
  5
421
102
{ACAD_REACTORS
330
420
102
}
330
420
100
AcDbXrecord
280
     1
290
     1
  0
XRECORD
  5
423
102
{ACAD_REACTORS
330
422
102
}
330
422
100
AcDbXrecord
280
     1
290
     1
  0
XRECORD
  5
425
102
{ACAD_REACTORS
330
424
102
}
330
424
100
AcDbXrecord
280
     1
290
     1
  0
XRECORD
  5
427
102
{ACAD_REACTORS
330
426
102
}
330
426
100
AcDbXrecord
280
     1
290
     1
  0
XRECORD
  5
429
102
{ACAD_REACTORS
330
428
102
}
330
428
100
AcDbXrecord
280
     1
290
     1
  0
XRECORD
  5
42B
102
{ACAD_REACTORS
330
42A
102
}
330
42A
100
AcDbXrecord
280
     1
290
     1
  0
XRECORD
  5
42D
102
{ACAD_REACTORS
330
42C
102
}
330
42C
100
AcDbXrecord
280
     1
290
     1
  0
XRECORD
  5
42F
102
{ACAD_REACTORS
330
42E
102
}
330
42E
100
AcDbXrecord
280
     1
290
     1
  0
XRECORD
  5
431
102
{ACAD_REACTORS
330
430
102
}
330
430
100
AcDbXrecord
280
     1
290
     1
  0
XRECORD
  5
433
102
{ACAD_REACTORS
330
432
102
}
330
432
100
AcDbXrecord
280
     1
290
     1
  0
XRECORD
  5
435
102
{ACAD_REACTORS
330
434
102
}
330
434
100
AcDbXrecord
280
     1
290
     1
  0
XRECORD
  5
437
102
{ACAD_REACTORS
330
436
102
}
330
436
100
AcDbXrecord
280
     1
290
     1
  0
XRECORD
  5
439
102
{ACAD_REACTORS
330
438
102
}
330
438
100
AcDbXrecord
280
     1
290
     1
  0
XRECORD
  5
43B
102
{ACAD_REACTORS
330
43A
102
}
330
43A
100
AcDbXrecord
280
     1
290
     1
  0
XRECORD
  5
43D
102
{ACAD_REACTORS
330
43C
102
}
330
43C
100
AcDbXrecord
280
     1
290
     1
  0
XRECORD
  5
43F
102
{ACAD_REACTORS
330
43E
102
}
330
43E
100
AcDbXrecord
280
     1
290
     1
  0
XRECORD
  5
441
102
{ACAD_REACTORS
330
440
102
}
330
440
100
AcDbXrecord
280
     1
290
     1
  0
XRECORD
  5
443
102
{ACAD_REACTORS
330
442
102
}
330
442
100
AcDbXrecord
280
     1
290
     1
  0
XRECORD
  5
445
102
{ACAD_REACTORS
330
444
102
}
330
444
100
AcDbXrecord
280
     1
290
     1
  0
XRECORD
  5
447
102
{ACAD_REACTORS
330
446
102
}
330
446
100
AcDbXrecord
280
     1
290
     1
  0
XRECORD
  5
449
102
{ACAD_REACTORS
330
448
102
}
330
448
100
AcDbXrecord
280
     1
290
     1
  0
XRECORD
  5
44B
102
{ACAD_REACTORS
330
44A
102
}
330
44A
100
AcDbXrecord
280
     1
290
     1
  0
XRECORD
  5
44D
102
{ACAD_REACTORS
330
44C
102
}
330
44C
100
AcDbXrecord
280
     1
290
     1
  0
XRECORD
  5
44F
102
{ACAD_REACTORS
330
44E
102
}
330
44E
100
AcDbXrecord
280
     1
290
     1
  0
XRECORD
  5
451
102
{ACAD_REACTORS
330
450
102
}
330
450
100
AcDbXrecord
280
     1
290
     1
  0
XRECORD
  5
453
102
{ACAD_REACTORS
330
452
102
}
330
452
100
AcDbXrecord
280
     1
290
     1
  0
XRECORD
  5
455
102
{ACAD_REACTORS
330
454
102
}
330
454
100
AcDbXrecord
280
     1
290
     1
  0
XRECORD
  5
457
102
{ACAD_REACTORS
330
456
102
}
330
456
100
AcDbXrecord
280
     1
290
     1
  0
XRECORD
  5
459
102
{ACAD_REACTORS
330
458
102
}
330
458
100
AcDbXrecord
280
     1
290
     1
  0
XRECORD
  5
45B
102
{ACAD_REACTORS
330
45A
102
}
330
45A
100
AcDbXrecord
280
     1
290
     1
  0
XRECORD
  5
45D
102
{ACAD_REACTORS
330
45C
102
}
330
45C
100
AcDbXrecord
280
     1
290
     1
  0
XRECORD
  5
45F
102
{ACAD_REACTORS
330
45E
102
}
330
45E
100
AcDbXrecord
280
     1
290
     1
  0
XRECORD
  5
461
102
{ACAD_REACTORS
330
460
102
}
330
460
100
AcDbXrecord
280
     1
290
     1
  0
XRECORD
  5
463
102
{ACAD_REACTORS
330
462
102
}
330
462
100
AcDbXrecord
280
     1
290
     1
  0
XRECORD
  5
465
102
{ACAD_REACTORS
330
464
102
}
330
464
100
AcDbXrecord
280
     1
290
     1
  0
XRECORD
  5
467
102
{ACAD_REACTORS
330
466
102
}
330
466
100
AcDbXrecord
280
     1
290
     1
  0
XRECORD
  5
469
102
{ACAD_REACTORS
330
468
102
}
330
468
100
AcDbXrecord
280
     1
290
     1
  0
XRECORD
  5
46B
102
{ACAD_REACTORS
330
46A
102
}
330
46A
100
AcDbXrecord
280
     1
290
     1
  0
XRECORD
  5
46D
102
{ACAD_REACTORS
330
46C
102
}
330
46C
100
AcDbXrecord
280
     1
290
     1
  0
XRECORD
  5
46F
102
{ACAD_REACTORS
330
46E
102
}
330
46E
100
AcDbXrecord
280
     1
290
     1
  0
XRECORD
  5
471
102
{ACAD_REACTORS
330
470
102
}
330
470
100
AcDbXrecord
280
     1
290
     1
  0
XRECORD
  5
473
102
{ACAD_REACTORS
330
472
102
}
330
472
100
AcDbXrecord
280
     1
290
     1
  0
XRECORD
  5
475
102
{ACAD_REACTORS
330
474
102
}
330
474
100
AcDbXrecord
280
     1
290
     1
  0
XRECORD
  5
477
102
{ACAD_REACTORS
330
476
102
}
330
476
100
AcDbXrecord
280
     1
290
     1
  0
XRECORD
  5
479
102
{ACAD_REACTORS
330
478
102
}
330
478
100
AcDbXrecord
280
     1
290
     1
  0
XRECORD
  5
47B
102
{ACAD_REACTORS
330
47A
102
}
330
47A
100
AcDbXrecord
280
     1
290
     1
  0
XRECORD
  5
47D
102
{ACAD_REACTORS
330
47C
102
}
330
47C
100
AcDbXrecord
280
     1
290
     1
  0
XRECORD
  5
47F
102
{ACAD_REACTORS
330
47E
102
}
330
47E
100
AcDbXrecord
280
     1
290
     1
  0
XRECORD
  5
481
102
{ACAD_REACTORS
330
480
102
}
330
480
100
AcDbXrecord
280
     1
290
     1
  0
XRECORD
  5
483
102
{ACAD_REACTORS
330
482
102
}
330
482
100
AcDbXrecord
280
     1
290
     1
  0
XRECORD
  5
485
102
{ACAD_REACTORS
330
484
102
}
330
484
100
AcDbXrecord
280
     1
290
     1
  0
XRECORD
  5
487
102
{ACAD_REACTORS
330
486
102
}
330
486
100
AcDbXrecord
280
     1
290
     1
  0
XRECORD
  5
489
102
{ACAD_REACTORS
330
488
102
}
330
488
100
AcDbXrecord
280
     1
290
     1
  0
XRECORD
  5
48B
102
{ACAD_REACTORS
330
48A
102
}
330
48A
100
AcDbXrecord
280
     1
290
     1
  0
XRECORD
  5
48D
102
{ACAD_REACTORS
330
48C
102
}
330
48C
100
AcDbXrecord
280
     1
290
     1
  0
XRECORD
  5
48F
102
{ACAD_REACTORS
330
48E
102
}
330
48E
100
AcDbXrecord
280
     1
290
     1
  0
XRECORD
  5
491
102
{ACAD_REACTORS
330
490
102
}
330
490
100
AcDbXrecord
280
     1
290
     1
  0
XRECORD
  5
493
102
{ACAD_REACTORS
330
492
102
}
330
492
100
AcDbXrecord
280
     1
290
     1
  0
XRECORD
  5
495
102
{ACAD_REACTORS
330
494
102
}
330
494
100
AcDbXrecord
280
     1
290
     1
  0
XRECORD
  5
497
102
{ACAD_REACTORS
330
496
102
}
330
496
100
AcDbXrecord
280
     1
290
     1
  0
XRECORD
  5
499
102
{ACAD_REACTORS
330
498
102
}
330
498
100
AcDbXrecord
280
     1
290
     1
  0
XRECORD
  5
49B
102
{ACAD_REACTORS
330
49A
102
}
330
49A
100
AcDbXrecord
280
     1
290
     1
  0
XRECORD
  5
49D
102
{ACAD_REACTORS
330
49C
102
}
330
49C
100
AcDbXrecord
280
     1
290
     1
  0
XRECORD
  5
49F
102
{ACAD_REACTORS
330
49E
102
}
330
49E
100
AcDbXrecord
280
     1
290
     1
  0
XRECORD
  5
4A1
102
{ACAD_REACTORS
330
4A0
102
}
330
4A0
100
AcDbXrecord
280
     1
290
     1
  0
XRECORD
  5
4A3
102
{ACAD_REACTORS
330
4A2
102
}
330
4A2
100
AcDbXrecord
280
     1
290
     1
  0
XRECORD
  5
4A5
102
{ACAD_REACTORS
330
4A4
102
}
330
4A4
100
AcDbXrecord
280
     1
290
     1
  0
XRECORD
  5
4A7
102
{ACAD_REACTORS
330
4A6
102
}
330
4A6
100
AcDbXrecord
280
     1
290
     1
  0
XRECORD
  5
4A9
102
{ACAD_REACTORS
330
4A8
102
}
330
4A8
100
AcDbXrecord
280
     1
290
     1
  0
XRECORD
  5
4AB
102
{ACAD_REACTORS
330
4AA
102
}
330
4AA
100
AcDbXrecord
280
     1
290
     1
  0
XRECORD
  5
4AD
102
{ACAD_REACTORS
330
4AC
102
}
330
4AC
100
AcDbXrecord
280
     1
290
     1
  0
XRECORD
  5
4AF
102
{ACAD_REACTORS
330
4AE
102
}
330
4AE
100
AcDbXrecord
280
     1
290
     1
  0
XRECORD
  5
4B1
102
{ACAD_REACTORS
330
4B0
102
}
330
4B0
100
AcDbXrecord
280
     1
290
     1
  0
XRECORD
  5
4B3
102
{ACAD_REACTORS
330
4B2
102
}
330
4B2
100
AcDbXrecord
280
     1
290
     1
  0
XRECORD
  5
4B5
102
{ACAD_REACTORS
330
4B4
102
}
330
4B4
100
AcDbXrecord
280
     1
290
     1
  0
XRECORD
  5
4B7
102
{ACAD_REACTORS
330
4B6
102
}
330
4B6
100
AcDbXrecord
280
     1
290
     1
  0
XRECORD
  5
4B9
102
{ACAD_REACTORS
330
4B8
102
}
330
4B8
100
AcDbXrecord
280
     1
290
     1
  0
XRECORD
  5
4BB
102
{ACAD_REACTORS
330
4BA
102
}
330
4BA
100
AcDbXrecord
280
     1
290
     1
  0
XRECORD
  5
4BD
102
{ACAD_REACTORS
330
4BC
102
}
330
4BC
100
AcDbXrecord
280
     1
290
     1
  0
XRECORD
  5
4BF
102
{ACAD_REACTORS
330
4BE
102
}
330
4BE
100
AcDbXrecord
280
     1
290
     1
  0
XRECORD
  5
4C1
102
{ACAD_REACTORS
330
4C0
102
}
330
4C0
100
AcDbXrecord
280
     1
290
     1
  0
XRECORD
  5
4C3
102
{ACAD_REACTORS
330
4C2
102
}
330
4C2
100
AcDbXrecord
280
     1
290
     1
  0
XRECORD
  5
4C5
102
{ACAD_REACTORS
330
4C4
102
}
330
4C4
100
AcDbXrecord
280
     1
290
     1
  0
XRECORD
  5
4C7
102
{ACAD_REACTORS
330
4C6
102
}
330
4C6
100
AcDbXrecord
280
     1
290
     1
  0
XRECORD
  5
4C9
102
{ACAD_REACTORS
330
4C8
102
}
330
4C8
100
AcDbXrecord
280
     1
290
     1
  0
XRECORD
  5
4CB
102
{ACAD_REACTORS
330
4CA
102
}
330
4CA
100
AcDbXrecord
280
     1
290
     1
  0
XRECORD
  5
4CD
102
{ACAD_REACTORS
330
4CC
102
}
330
4CC
100
AcDbXrecord
280
     1
290
     1
  0
XRECORD
  5
4CF
102
{ACAD_REACTORS
330
4CE
102
}
330
4CE
100
AcDbXrecord
280
     1
290
     1
  0
XRECORD
  5
4D1
102
{ACAD_REACTORS
330
4D0
102
}
330
4D0
100
AcDbXrecord
280
     1
290
     1
  0
XRECORD
  5
4D3
102
{ACAD_REACTORS
330
4D2
102
}
330
4D2
100
AcDbXrecord
280
     1
290
     1
  0
XRECORD
  5
4D5
102
{ACAD_REACTORS
330
4D4
102
}
330
4D4
100
AcDbXrecord
280
     1
290
     1
  0
XRECORD
  5
4D7
102
{ACAD_REACTORS
330
4D6
102
}
330
4D6
100
AcDbXrecord
280
     1
290
     1
  0
XRECORD
  5
4D9
102
{ACAD_REACTORS
330
4D8
102
}
330
4D8
100
AcDbXrecord
280
     1
290
     1
  0
XRECORD
  5
4DB
102
{ACAD_REACTORS
330
4DA
102
}
330
4DA
100
AcDbXrecord
280
     1
290
     1
  0
XRECORD
  5
4DD
102
{ACAD_REACTORS
330
4DC
102
}
330
4DC
100
AcDbXrecord
280
     1
290
     1
  0
XRECORD
  5
4DF
102
{ACAD_REACTORS
330
4DE
102
}
330
4DE
100
AcDbXrecord
280
     1
290
     1
  0
XRECORD
  5
4E1
102
{ACAD_REACTORS
330
4E0
102
}
330
4E0
100
AcDbXrecord
280
     1
290
     1
  0
XRECORD
  5
4E3
102
{ACAD_REACTORS
330
4E2
102
}
330
4E2
100
AcDbXrecord
280
     1
290
     1
  0
XRECORD
  5
4E5
102
{ACAD_REACTORS
330
4E4
102
}
330
4E4
100
AcDbXrecord
280
     1
290
     1
  0
XRECORD
  5
4E7
102
{ACAD_REACTORS
330
4E6
102
}
330
4E6
100
AcDbXrecord
280
     1
290
     1
  0
XRECORD
  5
4E9
102
{ACAD_REACTORS
330
4E8
102
}
330
4E8
100
AcDbXrecord
280
     1
290
     1
  0
XRECORD
  5
4EB
102
{ACAD_REACTORS
330
4EA
102
}
330
4EA
100
AcDbXrecord
280
     1
290
     1
  0
XRECORD
  5
4ED
102
{ACAD_REACTORS
330
4EC
102
}
330
4EC
100
AcDbXrecord
280
     1
290
     1
  0
XRECORD
  5
4EF
102
{ACAD_REACTORS
330
4EE
102
}
330
4EE
100
AcDbXrecord
280
     1
290
     1
  0
XRECORD
  5
4F1
102
{ACAD_REACTORS
330
4F0
102
}
330
4F0
100
AcDbXrecord
280
     1
290
     1
  0
XRECORD
  5
4F3
102
{ACAD_REACTORS
330
4F2
102
}
330
4F2
100
AcDbXrecord
280
     1
290
     1
  0
XRECORD
  5
4F5
102
{ACAD_REACTORS
330
4F4
102
}
330
4F4
100
AcDbXrecord
280
     1
290
     1
  0
XRECORD
  5
4F7
102
{ACAD_REACTORS
330
4F6
102
}
330
4F6
100
AcDbXrecord
280
     1
290
     1
  0
XRECORD
  5
4F9
102
{ACAD_REACTORS
330
4F8
102
}
330
4F8
100
AcDbXrecord
280
     1
290
     1
  0
XRECORD
  5
4FB
102
{ACAD_REACTORS
330
4FA
102
}
330
4FA
100
AcDbXrecord
280
     1
290
     1
  0
XRECORD
  5
4FD
102
{ACAD_REACTORS
330
4FC
102
}
330
4FC
100
AcDbXrecord
280
     1
290
     1
  0
XRECORD
  5
4FF
102
{ACAD_REACTORS
330
4FE
102
}
330
4FE
100
AcDbXrecord
280
     1
290
     1
  0
XRECORD
  5
501
102
{ACAD_REACTORS
330
500
102
}
330
500
100
AcDbXrecord
280
     1
290
     1
  0
XRECORD
  5
503
102
{ACAD_REACTORS
330
502
102
}
330
502
100
AcDbXrecord
280
     1
290
     1
  0
XRECORD
  5
505
102
{ACAD_REACTORS
330
504
102
}
330
504
100
AcDbXrecord
280
     1
290
     1
  0
XRECORD
  5
507
102
{ACAD_REACTORS
330
506
102
}
330
506
100
AcDbXrecord
280
     1
290
     1
  0
XRECORD
  5
509
102
{ACAD_REACTORS
330
508
102
}
330
508
100
AcDbXrecord
280
     1
290
     1
  0
XRECORD
  5
50B
102
{ACAD_REACTORS
330
50A
102
}
330
50A
100
AcDbXrecord
280
     1
290
     1
  0
XRECORD
  5
50D
102
{ACAD_REACTORS
330
50C
102
}
330
50C
100
AcDbXrecord
280
     1
290
     1
  0
XRECORD
  5
50F
102
{ACAD_REACTORS
330
50E
102
}
330
50E
100
AcDbXrecord
280
     1
290
     1
  0
XRECORD
  5
511
102
{ACAD_REACTORS
330
510
102
}
330
510
100
AcDbXrecord
280
     1
290
     1
  0
XRECORD
  5
513
102
{ACAD_REACTORS
330
512
102
}
330
512
100
AcDbXrecord
280
     1
290
     1
  0
XRECORD
  5
515
102
{ACAD_REACTORS
330
514
102
}
330
514
100
AcDbXrecord
280
     1
290
     1
  0
XRECORD
  5
517
102
{ACAD_REACTORS
330
516
102
}
330
516
100
AcDbXrecord
280
     1
290
     1
  0
XRECORD
  5
519
102
{ACAD_REACTORS
330
518
102
}
330
518
100
AcDbXrecord
280
     1
290
     1
  0
XRECORD
  5
51B
102
{ACAD_REACTORS
330
51A
102
}
330
51A
100
AcDbXrecord
280
     1
290
     1
  0
XRECORD
  5
51D
102
{ACAD_REACTORS
330
51C
102
}
330
51C
100
AcDbXrecord
280
     1
290
     1
  0
XRECORD
  5
51F
102
{ACAD_REACTORS
330
51E
102
}
330
51E
100
AcDbXrecord
280
     1
290
     1
  0
XRECORD
  5
521
102
{ACAD_REACTORS
330
520
102
}
330
520
100
AcDbXrecord
280
     1
290
     1
  0
XRECORD
  5
523
102
{ACAD_REACTORS
330
522
102
}
330
522
100
AcDbXrecord
280
     1
290
     1
  0
XRECORD
  5
525
102
{ACAD_REACTORS
330
524
102
}
330
524
100
AcDbXrecord
280
     1
290
     1
  0
XRECORD
  5
527
102
{ACAD_REACTORS
330
526
102
}
330
526
100
AcDbXrecord
280
     1
290
     1
  0
XRECORD
  5
529
102
{ACAD_REACTORS
330
528
102
}
330
528
100
AcDbXrecord
280
     1
290
     1
  0
XRECORD
  5
52B
102
{ACAD_REACTORS
330
52A
102
}
330
52A
100
AcDbXrecord
280
     1
290
     1
  0
XRECORD
  5
52D
102
{ACAD_REACTORS
330
52C
102
}
330
52C
100
AcDbXrecord
280
     1
290
     1
  0
XRECORD
  5
52F
102
{ACAD_REACTORS
330
52E
102
}
330
52E
100
AcDbXrecord
280
     1
290
     1
  0
XRECORD
  5
531
102
{ACAD_REACTORS
330
530
102
}
330
530
100
AcDbXrecord
280
     1
290
     1
  0
XRECORD
  5
533
102
{ACAD_REACTORS
330
532
102
}
330
532
100
AcDbXrecord
280
     1
290
     1
  0
XRECORD
  5
535
102
{ACAD_REACTORS
330
534
102
}
330
534
100
AcDbXrecord
280
     1
290
     1
  0
XRECORD
  5
537
102
{ACAD_REACTORS
330
536
102
}
330
536
100
AcDbXrecord
280
     1
290
     1
  0
XRECORD
  5
539
102
{ACAD_REACTORS
330
538
102
}
330
538
100
AcDbXrecord
280
     1
290
     1
  0
XRECORD
  5
53B
102
{ACAD_REACTORS
330
53A
102
}
330
53A
100
AcDbXrecord
280
     1
290
     1
  0
XRECORD
  5
53D
102
{ACAD_REACTORS
330
53C
102
}
330
53C
100
AcDbXrecord
280
     1
290
     1
  0
XRECORD
  5
53F
102
{ACAD_REACTORS
330
53E
102
}
330
53E
100
AcDbXrecord
280
     1
290
     1
  0
XRECORD
  5
541
102
{ACAD_REACTORS
330
540
102
}
330
540
100
AcDbXrecord
280
     1
290
     1
  0
XRECORD
  5
543
102
{ACAD_REACTORS
330
542
102
}
330
542
100
AcDbXrecord
280
     1
290
     1
  0
XRECORD
  5
545
102
{ACAD_REACTORS
330
544
102
}
330
544
100
AcDbXrecord
280
     1
290
     1
  0
XRECORD
  5
547
102
{ACAD_REACTORS
330
546
102
}
330
546
100
AcDbXrecord
280
     1
290
     1
  0
XRECORD
  5
549
102
{ACAD_REACTORS
330
548
102
}
330
548
100
AcDbXrecord
280
     1
290
     1
  0
XRECORD
  5
54B
102
{ACAD_REACTORS
330
54A
102
}
330
54A
100
AcDbXrecord
280
     1
290
     1
  0
XRECORD
  5
54D
102
{ACAD_REACTORS
330
54C
102
}
330
54C
100
AcDbXrecord
280
     1
290
     1
  0
LAYOUT
  5
1E
102
{ACAD_XDICTIONARY
360
6EB
102
}
102
{ACAD_REACTORS
330
1A
102
}
330
1A
100
AcDbPlotSettings
  1

  2
none_device
  4

  6

 40
0.0
 41
0.0
 42
0.0
 43
0.0
 44
0.0
 45
0.0
 46
0.0
 47
0.0
 48
0.0
 49
0.0
140
0.0
141
0.0
142
1.0
143
1.0
 70
   688
 72
     0
 73
     0
 74
     5
  7

 75
    16
147
1.0
148
0.0
149
0.0
100
AcDbLayout
  1
Layout1
 70
     1
 71
     1
 10
0.0
 20
0.0
 11
12.0
 21
9.0
 12
0.0
 22
0.0
 32
0.0
 14
1.000000000000000E+20
 24
1.000000000000000E+20
 34
1.000000000000000E+20
 15
-1.000000000000000E+20
 25
-1.000000000000000E+20
 35
-1.000000000000000E+20
146
0.0
 13
0.0
 23
0.0
 33
0.0
 16
1.0
 26
0.0
 36
0.0
 17
0.0
 27
1.0
 37
0.0
 76
     0
330
1B
  0
LAYOUT
  5
26
102
{ACAD_XDICTIONARY
360
6EF
102
}
102
{ACAD_REACTORS
330
1A
102
}
330
1A
100
AcDbPlotSettings
  1

  2
none_device
  4

  6

 40
0.0
 41
0.0
 42
0.0
 43
0.0
 44
0.0
 45
0.0
 46
0.0
 47
0.0
 48
0.0
 49
0.0
140
0.0
141
0.0
142
1.0
143
1.0
 70
   688
 72
     0
 73
     0
 74
     5
  7

 75
    16
147
1.0
148
0.0
149
0.0
100
AcDbLayout
  1
Layout2
 70
     1
 71
     2
 10
0.0
 20
0.0
 11
0.0
 21
0.0
 12
0.0
 22
0.0
 32
0.0
 14
0.0
 24
0.0
 34
0.0
 15
0.0
 25
0.0
 35
0.0
146
0.0
 13
0.0
 23
0.0
 33
0.0
 16
1.0
 26
0.0
 36
0.0
 17
0.0
 27
1.0
 37
0.0
 76
     0
330
23
  0
LAYOUT
  5
22
102
{ACAD_XDICTIONARY
360
6ED
102
}
102
{ACAD_REACTORS
330
1A
102
}
330
1A
100
AcDbPlotSettings
  1

  2
none_device
  4
Letter_(8.50_x_11.00_Inches)
  6

 40
6.349999904632568
 41
6.349999904632568
 42
6.350006103515625
 43
6.350006103515625
 44
215.8999938964844
 45
279.3999938964844
 46
0.0
 47
0.0
 48
0.0
 49
0.0
140
0.0
141
0.0
142
1.0
143
4.426625250047013
 70
 11952
 72
     0
 73
     1
 74
     0
  7

 75
     0
147
0.2259057280688893
148
80.94130537497788
149
-3.042703655148162
100
AcDbLayout
  1
Model
 70
     1
 71
     0
 10
0.0
 20
0.0
 11
42.0
 21
28.0
 12
0.0
 22
0.0
 32
0.0
 14
0.0
 24
0.0
 34
0.0
 15
42.0
 25
28.0
 35
0.0
146
0.0
 13
0.0
 23
0.0
 33
0.0
 16
1.0
 26
0.0
 36
0.0
 17
0.0
 27
1.0
 37
0.0
 76
     0
330
1F
331
29
1001
ACAD_PSEXT
1000
None
1000
None
1000
Not applicable
1000
The layout will not be plotted unless a new plotter configuration name is selected.
1070
     0
  0
MATERIAL
  5
2EE
102
{ACAD_XDICTIONARY
360
2EF
102
}
102
{ACAD_REACTORS
330
2E5
102
}
330
2E5
100
AcDbMaterial
  1
ByBlock
 72
     0
 43
0.0208333333333333
 43
0.0
 43
0.0
 43
0.0
 43
0.0
 43
0.0208333333333333
 43
0.0
 43
0.0
 43
0.0
 43
0.0
 43
1.0
 43
0.0
 43
0.0
 43
0.0
 43
0.0
 43
1.0
 77
     0
 47
0.0208333333333333
 47
0.0
 47
0.0
 47
0.0
 47
0.0
 47
0.0208333333333333
 47
0.0
 47
0.0
 47
0.0
 47
0.0
 47
1.0
 47
0.0
 47
0.0
 47
0.0
 47
0.0
 47
1.0
171
     0
 49
0.0208333333333333
 49
0.0
 49
0.0
 49
0.0
 49
0.0
 49
0.0208333333333333
 49
0.0
 49
0.0
 49
0.0
 49
0.0
 49
1.0
 49
0.0
 49
0.0
 49
0.0
 49
0.0
 49
1.0
175
     0
142
0.0208333333333333
142
0.0
142
0.0
142
0.0
142
0.0
142
0.0208333333333333
142
0.0
142
0.0
142
0.0
142
0.0
142
1.0
142
0.0
142
0.0
142
0.0
142
0.0
142
1.0
179
     0
144
0.0208333333333333
144
0.0
144
0.0
144
0.0
144
0.0
144
0.0208333333333333
144
0.0
144
0.0
144
0.0
144
0.0
144
1.0
144
0.0
144
0.0
144
0.0
144
0.0
144
1.0
147
0.0208333333333333
147
0.0
147
0.0
147
0.0
147
0.0
147
0.0208333333333333
147
0.0
147
0.0
147
0.0
147
0.0
147
1.0
147
0.0
147
0.0
147
0.0
147
0.0
147
1.0
  0
MATERIAL
  5
2E6
102
{ACAD_XDICTIONARY
360
2E7
102
}
102
{ACAD_REACTORS
330
2E5
102
}
330
2E5
100
AcDbMaterial
  1
ByLayer
 72
     0
 43
0.0208333333333333
 43
0.0
 43
0.0
 43
0.0
 43
0.0
 43
0.0208333333333333
 43
0.0
 43
0.0
 43
0.0
 43
0.0
 43
1.0
 43
0.0
 43
0.0
 43
0.0
 43
0.0
 43
1.0
 77
     0
 47
0.0208333333333333
 47
0.0
 47
0.0
 47
0.0
 47
0.0
 47
0.0208333333333333
 47
0.0
 47
0.0
 47
0.0
 47
0.0
 47
1.0
 47
0.0
 47
0.0
 47
0.0
 47
0.0
 47
1.0
171
     0
 49
0.0208333333333333
 49
0.0
 49
0.0
 49
0.0
 49
0.0
 49
0.0208333333333333
 49
0.0
 49
0.0
 49
0.0
 49
0.0
 49
1.0
 49
0.0
 49
0.0
 49
0.0
 49
0.0
 49
1.0
175
     0
142
0.0208333333333333
142
0.0
142
0.0
142
0.0
142
0.0
142
0.0208333333333333
142
0.0
142
0.0
142
0.0
142
0.0
142
1.0
142
0.0
142
0.0
142
0.0
142
0.0
142
1.0
179
     0
144
0.0208333333333333
144
0.0
144
0.0
144
0.0
144
0.0
144
0.0208333333333333
144
0.0
144
0.0
144
0.0
144
0.0
144
1.0
144
0.0
144
0.0
144
0.0
144
0.0
144
1.0
147
0.0208333333333333
147
0.0
147
0.0
147
0.0
147
0.0
147
0.0208333333333333
147
0.0
147
0.0
147
0.0
147
0.0
147
1.0
147
0.0
147
0.0
147
0.0
147
0.0
147
1.0
  0
MATERIAL
  5
2F6
102
{ACAD_XDICTIONARY
360
2F7
102
}
102
{ACAD_REACTORS
330
2E5
102
}
330
2E5
100
AcDbMaterial
  1
Global
 72
     0
 43
0.0208333333333333
 43
0.0
 43
0.0
 43
0.0
 43
0.0
 43
0.0208333333333333
 43
0.0
 43
0.0
 43
0.0
 43
0.0
 43
1.0
 43
0.0
 43
0.0
 43
0.0
 43
0.0
 43
1.0
 77
     0
 47
0.0208333333333333
 47
0.0
 47
0.0
 47
0.0
 47
0.0
 47
0.0208333333333333
 47
0.0
 47
0.0
 47
0.0
 47
0.0
 47
1.0
 47
0.0
 47
0.0
 47
0.0
 47
0.0
 47
1.0
171
     0
 49
0.0208333333333333
 49
0.0
 49
0.0
 49
0.0
 49
0.0
 49
0.0208333333333333
 49
0.0
 49
0.0
 49
0.0
 49
0.0
 49
1.0
 49
0.0
 49
0.0
 49
0.0
 49
0.0
 49
1.0
175
     0
142
0.0208333333333333
142
0.0
142
0.0
142
0.0
142
0.0
142
0.0208333333333333
142
0.0
142
0.0
142
0.0
142
0.0
142
1.0
142
0.0
142
0.0
142
0.0
142
0.0
142
1.0
179
     0
144
0.0208333333333333
144
0.0
144
0.0
144
0.0
144
0.0
144
0.0208333333333333
144
0.0
144
0.0
144
0.0
144
0.0
144
1.0
144
0.0
144
0.0
144
0.0
144
0.0
144
1.0
147
0.0208333333333333
147
0.0
147
0.0
147
0.0
147
0.0
147
0.0208333333333333
147
0.0
147
0.0
147
0.0
147
0.0
147
1.0
147
0.0
147
0.0
147
0.0
147
0.0
147
1.0
  0
MLEADERSTYLE
  5
338
102
{ACAD_REACTORS
330
337
102
}
330
337
100
AcDbMLeaderStyle
170
     2
171
     1
172
     0
 90
        2
 40
0.0
 41
0.0
173
     1
 91
-1056964608
340
14
 92
       -2
290
     1
 42
0.09
291
     1
 43
0.36
  3
Standard
 44
0.18
300

342
11
174
     1
178
     6
175
     1
176
     0
 93
-1056964608
 45
0.18
292
     0
297
     0
 46
0.18
 94
-1056964608
 47
1.0
 49
1.0
140
1.0
293
     1
141
0.0
294
     1
177
     0
142
1.0
295
     0
296
     0
143
0.125
1001
ACAD_MLEADERVER
1070
     2
  0
MLINESTYLE
  5
18
102
{ACAD_REACTORS
330
17
102
}
330
17
100
AcDbMlineStyle
  2
STANDARD
 70
     0
  3

 62
   256
 51
90.0
 52
90.0
 71
     2
 49
0.5
 62
   256
  6
BYLAYER
 49
-0.5
 62
   256
  6
BYLAYER
  0
ACDBPLACEHOLDER
  5
F
102
{ACAD_REACTORS
330
E
102
}
330
E
  0
SCALE
  5
316
102
{ACAD_REACTORS
330
315
102
}
330
315
100
AcDbScale
 70
     0
300
1:1
140
1.0
141
1.0
290
     1
  0
SCALE
  5
317
102
{ACAD_REACTORS
330
315
102
}
330
315
100
AcDbScale
 70
     0
300
1:2
140
1.0
141
2.0
290
     0
  0
SCALE
  5
318
102
{ACAD_REACTORS
330
315
102
}
330
315
100
AcDbScale
 70
     0
300
1:4
140
1.0
141
4.0
290
     0
  0
SCALE
  5
319
102
{ACAD_REACTORS
330
315
102
}
330
315
100
AcDbScale
 70
     0
300
1:5
140
1.0
141
5.0
290
     0
  0
SCALE
  5
31A
102
{ACAD_REACTORS
330
315
102
}
330
315
100
AcDbScale
 70
     0
300
1:8
140
1.0
141
8.0
290
     0
  0
SCALE
  5
31B
102
{ACAD_REACTORS
330
315
102
}
330
315
100
AcDbScale
 70
     0
300
1:10
140
1.0
141
10.0
290
     0
  0
SCALE
  5
31C
102
{ACAD_REACTORS
330
315
102
}
330
315
100
AcDbScale
 70
     0
300
1:16
140
1.0
141
16.0
290
     0
  0
SCALE
  5
31D
102
{ACAD_REACTORS
330
315
102
}
330
315
100
AcDbScale
 70
     0
300
1:20
140
1.0
141
20.0
290
     0
  0
SCALE
  5
31E
102
{ACAD_REACTORS
330
315
102
}
330
315
100
AcDbScale
 70
     0
300
1:30
140
1.0
141
30.0
290
     0
  0
SCALE
  5
31F
102
{ACAD_REACTORS
330
315
102
}
330
315
100
AcDbScale
 70
     0
300
1:40
140
1.0
141
40.0
290
     0
  0
SCALE
  5
320
102
{ACAD_REACTORS
330
315
102
}
330
315
100
AcDbScale
 70
     0
300
1:50
140
1.0
141
50.0
290
     0
  0
SCALE
  5
321
102
{ACAD_REACTORS
330
315
102
}
330
315
100
AcDbScale
 70
     0
300
1:100
140
1.0
141
100.0
290
     0
  0
SCALE
  5
322
102
{ACAD_REACTORS
330
315
102
}
330
315
100
AcDbScale
 70
     0
300
2:1
140
2.0
141
1.0
290
     0
  0
SCALE
  5
323
102
{ACAD_REACTORS
330
315
102
}
330
315
100
AcDbScale
 70
     0
300
4:1
140
4.0
141
1.0
290
     0
  0
SCALE
  5
324
102
{ACAD_REACTORS
330
315
102
}
330
315
100
AcDbScale
 70
     0
300
8:1
140
8.0
141
1.0
290
     0
  0
SCALE
  5
325
102
{ACAD_REACTORS
330
315
102
}
330
315
100
AcDbScale
 70
     0
300
10:1
140
10.0
141
1.0
290
     0
  0
SCALE
  5
326
102
{ACAD_REACTORS
330
315
102
}
330
315
100
AcDbScale
 70
     0
300
100:1
140
100.0
141
1.0
290
     0
  0
SCALE
  5
327
102
{ACAD_REACTORS
330
315
102
}
330
315
100
AcDbScale
 70
     0
300
1/128" = 1'-0"
140
0.0078125
141
12.0
290
     0
  0
SCALE
  5
328
102
{ACAD_REACTORS
330
315
102
}
330
315
100
AcDbScale
 70
     0
300
1/64" = 1'-0"
140
0.015625
141
12.0
290
     0
  0
SCALE
  5
329
102
{ACAD_REACTORS
330
315
102
}
330
315
100
AcDbScale
 70
     0
300
1/32" = 1'-0"
140
0.03125
141
12.0
290
     0
  0
SCALE
  5
32A
102
{ACAD_REACTORS
330
315
102
}
330
315
100
AcDbScale
 70
     0
300
1/16" = 1'-0"
140
0.0625
141
12.0
290
     0
  0
SCALE
  5
32B
102
{ACAD_REACTORS
330
315
102
}
330
315
100
AcDbScale
 70
     0
300
3/32" = 1'-0"
140
0.09375
141
12.0
290
     0
  0
SCALE
  5
32C
102
{ACAD_REACTORS
330
315
102
}
330
315
100
AcDbScale
 70
     0
300
1/8" = 1'-0"
140
0.125
141
12.0
290
     0
  0
SCALE
  5
32D
102
{ACAD_REACTORS
330
315
102
}
330
315
100
AcDbScale
 70
     0
300
3/16" = 1'-0"
140
0.1875
141
12.0
290
     0
  0
SCALE
  5
32E
102
{ACAD_REACTORS
330
315
102
}
330
315
100
AcDbScale
 70
     0
300
1/4" = 1'-0"
140
0.25
141
12.0
290
     0
  0
SCALE
  5
32F
102
{ACAD_REACTORS
330
315
102
}
330
315
100
AcDbScale
 70
     0
300
3/8" = 1'-0"
140
0.375
141
12.0
290
     0
  0
SCALE
  5
330
102
{ACAD_REACTORS
330
315
102
}
330
315
100
AcDbScale
 70
     0
300
1/2" = 1'-0"
140
0.5
141
12.0
290
     0
  0
SCALE
  5
331
102
{ACAD_REACTORS
330
315
102
}
330
315
100
AcDbScale
 70
     0
300
3/4" = 1'-0"
140
0.75
141
12.0
290
     0
  0
SCALE
  5
332
102
{ACAD_REACTORS
330
315
102
}
330
315
100
AcDbScale
 70
     0
300
1" = 1'-0"
140
1.0
141
12.0
290
     0
  0
SCALE
  5
333
102
{ACAD_REACTORS
330
315
102
}
330
315
100
AcDbScale
 70
     0
300
1-1/2" = 1'-0"
140
1.5
141
12.0
290
     0
  0
SCALE
  5
334
102
{ACAD_REACTORS
330
315
102
}
330
315
100
AcDbScale
 70
     0
300
3" = 1'-0"
140
3.0
141
12.0
290
     0
  0
SCALE
  5
335
102
{ACAD_REACTORS
330
315
102
}
330
315
100
AcDbScale
 70
     0
300
6" = 1'-0"
140
6.0
141
12.0
290
     0
  0
SCALE
  5
336
102
{ACAD_REACTORS
330
315
102
}
330
315
100
AcDbScale
 70
     0
300
1'-0" = 1'-0"
140
12.0
141
12.0
290
     0
  0
TABLESTYLE
  5
314
102
{ACAD_XDICTIONARY
360
6E7
102
}
102
{ACAD_REACTORS
330
313
102
}
330
313
100
AcDbTableStyle
  3
Standard
 70
     0
 71
     0
 40
0.06
 41
0.06
280
     0
281
     0
  7
Standard
140
0.18
170
     2
 62
     0
 63
     7
283
     0
274
    -2
284
     1
 64
     0
275
    -2
285
     1
 65
     0
276
    -2
286
     1
 66
     0
277
    -2
287
     1
 67
     0
278
    -2
288
     1
 68
     0
279
    -2
289
     1
 69
     0
  7
Standard
140
0.25
170
     5
 62
     0
 63
     7
283
     0
274
    -2
284
     1
 64
     0
275
    -2
285
     1
 65
     0
276
    -2
286
     1
 66
     0
277
    -2
287
     1
 67
     0
278
    -2
288
     1
 68
     0
279
    -2
289
     1
 69
     0
  7
Standard
140
0.18
170
     5
 62
     0
 63
     7
283
     0
274
    -2
284
     1
 64
     0
275
    -2
285
     1
 65
     0
276
    -2
286
     1
 66
     0
277
    -2
287
     1
 67
     0
278
    -2
288
     1
 68
     0
279
    -2
289
     1
 69
     0
  0
VISUALSTYLE
  5
304
102
{ACAD_XDICTIONARY
360
6FE
102
}
102
{ACAD_REACTORS
330
2FE
102
}
330
2FE
100
AcDbVisualStyle
  2
2dWireframe
 70
     4
 71
     0
 72
     2
 73
     0
 90
        0
 40
-0.6
 41
-30.0
 62
     5
 63
     7
 74
     1
 91
        4
 64
     7
 65
   257
 75
     1
175
     1
 42
1.0
 92
        0
 66
   257
 43
1.0
 76
     1
 77
     6
 78
     2
 67
     7
 79
     5
170
     0
171
     0
290
     0
174
     0
 93
        1
 44
0.0
173
     0
291
     0
 45
0.0
1001
ACAD
1000
AcDbSavedByObjectVersion
1070
     0
  0
VISUALSTYLE
  5
306
102
{ACAD_XDICTIONARY
360
702
102
}
102
{ACAD_REACTORS
330
2FE
102
}
330
2FE
100
AcDbVisualStyle
  2
3D Hidden
 70
     6
 71
     1
 72
     2
 73
     2
 90
        0
 40
-0.6
 41
-30.0
 62
     5
 63
     7
 74
     2
 91
        2
 64
     7
 65
   257
 75
     2
175
     1
 42
179.0
 92
        0
 66
   257
 43
1.0
 76
     1
 77
     6
 78
     2
 67
     7
 79
     3
170
     0
171
     0
290
     0
174
     0
 93
        1
 44
0.0
173
     0
291
     0
 45
0.0
1001
ACAD
1000
AcDbSavedByObjectVersion
1070
     0
  0
VISUALSTYLE
  5
305
102
{ACAD_XDICTIONARY
360
700
102
}
102
{ACAD_REACTORS
330
2FE
102
}
330
2FE
100
AcDbVisualStyle
  2
3dWireframe
 70
     5
 71
     0
 72
     2
 73
     0
 90
        0
 40
-0.6
 41
-30.0
 62
     5
 63
     7
 74
     1
 91
        4
 64
     7
 65
   257
 75
     1
175
     1
 42
1.0
 92
        0
 66
   257
 43
1.0
 76
     1
 77
     6
 78
     2
 67
     7
 79
     5
170
     0
171
     0
290
     0
174
     0
 93
        1
 44
0.0
173
     0
291
     0
 45
0.0
1001
ACAD
1000
AcDbSavedByObjectVersion
1070
     0
  0
VISUALSTYLE
  5
303
102
{ACAD_XDICTIONARY
360
6FC
102
}
102
{ACAD_REACTORS
330
2FE
102
}
330
2FE
100
AcDbVisualStyle
  2
Basic
 70
     7
 71
     1
 72
     0
 73
     1
 90
        0
 40
-0.6
 41
-30.0
 62
     5
 63
     7
 74
     0
 91
        4
 64
     7
 65
   257
 75
     1
175
     1
 42
1.0
 92
        8
 66
     7
 43
1.0
 76
     1
 77
     6
 78
     2
 67
     7
 79
     5
170
     0
171
     0
290
     0
174
     0
 93
        1
 44
0.0
173
     0
291
     1
 45
0.0
1001
ACAD
1000
AcDbSavedByObjectVersion
1070
     0
  0
VISUALSTYLE
  5
30A
102
{ACAD_XDICTIONARY
360
70A
102
}
102
{ACAD_REACTORS
330
2FE
102
}
330
2FE
100
AcDbVisualStyle
  2
Brighten
 70
    12
 71
     2
 72
     2
 73
     0
 90
        0
 40
-0.6
 41
-30.0
 62
     5
 63
     7
 74
     1
 91
        4
 64
     7
 65
   257
 75
     1
175
     1
 42
1.0
 92
        8
 66
     7
 43
1.0
 76
     1
 77
     6
 78
     2
 67
     7
 79
     5
170
     0
171
     0
290
     0
174
     0
 93
        1
 44
50.0
173
     0
291
     1
 45
0.0
1001
ACAD
1000
AcDbSavedByObjectVersion
1070
     0
  0
VISUALSTYLE
  5
30E
102
{ACAD_XDICTIONARY
360
712
102
}
102
{ACAD_REACTORS
330
2FE
102
}
330
2FE
100
AcDbVisualStyle
  2
ColorChange
 70
    16
 71
     2
 72
     2
 73
     3
 90
        0
 40
-0.6
 41
-30.0
 62
     5
 63
     8
 74
     1
 91
        4
 64
     7
 65
   257
 75
     1
175
     1
 42
1.0
 92
        8
 66
     8
 43
1.0
 76
     1
 77
     6
 78
     2
 67
     7
 79
     5
170
     0
171
     0
290
     0
174
     0
 93
        1
 44
0.0
173
     0
291
     1
 45
0.0
1001
ACAD
1000
AcDbSavedByObjectVersion
1070
     0
  0
VISUALSTYLE
  5
307
102
{ACAD_XDICTIONARY
360
704
102
}
102
{ACAD_REACTORS
330
2FE
102
}
330
2FE
100
AcDbVisualStyle
  2
Conceptual
 70
     9
 71
     3
 72
     2
 73
     0
 90
        0
 40
-0.6
 41
-30.0
 62
     5
 63
     7
 74
     2
 91
        2
 64
     7
 65
   257
 75
     1
175
     1
 42
179.0
 92
        8
 66
     7
 43
1.0
 76
     1
 77
     6
 78
     2
 67
     7
 79
     3
170
     0
171
     0
290
     0
174
     0
 93
        1
 44
0.0
173
     0
291
     0
 45
0.0
1001
ACAD
1000
AcDbSavedByObjectVersion
1070
     0
  0
VISUALSTYLE
  5
309
102
{ACAD_XDICTIONARY
360
708
102
}
102
{ACAD_REACTORS
330
2FE
102
}
330
2FE
100
AcDbVisualStyle
  2
Dim
 70
    11
 71
     2
 72
     2
 73
     0
 90
        0
 40
-0.6
 41
-30.0
 62
     5
 63
     7
 74
     1
 91
        4
 64
     7
 65
   257
 75
     1
175
     1
 42
1.0
 92
        8
 66
     7
 43
1.0
 76
     1
 77
     6
 78
     2
 67
     7
 79
     5
170
     0
171
     0
290
     0
174
     0
 93
        1
 44
-50.0
173
     0
291
     1
 45
0.0
1001
ACAD
1000
AcDbSavedByObjectVersion
1070
     0
  0
VISUALSTYLE
  5
311
102
{ACAD_XDICTIONARY
360
718
102
}
102
{ACAD_REACTORS
330
2FE
102
}
330
2FE
100
AcDbVisualStyle
  2
EdgeColorOff
 70
    22
 71
     2
 72
     2
 73
     0
 90
        0
 40
-0.6
 41
-30.0
 62
     5
 63
     7
 74
     1
 91
        4
 64
     7
 65
   257
 75
     1
175
     1
 42
1.0
 92
        8
 66
     7
 43
1.0
 76
     1
 77
     6
 78
     2
 67
     7
 79
     5
170
     0
171
     0
290
     0
174
     0
 93
        1
 44
0.0
173
     0
291
     1
 45
0.0
1001
ACAD
1000
AcDbSavedByObjectVersion
1070
     0
  0
VISUALSTYLE
  5
30D
102
{ACAD_XDICTIONARY
360
710
102
}
102
{ACAD_REACTORS
330
2FE
102
}
330
2FE
100
AcDbVisualStyle
  2
Facepattern
 70
    15
 71
     2
 72
     2
 73
     0
 90
        0
 40
-0.6
 41
-30.0
 62
     5
 63
     7
 74
     1
 91
        4
 64
     7
 65
   257
 75
     1
175
     1
 42
1.0
 92
        8
 66
     7
 43
1.0
 76
     1
 77
     6
 78
     2
 67
     7
 79
     5
170
     0
171
     0
290
     0
174
     0
 93
        1
 44
0.0
173
     0
291
     1
 45
0.0
1001
ACAD
1000
AcDbSavedByObjectVersion
1070
     0
  0
VISUALSTYLE
  5
2FF
102
{ACAD_XDICTIONARY
360
6F4
102
}
102
{ACAD_REACTORS
330
2FE
102
}
330
2FE
100
AcDbVisualStyle
  2
Flat
 70
     0
 71
     2
 72
     1
 73
     1
 90
        2
 40
-0.6
 41
30.0
 62
     5
 63
     7
 74
     0
 91
        4
 64
     7
 65
   257
 75
     1
175
     1
 42
1.0
 92
        8
 66
     7
 43
1.0
 76
     1
 77
     6
 78
     2
 67
     7
 79
     5
170
     0
171
     0
290
     0
174
     0
 93
       13
 44
0.0
173
     0
291
     1
 45
0.0
1001
ACAD
1000
AcDbSavedByObjectVersion
1070
     0
  0
VISUALSTYLE
  5
300
102
{ACAD_XDICTIONARY
360
6F6
102
}
102
{ACAD_REACTORS
330
2FE
102
}
330
2FE
100
AcDbVisualStyle
  2
FlatWithEdges
 70
     1
 71
     2
 72
     1
 73
     1
 90
        2
 40
-0.6
 41
30.0
 62
     5
 63
     7
 74
     1
 91
        4
 64
     7
 65
   257
 75
     1
175
     1
 42
1.0
 92
        0
 66
   257
 43
1.0
 76
     1
 77
     6
 78
     2
 67
     7
 79
     5
170
     0
171
     0
290
     0
174
     0
 93
       13
 44
0.0
173
     0
291
     1
 45
0.0
1001
ACAD
1000
AcDbSavedByObjectVersion
1070
     0
  0
VISUALSTYLE
  5
301
102
{ACAD_XDICTIONARY
360
6F8
102
}
102
{ACAD_REACTORS
330
2FE
102
}
330
2FE
100
AcDbVisualStyle
  2
Gouraud
 70
     2
 71
     2
 72
     2
 73
     1
 90
        2
 40
-0.6
 41
30.0
 62
     5
 63
     7
 74
     0
 91
        4
 64
     7
 65
   257
 75
     1
175
     1
 42
1.0
 92
        0
 66
     7
 43
1.0
 76
     1
 77
     6
 78
     2
 67
     7
 79
     5
170
     0
171
     0
290
     0
174
     0
 93
       13
 44
0.0
173
     0
291
     1
 45
0.0
1001
ACAD
1000
AcDbSavedByObjectVersion
1070
     0
  0
VISUALSTYLE
  5
302
102
{ACAD_XDICTIONARY
360
6FA
102
}
102
{ACAD_REACTORS
330
2FE
102
}
330
2FE
100
AcDbVisualStyle
  2
GouraudWithEdges
 70
     3
 71
     2
 72
     2
 73
     1
 90
        2
 40
-0.6
 41
30.0
 62
     5
 63
     7
 74
     1
 91
        4
 64
     7
 65
   257
 75
     1
175
     1
 42
1.0
 92
        0
 66
   257
 43
1.0
 76
     1
 77
     6
 78
     2
 67
     7
 79
     5
170
     0
171
     0
290
     0
174
     0
 93
       13
 44
0.0
173
     0
291
     1
 45
0.0
1001
ACAD
1000
AcDbSavedByObjectVersion
1070
     0
  0
VISUALSTYLE
  5
30F
102
{ACAD_XDICTIONARY
360
714
102
}
102
{ACAD_REACTORS
330
2FE
102
}
330
2FE
100
AcDbVisualStyle
  2
JitterOff
 70
    20
 71
     2
 72
     2
 73
     0
 90
        0
 40
-0.6
 41
-30.0
 62
     5
 63
     7
 74
     1
 91
        4
 64
     7
 65
   257
 75
     1
175
     1
 42
1.0
 92
       10
 66
     7
 43
1.0
 76
     1
 77
     6
 78
     2
 67
     7
 79
     5
170
     0
171
     0
290
     0
174
     0
 93
        1
 44
0.0
173
     0
291
     1
 45
0.0
1001
ACAD
1000
AcDbSavedByObjectVersion
1070
     0
  0
VISUALSTYLE
  5
30C
102
{ACAD_XDICTIONARY
360
70E
102
}
102
{ACAD_REACTORS
330
2FE
102
}
330
2FE
100
AcDbVisualStyle
  2
Linepattern
 70
    14
 71
     2
 72
     2
 73
     0
 90
        0
 40
-0.6
 41
-30.0
 62
     5
 63
     7
 74
     1
 91
        4
 64
     7
 65
   257
 75
     7
175
     7
 42
1.0
 92
        8
 66
     7
 43
1.0
 76
     1
 77
     6
 78
     2
 67
     7
 79
     5
170
     0
171
     0
290
     0
174
     0
 93
        1
 44
0.0
173
     0
291
     1
 45
0.0
1001
ACAD
1000
AcDbSavedByObjectVersion
1070
     0
  0
VISUALSTYLE
  5
310
102
{ACAD_XDICTIONARY
360
716
102
}
102
{ACAD_REACTORS
330
2FE
102
}
330
2FE
100
AcDbVisualStyle
  2
OverhangOff
 70
    21
 71
     2
 72
     2
 73
     0
 90
        0
 40
-0.6
 41
-30.0
 62
     5
 63
     7
 74
     1
 91
        4
 64
     7
 65
   257
 75
     1
175
     1
 42
1.0
 92
        9
 66
     7
 43
1.0
 76
     1
 77
     6
 78
     2
 67
     7
 79
     5
170
     0
171
     0
290
     0
174
     0
 93
        1
 44
0.0
173
     0
291
     1
 45
0.0
1001
ACAD
1000
AcDbSavedByObjectVersion
1070
     0
  0
VISUALSTYLE
  5
308
102
{ACAD_XDICTIONARY
360
706
102
}
102
{ACAD_REACTORS
330
2FE
102
}
330
2FE
100
AcDbVisualStyle
  2
Realistic
 70
     8
 71
     2
 72
     2
 73
     0
 90
        0
 40
-0.6
 41
-30.0
 62
     5
 63
     7
 74
     1
 91
        0
 64
     7
 65
   257
 75
     1
175
     1
 42
1.0
 92
        8
 66
     8
 43
1.0
 76
     1
 77
     6
 78
     2
 67
     7
 79
     5
170
     0
171
     0
290
     0
174
     0
 93
       13
 44
0.0
173
     0
291
     0
 45
0.0
1001
ACAD
1000
AcDbSavedByObjectVersion
1070
     0
  0
VISUALSTYLE
  5
30B
102
{ACAD_XDICTIONARY
360
70C
102
}
102
{ACAD_REACTORS
330
2FE
102
}
330
2FE
100
AcDbVisualStyle
  2
Thicken
 70
    13
 71
     2
 72
     2
 73
     0
 90
        0
 40
-0.6
 41
-30.0
 62
     5
 63
     7
 74
     1
 91
        4
 64
     7
 65
   257
 75
     1
175
     1
 42
1.0
 92
       12
 66
     7
 43
1.0
 76
     1
 77
     6
 78
     2
 67
     7
 79
     5
170
     0
171
     0
290
     0
174
     0
 93
        1
 44
0.0
173
     0
291
     1
 45
0.0
1001
ACAD
1000
AcDbSavedByObjectVersion
1070
     0
  0
DICTIONARYVAR
  5
6E2
102
{ACAD_REACTORS
330
6DF
102
}
330
6DF
100
DictionaryVariables
280
     0
  1
1:1
  0
DICTIONARYVAR
  5
6E1
102
{ACAD_REACTORS
330
6DF
102
}
330
6DF
100
DictionaryVariables
280
     0
  1
STANDARD
  0
DICTIONARYVAR
  5
6E0
102
{ACAD_REACTORS
330
6DF
102
}
330
6DF
100
DictionaryVariables
280
     0
  1
STANDARD
  0
DICTIONARYVAR
  5
6E5
102
{ACAD_REACTORS
330
6DF
102
}
330
6DF
100
DictionaryVariables
280
     0
  1
1
  0
DICTIONARYVAR
  5
6E4
102
{ACAD_REACTORS
330
6DF
102
}
330
6DF
100
DictionaryVariables
280
     0
  1
0
  0
DICTIONARYVAR
  5
6E3
102
{ACAD_REACTORS
330
6DF
102
}
330
6DF
100
DictionaryVariables
280
     0
  1
127
  0
DICTIONARYVAR
  5
6E6
102
{ACAD_REACTORS
330
6DF
102
}
330
6DF
100
DictionaryVariables
280
     0
  1
2
  0
DICTIONARY
  5
39D
102
{ACAD_REACTORS
330
393
102
}
330
393
100
AcDbDictionary
281
     1
  0
DICTIONARY
  5
6EB
330
1E
100
AcDbDictionary
280
     1
281
     1
  3
ACAD_XREC_ROUNDTRIP
360
6EC
  0
DICTIONARY
  5
6EF
330
26
100
AcDbDictionary
280
     1
281
     1
  3
ACAD_XREC_ROUNDTRIP
360
6F0
  0
DICTIONARY
  5
6ED
330
22
100
AcDbDictionary
280
     1
281
     1
  3
ACAD_XREC_ROUNDTRIP
360
6EE
  0
DICTIONARY
  5
2EF
330
2EE
100
AcDbDictionary
280
     1
281
     1
  3
ACAD_XREC_ROUNDTRIP
360
6F2
  3
BUMPTILE
360
2F1
  3
DIFFUSETILE
360
2F0
  3
OPACITYTILE
360
2F4
  3
REFLECTIONTILE
360
2F3
  3
REFRACTIONTILE
360
2F5
  3
SPECULARTILE
360
2F2
  0
DICTIONARY
  5
2E7
330
2E6
100
AcDbDictionary
280
     1
281
     1
  3
ACAD_XREC_ROUNDTRIP
360
6F1
  3
BUMPTILE
360
2E9
  3
DIFFUSETILE
360
2E8
  3
OPACITYTILE
360
2EC
  3
REFLECTIONTILE
360
2EB
  3
REFRACTIONTILE
360
2ED
  3
SPECULARTILE
360
2EA
  0
DICTIONARY
  5
2F7
330
2F6
100
AcDbDictionary
280
     1
281
     1
  3
ACAD_XREC_ROUNDTRIP
360
6F3
  3
BUMPTILE
360
2F9
  3
DIFFUSETILE
360
2F8
  3
OPACITYTILE
360
2FC
  3
REFLECTIONTILE
360
2FB
  3
REFRACTIONTILE
360
2FD
  3
SPECULARTILE
360
2FA
  0
DICTIONARY
  5
6E7
330
314
100
AcDbDictionary
280
     1
281
     1
  3
ACAD_ROUNDTRIP_2008_TABLESTYLE_CELLSTYLEMAP
360
6E8
  3
ACAD_XREC_ROUNDTRIP
360
71A
  0
DICTIONARY
  5
6FE
330
304
100
AcDbDictionary
280
     1
281
     1
  3
ACAD_XREC_ROUNDTRIP
360
6FF
  0
DICTIONARY
  5
702
330
306
100
AcDbDictionary
280
     1
281
     1
  3
ACAD_XREC_ROUNDTRIP
360
703
  0
DICTIONARY
  5
700
330
305
100
AcDbDictionary
280
     1
281
     1
  3
ACAD_XREC_ROUNDTRIP
360
701
  0
DICTIONARY
  5
6FC
330
303
100
AcDbDictionary
280
     1
281
     1
  3
ACAD_XREC_ROUNDTRIP
360
6FD
  0
DICTIONARY
  5
70A
330
30A
100
AcDbDictionary
280
     1
281
     1
  3
ACAD_XREC_ROUNDTRIP
360
70B
  0
DICTIONARY
  5
712
330
30E
100
AcDbDictionary
280
     1
281
     1
  3
ACAD_XREC_ROUNDTRIP
360
713
  0
DICTIONARY
  5
704
330
307
100
AcDbDictionary
280
     1
281
     1
  3
ACAD_XREC_ROUNDTRIP
360
705
  0
DICTIONARY
  5
708
330
309
100
AcDbDictionary
280
     1
281
     1
  3
ACAD_XREC_ROUNDTRIP
360
709
  0
DICTIONARY
  5
718
330
311
100
AcDbDictionary
280
     1
281
     1
  3
ACAD_XREC_ROUNDTRIP
360
719
  0
DICTIONARY
  5
710
330
30D
100
AcDbDictionary
280
     1
281
     1
  3
ACAD_XREC_ROUNDTRIP
360
711
  0
DICTIONARY
  5
6F4
330
2FF
100
AcDbDictionary
280
     1
281
     1
  3
ACAD_XREC_ROUNDTRIP
360
6F5
  0
DICTIONARY
  5
6F6
330
300
100
AcDbDictionary
280
     1
281
     1
  3
ACAD_XREC_ROUNDTRIP
360
6F7
  0
DICTIONARY
  5
6F8
330
301
100
AcDbDictionary
280
     1
281
     1
  3
ACAD_XREC_ROUNDTRIP
360
6F9
  0
DICTIONARY
  5
6FA
330
302
100
AcDbDictionary
280
     1
281
     1
  3
ACAD_XREC_ROUNDTRIP
360
6FB
  0
DICTIONARY
  5
714
330
30F
100
AcDbDictionary
280
     1
281
     1
  3
ACAD_XREC_ROUNDTRIP
360
715
  0
DICTIONARY
  5
70E
330
30C
100
AcDbDictionary
280
     1
281
     1
  3
ACAD_XREC_ROUNDTRIP
360
70F
  0
DICTIONARY
  5
716
330
310
100
AcDbDictionary
280
     1
281
     1
  3
ACAD_XREC_ROUNDTRIP
360
717
  0
DICTIONARY
  5
706
330
308
100
AcDbDictionary
280
     1
281
     1
  3
ACAD_XREC_ROUNDTRIP
360
707
  0
DICTIONARY
  5
70C
330
30B
100
AcDbDictionary
280
     1
281
     1
  3
ACAD_XREC_ROUNDTRIP
360
70D
  0
XRECORD
  5
6EC
102
{ACAD_REACTORS
330
6EB
102
}
330
6EB
100
AcDbXrecord
280
     1
102
SHADEPLOT
 70
     0
102
SHADEPLOTRESLEVEL
 70
     2
102
SHADEPLOTCUSTOMDPI
 70
   300
  0
XRECORD
  5
6F0
102
{ACAD_REACTORS
330
6EF
102
}
330
6EF
100
AcDbXrecord
280
     1
102
SHADEPLOT
 70
     0
102
SHADEPLOTRESLEVEL
 70
     2
102
SHADEPLOTCUSTOMDPI
 70
   300
  0
XRECORD
  5
6EE
102
{ACAD_REACTORS
330
6ED
102
}
330
6ED
100
AcDbXrecord
280
     1
102
SHADEPLOT
 70
     0
102
SHADEPLOTRESLEVEL
 70
     2
102
SHADEPLOTCUSTOMDPI
 70
   300
  0
XRECORD
  5
6F2
102
{ACAD_REACTORS
330
2EF
102
}
330
2EF
100
AcDbXrecord
280
     1
102
MATERIAL
148
0.0
149
0.0
149
0.0
 93
        0
 94
      127
282
     0
 72
     0
 77
     0
171
     0
175
     0
179
     0
273
     0
  0
XRECORD
  5
2F1
102
{ACAD_REACTORS
330
2EF
102
}
330
2EF
100
AcDbXrecord
280
     1
270
     1
271
     1
  0
XRECORD
  5
2F0
102
{ACAD_REACTORS
330
2EF
102
}
330
2EF
100
AcDbXrecord
280
     1
270
     1
271
     1
  0
XRECORD
  5
2F4
102
{ACAD_REACTORS
330
2EF
102
}
330
2EF
100
AcDbXrecord
280
     1
270
     1
271
     1
  0
XRECORD
  5
2F3
102
{ACAD_REACTORS
330
2EF
102
}
330
2EF
100
AcDbXrecord
280
     1
270
     1
271
     1
  0
XRECORD
  5
2F5
102
{ACAD_REACTORS
330
2EF
102
}
330
2EF
100
AcDbXrecord
280
     1
270
     1
271
     1
  0
XRECORD
  5
2F2
102
{ACAD_REACTORS
330
2EF
102
}
330
2EF
100
AcDbXrecord
280
     1
270
     1
271
     1
  0
XRECORD
  5
6F1
102
{ACAD_REACTORS
330
2E7
102
}
330
2E7
100
AcDbXrecord
280
     1
102
MATERIAL
148
0.0
149
0.0
149
0.0
 93
        0
 94
      127
282
     0
 72
     0
 77
     0
171
     0
175
     0
179
     0
273
     0
  0
XRECORD
  5
2E9
102
{ACAD_REACTORS
330
2E7
102
}
330
2E7
100
AcDbXrecord
280
     1
270
     1
271
     1
  0
XRECORD
  5
2E8
102
{ACAD_REACTORS
330
2E7
102
}
330
2E7
100
AcDbXrecord
280
     1
270
     1
271
     1
  0
XRECORD
  5
2EC
102
{ACAD_REACTORS
330
2E7
102
}
330
2E7
100
AcDbXrecord
280
     1
270
     1
271
     1
  0
XRECORD
  5
2EB
102
{ACAD_REACTORS
330
2E7
102
}
330
2E7
100
AcDbXrecord
280
     1
270
     1
271
     1
  0
XRECORD
  5
2ED
102
{ACAD_REACTORS
330
2E7
102
}
330
2E7
100
AcDbXrecord
280
     1
270
     1
271
     1
  0
XRECORD
  5
2EA
102
{ACAD_REACTORS
330
2E7
102
}
330
2E7
100
AcDbXrecord
280
     1
270
     1
271
     1
  0
XRECORD
  5
6F3
102
{ACAD_REACTORS
330
2F7
102
}
330
2F7
100
AcDbXrecord
280
     1
102
MATERIAL
148
0.0
149
0.0
149
0.0
 93
        0
 94
      127
282
     0
 72
     0
 77
     0
171
     0
175
     0
179
     0
273
     0
  0
XRECORD
  5
2F9
102
{ACAD_REACTORS
330
2F7
102
}
330
2F7
100
AcDbXrecord
280
     1
270
     1
271
     1
  0
XRECORD
  5
2F8
102
{ACAD_REACTORS
330
2F7
102
}
330
2F7
100
AcDbXrecord
280
     1
270
     1
271
     1
  0
XRECORD
  5
2FC
102
{ACAD_REACTORS
330
2F7
102
}
330
2F7
100
AcDbXrecord
280
     1
270
     1
271
     1
  0
XRECORD
  5
2FB
102
{ACAD_REACTORS
330
2F7
102
}
330
2F7
100
AcDbXrecord
280
     1
270
     1
271
     1
  0
XRECORD
  5
2FD
102
{ACAD_REACTORS
330
2F7
102
}
330
2F7
100
AcDbXrecord
280
     1
270
     1
271
     1
  0
XRECORD
  5
2FA
102
{ACAD_REACTORS
330
2F7
102
}
330
2F7
100
AcDbXrecord
280
     1
270
     1
271
     1
  0
CELLSTYLEMAP
  5
6E8
102
{ACAD_REACTORS
330
6E7
102
}
330
6E7
100
AcDbCellStyleMap
 90
        3
300
CELLSTYLE
  1
TABLEFORMAT_BEGIN
 90
        5
170
     1
 91
        0
 92
    32768
 62
   257
 93
        1
300
CONTENTFORMAT
  1
CONTENTFORMAT_BEGIN
 90
        0
 91
        0
 92
      512
 93
        0
300

 40
0.0
140
1.0
 94
        5
 62
     0
340
11
144
0.25
309
CONTENTFORMAT_END
171
     0
 94
        0
309
TABLEFORMAT_END
  1
CELLSTYLE_BEGIN
 90
        1
 91
        1
300
_TITLE
309
CELLSTYLE_END
300
CELLSTYLE
  1
TABLEFORMAT_BEGIN
 90
        5
170
     1
 91
        0
 92
        0
 62
   257
 93
        1
300
CONTENTFORMAT
  1
CONTENTFORMAT_BEGIN
 90
        0
 91
        0
 92
      512
 93
        0
300

 40
0.0
140
1.0
 94
        5
 62
     0
340
11
144
0.18
309
CONTENTFORMAT_END
171
     0
 94
        0
309
TABLEFORMAT_END
  1
CELLSTYLE_BEGIN
 90
        2
 91
        1
300
_HEADER
309
CELLSTYLE_END
300
CELLSTYLE
  1
TABLEFORMAT_BEGIN
 90
        5
170
     1
 91
        0
 92
        0
 62
   257
 93
        1
300
CONTENTFORMAT
  1
CONTENTFORMAT_BEGIN
 90
        0
 91
        0
 92
      512
 93
        0
300

 40
0.0
140
1.0
 94
        2
 62
     0
340
11
144
0.18
309
CONTENTFORMAT_END
171
     0
 94
        0
309
TABLEFORMAT_END
  1
CELLSTYLE_BEGIN
 90
        3
 91
        2
300
_DATA
309
CELLSTYLE_END
  0
XRECORD
  5
71A
102
{ACAD_REACTORS
330
6E7
102
}
330
6E7
100
AcDbXrecord
280
     1
102
ACAD_ROUNDTRIP_PRE2007_TABLESTYLE
 90
      512
 91
        0
  1

 92
      512
 93
        0
  2

 94
      512
 95
        0
  3

  0
XRECORD
  5
6FF
102
{ACAD_REACTORS
330
6FE
102
}
330
6FE
100
AcDbXrecord
280
     1
102
RTVSPropertyOp0
 70
     1
102
RTVSPropertyOp1
 70
     1
102
RTVSPropertyOp2
 70
     1
102
RTVSPropertyOp3
 70
     1
102
RTVSPropertyOp4
 70
     1
102
RTVSPropertyOp5
 70
     1
102
RTVSPropertyOp6
 70
     1
102
RTVSPropertyOp7
 70
     1
102
RTVSPropertyOp8
 70
     1
102
RTVSPropertyOp9
 70
     1
102
RTVSPropertyOp10
 70
     1
102
RTVSPropertyOp11
 70
     1
102
RTVSPropertyOp12
 70
     1
102
RTVSPropertyOp13
 70
     1
102
RTVSPropertyOp14
 70
     1
102
RTVSPropertyOp15
 70
     1
102
RTVSPropertyOp16
 70
     1
102
RTVSPropertyOp17
 70
     1
102
RTVSPropertyOp18
 70
     1
102
RTVSPropertyOp19
 70
     1
102
RTVSPropertyOp20
 70
     1
102
RTVSPropertyOp21
 70
     1
102
RTVSPropertyOp22
 70
     1
102
RTVSPropertyOp23
 70
     1
102
RTVSPropertyOp24
 70
     1
102
RTVSPropertyOp25
 70
     1
102
RTVSPropertyOp26
 70
     1
102
RTVSPropertyOp27
 70
     1
  0
XRECORD
  5
703
102
{ACAD_REACTORS
330
702
102
}
330
702
100
AcDbXrecord
280
     1
102
RTVSPropertyOp0
 70
     1
102
RTVSPropertyOp1
 70
     1
102
RTVSPropertyOp2
 70
     1
102
RTVSPropertyOp3
 70
     1
102
RTVSPropertyOp4
 70
     1
102
RTVSPropertyOp5
 70
     1
102
RTVSPropertyOp6
 70
     1
102
RTVSPropertyOp7
 70
     1
102
RTVSPropertyOp8
 70
     1
102
RTVSPropertyOp9
 70
     1
102
RTVSPropertyOp10
 70
     1
102
RTVSPropertyOp11
 70
     1
102
RTVSPropertyOp12
 70
     1
102
RTVSPropertyOp13
 70
     1
102
RTVSPropertyOp14
 70
     1
102
RTVSPropertyOp15
 70
     1
102
RTVSPropertyOp16
 70
     1
102
RTVSPropertyOp17
 70
     1
102
RTVSPropertyOp18
 70
     1
102
RTVSPropertyOp19
 70
     1
102
RTVSPropertyOp20
 70
     1
102
RTVSPropertyOp21
 70
     1
102
RTVSPropertyOp22
 70
     1
102
RTVSPropertyOp23
 70
     1
102
RTVSPropertyOp24
 70
     1
102
RTVSPropertyOp25
 70
     1
102
RTVSPropertyOp26
 70
     1
102
RTVSPropertyOp27
 70
     1
  0
XRECORD
  5
701
102
{ACAD_REACTORS
330
700
102
}
330
700
100
AcDbXrecord
280
     1
102
RTVSPropertyOp0
 70
     1
102
RTVSPropertyOp1
 70
     1
102
RTVSPropertyOp2
 70
     1
102
RTVSPropertyOp3
 70
     1
102
RTVSPropertyOp4
 70
     1
102
RTVSPropertyOp5
 70
     1
102
RTVSPropertyOp6
 70
     1
102
RTVSPropertyOp7
 70
     1
102
RTVSPropertyOp8
 70
     1
102
RTVSPropertyOp9
 70
     1
102
RTVSPropertyOp10
 70
     1
102
RTVSPropertyOp11
 70
     1
102
RTVSPropertyOp12
 70
     1
102
RTVSPropertyOp13
 70
     1
102
RTVSPropertyOp14
 70
     1
102
RTVSPropertyOp15
 70
     1
102
RTVSPropertyOp16
 70
     1
102
RTVSPropertyOp17
 70
     1
102
RTVSPropertyOp18
 70
     1
102
RTVSPropertyOp19
 70
     1
102
RTVSPropertyOp20
 70
     1
102
RTVSPropertyOp21
 70
     1
102
RTVSPropertyOp22
 70
     1
102
RTVSPropertyOp23
 70
     1
102
RTVSPropertyOp24
 70
     1
102
RTVSPropertyOp25
 70
     1
102
RTVSPropertyOp26
 70
     1
102
RTVSPropertyOp27
 70
     1
  0
XRECORD
  5
6FD
102
{ACAD_REACTORS
330
6FC
102
}
330
6FC
100
AcDbXrecord
280
     1
102
RTVSPropertyOp0
 70
     1
102
RTVSPropertyOp1
 70
     1
102
RTVSPropertyOp2
 70
     1
102
RTVSPropertyOp3
 70
     1
102
RTVSPropertyOp4
 70
     1
102
RTVSPropertyOp5
 70
     1
102
RTVSPropertyOp6
 70
     1
102
RTVSPropertyOp7
 70
     1
102
RTVSPropertyOp8
 70
     1
102
RTVSPropertyOp9
 70
     1
102
RTVSPropertyOp10
 70
     1
102
RTVSPropertyOp11
 70
     1
102
RTVSPropertyOp12
 70
     1
102
RTVSPropertyOp13
 70
     1
102
RTVSPropertyOp14
 70
     1
102
RTVSPropertyOp15
 70
     1
102
RTVSPropertyOp16
 70
     1
102
RTVSPropertyOp17
 70
     1
102
RTVSPropertyOp18
 70
     1
102
RTVSPropertyOp19
 70
     1
102
RTVSPropertyOp20
 70
     1
102
RTVSPropertyOp21
 70
     1
102
RTVSPropertyOp22
 70
     1
102
RTVSPropertyOp23
 70
     1
102
RTVSPropertyOp24
 70
     1
102
RTVSPropertyOp25
 70
     1
102
RTVSPropertyOp26
 70
     1
102
RTVSPropertyOp27
 70
     1
  0
XRECORD
  5
70B
102
{ACAD_REACTORS
330
70A
102
}
330
70A
100
AcDbXrecord
280
     1
102
RTVSPropertyOp0
 70
     1
102
RTVSPropertyOp1
 70
     1
102
RTVSPropertyOp2
 70
     1
102
RTVSPropertyOp3
 70
     1
102
RTVSPropertyOp4
 70
     1
102
RTVSPropertyOp5
 70
     1
102
RTVSPropertyOp6
 70
     1
102
RTVSPropertyOp7
 70
     1
102
RTVSPropertyOp8
 70
     1
102
RTVSPropertyOp9
 70
     1
102
RTVSPropertyOp10
 70
     1
102
RTVSPropertyOp11
 70
     1
102
RTVSPropertyOp12
 70
     1
102
RTVSPropertyOp13
 70
     1
102
RTVSPropertyOp14
 70
     1
102
RTVSPropertyOp15
 70
     1
102
RTVSPropertyOp16
 70
     1
102
RTVSPropertyOp17
 70
     1
102
RTVSPropertyOp18
 70
     1
102
RTVSPropertyOp19
 70
     1
102
RTVSPropertyOp20
 70
     1
102
RTVSPropertyOp21
 70
     1
102
RTVSPropertyOp22
 70
     1
102
RTVSPropertyOp23
 70
     1
102
RTVSPropertyOp24
 70
     1
102
RTVSPropertyOp25
 70
     1
102
RTVSPropertyOp26
 70
     1
102
RTVSPropertyOp27
 70
     1
  0
XRECORD
  5
713
102
{ACAD_REACTORS
330
712
102
}
330
712
100
AcDbXrecord
280
     1
102
RTVSPropertyOp0
 70
     1
102
RTVSPropertyOp1
 70
     1
102
RTVSPropertyOp2
 70
     1
102
RTVSPropertyOp3
 70
     1
102
RTVSPropertyOp4
 70
     1
102
RTVSPropertyOp5
 70
     1
102
RTVSPropertyOp6
 70
     1
102
RTVSPropertyOp7
 70
     1
102
RTVSPropertyOp8
 70
     1
102
RTVSPropertyOp9
 70
     1
102
RTVSPropertyOp10
 70
     1
102
RTVSPropertyOp11
 70
     1
102
RTVSPropertyOp12
 70
     1
102
RTVSPropertyOp13
 70
     1
102
RTVSPropertyOp14
 70
     1
102
RTVSPropertyOp15
 70
     1
102
RTVSPropertyOp16
 70
     1
102
RTVSPropertyOp17
 70
     1
102
RTVSPropertyOp18
 70
     1
102
RTVSPropertyOp19
 70
     1
102
RTVSPropertyOp20
 70
     1
102
RTVSPropertyOp21
 70
     1
102
RTVSPropertyOp22
 70
     1
102
RTVSPropertyOp23
 70
     1
102
RTVSPropertyOp24
 70
     1
102
RTVSPropertyOp25
 70
     1
102
RTVSPropertyOp26
 70
     1
102
RTVSPropertyOp27
 70
     1
  0
XRECORD
  5
705
102
{ACAD_REACTORS
330
704
102
}
330
704
100
AcDbXrecord
280
     1
102
RTVSPropertyOp0
 70
     1
102
RTVSPropertyOp1
 70
     1
102
RTVSPropertyOp2
 70
     1
102
RTVSPropertyOp3
 70
     1
102
RTVSPropertyOp4
 70
     1
102
RTVSPropertyOp5
 70
     1
102
RTVSPropertyOp6
 70
     1
102
RTVSPropertyOp7
 70
     1
102
RTVSPropertyOp8
 70
     1
102
RTVSPropertyOp9
 70
     1
102
RTVSPropertyOp10
 70
     1
102
RTVSPropertyOp11
 70
     1
102
RTVSPropertyOp12
 70
     1
102
RTVSPropertyOp13
 70
     1
102
RTVSPropertyOp14
 70
     1
102
RTVSPropertyOp15
 70
     1
102
RTVSPropertyOp16
 70
     1
102
RTVSPropertyOp17
 70
     1
102
RTVSPropertyOp18
 70
     1
102
RTVSPropertyOp19
 70
     1
102
RTVSPropertyOp20
 70
     1
102
RTVSPropertyOp21
 70
     1
102
RTVSPropertyOp22
 70
     1
102
RTVSPropertyOp23
 70
     1
102
RTVSPropertyOp24
 70
     1
102
RTVSPropertyOp25
 70
     1
102
RTVSPropertyOp26
 70
     1
102
RTVSPropertyOp27
 70
     1
  0
XRECORD
  5
709
102
{ACAD_REACTORS
330
708
102
}
330
708
100
AcDbXrecord
280
     1
102
RTVSPropertyOp0
 70
     1
102
RTVSPropertyOp1
 70
     1
102
RTVSPropertyOp2
 70
     1
102
RTVSPropertyOp3
 70
     1
102
RTVSPropertyOp4
 70
     1
102
RTVSPropertyOp5
 70
     1
102
RTVSPropertyOp6
 70
     1
102
RTVSPropertyOp7
 70
     1
102
RTVSPropertyOp8
 70
     1
102
RTVSPropertyOp9
 70
     1
102
RTVSPropertyOp10
 70
     1
102
RTVSPropertyOp11
 70
     1
102
RTVSPropertyOp12
 70
     1
102
RTVSPropertyOp13
 70
     1
102
RTVSPropertyOp14
 70
     1
102
RTVSPropertyOp15
 70
     1
102
RTVSPropertyOp16
 70
     1
102
RTVSPropertyOp17
 70
     1
102
RTVSPropertyOp18
 70
     1
102
RTVSPropertyOp19
 70
     1
102
RTVSPropertyOp20
 70
     1
102
RTVSPropertyOp21
 70
     1
102
RTVSPropertyOp22
 70
     1
102
RTVSPropertyOp23
 70
     1
102
RTVSPropertyOp24
 70
     1
102
RTVSPropertyOp25
 70
     1
102
RTVSPropertyOp26
 70
     1
102
RTVSPropertyOp27
 70
     1
  0
XRECORD
  5
719
102
{ACAD_REACTORS
330
718
102
}
330
718
100
AcDbXrecord
280
     1
102
RTVSPropertyOp0
 70
     0
102
RTVSPropertyOp1
 70
     0
102
RTVSPropertyOp2
 70
     0
102
RTVSPropertyOp3
 70
     0
102
RTVSPropertyOp4
 70
     0
102
RTVSPropertyOp5
 70
     0
102
RTVSPropertyOp6
 70
     0
102
RTVSPropertyOp7
 70
     0
102
RTVSPropertyOp8
 70
     0
102
RTVSPropertyOp9
 70
     0
102
RTVSPropertyOp10
 70
     0
102
RTVSPropertyOp11
 70
     0
102
RTVSPropertyOp12
 70
     0
102
RTVSPropertyOp13
 70
     0
102
RTVSPropertyOp14
 70
     2
102
RTVSPropertyOp15
 70
     0
102
RTVSPropertyOp16
 70
     0
102
RTVSPropertyOp17
 70
     0
102
RTVSPropertyOp18
 70
     0
102
RTVSPropertyOp19
 70
     0
102
RTVSPropertyOp20
 70
     0
102
RTVSPropertyOp21
 70
     0
102
RTVSPropertyOp22
 70
     0
102
RTVSPropertyOp23
 70
     0
102
RTVSPropertyOp24
 70
     0
102
RTVSPropertyOp25
 70
     0
102
RTVSPropertyOp26
 70
     0
102
RTVSPropertyOp27
 70
     0
  0
XRECORD
  5
711
102
{ACAD_REACTORS
330
710
102
}
330
710
100
AcDbXrecord
280
     1
102
RTVSPropertyOp0
 70
     1
102
RTVSPropertyOp1
 70
     1
102
RTVSPropertyOp2
 70
     1
102
RTVSPropertyOp3
 70
     1
102
RTVSPropertyOp4
 70
     1
102
RTVSPropertyOp5
 70
     1
102
RTVSPropertyOp6
 70
     1
102
RTVSPropertyOp7
 70
     1
102
RTVSPropertyOp8
 70
     1
102
RTVSPropertyOp9
 70
     1
102
RTVSPropertyOp10
 70
     1
102
RTVSPropertyOp11
 70
     1
102
RTVSPropertyOp12
 70
     1
102
RTVSPropertyOp13
 70
     1
102
RTVSPropertyOp14
 70
     1
102
RTVSPropertyOp15
 70
     1
102
RTVSPropertyOp16
 70
     1
102
RTVSPropertyOp17
 70
     1
102
RTVSPropertyOp18
 70
     1
102
RTVSPropertyOp19
 70
     1
102
RTVSPropertyOp20
 70
     1
102
RTVSPropertyOp21
 70
     1
102
RTVSPropertyOp22
 70
     1
102
RTVSPropertyOp23
 70
     1
102
RTVSPropertyOp24
 70
     1
102
RTVSPropertyOp25
 70
     1
102
RTVSPropertyOp26
 70
     1
102
RTVSPropertyOp27
 70
     1
  0
XRECORD
  5
6F5
102
{ACAD_REACTORS
330
6F4
102
}
330
6F4
100
AcDbXrecord
280
     1
102
RTVSPropertyOp0
 70
     1
102
RTVSPropertyOp1
 70
     1
102
RTVSPropertyOp2
 70
     1
102
RTVSPropertyOp3
 70
     1
102
RTVSPropertyOp4
 70
     1
102
RTVSPropertyOp5
 70
     1
102
RTVSPropertyOp6
 70
     1
102
RTVSPropertyOp7
 70
     1
102
RTVSPropertyOp8
 70
     1
102
RTVSPropertyOp9
 70
     1
102
RTVSPropertyOp10
 70
     1
102
RTVSPropertyOp11
 70
     1
102
RTVSPropertyOp12
 70
     1
102
RTVSPropertyOp13
 70
     1
102
RTVSPropertyOp14
 70
     1
102
RTVSPropertyOp15
 70
     1
102
RTVSPropertyOp16
 70
     1
102
RTVSPropertyOp17
 70
     1
102
RTVSPropertyOp18
 70
     1
102
RTVSPropertyOp19
 70
     1
102
RTVSPropertyOp20
 70
     1
102
RTVSPropertyOp21
 70
     1
102
RTVSPropertyOp22
 70
     1
102
RTVSPropertyOp23
 70
     1
102
RTVSPropertyOp24
 70
     1
102
RTVSPropertyOp25
 70
     1
102
RTVSPropertyOp26
 70
     1
102
RTVSPropertyOp27
 70
     1
  0
XRECORD
  5
6F7
102
{ACAD_REACTORS
330
6F6
102
}
330
6F6
100
AcDbXrecord
280
     1
102
RTVSPropertyOp0
 70
     1
102
RTVSPropertyOp1
 70
     1
102
RTVSPropertyOp2
 70
     1
102
RTVSPropertyOp3
 70
     1
102
RTVSPropertyOp4
 70
     1
102
RTVSPropertyOp5
 70
     1
102
RTVSPropertyOp6
 70
     1
102
RTVSPropertyOp7
 70
     1
102
RTVSPropertyOp8
 70
     1
102
RTVSPropertyOp9
 70
     1
102
RTVSPropertyOp10
 70
     1
102
RTVSPropertyOp11
 70
     1
102
RTVSPropertyOp12
 70
     1
102
RTVSPropertyOp13
 70
     1
102
RTVSPropertyOp14
 70
     1
102
RTVSPropertyOp15
 70
     1
102
RTVSPropertyOp16
 70
     1
102
RTVSPropertyOp17
 70
     1
102
RTVSPropertyOp18
 70
     1
102
RTVSPropertyOp19
 70
     1
102
RTVSPropertyOp20
 70
     1
102
RTVSPropertyOp21
 70
     1
102
RTVSPropertyOp22
 70
     1
102
RTVSPropertyOp23
 70
     1
102
RTVSPropertyOp24
 70
     1
102
RTVSPropertyOp25
 70
     1
102
RTVSPropertyOp26
 70
     1
102
RTVSPropertyOp27
 70
     1
  0
XRECORD
  5
6F9
102
{ACAD_REACTORS
330
6F8
102
}
330
6F8
100
AcDbXrecord
280
     1
102
RTVSPropertyOp0
 70
     1
102
RTVSPropertyOp1
 70
     1
102
RTVSPropertyOp2
 70
     1
102
RTVSPropertyOp3
 70
     1
102
RTVSPropertyOp4
 70
     1
102
RTVSPropertyOp5
 70
     1
102
RTVSPropertyOp6
 70
     1
102
RTVSPropertyOp7
 70
     1
102
RTVSPropertyOp8
 70
     1
102
RTVSPropertyOp9
 70
     1
102
RTVSPropertyOp10
 70
     1
102
RTVSPropertyOp11
 70
     1
102
RTVSPropertyOp12
 70
     1
102
RTVSPropertyOp13
 70
     1
102
RTVSPropertyOp14
 70
     1
102
RTVSPropertyOp15
 70
     1
102
RTVSPropertyOp16
 70
     1
102
RTVSPropertyOp17
 70
     1
102
RTVSPropertyOp18
 70
     1
102
RTVSPropertyOp19
 70
     1
102
RTVSPropertyOp20
 70
     1
102
RTVSPropertyOp21
 70
     1
102
RTVSPropertyOp22
 70
     1
102
RTVSPropertyOp23
 70
     1
102
RTVSPropertyOp24
 70
     1
102
RTVSPropertyOp25
 70
     1
102
RTVSPropertyOp26
 70
     1
102
RTVSPropertyOp27
 70
     1
  0
XRECORD
  5
6FB
102
{ACAD_REACTORS
330
6FA
102
}
330
6FA
100
AcDbXrecord
280
     1
102
RTVSPropertyOp0
 70
     1
102
RTVSPropertyOp1
 70
     1
102
RTVSPropertyOp2
 70
     1
102
RTVSPropertyOp3
 70
     1
102
RTVSPropertyOp4
 70
     1
102
RTVSPropertyOp5
 70
     1
102
RTVSPropertyOp6
 70
     1
102
RTVSPropertyOp7
 70
     1
102
RTVSPropertyOp8
 70
     1
102
RTVSPropertyOp9
 70
     1
102
RTVSPropertyOp10
 70
     1
102
RTVSPropertyOp11
 70
     1
102
RTVSPropertyOp12
 70
     1
102
RTVSPropertyOp13
 70
     1
102
RTVSPropertyOp14
 70
     1
102
RTVSPropertyOp15
 70
     1
102
RTVSPropertyOp16
 70
     1
102
RTVSPropertyOp17
 70
     1
102
RTVSPropertyOp18
 70
     1
102
RTVSPropertyOp19
 70
     1
102
RTVSPropertyOp20
 70
     1
102
RTVSPropertyOp21
 70
     1
102
RTVSPropertyOp22
 70
     1
102
RTVSPropertyOp23
 70
     1
102
RTVSPropertyOp24
 70
     1
102
RTVSPropertyOp25
 70
     1
102
RTVSPropertyOp26
 70
     1
102
RTVSPropertyOp27
 70
     1
  0
XRECORD
  5
715
102
{ACAD_REACTORS
330
714
102
}
330
714
100
AcDbXrecord
280
     1
102
RTVSPropertyOp0
 70
     0
102
RTVSPropertyOp1
 70
     0
102
RTVSPropertyOp2
 70
     0
102
RTVSPropertyOp3
 70
     0
102
RTVSPropertyOp4
 70
     0
102
RTVSPropertyOp5
 70
     0
102
RTVSPropertyOp6
 70
     0
102
RTVSPropertyOp7
 70
     0
102
RTVSPropertyOp8
 70
     0
102
RTVSPropertyOp9
 70
     0
102
RTVSPropertyOp10
 70
     0
102
RTVSPropertyOp11
 70
     0
102
RTVSPropertyOp12
 70
     0
102
RTVSPropertyOp13
 70
     0
102
RTVSPropertyOp14
 70
     2
102
RTVSPropertyOp15
 70
     0
102
RTVSPropertyOp16
 70
     0
102
RTVSPropertyOp17
 70
     0
102
RTVSPropertyOp18
 70
     0
102
RTVSPropertyOp19
 70
     0
102
RTVSPropertyOp20
 70
     0
102
RTVSPropertyOp21
 70
     0
102
RTVSPropertyOp22
 70
     0
102
RTVSPropertyOp23
 70
     0
102
RTVSPropertyOp24
 70
     0
102
RTVSPropertyOp25
 70
     0
102
RTVSPropertyOp26
 70
     0
102
RTVSPropertyOp27
 70
     0
  0
XRECORD
  5
70F
102
{ACAD_REACTORS
330
70E
102
}
330
70E
100
AcDbXrecord
280
     1
102
RTVSPropertyOp0
 70
     1
102
RTVSPropertyOp1
 70
     1
102
RTVSPropertyOp2
 70
     1
102
RTVSPropertyOp3
 70
     1
102
RTVSPropertyOp4
 70
     1
102
RTVSPropertyOp5
 70
     1
102
RTVSPropertyOp6
 70
     1
102
RTVSPropertyOp7
 70
     1
102
RTVSPropertyOp8
 70
     1
102
RTVSPropertyOp9
 70
     1
102
RTVSPropertyOp10
 70
     1
102
RTVSPropertyOp11
 70
     1
102
RTVSPropertyOp12
 70
     1
102
RTVSPropertyOp13
 70
     1
102
RTVSPropertyOp14
 70
     1
102
RTVSPropertyOp15
 70
     1
102
RTVSPropertyOp16
 70
     1
102
RTVSPropertyOp17
 70
     1
102
RTVSPropertyOp18
 70
     1
102
RTVSPropertyOp19
 70
     1
102
RTVSPropertyOp20
 70
     1
102
RTVSPropertyOp21
 70
     1
102
RTVSPropertyOp22
 70
     1
102
RTVSPropertyOp23
 70
     1
102
RTVSPropertyOp24
 70
     1
102
RTVSPropertyOp25
 70
     1
102
RTVSPropertyOp26
 70
     1
102
RTVSPropertyOp27
 70
     1
  0
XRECORD
  5
717
102
{ACAD_REACTORS
330
716
102
}
330
716
100
AcDbXrecord
280
     1
102
RTVSPropertyOp0
 70
     0
102
RTVSPropertyOp1
 70
     0
102
RTVSPropertyOp2
 70
     0
102
RTVSPropertyOp3
 70
     0
102
RTVSPropertyOp4
 70
     0
102
RTVSPropertyOp5
 70
     0
102
RTVSPropertyOp6
 70
     0
102
RTVSPropertyOp7
 70
     0
102
RTVSPropertyOp8
 70
     0
102
RTVSPropertyOp9
 70
     0
102
RTVSPropertyOp10
 70
     0
102
RTVSPropertyOp11
 70
     0
102
RTVSPropertyOp12
 70
     0
102
RTVSPropertyOp13
 70
     0
102
RTVSPropertyOp14
 70
     2
102
RTVSPropertyOp15
 70
     0
102
RTVSPropertyOp16
 70
     0
102
RTVSPropertyOp17
 70
     0
102
RTVSPropertyOp18
 70
     0
102
RTVSPropertyOp19
 70
     0
102
RTVSPropertyOp20
 70
     0
102
RTVSPropertyOp21
 70
     0
102
RTVSPropertyOp22
 70
     0
102
RTVSPropertyOp23
 70
     0
102
RTVSPropertyOp24
 70
     0
102
RTVSPropertyOp25
 70
     0
102
RTVSPropertyOp26
 70
     0
102
RTVSPropertyOp27
 70
     0
  0
XRECORD
  5
707
102
{ACAD_REACTORS
330
706
102
}
330
706
100
AcDbXrecord
280
     1
102
RTVSPropertyOp0
 70
     1
102
RTVSPropertyOp1
 70
     1
102
RTVSPropertyOp2
 70
     1
102
RTVSPropertyOp3
 70
     1
102
RTVSPropertyOp4
 70
     1
102
RTVSPropertyOp5
 70
     1
102
RTVSPropertyOp6
 70
     1
102
RTVSPropertyOp7
 70
     1
102
RTVSPropertyOp8
 70
     1
102
RTVSPropertyOp9
 70
     1
102
RTVSPropertyOp10
 70
     1
102
RTVSPropertyOp11
 70
     1
102
RTVSPropertyOp12
 70
     1
102
RTVSPropertyOp13
 70
     1
102
RTVSPropertyOp14
 70
     1
102
RTVSPropertyOp15
 70
     1
102
RTVSPropertyOp16
 70
     1
102
RTVSPropertyOp17
 70
     1
102
RTVSPropertyOp18
 70
     1
102
RTVSPropertyOp19
 70
     1
102
RTVSPropertyOp20
 70
     1
102
RTVSPropertyOp21
 70
     1
102
RTVSPropertyOp22
 70
     1
102
RTVSPropertyOp23
 70
     1
102
RTVSPropertyOp24
 70
     1
102
RTVSPropertyOp25
 70
     1
102
RTVSPropertyOp26
 70
     1
102
RTVSPropertyOp27
 70
     1
  0
XRECORD
  5
70D
102
{ACAD_REACTORS
330
70C
102
}
330
70C
100
AcDbXrecord
280
     1
102
RTVSPropertyOp0
 70
     1
102
RTVSPropertyOp1
 70
     1
102
RTVSPropertyOp2
 70
     1
102
RTVSPropertyOp3
 70
     1
102
RTVSPropertyOp4
 70
     1
102
RTVSPropertyOp5
 70
     1
102
RTVSPropertyOp6
 70
     1
102
RTVSPropertyOp7
 70
     1
102
RTVSPropertyOp8
 70
     1
102
RTVSPropertyOp9
 70
     1
102
RTVSPropertyOp10
 70
     1
102
RTVSPropertyOp11
 70
     1
102
RTVSPropertyOp12
 70
     1
102
RTVSPropertyOp13
 70
     1
102
RTVSPropertyOp14
 70
     1
102
RTVSPropertyOp15
 70
     1
102
RTVSPropertyOp16
 70
     1
102
RTVSPropertyOp17
 70
     1
102
RTVSPropertyOp18
 70
     1
102
RTVSPropertyOp19
 70
     1
102
RTVSPropertyOp20
 70
     1
102
RTVSPropertyOp21
 70
     1
102
RTVSPropertyOp22
 70
     1
102
RTVSPropertyOp23
 70
     1
102
RTVSPropertyOp24
 70
     1
102
RTVSPropertyOp25
 70
     1
102
RTVSPropertyOp26
 70
     1
102
RTVSPropertyOp27
 70
     1
  0
ENDSEC
  0
EOF
