  0
SECTION
  2
HEADER
  9
$ACADVER
  1
AC1009
999
I-DEAS Drafting Master Series 7m1 Not Encoded
  9
$EXTMIN
 10
0.0
 20
0.0
  9
$EXTMAX
 10
3.4E+001
 20
2.2E+001
  9
$TEXTSIZE
 40
1.25E-001
  9
$LTSCALE
 40
1.0
  9
$CLAYER
  8
1
  9
$CECOLOR
 62
1
  9
$DIMASZ
 40
1.25E-001
  9
$DIMEXO
 40
6.25E-002
  9
$DIMDLI
 40
2.5E-001
  9
$DIMEXE
 40
1.25E-001
  9
$DIMTP
 40
5.0E-003
  9
$DIMTM
 40
-5.0E-003
  9
$DIMTXT
 40
1.25E-001
  9
$DIMLIM
 70
0
  9
$DIMTIH
 70
1
  9
$DIMTOH
 70
1
  9
$DIMSE1
 70
0
  9
$DIMSE2
 70
0
  9
$DIMTAD
 70
0
  9
$DIMASO
 70
1
  9
$DIMALT
 70
0
  9
$DIMALTD
 70
0
  9
$DIMTOFL
 70
1
  9
$DIMTIX
 70
0
  9
$DIMSAH
 70
0
  9
$DIMTFAC
 40
1.0
  9
$DIMGAP
 40
6.25E-002
  9
$LUNITS
 70
2
  9
$LUPREC
 70
3
  9
$FILLETRAD
 40
2.5E-001
  9
$AUNITS
 70
0
  9
$AUPREC
 70
1
  9
$CHAMFERA
 40
2.5E-001
  9
$CHAMFERB
 40
2.5E-001
  9
$ANGBASE
 50
0.0
  9
$ANGDIR
 70
0
  9
$PDMODE
 70
2
  9
$PDSIZE
 40
-1.0E-002
  9
$SPLINETYPE
 70
6
  0
ENDSEC
  0
SECTION
  2
TABLES
  0
TABLE
  2
LTYPE
 70
7
  0
LTYPE
  2
HIDDENNEW00
  3
_ 
 70
64
 72
65
 73
2
 40
1.875E-001
 49
1.25E-001
 49
-6.25E-002
  0
LTYPE
  2
HIDDENNEW01
  3
_ 
 70
64
 72
65
 73
2
 40
1.875E-001
 49
1.25E-001
 49
-6.25E-002
  0
LTYPE
  2
HIDDEN
  3
_ 
 70
64
 72
65
 73
2
 40
1.875E-001
 49
1.25E-001
 49
-6.25E-002
  0
LTYPE
  2
CENTERLINE
  3
_ 
 70
64
 72
65
 73
4
 40
1.25
 49
1.0
 49
-6.25E-002
 49
1.25E-001
 49
-6.25E-002
  0
LTYPE
  2
PHANTOM
  3
_ 
 70
64
 72
65
 73
6
 40
1.1875
 49
7.5E-001
 49
-6.25E-002
 49
1.25E-001
 49
-6.25E-002
 49
1.25E-001
 49
-6.25E-002
  0
LTYPE
  2
SHORT_DASH
  3
_ 
 70
64
 72
65
 73
2
 40
1.25E-001
 49
6.25E-002
 49
-6.25E-002
  0
LTYPE
  2
LONG_DASH
  3
_ 
 70
64
 72
65
 73
2
 40
3.75E-001
 49
1.875E-001
 49
-1.875E-001
  0
ENDTAB
  0
TABLE
  2
LAYER
 70
258
  0
LAYER
  2
1
 70
0
 62
7
  6
CONTINUOUS
  0
LAYER
  2
2
 70
0
 62
7
  6
CONTINUOUS
  0
LAYER
  2
3
 70
0
 62
7
  6
CONTINUOUS
  0
LAYER
  2
4
 70
0
 62
7
  6
CONTINUOUS
  0
LAYER
  2
5
 70
0
 62
7
  6
CONTINUOUS
  0
LAYER
  2
6
 70
0
 62
7
  6
CONTINUOUS
  0
LAYER
  2
7
 70
0
 62
7
  6
CONTINUOUS
  0
LAYER
  2
8
 70
0
 62
7
  6
CONTINUOUS
  0
LAYER
  2
9
 70
0
 62
7
  6
CONTINUOUS
  0
LAYER
  2
10
 70
0
 62
7
  6
CONTINUOUS
  0
LAYER
  2
11
 70
0
 62
7
  6
CONTINUOUS
  0
LAYER
  2
12
 70
0
 62
7
  6
CONTINUOUS
  0
LAYER
  2
13
 70
0
 62
7
  6
CONTINUOUS
  0
LAYER
  2
14
 70
0
 62
7
  6
CONTINUOUS
  0
LAYER
  2
15
 70
0
 62
7
  6
CONTINUOUS
  0
LAYER
  2
16
 70
0
 62
7
  6
CONTINUOUS
  0
LAYER
  2
17
 70
0
 62
7
  6
CONTINUOUS
  0
LAYER
  2
18
 70
0
 62
7
  6
CONTINUOUS
  0
LAYER
  2
19
 70
0
 62
7
  6
CONTINUOUS
  0
LAYER
  2
20
 70
0
 62
7
  6
CONTINUOUS
  0
LAYER
  2
21
 70
0
 62
7
  6
CONTINUOUS
  0
LAYER
  2
22
 70
0
 62
7
  6
CONTINUOUS
  0
LAYER
  2
23
 70
0
 62
7
  6
CONTINUOUS
  0
LAYER
  2
24
 70
0
 62
7
  6
CONTINUOUS
  0
LAYER
  2
25
 70
0
 62
7
  6
CONTINUOUS
  0
LAYER
  2
26
 70
0
 62
7
  6
CONTINUOUS
  0
LAYER
  2
27
 70
0
 62
7
  6
CONTINUOUS
  0
LAYER
  2
28
 70
0
 62
7
  6
CONTINUOUS
  0
LAYER
  2
29
 70
0
 62
7
  6
CONTINUOUS
  0
LAYER
  2
30
 70
0
 62
7
  6
CONTINUOUS
  0
LAYER
  2
31
 70
0
 62
7
  6
CONTINUOUS
  0
LAYER
  2
32
 70
0
 62
7
  6
CONTINUOUS
  0
LAYER
  2
33
 70
0
 62
7
  6
CONTINUOUS
  0
LAYER
  2
34
 70
0
 62
7
  6
CONTINUOUS
  0
LAYER
  2
35
 70
0
 62
7
  6
CONTINUOUS
  0
LAYER
  2
36
 70
0
 62
7
  6
CONTINUOUS
  0
LAYER
  2
37
 70
0
 62
7
  6
CONTINUOUS
  0
LAYER
  2
38
 70
0
 62
7
  6
CONTINUOUS
  0
LAYER
  2
39
 70
0
 62
7
  6
CONTINUOUS
  0
LAYER
  2
40
 70
0
 62
7
  6
CONTINUOUS
  0
LAYER
  2
41
 70
0
 62
7
  6
CONTINUOUS
  0
LAYER
  2
42
 70
0
 62
7
  6
CONTINUOUS
  0
LAYER
  2
43
 70
0
 62
7
  6
CONTINUOUS
  0
LAYER
  2
44
 70
0
 62
7
  6
CONTINUOUS
  0
LAYER
  2
45
 70
0
 62
7
  6
CONTINUOUS
  0
LAYER
  2
46
 70
0
 62
7
  6
CONTINUOUS
  0
LAYER
  2
47
 70
0
 62
7
  6
CONTINUOUS
  0
LAYER
  2
48
 70
0
 62
7
  6
CONTINUOUS
  0
LAYER
  2
49
 70
0
 62
7
  6
CONTINUOUS
  0
LAYER
  2
50
 70
0
 62
7
  6
CONTINUOUS
  0
LAYER
  2
51
 70
0
 62
7
  6
CONTINUOUS
  0
LAYER
  2
52
 70
0
 62
7
  6
CONTINUOUS
  0
LAYER
  2
53
 70
0
 62
7
  6
CONTINUOUS
  0
LAYER
  2
54
 70
0
 62
7
  6
CONTINUOUS
  0
LAYER
  2
55
 70
0
 62
7
  6
CONTINUOUS
  0
LAYER
  2
56
 70
0
 62
7
  6
CONTINUOUS
  0
LAYER
  2
57
 70
0
 62
7
  6
CONTINUOUS
  0
LAYER
  2
58
 70
0
 62
7
  6
CONTINUOUS
  0
LAYER
  2
59
 70
0
 62
7
  6
CONTINUOUS
  0
LAYER
  2
60
 70
0
 62
7
  6
CONTINUOUS
  0
LAYER
  2
61
 70
0
 62
7
  6
CONTINUOUS
  0
LAYER
  2
62
 70
0
 62
7
  6
CONTINUOUS
  0
LAYER
  2
63
 70
0
 62
7
  6
CONTINUOUS
  0
LAYER
  2
64
 70
0
 62
7
  6
CONTINUOUS
  0
LAYER
  2
65
 70
0
 62
7
  6
CONTINUOUS
  0
LAYER
  2
66
 70
0
 62
7
  6
CONTINUOUS
  0
LAYER
  2
67
 70
0
 62
7
  6
CONTINUOUS
  0
LAYER
  2
68
 70
0
 62
7
  6
CONTINUOUS
  0
LAYER
  2
69
 70
0
 62
7
  6
CONTINUOUS
  0
LAYER
  2
70
 70
0
 62
7
  6
CONTINUOUS
  0
LAYER
  2
71
 70
0
 62
7
  6
CONTINUOUS
  0
LAYER
  2
72
 70
0
 62
7
  6
CONTINUOUS
  0
LAYER
  2
73
 70
0
 62
7
  6
CONTINUOUS
  0
LAYER
  2
74
 70
0
 62
7
  6
CONTINUOUS
  0
LAYER
  2
75
 70
0
 62
7
  6
CONTINUOUS
  0
LAYER
  2
76
 70
0
 62
7
  6
CONTINUOUS
  0
LAYER
  2
77
 70
0
 62
7
  6
CONTINUOUS
  0
LAYER
  2
78
 70
0
 62
7
  6
CONTINUOUS
  0
LAYER
  2
79
 70
0
 62
7
  6
CONTINUOUS
  0
LAYER
  2
80
 70
0
 62
7
  6
CONTINUOUS
  0
LAYER
  2
81
 70
0
 62
7
  6
CONTINUOUS
  0
LAYER
  2
82
 70
0
 62
7
  6
CONTINUOUS
  0
LAYER
  2
83
 70
0
 62
7
  6
CONTINUOUS
  0
LAYER
  2
84
 70
0
 62
7
  6
CONTINUOUS
  0
LAYER
  2
85
 70
0
 62
7
  6
CONTINUOUS
  0
LAYER
  2
86
 70
0
 62
7
  6
CONTINUOUS
  0
LAYER
  2
87
 70
0
 62
7
  6
CONTINUOUS
  0
LAYER
  2
88
 70
0
 62
7
  6
CONTINUOUS
  0
LAYER
  2
89
 70
0
 62
7
  6
CONTINUOUS
  0
LAYER
  2
90
 70
0
 62
7
  6
CONTINUOUS
  0
LAYER
  2
91
 70
0
 62
7
  6
CONTINUOUS
  0
LAYER
  2
92
 70
0
 62
7
  6
CONTINUOUS
  0
LAYER
  2
93
 70
0
 62
7
  6
CONTINUOUS
  0
LAYER
  2
94
 70
0
 62
7
  6
CONTINUOUS
  0
LAYER
  2
95
 70
0
 62
7
  6
CONTINUOUS
  0
LAYER
  2
96
 70
0
 62
7
  6
CONTINUOUS
  0
LAYER
  2
97
 70
0
 62
7
  6
CONTINUOUS
  0
LAYER
  2
98
 70
0
 62
7
  6
CONTINUOUS
  0
LAYER
  2
99
 70
0
 62
7
  6
CONTINUOUS
  0
LAYER
  2
100
 70
0
 62
7
  6
CONTINUOUS
  0
LAYER
  2
101
 70
0
 62
7
  6
CONTINUOUS
  0
LAYER
  2
102
 70
0
 62
7
  6
CONTINUOUS
  0
LAYER
  2
103
 70
0
 62
7
  6
CONTINUOUS
  0
LAYER
  2
104
 70
0
 62
7
  6
CONTINUOUS
  0
LAYER
  2
105
 70
0
 62
7
  6
CONTINUOUS
  0
LAYER
  2
106
 70
0
 62
7
  6
CONTINUOUS
  0
LAYER
  2
107
 70
0
 62
7
  6
CONTINUOUS
  0
LAYER
  2
108
 70
0
 62
7
  6
CONTINUOUS
  0
LAYER
  2
109
 70
0
 62
7
  6
CONTINUOUS
  0
LAYER
  2
110
 70
0
 62
7
  6
CONTINUOUS
  0
LAYER
  2
111
 70
0
 62
7
  6
CONTINUOUS
  0
LAYER
  2
112
 70
0
 62
7
  6
CONTINUOUS
  0
LAYER
  2
113
 70
0
 62
7
  6
CONTINUOUS
  0
LAYER
  2
114
 70
0
 62
7
  6
CONTINUOUS
  0
LAYER
  2
115
 70
0
 62
7
  6
CONTINUOUS
  0
LAYER
  2
116
 70
0
 62
7
  6
CONTINUOUS
  0
LAYER
  2
117
 70
0
 62
7
  6
CONTINUOUS
  0
LAYER
  2
118
 70
0
 62
7
  6
CONTINUOUS
  0
LAYER
  2
119
 70
0
 62
7
  6
CONTINUOUS
  0
LAYER
  2
120
 70
0
 62
7
  6
CONTINUOUS
  0
LAYER
  2
121
 70
0
 62
7
  6
CONTINUOUS
  0
LAYER
  2
122
 70
0
 62
7
  6
CONTINUOUS
  0
LAYER
  2
123
 70
0
 62
7
  6
CONTINUOUS
  0
LAYER
  2
124
 70
0
 62
7
  6
CONTINUOUS
  0
LAYER
  2
125
 70
0
 62
7
  6
CONTINUOUS
  0
LAYER
  2
126
 70
0
 62
7
  6
CONTINUOUS
  0
LAYER
  2
127
 70
0
 62
7
  6
CONTINUOUS
  0
LAYER
  2
128
 70
0
 62
7
  6
CONTINUOUS
  0
LAYER
  2
129
 70
0
 62
7
  6
CONTINUOUS
  0
LAYER
  2
130
 70
0
 62
7
  6
CONTINUOUS
  0
LAYER
  2
131
 70
0
 62
7
  6
CONTINUOUS
  0
LAYER
  2
132
 70
0
 62
7
  6
CONTINUOUS
  0
LAYER
  2
133
 70
0
 62
7
  6
CONTINUOUS
  0
LAYER
  2
134
 70
0
 62
7
  6
CONTINUOUS
  0
LAYER
  2
135
 70
0
 62
7
  6
CONTINUOUS
  0
LAYER
  2
136
 70
0
 62
7
  6
CONTINUOUS
  0
LAYER
  2
137
 70
0
 62
7
  6
CONTINUOUS
  0
LAYER
  2
138
 70
0
 62
7
  6
CONTINUOUS
  0
LAYER
  2
139
 70
0
 62
7
  6
CONTINUOUS
  0
LAYER
  2
140
 70
0
 62
7
  6
CONTINUOUS
  0
LAYER
  2
141
 70
0
 62
7
  6
CONTINUOUS
  0
LAYER
  2
142
 70
0
 62
7
  6
CONTINUOUS
  0
LAYER
  2
143
 70
0
 62
7
  6
CONTINUOUS
  0
LAYER
  2
144
 70
0
 62
7
  6
CONTINUOUS
  0
LAYER
  2
145
 70
0
 62
7
  6
CONTINUOUS
  0
LAYER
  2
146
 70
0
 62
7
  6
CONTINUOUS
  0
LAYER
  2
147
 70
0
 62
7
  6
CONTINUOUS
  0
LAYER
  2
148
 70
0
 62
7
  6
CONTINUOUS
  0
LAYER
  2
149
 70
0
 62
7
  6
CONTINUOUS
  0
LAYER
  2
150
 70
0
 62
7
  6
CONTINUOUS
  0
LAYER
  2
151
 70
0
 62
7
  6
CONTINUOUS
  0
LAYER
  2
152
 70
0
 62
7
  6
CONTINUOUS
  0
LAYER
  2
153
 70
0
 62
7
  6
CONTINUOUS
  0
LAYER
  2
154
 70
0
 62
7
  6
CONTINUOUS
  0
LAYER
  2
155
 70
0
 62
7
  6
CONTINUOUS
  0
LAYER
  2
156
 70
0
 62
7
  6
CONTINUOUS
  0
LAYER
  2
157
 70
0
 62
7
  6
CONTINUOUS
  0
LAYER
  2
158
 70
0
 62
7
  6
CONTINUOUS
  0
LAYER
  2
159
 70
0
 62
7
  6
CONTINUOUS
  0
LAYER
  2
160
 70
0
 62
7
  6
CONTINUOUS
  0
LAYER
  2
161
 70
0
 62
7
  6
CONTINUOUS
  0
LAYER
  2
162
 70
0
 62
7
  6
CONTINUOUS
  0
LAYER
  2
163
 70
0
 62
7
  6
CONTINUOUS
  0
LAYER
  2
164
 70
0
 62
7
  6
CONTINUOUS
  0
LAYER
  2
165
 70
0
 62
7
  6
CONTINUOUS
  0
LAYER
  2
166
 70
0
 62
7
  6
CONTINUOUS
  0
LAYER
  2
167
 70
0
 62
7
  6
CONTINUOUS
  0
LAYER
  2
168
 70
0
 62
7
  6
CONTINUOUS
  0
LAYER
  2
169
 70
0
 62
7
  6
CONTINUOUS
  0
LAYER
  2
170
 70
0
 62
7
  6
CONTINUOUS
  0
LAYER
  2
171
 70
0
 62
7
  6
CONTINUOUS
  0
LAYER
  2
172
 70
0
 62
7
  6
CONTINUOUS
  0
LAYER
  2
173
 70
0
 62
7
  6
CONTINUOUS
  0
LAYER
  2
174
 70
0
 62
7
  6
CONTINUOUS
  0
LAYER
  2
175
 70
0
 62
7
  6
CONTINUOUS
  0
LAYER
  2
176
 70
0
 62
7
  6
CONTINUOUS
  0
LAYER
  2
177
 70
0
 62
7
  6
CONTINUOUS
  0
LAYER
  2
178
 70
0
 62
7
  6
CONTINUOUS
  0
LAYER
  2
179
 70
0
 62
7
  6
CONTINUOUS
  0
LAYER
  2
180
 70
0
 62
7
  6
CONTINUOUS
  0
LAYER
  2
Drafting_Hidden_Entities
 70
1
 62
7
  6
CONTINUOUS
  0
ENDTAB
  0
TABLE
  2
STYLE
 70
1
  0
STYLE
  2
STANDARD
 70
64
 40
0.0
 41
1.0
 50
0.0
 71
0
 42
1.0
  3
monotxt.shx
  4
bigfont.shx
  0
ENDTAB
  0
TABLE
  2
VIEW
 70
0
  0
ENDTAB
  0
TABLE
  2
DIMSTYLE
 70
5
  0
DIMSTYLE
  2
DSTYLE1
 70
0
  3

  4

  5

  6

  7

 40
1.0
 41
1.5E-001
 42
7.5E-002
 43
3.8E-001
 44
2.0E-001
 45
1.0E-003
 46
0.0
 47
5.0E-003
 48
5.0E-003
 71
0
 72
0
 73
1
 74
1
 75
1
 76
1
 77
0
 78
7
140
2.0E-001
141
9.0E-002
142
0.0
143
2.54E+001
144
1.0
145
0.0
146
1.0
147
7.5E-002
170
0
171
2
172
0
173
0
174
0
175
0
176
0
177
0
178
0
  0
DIMSTYLE
  2
DSTYLE2
 70
0
  3

  4

  5

  6

  7

 40
1.0
 41
2.5E-001
 42
1.25E-001
 43
3.8E-001
 44
6.25E-002
 45
1.0E-003
 46
0.0
 47
3.2E-002
 48
6.2E-002
 71
1
 72
0
 73
1
 74
1
 75
0
 76
0
 77
0
 78
3
140
2.0E-001
141
9.0E-002
142
0.0
143
1.0
144
1.0
145
0.0
146
1.0
147
2.5E-001
170
1
171
2
172
0
173
0
174
0
175
0
176
0
177
0
178
0
  0
DIMSTYLE
  2
DSTYLE3
 70
0
  3

  4

  5

  6

  7

 40
1.0
 41
1.25E-001
 42
6.25E-002
 43
3.8E-001
 44
1.25E-001
 45
1.0E-003
 46
0.0
 47
5.0E-003
 48
5.0E-003
 71
0
 72
0
 73
1
 74
1
 75
1
 76
0
 77
0
 78
7
140
1.75E-001
141
9.0E-002
142
0.0
143
2.54E+001
144
1.0
145
0.0
146
1.0
147
6.25E-002
170
0
171
2
172
0
173
0
174
0
175
0
176
0
177
0
178
0
  0
DIMSTYLE
  2
DSTYLE4
 70
0
  3

  4

  5

  6

  7

 40
1.0
 41
1.5E-001
 42
7.5E-002
 43
3.8E-001
 44
1.5E-001
 45
1.0E-003
 46
0.0
 47
5.0E-003
 48
5.0E-003
 71
0
 72
0
 73
1
 74
1
 75
1
 76
0
 77
0
 78
7
140
2.0E-001
141
9.0E-002
142
0.0
143
2.54E+001
144
1.0
145
0.0
146
1.0
147
7.5E-002
170
0
171
2
172
0
173
0
174
0
175
0
176
0
177
0
178
0
  0
DIMSTYLE
  2
DSTYLE5
 70
0
  3

  4

  5

  6

  7

 40
1.0
 41
2.5E-001
 42
1.25E-001
 43
3.8E-001
 44
6.2E-002
 45
1.0E-003
 46
0.0
 47
3.2E-002
 48
6.2E-002
 71
1
 72
0
 73
1
 74
1
 75
0
 76
0
 77
0
 78
3
140
2.0E-001
141
9.0E-002
142
0.0
143
1.0
144
1.0
145
0.0
146
1.0
147
2.5E-001
170
1
171
2
172
0
173
0
174
0
175
0
176
0
177
0
178
0
  0
ENDTAB
  0
ENDSEC
  0
SECTION
  2
BLOCKS
  0
BLOCK
  2
SOUTH
 10
0.0
 20
0.0
 70
0
  0
TEXT
  8
180
  6
CONTINUOUS
 62
1
 10
-3.4096409
 20
-2.546476E-001
 40
1.5E-001
  1
ELKAY SOUTHERN CORP.
 51
-4.1943E-006
  0
TEXT
  8
126
  6
CONTINUOUS
 62
3
 10
-2.847572
 20
-3.929015E-001
 40
6.0E-002
  1
LUMBERTON, NORTH CAROLINA
  0
POINT
  8
1
  6
CONTINUOUS
 62
1
 10
0.0
 20
0.0
  0
ENDBLK
  0
BLOCK
  2
BNEW01
 10
0.0
 20
0.0
 70
0
  0
TEXT
  8
180
  6
CONTINUOUS
 62
1
 10
2.32143E-001
 20
-2.003522E-001
 40
1.25E-001
  1
ELKAY MANUFACTURING COMPANY
 41
1.0476191
 51
-4.1943E-006
  0
TEXT
  8
126
  6
CONTINUOUS
 62
3
 10
1.2926855
 20
-3.553995E-001
 40
7.5E-002
  1
BROADVIEW, ILLINOIS
 41
1.0476191
 51
-4.1943E-006
  0
POINT
  8
1
  6
CONTINUOUS
 62
1
 10
0.0
 20
0.0
  0
ENDBLK
  0
BLOCK
  2
1
 10
0.0
 20
0.0
 70
0
  0
INSERT
  2
BNEW01
  8
1
 10
3.0E-007
 20
0.0
  0
POINT
  8
1
  6
CONTINUOUS
 62
1
 10
0.0
 20
0.0
  0
ENDBLK
  0
BLOCK
  2
*TX47
  3
*TX
 10
0.0
 20
0.0
 70
65
  0
TEXT
  8
126
  6
CONTINUOUS
 62
3
 10
0.0
 20
0.0
 40
1.75E-001
  1
NOTE:
 41
1.047619
  0
TEXT
  8
126
  6
CONTINUOUS
 62
3
 10
0.0
 20
-2.625E-001
 40
1.75E-001
  1
 
 41
1.047619
  0
TEXT
  8
126
  6
CONTINUOUS
 62
3
 10
0.0
 20
-5.25E-001
 40
1.75E-001
  1
DIMENSIONS ARE FOR COSTING ONLY.
 41
1.047619
  0
TEXT
  8
126
  6
CONTINUOUS
 62
3
 10
0.0
 20
-7.875E-001
 40
1.75E-001
  1
SAMPLES SHOULD BE CHECKED FOR
 41
1.047619
  0
TEXT
  8
126
  6
CONTINUOUS
 62
3
 10
0.0
 20
-1.05
 40
1.75E-001
  1
FINAL FIT.
 41
1.047619
  0
ENDBLK
  0
BLOCK
  2
*TX56
  3
*TX
 10
0.0
 20
0.0
 70
65
  0
TEXT
  8
1
  6
CONTINUOUS
 62
1
 10
2.8125
 20
3.75E-001
 40
7.5E-001
  1
EFRU191610
 41
7.5E-001
 72
1
 73
2
 11
0.0
 21
0.0
  0
TEXT
  8
1
  6
CONTINUOUS
 62
1
 10
3.375
 20
-7.5E-001
 40
7.5E-001
  1
PLAFRU191610
 41
7.5E-001
 72
1
 73
2
 11
0.0
 21
-1.125
  0
ENDBLK
  0
BLOCK
  2
*TX57
  3
*TX
 10
0.0
 20
0.0
 70
65
  0
TEXT
  8
126
  6
CONTINUOUS
 62
3
 10
0.0
 20
0.0
 40
8.0E-002
  1
RL - ECNBV07059 20APR07
  0
TEXT
  8
126
  6
CONTINUOUS
 62
3
 10
0.0
 20
-1.2E-001
 40
8.0E-002
  1
 A - ECNBV08090 02MAY08
  0
ENDBLK
  0
BLOCK
  2
*TX58
  3
*TX
 10
0.0
 20
0.0
 70
65
  0
TEXT
  8
126
  6
CONTINUOUS
 62
3
 10
7.0E-001
 20
0.0
 40
1.0E-001
  1
32-ECT E-FLUTE
 72
1
 11
0.0
 21
0.0
  0
TEXT
  8
126
  6
CONTINUOUS
 62
3
 10
8.0E-001
 20
-1.5E-001
 40
1.0E-001
  1
KRAFT BOTH SIDES
 72
1
 11
0.0
 21
-1.5E-001
  0
ENDBLK
  0
BLOCK
  2
*TX59
  3
*TX
 10
0.0
 20
0.0
 70
65
  0
TEXT
  8
126
  6
CONTINUOUS
 62
3
 10
0.0
 20
0.0
 40
6.053E-002
  1
THIS PRINT IS THE PROPERTY OF ELKAY MANUFACTURING COMPANY
 41
1.0344828
  0
TEXT
  8
126
  6
CONTINUOUS
 62
3
 10
0.0
 20
-1.0553E-001
 40
6.053E-002
  1
AND IS LOANED SUBJECT TO RETURN UPON DEMAND AND UPON THE
 41
1.0344828
  0
TEXT
  8
126
  6
CONTINUOUS
 62
3
 10
0.0
 20
-2.1106E-001
 40
6.053E-002
  1
EXPRESS CONDITION THAT IT IS NOT TO BE USED DIRECTLY OR
 41
1.0344828
  0
TEXT
  8
126
  6
CONTINUOUS
 62
3
 10
0.0
 20
-3.1659E-001
 40
6.053E-002
  1
INDIRECTLY WITHOUT OUR PERMISSION FOR PURPOSES OTHER THAN
 41
1.0344828
  0
TEXT
  8
126
  6
CONTINUOUS
 62
3
 10
0.0
 20
-4.2212E-001
 40
6.053E-002
  1
THOSE FOR WHICH IT WAS FURNISHED.
 41
1.0344828
  0
ENDBLK
  0
BLOCK
  2
*D49
  3
*D
 10
0.0
 20
0.0
 70
65
  0
CIRCLE
  8
1
  6
CONTINUOUS
 62
3
 10
9.9133437
 20
1.3668279E+001
 40
2.0E-001
  0
TEXT
  8
1
  6
CONTINUOUS
 62
3
 10
9.8133437
 20
1.3568279E+001
 40
2.0E-001
  1
A
  0
ENDBLK
  0
BLOCK
  2
*D63
  3
*D
 10
0.0
 20
0.0
 70
65
  0
LINE
  8
1
  6
CONTINUOUS
 62
3
 10
2.2207954E+001
 20
2.00941E+001
 11
2.5880351E+001
 21
2.00941E+001
  0
LINE
  8
1
  6
CONTINUOUS
 62
3
 10
2.2207954E+001
 20
4.3441004
 11
2.5880351E+001
 21
4.3441004
  0
LINE
  8
1
  6
CONTINUOUS
 62
3
 10
2.5817851E+001
 20
2.00941E+001
 11
2.5776185E+001
 21
1.98441E+001
  0
LINE
  8
1
  6
CONTINUOUS
 62
3
 10
2.5817851E+001
 20
2.00941E+001
 11
2.5859518E+001
 21
1.98441E+001
  0
LINE
  8
1
  6
CONTINUOUS
 62
3
 10
2.5776185E+001
 20
1.98441E+001
 11
2.5859518E+001
 21
1.98441E+001
  0
LINE
  8
1
  6
CONTINUOUS
 62
3
 10
2.5817851E+001
 20
4.3441004
 11
2.5776185E+001
 21
4.5941004
  0
LINE
  8
1
  6
CONTINUOUS
 62
3
 10
2.5817851E+001
 20
4.3441004
 11
2.5859518E+001
 21
4.5941004
  0
LINE
  8
1
  6
CONTINUOUS
 62
3
 10
2.5776185E+001
 20
4.5941004
 11
2.5859518E+001
 21
4.5941004
  0
LINE
  8
1
  6
CONTINUOUS
 62
3
 10
2.5817851E+001
 20
2.00941E+001
 11
2.5817851E+001
 21
1.32191E+001
  0
LINE
  8
1
  6
CONTINUOUS
 62
3
 10
2.5817851E+001
 20
4.3441004
 11
2.5817851E+001
 21
1.12191E+001
  0
TEXT
  8
1
  6
CONTINUOUS
 62
3
 10
2.3892851E+001
 20
1.16191E+001
 40
2.0E-001
  1
[400.05 mm]
  0
TEXT
  8
1
  6
CONTINUOUS
 62
3
 10
2.5892851E+001
 20
1.17691E+001
 40
2.0E-001
  1
+.81 mm
  0
TEXT
  8
1
  6
CONTINUOUS
 62
3
 10
2.5892851E+001
 20
1.14691E+001
 40
2.0E-001
  1
-1.57 mm
  0
TEXT
  8
1
  6
CONTINUOUS
 62
3
 10
2.4592851E+001
 20
1.26191E+001
 40
2.0E-001
  1
15.750
 41
1.0
  0
TEXT
  8
1
  6
CONTINUOUS
 62
3
 10
2.5842851E+001
 20
1.27691E+001
 40
2.0E-001
  1
+0.032
 41
1.0
  0
TEXT
  8
1
  6
CONTINUOUS
 62
3
 10
2.5842851E+001
 20
1.24691E+001
 40
2.0E-001
  1
-0.062
 41
1.0
  0
ENDBLK
  0
BLOCK
  2
*D64
  3
*D
 10
0.0
 20
0.0
 70
65
  0
LINE
  8
1
  6
CONTINUOUS
 62
3
 10
2.2547954E+001
 20
4.6841004
 11
2.2547954E+001
 21
2.4387368
  0
LINE
  8
1
  6
CONTINUOUS
 62
3
 10
3.7979543
 20
4.6841004
 11
3.7979543
 21
2.4387368
  0
LINE
  8
1
  6
CONTINUOUS
 62
3
 10
2.2547954E+001
 20
2.5012368
 11
2.2297954E+001
 21
2.5429035
  0
LINE
  8
1
  6
CONTINUOUS
 62
3
 10
2.2547954E+001
 20
2.5012368
 11
2.2297954E+001
 21
2.4595701
  0
LINE
  8
1
  6
CONTINUOUS
 62
3
 10
2.2297954E+001
 20
2.5429035
 11
2.2297954E+001
 21
2.4595701
  0
LINE
  8
1
  6
CONTINUOUS
 62
3
 10
3.7979543
 20
2.5012368
 11
4.0479543
 21
2.5429035
  0
LINE
  8
1
  6
CONTINUOUS
 62
3
 10
3.7979543
 20
2.5012368
 11
4.0479543
 21
2.4595701
  0
LINE
  8
1
  6
CONTINUOUS
 62
3
 10
4.0479543
 20
2.5429035
 11
4.0479543
 21
2.4595701
  0
LINE
  8
1
  6
CONTINUOUS
 62
3
 10
2.2547954E+001
 20
2.5012368
 11
1.5347954E+001
 21
2.5012368
  0
LINE
  8
1
  6
CONTINUOUS
 62
3
 10
3.7979543
 20
2.5012368
 11
1.0997954E+001
 21
2.5012368
  0
TEXT
  8
1
  6
CONTINUOUS
 62
3
 10
1.1247954E+001
 20
1.9012368
 40
2.0E-001
  1
[476.25 mm]
  0
TEXT
  8
1
  6
CONTINUOUS
 62
3
 10
1.3247954E+001
 20
2.0512368
 40
2.0E-001
  1
+.81 mm
  0
TEXT
  8
1
  6
CONTINUOUS
 62
3
 10
1.3247954E+001
 20
1.7512368
 40
2.0E-001
  1
-1.57 mm
  0
TEXT
  8
1
  6
CONTINUOUS
 62
3
 10
1.1947954E+001
 20
2.9012368
 40
2.0E-001
  1
18.750
 41
1.0
  0
TEXT
  8
1
  6
CONTINUOUS
 62
3
 10
1.3197954E+001
 20
3.0512368
 40
2.0E-001
  1
+0.032
 41
1.0
  0
TEXT
  8
1
  6
CONTINUOUS
 62
3
 10
1.3197954E+001
 20
2.7512368
 40
2.0E-001
  1
-0.062
 41
1.0
  0
ENDBLK
  0
BLOCK
  2
*D68
  3
*D
 10
0.0
 20
0.0
 70
65
  0
LINE
  8
1
  6
CONTINUOUS
 62
3
 10
8.6764453
 20
1.4236328E+001
 11
6.8941205
 21
1.5643665E+001
  0
LINE
  8
1
  6
CONTINUOUS
 62
3
 10
8.6764453
 20
1.4236328E+001
 11
8.5912519
 21
1.4330142E+001
  0
LINE
  8
1
  6
CONTINUOUS
 62
3
 10
8.6764453
 20
1.4236328E+001
 11
8.5654307
 21
1.4297441E+001
  0
LINE
  8
1
  6
CONTINUOUS
 62
3
 10
8.5912519
 20
1.4330142E+001
 11
8.5654307
 21
1.4297441E+001
  0
LINE
  8
1
  6
CONTINUOUS
 62
3
 10
6.7691205
 20
1.5643665E+001
 11
6.8941205
 21
1.5643665E+001
  0
TEXT
  8
1
  6
CONTINUOUS
 62
3
 10
5.6566205
 20
1.5556165E+001
 40
1.75E-001
  1
EMBOSS
 41
1.0
  0
ENDBLK
  0
BLOCK
  2
*D80
  3
*D
 10
0.0
 20
0.0
 70
65
  0
LINE
  8
1
  6
CONTINUOUS
 62
3
 10
3.9163245
 20
1.9939056E+001
 11
3.3378411
 21
2.0456336E+001
  0
LINE
  8
1
  6
CONTINUOUS
 62
3
 10
3.9163245
 20
1.9939056E+001
 11
3.8211727
 21
2.0057678E+001
  0
LINE
  8
1
  6
CONTINUOUS
 62
3
 10
3.9163245
 20
1.9939056E+001
 11
3.7878441
 21
2.0020406E+001
  0
LINE
  8
1
  6
CONTINUOUS
 62
3
 10
3.8211727
 20
2.0057678E+001
 11
3.7878441
 21
2.0020406E+001
  0
LINE
  8
1
  6
CONTINUOUS
 62
3
 10
3.1878411
 20
2.0456336E+001
 11
3.3378411
 21
2.0456336E+001
  0
TEXT
  8
1
  6
CONTINUOUS
 62
3
 10
2.1128411
 20
2.0356336E+001
 40
2.0E-001
  1
R.465
  0
ENDBLK
  0
BLOCK
  2
*D162
  3
*D
 10
0.0
 20
0.0
 70
65
  0
LINE
  8
1
  6
CONTINUOUS
 62
3
 10
9.2981377
 20
1.1979395E+001
 11
9.2981377
 21
1.0308388E+001
  0
LINE
  8
1
  6
CONTINUOUS
 62
3
 10
1.6766031E+001
 20
1.1979395E+001
 11
1.6766031E+001
 21
1.0308388E+001
  0
LINE
  8
1
  6
CONTINUOUS
 62
3
 10
9.2981377
 20
1.0370888E+001
 11
9.5481377
 21
1.0329222E+001
  0
LINE
  8
1
  6
CONTINUOUS
 62
3
 10
9.2981377
 20
1.0370888E+001
 11
9.5481377
 21
1.0412555E+001
  0
LINE
  8
1
  6
CONTINUOUS
 62
3
 10
9.5481377
 20
1.0329222E+001
 11
9.5481377
 21
1.0412555E+001
  0
LINE
  8
1
  6
CONTINUOUS
 62
3
 10
1.6766031E+001
 20
1.0370888E+001
 11
1.6516031E+001
 21
1.0329222E+001
  0
LINE
  8
1
  6
CONTINUOUS
 62
3
 10
1.6766031E+001
 20
1.0370888E+001
 11
1.6516031E+001
 21
1.0412555E+001
  0
LINE
  8
1
  6
CONTINUOUS
 62
3
 10
1.6516031E+001
 20
1.0329222E+001
 11
1.6516031E+001
 21
1.0412555E+001
  0
LINE
  8
1
  6
CONTINUOUS
 62
3
 10
9.2981377
 20
1.0370888E+001
 11
1.0857084E+001
 21
1.0370888E+001
  0
LINE
  8
1
  6
CONTINUOUS
 62
3
 10
1.6766031E+001
 20
1.0370888E+001
 11
1.5207084E+001
 21
1.0370888E+001
  0
TEXT
  8
1
  6
CONTINUOUS
 62
3
 10
1.1107084E+001
 20
9.7708883
 40
2.0E-001
  1
[152.40 mm]
  0
TEXT
  8
1
  6
CONTINUOUS
 62
3
 10
1.3107084E+001
 20
9.9208883
 40
2.0E-001
  1
+.81 mm
  0
TEXT
  8
1
  6
CONTINUOUS
 62
3
 10
1.3107084E+001
 20
9.6208883
 40
2.0E-001
  1
-1.57 mm
  0
TEXT
  8
1
  6
CONTINUOUS
 62
3
 10
1.1907084E+001
 20
1.0770888E+001
 40
2.0E-001
  1
6.000
  0
TEXT
  8
1
  6
CONTINUOUS
 62
3
 10
1.2957084E+001
 20
1.0920888E+001
 40
2.0E-001
  1
+0.032
 41
1.0
  0
TEXT
  8
1
  6
CONTINUOUS
 62
3
 10
1.2957084E+001
 20
1.0620888E+001
 40
2.0E-001
  1
-0.062
 41
1.0
  0
ENDBLK
  0
BLOCK
  2
*D164
  3
*D
 10
0.0
 20
0.0
 70
65
  0
LINE
  8
1
  6
CONTINUOUS
 62
3
 10
1.6862686E+001
 20
1.310833E+001
 11
1.7751258E+001
 21
1.310833E+001
  0
LINE
  8
1
  6
CONTINUOUS
 62
3
 10
1.6862686E+001
 20
1.2108326E+001
 11
1.7751258E+001
 21
1.2108326E+001
  0
LINE
  8
1
  6
CONTINUOUS
 62
3
 10
1.7689258E+001
 20
1.310833E+001
 11
1.7730924E+001
 21
1.335833E+001
  0
LINE
  8
1
  6
CONTINUOUS
 62
3
 10
1.7689258E+001
 20
1.310833E+001
 11
1.7647591E+001
 21
1.335833E+001
  0
LINE
  8
1
  6
CONTINUOUS
 62
3
 10
1.7730924E+001
 20
1.335833E+001
 11
1.7647591E+001
 21
1.335833E+001
  0
LINE
  8
1
  6
CONTINUOUS
 62
3
 10
1.7689258E+001
 20
1.2108326E+001
 11
1.7730924E+001
 21
1.1858326E+001
  0
LINE
  8
1
  6
CONTINUOUS
 62
3
 10
1.7689258E+001
 20
1.2108326E+001
 11
1.7647591E+001
 21
1.1858326E+001
  0
LINE
  8
1
  6
CONTINUOUS
 62
3
 10
1.7730924E+001
 20
1.1858326E+001
 11
1.7647591E+001
 21
1.1858326E+001
  0
LINE
  8
1
  6
CONTINUOUS
 62
3
 10
1.7689258E+001
 20
1.310833E+001
 11
1.7689258E+001
 21
1.521939E+001
  0
LINE
  8
1
  6
CONTINUOUS
 62
3
 10
1.7689258E+001
 20
1.1608326E+001
 11
1.7689258E+001
 21
1.2108326E+001
  0
LINE
  8
1
  6
CONTINUOUS
 62
3
 10
1.7689258E+001
 20
1.521939E+001
 11
1.8189258E+001
 21
1.521939E+001
  0
TEXT
  8
1
  6
CONTINUOUS
 62
3
 10
1.8439258E+001
 20
1.461939E+001
 40
2.0E-001
  1
[25.40 mm]
  0
TEXT
  8
1
  6
CONTINUOUS
 62
3
 10
2.0239258E+001
 20
1.476939E+001
 40
2.0E-001
  1
+.81 mm
  0
TEXT
  8
1
  6
CONTINUOUS
 62
3
 10
2.0239258E+001
 20
1.446939E+001
 40
2.0E-001
  1
-1.57 mm
  0
TEXT
  8
1
  6
CONTINUOUS
 62
3
 10
1.9139258E+001
 20
1.561939E+001
 40
2.0E-001
  1
1.000
  0
TEXT
  8
1
  6
CONTINUOUS
 62
3
 10
2.0189258E+001
 20
1.576939E+001
 40
2.0E-001
  1
+0.032
 41
1.0
  0
TEXT
  8
1
  6
CONTINUOUS
 62
3
 10
2.0189258E+001
 20
1.546939E+001
 40
2.0E-001
  1
-0.062
 41
1.0
  0
ENDBLK
  0
ENDSEC
  0
SECTION
  2
ENTITIES
  0
TEXT
  8
126
  6
CONTINUOUS
 62
3
 10
3.2341042E+001
 20
1.0060475
 40
1.0E-001
  1
20APR07
  0
LINE
  8
1
  6
CONTINUOUS
 62
6
 10
3.3499699E+001
 20
2.1549685E+001
 11
3.3499699E+001
 21
1.826134E-001
  0
LINE
  8
1
  6
CONTINUOUS
 62
6
 10
4.9969864E-001
 20
1.826134E-001
 11
3.3499699E+001
 21
1.826134E-001
  0
TEXT
  8
126
  6
CONTINUOUS
 62
3
 10
3.1129438E+001
 20
1.1601834
 40
1.0E-001
  1
JAS
 41
1.0
  0
INSERT
  2
*TX56
  8
1
 10
1.3113823E+001
 20
1.3689552E+001
  0
INSERT
  2
*D49
  8
1
 10
0.0
 20
0.0
  0
TEXT
  8
1
  6
CONTINUOUS
 62
3
 10
1.5342083
 20
2.0003691E+001
 40
2.0E-001
  1
4 PLACES
  0
INSERT
  2
*TX58
  8
126
 10
2.7738922E+001
 20
1.3096834
  0
INSERT
  2
*TX57
  8
126
 10
2.9575455E+001
 20
6.634602E-001
  0
LINE
  8
1
  6
CONTINUOUS
 62
6
 10
4.9969864E-001
 20
2.1549685E+001
 11
3.3499699E+001
 21
2.1549685E+001
  0
DIMENSION
  8
1
  6
CONTINUOUS
 62
3
  2
*D63
  3
DSTYLE2
 10
2.5817851E+001
 20
4.3441004
 11
2.5817851E+001
 21
1.22191E+001
 70
128
 13
2.2082954E+001
 23
2.00941E+001
 14
2.2082954E+001
 24
4.3441004
 40
1.25E-001
 50
9.0E+001
  0
DIMENSION
  8
1
  6
CONTINUOUS
 62
3
  2
*D64
  3
DSTYLE2
 10
3.7979543
 20
2.5012368
 11
1.3172954E+001
 21
2.5012368
 70
128
 13
2.2547954E+001
 23
4.8091004
 14
3.7979543
 24
4.8091004
 40
1.25E-001
 50
0.0
  0
INSERT
  2
*D68
  8
1
 10
0.0
 20
0.0
  0
LINE
  8
1
  6
CONTINUOUS
 62
1
 10
4.2629543
 20
4.3441004
 11
2.2082954E+001
 21
4.3441004
  0
ARC
  8
1
  6
CONTINUOUS
 62
1
 10
2.2082954E+001
 20
4.8091004
 40
4.65E-001
 50
2.7E+002
 51
3.6E+002
  0
LINE
  8
1
  6
CONTINUOUS
 62
1
 10
2.2547954E+001
 20
1.96291E+001
 11
2.2547954E+001
 21
4.8091004
  0
ARC
  8
1
  6
CONTINUOUS
 62
1
 10
2.2082954E+001
 20
1.96291E+001
 40
4.65E-001
 50
0.0
 51
9.0E+001
  0
LINE
  8
1
  6
CONTINUOUS
 62
1
 10
4.2629543
 20
2.00941E+001
 11
2.2082954E+001
 21
2.00941E+001
  0
LINE
  8
1
  6
CONTINUOUS
 62
6
 10
4.9969864E-001
 20
2.1549685E+001
 11
4.9969864E-001
 21
1.826134E-001
  0
ARC
  8
1
  6
CONTINUOUS
 62
1
 10
4.2629543
 20
1.96291E+001
 40
4.65E-001
 50
9.0E+001
 51
1.8E+002
  0
LINE
  8
1
  6
CONTINUOUS
 62
1
 10
3.7979543
 20
1.96291E+001
 11
3.7979543
 21
4.8091004
  0
ARC
  8
1
  6
CONTINUOUS
 62
1
 10
4.2629543
 20
4.8091004
 40
4.65E-001
 50
1.8E+002
 51
2.7E+002
  0
DIMENSION
  8
1
  6
CONTINUOUS
 62
3
  2
*D80
  3
DSTYLE4
 10
4.2629543
 20
1.96291E+001
 11
2.6128411
 21
2.0456336E+001
 70
4
 15
3.9163245
 25
1.9939056E+001
 40
7.7602888E-001
  0
INSERT
  2
*TX47
  8
126
 10
2.7015009E+001
 20
1.9168855E+001
  0
TEXT
  8
1
  6
CONTINUOUS
 62
1
 10
1.6854809E+001
 20
1.4302304E+001
 40
2.5E-001
  1
 
 72
1
 73
2
 11
1.6729809E+001
 21
1.4177304E+001
  0
DIMENSION
  8
1
  6
CONTINUOUS
 62
3
  1

  2
*D162
  3
DSTYLE2
 10
1.6766031E+001
 20
1.0370888E+001
 11
1.3032084E+001
 21
1.0370888E+001
 70
128
 13
9.2981377
 23
1.2104395E+001
 14
1.6766031E+001
 24
1.2104395E+001
 40
1.25E-001
 50
0.0
  0
DIMENSION
  8
1
  6
CONTINUOUS
 62
3
  2
*D164
  3
DSTYLE5
 10
1.7689258E+001
 20
1.2108326E+001
 11
2.0264258E+001
 21
1.521939E+001
 70
128
 13
1.6737686E+001
 23
1.310833E+001
 14
1.6737686E+001
 24
1.2108326E+001
 40
5.0E-001
 50
9.0E+001
  0
TEXT
  8
180
  6
CONTINUOUS
 62
1
 10
3.1085071E+001
 20
2.0259256
 40
1.25E-001
  1
MANUFACTURING COMPANY
 41
9.0E-001
  0
TEXT
  8
126
  6
CONTINUOUS
 62
3
 10
3.2214692E+001
 20
1.9459838
 40
7.5E-002
  1
BROADVIEW, ILLINOIS
 72
1
 73
2
 11
3.1502192E+001
 21
1.9084838
  0
LINE
  8
126
  6
CONTINUOUS
 62
3
 10
2.989585E+001
 20
2.0276185
 11
3.0085481E+001
 21
2.0276185
  0
LINE
  8
126
  6
CONTINUOUS
 62
3
 10
2.9569424E+001
 20
2.1886729
 11
2.9831732E+001
 21
2.1886729
  0
LINE
  8
126
  6
CONTINUOUS
 62
3
 10
2.9536199E+001
 20
2.0002435
 11
2.9811199E+001
 21
2.0002435
  0
LINE
  8
126
  6
CONTINUOUS
 62
3
 10
2.9536199E+001
 20
2.0002435
 11
2.9569424E+001
 21
2.1886729
  0
LINE
  8
126
  6
CONTINUOUS
 62
3
 10
2.9616739E+001
 20
2.1612979
 11
2.9826905E+001
 21
2.1612979
  0
LINE
  8
126
  6
CONTINUOUS
 62
3
 10
2.9838856E+001
 20
2.0002435
 11
2.9872081E+001
 21
2.1886729
  0
LINE
  8
126
  6
CONTINUOUS
 62
3
 10
2.9872081E+001
 20
2.1886729
 11
2.9924248E+001
 21
2.1886729
  0
LINE
  8
126
  6
CONTINUOUS
 62
3
 10
2.9838856E+001
 20
2.0002435
 11
3.0080654E+001
 21
2.0002435
  0
LINE
  8
126
  6
CONTINUOUS
 62
3
 10
2.989585E+001
 20
2.0276185
 11
2.9924248E+001
 21
2.1886729
  0
LINE
  8
126
  6
CONTINUOUS
 62
3
 10
2.9607377E+001
 20
2.1082082
 11
2.9616739E+001
 21
2.1612979
  0
LINE
  8
126
  6
CONTINUOUS
 62
3
 10
2.9826905E+001
 20
2.1612979
 11
2.9831732E+001
 21
2.1886729
  0
LINE
  8
126
  6
CONTINUOUS
 62
3
 10
2.9800002E+001
 20
2.0807082
 11
2.9804851E+001
 21
2.1082082
  0
LINE
  8
126
  6
CONTINUOUS
 62
3
 10
3.103378E+001
 20
2.1886729
 11
3.0879504E+001
 21
2.0734935
  0
LINE
  8
126
  6
CONTINUOUS
 62
3
 10
3.103378E+001
 20
2.1886729
 11
3.0972559E+001
 21
2.1886729
  0
LINE
  8
126
  6
CONTINUOUS
 62
3
 10
3.0972559E+001
 20
2.1886729
 11
3.0859208E+001
 21
2.104047
  0
LINE
  8
126
  6
CONTINUOUS
 62
3
 10
2.9811199E+001
 20
2.0002435
 11
2.9816026E+001
 21
2.0276185
  0
LINE
  8
126
  6
CONTINUOUS
 62
3
 10
2.9596748E+001
 20
2.0276185
 11
2.9606109E+001
 21
2.0807082
  0
LINE
  8
126
  6
CONTINUOUS
 62
3
 10
2.9804851E+001
 20
2.1082082
 11
2.9607377E+001
 21
2.1082082
  0
LINE
  8
126
  6
CONTINUOUS
 62
3
 10
2.9606109E+001
 20
2.0807082
 11
2.9800002E+001
 21
2.0807082
  0
LINE
  8
126
  6
CONTINUOUS
 62
3
 10
3.0434354E+001
 20
2.1886729
 11
3.029123E+001
 21
2.1074812
  0
LINE
  8
126
  6
CONTINUOUS
 62
3
 10
2.9596748E+001
 20
2.0276185
 11
2.9816026E+001
 21
2.0276185
  0
LINE
  8
126
  6
CONTINUOUS
 62
3
 10
3.0080654E+001
 20
2.0002435
 11
3.0085481E+001
 21
2.0276185
  0
LINE
  8
126
  6
CONTINUOUS
 62
3
 10
3.0360127E+001
 20
2.1886729
 11
3.0434354E+001
 21
2.1886729
  0
LINE
  8
126
  6
CONTINUOUS
 62
3
 10
3.0326733E+001
 20
2.0002435
 11
3.0407954E+001
 21
2.0002435
  0
LINE
  8
126
  6
CONTINUOUS
 62
3
 10
3.0166755E+001
 20
2.0368685
 11
3.0160297E+001
 21
2.0002435
  0
LINE
  8
126
  6
CONTINUOUS
 62
3
 10
3.0193522E+001
 20
2.1886729
 11
3.0175004E+001
 21
2.0836563
  0
LINE
  8
126
  6
CONTINUOUS
 62
3
 10
3.0581992E+001
 20
2.1886729
 11
3.0673492E+001
 21
2.1886729
  0
LINE
  8
126
  6
CONTINUOUS
 62
3
 10
3.0704098E+001
 20
2.0002435
 11
3.0765117E+001
 21
2.0002435
  0
LINE
  8
126
  6
CONTINUOUS
 62
3
 10
3.0241015E+001
 20
2.0789951
 11
3.0166755E+001
 21
2.0368685
  0
LINE
  8
126
  6
CONTINUOUS
 62
3
 10
3.0360127E+001
 20
2.1886729
 11
3.0175004E+001
 21
2.0836563
  0
LINE
  8
126
  6
CONTINUOUS
 62
3
 10
3.0193522E+001
 20
2.1886729
 11
3.0141354E+001
 21
2.1886729
  0
LINE
  8
126
  6
CONTINUOUS
 62
3
 10
3.0108129E+001
 20
2.0002435
 11
3.0141354E+001
 21
2.1886729
  0
LINE
  8
126
  6
CONTINUOUS
 62
3
 10
3.0407954E+001
 20
2.0002435
 11
3.029123E+001
 21
2.1074812
  0
LINE
  8
126
  6
CONTINUOUS
 62
3
 10
3.0326733E+001
 20
2.0002435
 11
3.0241015E+001
 21
2.0789951
  0
LINE
  8
126
  6
CONTINUOUS
 62
3
 10
3.0160297E+001
 20
2.0002435
 11
3.0108129E+001
 21
2.0002435
  0
LINE
  8
126
  6
CONTINUOUS
 62
3
 10
3.0417117E+001
 20
2.0002435
 11
3.0465783E+001
 21
2.0002435
  0
LINE
  8
126
  6
CONTINUOUS
 62
3
 10
3.0520908E+001
 20
2.0632435
 11
3.0618969E+001
 21
2.1753141
  0
LINE
  8
126
  6
CONTINUOUS
 62
3
 10
3.0673464E+001
 20
2.0632435
 11
3.0618969E+001
 21
2.1753141
  0
LINE
  8
126
  6
CONTINUOUS
 62
3
 10
3.0417117E+001
 20
2.0002435
 11
3.0581992E+001
 21
2.1886729
  0
LINE
  8
126
  6
CONTINUOUS
 62
3
 10
3.049783E+001
 20
2.0368685
 11
3.0686289E+001
 21
2.0368685
  0
LINE
  8
126
  6
CONTINUOUS
 62
3
 10
3.0765117E+001
 20
2.0002435
 11
3.0673492E+001
 21
2.1886729
  0
LINE
  8
126
  6
CONTINUOUS
 62
3
 10
3.0520908E+001
 20
2.0632435
 11
3.0673464E+001
 21
2.0632435
  0
LINE
  8
126
  6
CONTINUOUS
 62
3
 10
3.0465783E+001
 20
2.0002435
 11
3.049783E+001
 21
2.0368685
  0
LINE
  8
126
  6
CONTINUOUS
 62
3
 10
3.0704098E+001
 20
2.0002435
 11
3.0686289E+001
 21
2.0368685
  0
LINE
  8
126
  6
CONTINUOUS
 62
3
 10
3.0972559E+001
 20
2.1886729
 11
3.103378E+001
 21
2.1886729
  0
LINE
  8
126
  6
CONTINUOUS
 62
3
 10
3.0810867E+001
 20
2.0002435
 11
3.0866588E+001
 21
2.0002435
  0
LINE
  8
126
  6
CONTINUOUS
 62
3
 10
3.0810867E+001
 20
2.0002435
 11
3.0822002E+001
 21
2.0633943
  0
LINE
  8
126
  6
CONTINUOUS
 62
3
 10
3.0866588E+001
 20
2.0002435
 11
3.0879504E+001
 21
2.0734935
  0
LINE
  8
126
  6
CONTINUOUS
 62
3
 10
3.0779526E+001
 20
2.1886729
 11
3.0859208E+001
 21
2.104047
  0
LINE
  8
126
  6
CONTINUOUS
 62
3
 10
3.0822002E+001
 20
2.0633943
 11
3.0704043E+001
 21
2.1886729
  0
LINE
  8
126
  6
CONTINUOUS
 62
3
 10
3.0704043E+001
 20
2.1886729
 11
3.0779526E+001
 21
2.1886729
  0
LINE
  8
126
  6
CONTINUOUS
 62
3
 10
3.1022732E+001
 20
2.1886729
 11
3.1027454E+001
 21
2.1839501
  0
LINE
  8
126
  6
CONTINUOUS
 62
3
 10
3.1011683E+001
 20
2.1886729
 11
3.1021129E+001
 21
2.1792274
  0
LINE
  8
126
  6
CONTINUOUS
 62
3
 10
3.1000635E+001
 20
2.1886729
 11
3.1014803E+001
 21
2.1745047
  0
LINE
  8
126
  6
CONTINUOUS
 62
3
 10
3.0989586E+001
 20
2.1886729
 11
3.1008477E+001
 21
2.169782
  0
LINE
  8
126
  6
CONTINUOUS
 62
3
 10
3.0978538E+001
 20
2.1886729
 11
3.1002151E+001
 21
2.1650592
  0
LINE
  8
126
  6
CONTINUOUS
 62
3
 10
3.0969656E+001
 20
2.1865055
 11
3.0995825E+001
 21
2.1603365
  0
LINE
  8
126
  6
CONTINUOUS
 62
3
 10
3.0963331E+001
 20
2.1817828
 11
3.09895E+001
 21
2.1556138
  0
LINE
  8
126
  6
CONTINUOUS
 62
3
 10
3.0957005E+001
 20
2.17706
 11
3.0983174E+001
 21
2.1508911
  0
LINE
  8
126
  6
CONTINUOUS
 62
3
 10
3.0950679E+001
 20
2.1723373
 11
3.0976848E+001
 21
2.1461683
  0
LINE
  8
126
  6
CONTINUOUS
 62
3
 10
3.0944353E+001
 20
2.1676146
 11
3.0970522E+001
 21
2.1414456
  0
LINE
  8
126
  6
CONTINUOUS
 62
3
 10
3.0938027E+001
 20
2.1628918
 11
3.0964196E+001
 21
2.1367229
  0
LINE
  8
126
  6
CONTINUOUS
 62
3
 10
3.0931702E+001
 20
2.1581691
 11
3.095787E+001
 21
2.1320002
  0
LINE
  8
126
  6
CONTINUOUS
 62
3
 10
3.0925376E+001
 20
2.1534464
 11
3.0951545E+001
 21
2.1272774
  0
LINE
  8
126
  6
CONTINUOUS
 62
3
 10
3.091905E+001
 20
2.1487237
 11
3.0945219E+001
 21
2.1225547
  0
LINE
  8
126
  6
CONTINUOUS
 62
3
 10
3.0912724E+001
 20
2.1440009
 11
3.0938893E+001
 21
2.117832
  0
LINE
  8
126
  6
CONTINUOUS
 62
3
 10
3.0906398E+001
 20
2.1392782
 11
3.0932567E+001
 21
2.1131092
  0
LINE
  8
126
  6
CONTINUOUS
 62
3
 10
3.0900072E+001
 20
2.1345555
 11
3.0926241E+001
 21
2.1083865
  0
LINE
  8
126
  6
CONTINUOUS
 62
3
 10
3.0893747E+001
 20
2.1298328
 11
3.0919916E+001
 21
2.1036638
  0
LINE
  8
126
  6
CONTINUOUS
 62
3
 10
3.0887421E+001
 20
2.12511
 11
3.091359E+001
 21
2.0989411
  0
LINE
  8
126
  6
CONTINUOUS
 62
3
 10
3.0881095E+001
 20
2.1203873
 11
3.0907264E+001
 21
2.0942183
  0
LINE
  8
126
  6
CONTINUOUS
 62
3
 10
3.0874769E+001
 20
2.1156646
 11
3.0900938E+001
 21
2.0894956
  0
LINE
  8
126
  6
CONTINUOUS
 62
3
 10
3.0868443E+001
 20
2.1109419
 11
3.0894612E+001
 21
2.0847729
  0
LINE
  8
126
  6
CONTINUOUS
 62
3
 10
3.0862118E+001
 20
2.1062191
 11
3.0888286E+001
 21
2.0800501
  0
LINE
  8
126
  6
CONTINUOUS
 62
3
 10
3.0768615E+001
 20
2.1886729
 11
3.0881961E+001
 21
2.0753274
  0
LINE
  8
126
  6
CONTINUOUS
 62
3
 10
3.0757567E+001
 20
2.1886729
 11
3.0878491E+001
 21
2.0677483
  0
LINE
  8
126
  6
CONTINUOUS
 62
3
 10
3.0746518E+001
 20
2.1886729
 11
3.0876835E+001
 21
2.0583559
  0
LINE
  8
126
  6
CONTINUOUS
 62
3
 10
3.073547E+001
 20
2.1886729
 11
3.0875179E+001
 21
2.0489635
  0
LINE
  8
126
  6
CONTINUOUS
 62
3
 10
3.0724421E+001
 20
2.1886729
 11
3.0873523E+001
 21
2.0395711
  0
LINE
  8
126
  6
CONTINUOUS
 62
3
 10
3.0713372E+001
 20
2.1886729
 11
3.0871867E+001
 21
2.0301787
  0
LINE
  8
126
  6
CONTINUOUS
 62
3
 10
3.0731743E+001
 20
2.1592537
 11
3.0870211E+001
 21
2.0207863
  0
LINE
  8
126
  6
CONTINUOUS
 62
3
 10
3.0821185E+001
 20
2.058763
 11
3.0868554E+001
 21
2.0113939
  0
LINE
  8
126
  6
CONTINUOUS
 62
3
 10
3.0819529E+001
 20
2.0493705
 11
3.0866898E+001
 21
2.0020015
  0
LINE
  8
126
  6
CONTINUOUS
 62
3
 10
3.0669178E+001
 20
2.1886729
 11
3.0677574E+001
 21
2.1802768
  0
LINE
  8
126
  6
CONTINUOUS
 62
3
 10
3.0817873E+001
 20
2.0399781
 11
3.0857608E+001
 21
2.0002435
  0
LINE
  8
126
  6
CONTINUOUS
 62
3
 10
3.065813E+001
 20
2.1886729
 11
3.0688032E+001
 21
2.1587708
  0
LINE
  8
126
  6
CONTINUOUS
 62
3
 10
3.0816217E+001
 20
2.0305857
 11
3.0846559E+001
 21
2.0002435
  0
LINE
  8
126
  6
CONTINUOUS
 62
3
 10
3.0647081E+001
 20
2.1886729
 11
3.0698489E+001
 21
2.1372649
  0
LINE
  8
126
  6
CONTINUOUS
 62
3
 10
3.0814561E+001
 20
2.0211933
 11
3.0835511E+001
 21
2.0002435
  0
LINE
  8
126
  6
CONTINUOUS
 62
3
 10
3.0636033E+001
 20
2.1886729
 11
3.0708947E+001
 21
2.1157589
  0
LINE
  8
126
  6
CONTINUOUS
 62
3
 10
3.0812905E+001
 20
2.0118009
 11
3.0824462E+001
 21
2.0002435
  0
LINE
  8
126
  6
CONTINUOUS
 62
3
 10
3.0624984E+001
 20
2.1886729
 11
3.0719404E+001
 21
2.094253
  0
LINE
  8
126
  6
CONTINUOUS
 62
3
 10
3.0811249E+001
 20
2.0024085
 11
3.0813414E+001
 21
2.0002435
  0
LINE
  8
126
  6
CONTINUOUS
 62
3
 10
3.0613936E+001
 20
2.1886729
 11
3.0729862E+001
 21
2.072747
  0
LINE
  8
126
  6
CONTINUOUS
 62
3
 10
3.0602887E+001
 20
2.1886729
 11
3.0617698E+001
 21
2.1738618
  0
LINE
  8
126
  6
CONTINUOUS
 62
3
 10
3.0621546E+001
 20
2.1700135
 11
3.0740319E+001
 21
2.051241
  0
LINE
  8
126
  6
CONTINUOUS
 62
3
 10
3.0591839E+001
 20
2.1886729
 11
3.0612542E+001
 21
2.1679692
  0
TEXT
  8
126
  6
CONTINUOUS
 62
3
 10
2.9572699E+001
 20
1.1631446
 40
9.375E-002
  1
DR.BY
 41
9.0E-001
  0
TEXT
  8
126
  6
CONTINUOUS
 62
3
 10
2.5564961E+001
 20
1.5902791
 40
8.0E-002
  1
MATERIAL
  0
TEXT
  8
126
  6
CONTINUOUS
 62
3
 10
2.5548566E+001
 20
2.1066497
 40
8.0E-002
  1
FINISH
  0
TEXT
  8
126
  6
CONTINUOUS
 62
3
 10
3.0567589E+001
 20
1.1615472
 40
9.375E-002
  1
CH.BY
 41
9.0E-001
  0
TEXT
  8
126
  6
CONTINUOUS
 62
3
 10
2.9575455E+001
 20
9.591703E-001
 40
9.375E-002
  1
SCALE
 41
1.04
  0
TEXT
  8
1
  6
CONTINUOUS
 62
1
 10
3.1578741E+001
 20
5.75509E-001
 40
1.875E-001
  1
REV-A
 41
9.75E-001
  0
TEXT
  8
126
  6
CONTINUOUS
 62
3
 10
3.1570009E+001
 20
1.1442235
 40
9.375E-002
  1
DATE
 41
1.025
  0
LINE
  8
180
  6
CONTINUOUS
 62
6
 10
2.5499696E+001
 20
1.826134E-001
 11
2.5499696E+001
 21
2.2451137
  0
LINE
  8
180
  6
CONTINUOUS
 62
6
 10
2.5499696E+001
 20
2.2451137
 11
3.3499699E+001
 21
2.2451137
  0
LINE
  8
180
  6
CONTINUOUS
 62
6
 10
2.9499697E+001
 20
2.2451137
 11
2.9499697E+001
 21
1.826134E-001
  0
LINE
  8
180
  6
CONTINUOUS
 62
6
 10
2.9499697E+001
 20
4.951134E-001
 11
3.3499699E+001
 21
4.951134E-001
  0
LINE
  8
180
  6
CONTINUOUS
 62
6
 10
3.3499699E+001
 20
8.076135E-001
 11
2.9499697E+001
 21
8.076135E-001
  0
LINE
  8
180
  6
CONTINUOUS
 62
6
 10
2.9499697E+001
 20
1.3076135
 11
3.3499699E+001
 21
1.3076135
  0
LINE
  8
180
  6
CONTINUOUS
 62
6
 10
2.9499697E+001
 20
2.2451137
 11
2.9499697E+001
 21
1.8076135
  0
LINE
  8
180
  6
CONTINUOUS
 62
6
 10
2.9499697E+001
 20
1.8076135
 11
3.3499699E+001
 21
1.8076135
  0
LINE
  8
180
  6
CONTINUOUS
 62
6
 10
3.1499697E+001
 20
1.3076135
 11
3.1499697E+001
 21
4.951134E-001
  0
LINE
  8
180
  6
CONTINUOUS
 62
6
 10
2.9499697E+001
 20
1.1201135
 11
3.1499697E+001
 21
1.1201135
  0
LINE
  8
180
  6
CONTINUOUS
 62
6
 10
3.0499697E+001
 20
1.1201135
 11
3.0499697E+001
 21
1.3076135
  0
LINE
  8
180
  6
CONTINUOUS
 62
6
 10
2.9499697E+001
 20
1.7451135
 11
2.5499696E+001
 21
1.7451135
  0
LINE
  8
180
  6
CONTINUOUS
 62
6
 10
2.9499697E+001
 20
8.076135E-001
 11
2.5499696E+001
 21
8.076135E-001
  0
LINE
  8
126
  6
CONTINUOUS
 62
3
 10
3.0632004E+001
 20
2.1485075
 11
3.0750776E+001
 21
2.0297351
  0
LINE
  8
126
  6
CONTINUOUS
 62
3
 10
3.0581431E+001
 20
2.1880319
 11
3.0607386E+001
 21
2.1620766
  0
LINE
  8
126
  6
CONTINUOUS
 62
3
 10
3.0642461E+001
 20
2.1270016
 11
3.0761234E+001
 21
2.0082291
  0
LINE
  8
126
  6
CONTINUOUS
 62
3
 10
3.0576275E+001
 20
2.1821393
 11
3.060223E+001
 21
2.1561841
  0
LINE
  8
126
  6
CONTINUOUS
 62
3
 10
3.0652919E+001
 20
2.1054956
 11
3.0758171E+001
 21
2.0002435
  0
LINE
  8
126
  6
CONTINUOUS
 62
3
 10
3.0571119E+001
 20
2.1762468
 11
3.0597074E+001
 21
2.1502915
  0
LINE
  8
126
  6
CONTINUOUS
 62
3
 10
3.0663376E+001
 20
2.0839897
 11
3.0747122E+001
 21
2.0002435
  0
LINE
  8
126
  6
CONTINUOUS
 62
3
 10
3.0565963E+001
 20
2.1703542
 11
3.0591918E+001
 21
2.1443989
  0
LINE
  8
126
  6
CONTINUOUS
 62
3
 10
3.0673074E+001
 20
2.0632435
 11
3.0736074E+001
 21
2.0002435
  0
LINE
  8
126
  6
CONTINUOUS
 62
3
 10
3.0560807E+001
 20
2.1644616
 11
3.0586762E+001
 21
2.1385064
  0
LINE
  8
126
  6
CONTINUOUS
 62
3
 10
3.0662025E+001
 20
2.0632435
 11
3.0725025E+001
 21
2.0002435
  0
LINE
  8
126
  6
CONTINUOUS
 62
3
 10
3.0555651E+001
 20
2.1585691
 11
3.0581606E+001
 21
2.1326138
  0
LINE
  8
126
  6
CONTINUOUS
 62
3
 10
3.0650977E+001
 20
2.0632435
 11
3.0677352E+001
 21
2.0368685
  0
LINE
  8
126
  6
CONTINUOUS
 62
3
 10
3.0694748E+001
 20
2.0194718
 11
3.0713977E+001
 21
2.0002435
  0
LINE
  8
126
  6
CONTINUOUS
 62
3
 10
3.0550495E+001
 20
2.1526765
 11
3.057645E+001
 21
2.1267212
  0
LINE
  8
126
  6
CONTINUOUS
 62
3
 10
3.0639928E+001
 20
2.0632435
 11
3.0666303E+001
 21
2.0368685
  0
LINE
  8
126
  6
CONTINUOUS
 62
3
 10
3.0545339E+001
 20
2.1467839
 11
3.0571294E+001
 21
2.1208287
  0
LINE
  8
126
  6
CONTINUOUS
 62
3
 10
3.062888E+001
 20
2.0632435
 11
3.0655255E+001
 21
2.0368685
  0
LINE
  8
126
  6
CONTINUOUS
 62
3
 10
3.0540183E+001
 20
2.1408914
 11
3.0566138E+001
 21
2.1149361
  0
LINE
  8
126
  6
CONTINUOUS
 62
3
 10
3.0617831E+001
 20
2.0632435
 11
3.0644206E+001
 21
2.0368685
  0
LINE
  8
126
  6
CONTINUOUS
 62
3
 10
3.0535027E+001
 20
2.1349988
 11
3.0560982E+001
 21
2.1090435
  0
LINE
  8
126
  6
CONTINUOUS
 62
3
 10
3.0606782E+001
 20
2.0632435
 11
3.0633157E+001
 21
2.0368685
  0
LINE
  8
126
  6
CONTINUOUS
 62
3
 10
3.0529871E+001
 20
2.1291062
 11
3.0555826E+001
 21
2.103151
  0
LINE
  8
126
  6
CONTINUOUS
 62
3
 10
3.0595734E+001
 20
2.0632435
 11
3.0622109E+001
 21
2.0368685
  0
LINE
  8
126
  6
CONTINUOUS
 62
3
 10
3.0524715E+001
 20
2.1232137
 11
3.055067E+001
 21
2.0972584
  0
LINE
  8
126
  6
CONTINUOUS
 62
3
 10
3.0584685E+001
 20
2.0632435
 11
3.061106E+001
 21
2.0368685
  0
LINE
  8
126
  6
CONTINUOUS
 62
3
 10
3.0519559E+001
 20
2.1173211
 11
3.0545515E+001
 21
2.0913658
  0
LINE
  8
126
  6
CONTINUOUS
 62
3
 10
3.0573637E+001
 20
2.0632435
 11
3.0600012E+001
 21
2.0368685
  0
LINE
  8
126
  6
CONTINUOUS
 62
3
 10
3.0514403E+001
 20
2.1114285
 11
3.0540359E+001
 21
2.0854733
  0
LINE
  8
126
  6
CONTINUOUS
 62
3
 10
3.0562588E+001
 20
2.0632435
 11
3.0588963E+001
 21
2.0368685
  0
LINE
  8
126
  6
CONTINUOUS
 62
3
 10
3.042611E+001
 20
2.1886729
 11
3.0429094E+001
 21
2.185689
  0
LINE
  8
126
  6
CONTINUOUS
 62
3
 10
3.0509247E+001
 20
2.105536
 11
3.0535203E+001
 21
2.0795807
  0
LINE
  8
126
  6
CONTINUOUS
 62
3
 10
3.055154E+001
 20
2.0632435
 11
3.0577915E+001
 21
2.0368685
  0
LINE
  8
126
  6
CONTINUOUS
 62
3
 10
3.0415062E+001
 20
2.1886729
 11
3.0422045E+001
 21
2.18169
  0
LINE
  8
126
  6
CONTINUOUS
 62
3
 10
3.0504091E+001
 20
2.0996434
 11
3.0530047E+001
 21
2.0736881
  0
LINE
  8
126
  6
CONTINUOUS
 62
3
 10
3.0540491E+001
 20
2.0632435
 11
3.0566866E+001
 21
2.0368685
  0
LINE
  8
126
  6
CONTINUOUS
 62
3
 10
3.0404013E+001
 20
2.1886729
 11
3.0414995E+001
 21
2.1776909
  0
LINE
  8
126
  6
CONTINUOUS
 62
3
 10
3.0498935E+001
 20
2.0937508
 11
3.0524891E+001
 21
2.0677956
  0
LINE
  8
126
  6
CONTINUOUS
 62
3
 10
3.0529443E+001
 20
2.0632435
 11
3.0555818E+001
 21
2.0368685
  0
LINE
  8
126
  6
CONTINUOUS
 62
3
 10
3.0392965E+001
 20
2.1886729
 11
3.0407946E+001
 21
2.1736919
  0
LINE
  8
126
  6
CONTINUOUS
 62
3
 10
3.0493779E+001
 20
2.0878583
 11
3.0544769E+001
 21
2.0368685
  0
LINE
  8
126
  6
CONTINUOUS
 62
3
 10
3.0381916E+001
 20
2.1886729
 11
3.0400896E+001
 21
2.1696928
  0
LINE
  8
126
  6
CONTINUOUS
 62
3
 10
3.0488623E+001
 20
2.0819657
 11
3.0533721E+001
 21
2.0368685
  0
LINE
  8
126
  6
CONTINUOUS
 62
3
 10
3.0370868E+001
 20
2.1886729
 11
3.0393847E+001
 21
2.1656938
  0
LINE
  8
126
  6
CONTINUOUS
 62
3
 10
3.0483467E+001
 20
2.0760731
 11
3.0522672E+001
 21
2.0368685
  0
LINE
  8
126
  6
CONTINUOUS
 62
3
 10
3.0359931E+001
 20
2.1885614
 11
3.0386797E+001
 21
2.1616947
  0
LINE
  8
126
  6
CONTINUOUS
 62
3
 10
3.0478311E+001
 20
2.0701806
 11
3.0511623E+001
 21
2.0368685
  0
LINE
  8
126
  6
CONTINUOUS
 62
3
 10
3.0352881E+001
 20
2.1845624
 11
3.0379748E+001
 21
2.1576957
  0
LINE
  8
126
  6
CONTINUOUS
 62
3
 10
3.0473155E+001
 20
2.064288
 11
3.0500575E+001
 21
2.0368685
  0
LINE
  8
126
  6
CONTINUOUS
 62
3
 10
3.0345832E+001
 20
2.1805634
 11
3.0372698E+001
 21
2.1536966
  0
LINE
  8
126
  6
CONTINUOUS
 62
3
 10
3.0467999E+001
 20
2.0583954
 11
3.0493955E+001
 21
2.0324401
  0
LINE
  8
126
  6
CONTINUOUS
 62
3
 10
3.0338782E+001
 20
2.1765643
 11
3.0365649E+001
 21
2.1496976
  0
LINE
  8
126
  6
CONTINUOUS
 62
3
 10
3.0462844E+001
 20
2.0525029
 11
3.0488799E+001
 21
2.0265476
  0
LINE
  8
126
  6
CONTINUOUS
 62
3
 10
3.0331733E+001
 20
2.1725653
 11
3.0358599E+001
 21
2.1456985
  0
LINE
  8
126
  6
CONTINUOUS
 62
3
 10
3.0457688E+001
 20
2.0466103
 11
3.0483643E+001
 21
2.020655
  0
LINE
  8
126
  6
CONTINUOUS
 62
3
 10
3.0324683E+001
 20
2.1685662
 11
3.035155E+001
 21
2.1416995
  0
LINE
  8
126
  6
CONTINUOUS
 62
3
 10
3.0452532E+001
 20
2.0407177
 11
3.0478487E+001
 21
2.0147624
  0
LINE
  8
126
  6
CONTINUOUS
 62
3
 10
3.0317634E+001
 20
2.1645672
 11
3.03445E+001
 21
2.1377004
  0
LINE
  8
126
  6
CONTINUOUS
 62
3
 10
3.0447376E+001
 20
2.0348252
 11
3.0473331E+001
 21
2.0088699
  0
LINE
  8
126
  6
CONTINUOUS
 62
3
 10
3.0310584E+001
 20
2.1605681
 11
3.0337451E+001
 21
2.1337014
  0
LINE
  8
126
  6
CONTINUOUS
 62
3
 10
3.044222E+001
 20
2.0289326
 11
3.0468175E+001
 21
2.0029773
  0
LINE
  8
126
  6
CONTINUOUS
 62
3
 10
3.0303535E+001
 20
2.1565691
 11
3.0330401E+001
 21
2.1297023
  0
LINE
  8
126
  6
CONTINUOUS
 62
3
 10
3.0437064E+001
 20
2.02304
 11
3.045986E+001
 21
2.0002435
  0
LINE
  8
126
  6
CONTINUOUS
 62
3
 10
3.0296485E+001
 20
2.15257
 11
3.0323352E+001
 21
2.1257033
  0
LINE
  8
126
  6
CONTINUOUS
 62
3
 10
3.0431908E+001
 20
2.0171475
 11
3.0448812E+001
 21
2.0002435
  0
LINE
  8
126
  6
CONTINUOUS
 62
3
 10
3.0289436E+001
 20
2.148571
 11
3.0316302E+001
 21
2.1217042
  0
LINE
  8
126
  6
CONTINUOUS
 62
3
 10
3.0426752E+001
 20
2.0112549
 11
3.0437763E+001
 21
2.0002435
  0
LINE
  8
126
  6
CONTINUOUS
 62
3
 10
3.0282386E+001
 20
2.1445719
 11
3.0309253E+001
 21
2.1177052
  0
LINE
  8
126
  6
CONTINUOUS
 62
3
 10
3.0421596E+001
 20
2.0053623
 11
3.0426715E+001
 21
2.0002435
  0
LINE
  8
126
  6
CONTINUOUS
 62
3
 10
3.0275337E+001
 20
2.1405729
 11
3.0302203E+001
 21
2.1137061
  0
LINE
  8
126
  6
CONTINUOUS
 62
3
 10
3.0268287E+001
 20
2.1365738
 11
3.0295154E+001
 21
2.1097071
  0
LINE
  8
126
  6
CONTINUOUS
 62
3
 10
3.0366897E+001
 20
2.0379643
 11
3.0404617E+001
 21
2.0002435
  0
LINE
  8
126
  6
CONTINUOUS
 62
3
 10
3.0261238E+001
 20
2.1325748
 11
3.0393569E+001
 21
2.0002435
  0
LINE
  8
126
  6
CONTINUOUS
 62
3
 10
3.0254188E+001
 20
2.1285757
 11
3.038252E+001
 21
2.0002435
  0
LINE
  8
126
  6
CONTINUOUS
 62
3
 10
3.0183042E+001
 20
2.1886729
 11
3.0191951E+001
 21
2.1797644
  0
LINE
  8
126
  6
CONTINUOUS
 62
3
 10
3.0247139E+001
 20
2.1245767
 11
3.0371472E+001
 21
2.0002435
  0
LINE
  8
126
  6
CONTINUOUS
 62
3
 10
3.0171994E+001
 20
2.1886729
 11
3.0190295E+001
 21
2.170372
  0
LINE
  8
126
  6
CONTINUOUS
 62
3
 10
3.0240089E+001
 20
2.1205776
 11
3.0360423E+001
 21
2.0002435
  0
LINE
  8
126
  6
CONTINUOUS
 62
3
 10
3.0160945E+001
 20
2.1886729
 11
3.0188639E+001
 21
2.1609796
  0
LINE
  8
126
  6
CONTINUOUS
 62
3
 10
3.023304E+001
 20
2.1165786
 11
3.0349375E+001
 21
2.0002435
  0
LINE
  8
126
  6
CONTINUOUS
 62
3
 10
3.0149897E+001
 20
2.1886729
 11
3.0186983E+001
 21
2.1515872
  0
LINE
  8
126
  6
CONTINUOUS
 62
3
 10
3.022599E+001
 20
2.1125795
 11
3.0338326E+001
 21
2.0002435
  0
LINE
  8
126
  6
CONTINUOUS
 62
3
 10
3.0140979E+001
 20
2.1865426
 11
3.0185326E+001
 21
2.1421948
  0
LINE
  8
126
  6
CONTINUOUS
 62
3
 10
3.0218941E+001
 20
2.1085805
 11
3.0327278E+001
 21
2.0002435
  0
LINE
  8
126
  6
CONTINUOUS
 62
3
 10
3.0139322E+001
 20
2.1771502
 11
3.018367E+001
 21
2.1328024
  0
LINE
  8
126
  6
CONTINUOUS
 62
3
 10
3.0211891E+001
 20
2.1045814
 11
3.0238758E+001
 21
2.0777147
  0
LINE
  8
126
  6
CONTINUOUS
 62
3
 10
3.0137666E+001
 20
2.1677578
 11
3.0182014E+001
 21
2.1234099
  0
LINE
  8
126
  6
CONTINUOUS
 62
3
 10
3.0204842E+001
 20
2.1005824
 11
3.0231708E+001
 21
2.0737157
  0
LINE
  8
126
  6
CONTINUOUS
 62
3
 10
3.013601E+001
 20
2.1583654
 11
3.0180358E+001
 21
2.1140175
  0
LINE
  8
126
  6
CONTINUOUS
 62
3
 10
3.0197792E+001
 20
2.0965833
 11
3.0224659E+001
 21
2.0697166
  0
LINE
  8
126
  6
CONTINUOUS
 62
3
 10
3.0134354E+001
 20
2.148973
 11
3.0178702E+001
 21
2.1046251
  0
LINE
  8
126
  6
CONTINUOUS
 62
3
 10
3.0190743E+001
 20
2.0925843
 11
3.0217609E+001
 21
2.0657176
  0
LINE
  8
126
  6
CONTINUOUS
 62
3
 10
3.0132698E+001
 20
2.1395805
 11
3.0177046E+001
 21
2.0952327
  0
LINE
  8
126
  6
CONTINUOUS
 62
3
 10
3.0183693E+001
 20
2.0885852
 11
3.021056E+001
 21
2.0617185
  0
LINE
  8
126
  6
CONTINUOUS
 62
3
 10
3.0131042E+001
 20
2.1301881
 11
3.017539E+001
 21
2.0858403
  0
LINE
  8
126
  6
CONTINUOUS
 62
3
 10
3.0176644E+001
 20
2.0845862
 11
3.020351E+001
 21
2.0577195
  0
LINE
  8
126
  6
CONTINUOUS
 62
3
 10
3.0129386E+001
 20
2.1207957
 11
3.0196461E+001
 21
2.0537204
  0
LINE
  8
126
  6
CONTINUOUS
 62
3
 10
3.0127729E+001
 20
2.1114033
 11
3.0189411E+001
 21
2.0497214
  0
LINE
  8
126
  6
CONTINUOUS
 62
3
 10
3.0126073E+001
 20
2.1020109
 11
3.0182362E+001
 21
2.0457223
  0
LINE
  8
126
  6
CONTINUOUS
 62
3
 10
3.0124417E+001
 20
2.0926185
 11
3.0175312E+001
 21
2.0417233
  0
LINE
  8
126
  6
CONTINUOUS
 62
3
 10
3.0122761E+001
 20
2.0832261
 11
3.0168263E+001
 21
2.0377242
  0
LINE
  8
126
  6
CONTINUOUS
 62
3
 10
3.0121105E+001
 20
2.0738337
 11
3.0165453E+001
 21
2.0294859
  0
LINE
  8
126
  6
CONTINUOUS
 62
3
 10
3.0119449E+001
 20
2.0644413
 11
3.0163797E+001
 21
2.0200935
  0
LINE
  8
126
  6
CONTINUOUS
 62
3
 10
3.0117793E+001
 20
2.0550489
 11
3.016214E+001
 21
2.010701
  0
LINE
  8
126
  6
CONTINUOUS
 62
3
 10
3.0116137E+001
 20
2.0456565
 11
3.0160484E+001
 21
2.0013086
  0
LINE
  8
126
  6
CONTINUOUS
 62
3
 10
3.011448E+001
 20
2.0362641
 11
3.0150501E+001
 21
2.0002435
  0
LINE
  8
126
  6
CONTINUOUS
 62
3
 10
3.0112824E+001
 20
2.0268716
 11
3.0139452E+001
 21
2.0002435
  0
TEXT
  8
126
  6
CONTINUOUS
 62
3
 10
3.0129438E+001
 20
1.1601834
 40
1.0E-001
  1
KAB
 41
1.0
  0
TEXT
  8
126
  6
CONTINUOUS
 62
3
 10
3.0380135E+001
 20
9.181309E-001
 40
1.0E-001
  1
FULL
  0
TEXT
  8
1
  6
CONTINUOUS
 62
1
 10
3.2245305E+001
 20
4.32684E-001
 40
1.875E-001
  1
74180530
 72
1
 73
2
 11
3.1495305E+001
 21
3.38934E-001
  0
LINE
  8
126
  6
CONTINUOUS
 62
3
 10
3.0111168E+001
 20
2.0174792
 11
3.0128404E+001
 21
2.0002435
  0
LINE
  8
126
  6
CONTINUOUS
 62
3
 10
3.0109512E+001
 20
2.0080868
 11
3.0117355E+001
 21
2.0002435
  0
LINE
  8
126
  6
CONTINUOUS
 62
3
 10
2.9917877E+001
 20
2.1886729
 11
2.9923293E+001
 21
2.183257
  0
LINE
  8
126
  6
CONTINUOUS
 62
3
 10
3.0078932E+001
 20
2.0276185
 11
3.0084499E+001
 21
2.022051
  0
LINE
  8
126
  6
CONTINUOUS
 62
3
 10
2.9906829E+001
 20
2.1886729
 11
2.9921637E+001
 21
2.1738646
  0
LINE
  8
126
  6
CONTINUOUS
 62
3
 10
3.0067883E+001
 20
2.0276185
 11
3.0082843E+001
 21
2.0126586
  0
LINE
  8
126
  6
CONTINUOUS
 62
3
 10
2.989578E+001
 20
2.1886729
 11
2.9919981E+001
 21
2.1644721
  0
LINE
  8
126
  6
CONTINUOUS
 62
3
 10
3.0056835E+001
 20
2.0276185
 11
3.0081187E+001
 21
2.0032662
  0
LINE
  8
126
  6
CONTINUOUS
 62
3
 10
2.9884732E+001
 20
2.1886729
 11
2.9918325E+001
 21
2.1550798
  0
LINE
  8
126
  6
CONTINUOUS
 62
3
 10
3.0045786E+001
 20
2.0276185
 11
3.0073161E+001
 21
2.0002435
  0
LINE
  8
126
  6
CONTINUOUS
 62
3
 10
2.9873683E+001
 20
2.1886729
 11
2.9916669E+001
 21
2.1456873
  0
LINE
  8
126
  6
CONTINUOUS
 62
3
 10
3.0034738E+001
 20
2.0276185
 11
3.0062113E+001
 21
2.0002435
  0
LINE
  8
126
  6
CONTINUOUS
 62
3
 10
2.9870665E+001
 20
2.1806428
 11
2.9915013E+001
 21
2.1362949
  0
LINE
  8
126
  6
CONTINUOUS
 62
3
 10
3.0023689E+001
 20
2.0276185
 11
3.0051064E+001
 21
2.0002435
  0
LINE
  8
126
  6
CONTINUOUS
 62
3
 10
2.9869009E+001
 20
2.1712504
 11
2.9913356E+001
 21
2.1269025
  0
LINE
  8
126
  6
CONTINUOUS
 62
3
 10
3.001264E+001
 20
2.0276185
 11
3.0040015E+001
 21
2.0002435
  0
LINE
  8
126
  6
CONTINUOUS
 62
3
 10
2.9867353E+001
 20
2.1618579
 11
2.99117E+001
 21
2.1175101
  0
LINE
  8
126
  6
CONTINUOUS
 62
3
 10
3.0001592E+001
 20
2.0276185
 11
3.0028967E+001
 21
2.0002435
  0
LINE
  8
126
  6
CONTINUOUS
 62
3
 10
2.9829489E+001
 20
2.1886729
 11
2.9831395E+001
 21
2.1867664
  0
LINE
  8
126
  6
CONTINUOUS
 62
3
 10
2.9865696E+001
 20
2.1524655
 11
2.9910044E+001
 21
2.1081177
  0
LINE
  8
126
  6
CONTINUOUS
 62
3
 10
2.9990543E+001
 20
2.0276185
 11
3.0017918E+001
 21
2.0002435
  0
LINE
  8
126
  6
CONTINUOUS
 62
3
 10
2.981844E+001
 20
2.1886729
 11
2.9829739E+001
 21
2.177374
  0
LINE
  8
126
  6
CONTINUOUS
 62
3
 10
2.986404E+001
 20
2.1430731
 11
2.9908388E+001
 21
2.0987253
  0
LINE
  8
126
  6
CONTINUOUS
 62
3
 10
2.9979495E+001
 20
2.0276185
 11
3.000687E+001
 21
2.0002435
  0
LINE
  8
126
  6
CONTINUOUS
 62
3
 10
2.9807392E+001
 20
2.1886729
 11
2.9828083E+001
 21
2.1679816
  0
LINE
  8
126
  6
CONTINUOUS
 62
3
 10
2.9862384E+001
 20
2.1336807
 11
2.9906732E+001
 21
2.0893329
  0
LINE
  8
126
  6
CONTINUOUS
 62
3
 10
2.9968446E+001
 20
2.0276185
 11
2.9995821E+001
 21
2.0002435
  0
LINE
  8
126
  6
CONTINUOUS
 62
3
 10
2.9796343E+001
 20
2.1886729
 11
2.9823718E+001
 21
2.1612979
  0
LINE
  8
126
  6
CONTINUOUS
 62
3
 10
2.9860728E+001
 20
2.1242883
 11
2.9905076E+001
 21
2.0799405
  0
LINE
  8
126
  6
CONTINUOUS
 62
3
 10
2.9957398E+001
 20
2.0276185
 11
2.9984773E+001
 21
2.0002435
  0
LINE
  8
126
  6
CONTINUOUS
 62
3
 10
2.9785295E+001
 20
2.1886729
 11
2.981267E+001
 21
2.1612979
  0
LINE
  8
126
  6
CONTINUOUS
 62
3
 10
2.9859072E+001
 20
2.1148959
 11
2.990342E+001
 21
2.0705481
  0
LINE
  8
126
  6
CONTINUOUS
 62
3
 10
2.9946349E+001
 20
2.0276185
 11
2.9973724E+001
 21
2.0002435
  0
LINE
  8
126
  6
CONTINUOUS
 62
3
 10
2.9774246E+001
 20
2.1886729
 11
2.9801621E+001
 21
2.1612979
  0
LINE
  8
126
  6
CONTINUOUS
 62
3
 10
2.9857416E+001
 20
2.1055035
 11
2.9901764E+001
 21
2.0611557
  0
LINE
  8
126
  6
CONTINUOUS
 62
3
 10
2.9935301E+001
 20
2.0276185
 11
2.9962676E+001
 21
2.0002435
  0
LINE
  8
126
  6
CONTINUOUS
 62
3
 10
2.9763198E+001
 20
2.1886729
 11
2.9790573E+001
 21
2.1612979
  0
LINE
  8
126
  6
CONTINUOUS
 62
3
 10
2.985576E+001
 20
2.0961111
 11
2.9900107E+001
 21
2.0517633
  0
LINE
  8
126
  6
CONTINUOUS
 62
3
 10
2.9924252E+001
 20
2.0276185
 11
2.9951627E+001
 21
2.0002435
  0
LINE
  8
126
  6
CONTINUOUS
 62
3
 10
2.9752149E+001
 20
2.1886729
 11
2.9779524E+001
 21
2.1612979
  0
LINE
  8
126
  6
CONTINUOUS
 62
3
 10
2.9854103E+001
 20
2.0867187
 11
2.9898451E+001
 21
2.0423709
  0
LINE
  8
126
  6
CONTINUOUS
 62
3
 10
2.9913204E+001
 20
2.0276185
 11
2.9940579E+001
 21
2.0002435
  0
LINE
  8
126
  6
CONTINUOUS
 62
3
 10
2.9741101E+001
 20
2.1886729
 11
2.9768476E+001
 21
2.1612979
  0
LINE
  8
126
  6
CONTINUOUS
 62
3
 10
2.9852447E+001
 20
2.0773263
 11
2.9896795E+001
 21
2.0329784
  0
LINE
  8
126
  6
CONTINUOUS
 62
3
 10
2.9902155E+001
 20
2.0276185
 11
2.992953E+001
 21
2.0002435
  0
LINE
  8
126
  6
CONTINUOUS
 62
3
 10
2.9730052E+001
 20
2.1886729
 11
2.9757427E+001
 21
2.1612979
  0
LINE
  8
126
  6
CONTINUOUS
 62
3
 10
2.9850791E+001
 20
2.0679339
 11
2.9918481E+001
 21
2.0002435
  0
LINE
  8
126
  6
CONTINUOUS
 62
3
 10
2.9719004E+001
 20
2.1886729
 11
2.9746379E+001
 21
2.1612979
  0
LINE
  8
126
  6
CONTINUOUS
 62
3
 10
2.9799468E+001
 20
2.1082082
 11
2.9804044E+001
 21
2.1036326
  0
LINE
  8
126
  6
CONTINUOUS
 62
3
 10
2.9849135E+001
 20
2.0585414
 11
2.9907433E+001
 21
2.0002435
  0
LINE
  8
126
  6
CONTINUOUS
 62
3
 10
2.9707955E+001
 20
2.1886729
 11
2.973533E+001
 21
2.1612979
  0
LINE
  8
126
  6
CONTINUOUS
 62
3
 10
2.978842E+001
 20
2.1082082
 11
2.9802388E+001
 21
2.0942402
  0
LINE
  8
126
  6
CONTINUOUS
 62
3
 10
2.9847479E+001
 20
2.049149
 11
2.9896384E+001
 21
2.0002435
  0
LINE
  8
126
  6
CONTINUOUS
 62
3
 10
2.9696907E+001
 20
2.1886729
 11
2.9724282E+001
 21
2.1612979
  0
LINE
  8
126
  6
CONTINUOUS
 62
3
 10
2.9777371E+001
 20
2.1082082
 11
2.9800732E+001
 21
2.0848478
  0
LINE
  8
126
  6
CONTINUOUS
 62
3
 10
2.9845823E+001
 20
2.0397566
 11
2.9885336E+001
 21
2.0002435
  0
LINE
  8
126
  6
CONTINUOUS
 62
3
 10
2.9685858E+001
 20
2.1886729
 11
2.9713233E+001
 21
2.1612979
  0
LINE
  8
126
  6
CONTINUOUS
 62
3
 10
2.9766323E+001
 20
2.1082082
 11
2.9793823E+001
 21
2.0807082
  0
LINE
  8
126
  6
CONTINUOUS
 62
3
 10
2.9844167E+001
 20
2.0303642
 11
2.9874287E+001
 21
2.0002435
  0
LINE
  8
126
  6
CONTINUOUS
 62
3
 10
2.9674809E+001
 20
2.1886729
 11
2.9702184E+001
 21
2.1612979
  0
LINE
  8
126
  6
CONTINUOUS
 62
3
 10
2.9755274E+001
 20
2.1082082
 11
2.9782774E+001
 21
2.0807082
  0
LINE
  8
126
  6
CONTINUOUS
 62
3
 10
2.984251E+001
 20
2.0209718
 11
2.9863239E+001
 21
2.0002435
  0
LINE
  8
126
  6
CONTINUOUS
 62
3
 10
2.9663761E+001
 20
2.1886729
 11
2.9691136E+001
 21
2.1612979
  0
LINE
  8
126
  6
CONTINUOUS
 62
3
 10
2.9744226E+001
 20
2.1082082
 11
2.9771726E+001
 21
2.0807082
  0
LINE
  8
126
  6
CONTINUOUS
 62
3
 10
2.9840854E+001
 20
2.0115794
 11
2.985219E+001
 21
2.0002435
  0
LINE
  8
126
  6
CONTINUOUS
 62
3
 10
2.9652712E+001
 20
2.1886729
 11
2.9680087E+001
 21
2.1612979
  0
LINE
  8
126
  6
CONTINUOUS
 62
3
 10
2.9733177E+001
 20
2.1082082
 11
2.9760677E+001
 21
2.0807082
  0
LINE
  8
126
  6
CONTINUOUS
 62
3
 10
2.9813767E+001
 20
2.0276185
 11
2.9815688E+001
 21
2.0256977
  0
LINE
  8
126
  6
CONTINUOUS
 62
3
 10
2.9839198E+001
 20
2.002187
 11
2.9841142E+001
 21
2.0002435
  0
LINE
  8
126
  6
CONTINUOUS
 62
3
 10
2.9641664E+001
 20
2.1886729
 11
2.9669039E+001
 21
2.1612979
  0
LINE
  8
126
  6
CONTINUOUS
 62
3
 10
2.9722128E+001
 20
2.1082082
 11
2.9749628E+001
 21
2.0807082
  0
LINE
  8
126
  6
CONTINUOUS
 62
3
 10
2.9802718E+001
 20
2.0276185
 11
2.9814031E+001
 21
2.0163053
  0
LINE
  8
126
  6
CONTINUOUS
 62
3
 10
2.9630615E+001
 20
2.1886729
 11
2.965799E+001
 21
2.1612979
  0
LINE
  8
126
  6
CONTINUOUS
 62
3
 10
2.971108E+001
 20
2.1082082
 11
2.973858E+001
 21
2.0807082
  0
LINE
  8
126
  6
CONTINUOUS
 62
3
 10
2.979167E+001
 20
2.0276185
 11
2.9812375E+001
 21
2.0069129
  0
LINE
  8
126
  6
CONTINUOUS
 62
3
 10
2.9619567E+001
 20
2.1886729
 11
2.9646942E+001
 21
2.1612979
  0
LINE
  8
126
  6
CONTINUOUS
 62
3
 10
2.9700031E+001
 20
2.1082082
 11
2.9727531E+001
 21
2.0807082
  0
LINE
  8
126
  6
CONTINUOUS
 62
3
 10
2.9780621E+001
 20
2.0276185
 11
2.9807996E+001
 21
2.0002435
  0
LINE
  8
126
  6
CONTINUOUS
 62
3
 10
2.9608518E+001
 20
2.1886729
 11
2.9635893E+001
 21
2.1612979
  0
LINE
  8
126
  6
CONTINUOUS
 62
3
 10
2.9688983E+001
 20
2.1082082
 11
2.9716483E+001
 21
2.0807082
  0
LINE
  8
126
  6
CONTINUOUS
 62
3
 10
2.9769573E+001
 20
2.0276185
 11
2.9796948E+001
 21
2.0002435
  0
LINE
  8
126
  6
CONTINUOUS
 62
3
 10
2.959747E+001
 20
2.1886729
 11
2.9624845E+001
 21
2.1612979
  0
LINE
  8
126
  6
CONTINUOUS
 62
3
 10
2.9677934E+001
 20
2.1082082
 11
2.9705434E+001
 21
2.0807082
  0
LINE
  8
126
  6
CONTINUOUS
 62
3
 10
2.9758524E+001
 20
2.0276185
 11
2.9785899E+001
 21
2.0002435
  0
LINE
  8
126
  6
CONTINUOUS
 62
3
 10
2.9586421E+001
 20
2.1886729
 11
2.9616297E+001
 21
2.1587965
  0
LINE
  8
126
  6
CONTINUOUS
 62
3
 10
2.9666886E+001
 20
2.1082082
 11
2.9694386E+001
 21
2.0807082
  0
LINE
  8
126
  6
CONTINUOUS
 62
3
 10
2.9747475E+001
 20
2.0276185
 11
2.977485E+001
 21
2.0002435
  0
LINE
  8
126
  6
CONTINUOUS
 62
3
 10
2.9575373E+001
 20
2.1886729
 11
2.9614641E+001
 21
2.1494041
  0
LINE
  8
126
  6
CONTINUOUS
 62
3
 10
2.9655837E+001
 20
2.1082082
 11
2.9683337E+001
 21
2.0807082
  0
LINE
  8
126
  6
CONTINUOUS
 62
3
 10
2.9736427E+001
 20
2.0276185
 11
2.9763802E+001
 21
2.0002435
  0
LINE
  8
126
  6
CONTINUOUS
 62
3
 10
2.956866E+001
 20
2.184337
 11
2.9612985E+001
 21
2.1400117
  0
LINE
  8
126
  6
CONTINUOUS
 62
3
 10
2.9644789E+001
 20
2.1082082
 11
2.9672289E+001
 21
2.0807082
  0
LINE
  8
126
  6
CONTINUOUS
 62
3
 10
2.9725378E+001
 20
2.0276185
 11
2.9752753E+001
 21
2.0002435
  0
LINE
  8
126
  6
CONTINUOUS
 62
3
 10
2.9567004E+001
 20
2.1749445
 11
2.9611329E+001
 21
2.1306193
  0
LINE
  8
126
  6
CONTINUOUS
 62
3
 10
2.963374E+001
 20
2.1082082
 11
2.966124E+001
 21
2.0807082
  0
LINE
  8
126
  6
CONTINUOUS
 62
3
 10
2.971433E+001
 20
2.0276185
 11
2.9741705E+001
 21
2.0002435
  0
LINE
  8
126
  6
CONTINUOUS
 62
3
 10
2.9565348E+001
 20
2.1655521
 11
2.9609673E+001
 21
2.1212269
  0
LINE
  8
126
  6
CONTINUOUS
 62
3
 10
2.9622692E+001
 20
2.1082082
 11
2.9650192E+001
 21
2.0807082
  0
LINE
  8
126
  6
CONTINUOUS
 62
3
 10
2.9703281E+001
 20
2.0276185
 11
2.9730656E+001
 21
2.0002435
  0
LINE
  8
126
  6
CONTINUOUS
 62
3
 10
2.9563692E+001
 20
2.1561597
 11
2.9608017E+001
 21
2.1118345
  0
LINE
  8
126
  6
CONTINUOUS
 62
3
 10
2.9611643E+001
 20
2.1082082
 11
2.9639143E+001
 21
2.0807082
  0
LINE
  8
126
  6
CONTINUOUS
 62
3
 10
2.9692233E+001
 20
2.0276185
 11
2.9719608E+001
 21
2.0002435
  0
LINE
  8
126
  6
CONTINUOUS
 62
3
 10
2.9562035E+001
 20
2.1467673
 11
2.9628094E+001
 21
2.0807082
  0
LINE
  8
126
  6
CONTINUOUS
 62
3
 10
2.9681184E+001
 20
2.0276185
 11
2.9708559E+001
 21
2.0002435
  0
LINE
  8
126
  6
CONTINUOUS
 62
3
 10
2.9560379E+001
 20
2.1373749
 11
2.9617046E+001
 21
2.0807082
  0
LINE
  8
126
  6
CONTINUOUS
 62
3
 10
2.9670136E+001
 20
2.0276185
 11
2.9697511E+001
 21
2.0002435
  0
LINE
  8
126
  6
CONTINUOUS
 62
3
 10
2.9558723E+001
 20
2.1279825
 11
2.9606092E+001
 21
2.0806134
  0
LINE
  8
126
  6
CONTINUOUS
 62
3
 10
2.9659087E+001
 20
2.0276185
 11
2.9686462E+001
 21
2.0002435
  0
LINE
  8
126
  6
CONTINUOUS
 62
3
 10
2.9557067E+001
 20
2.1185901
 11
2.9604436E+001
 21
2.071221
  0
LINE
  8
126
  6
CONTINUOUS
 62
3
 10
2.9648039E+001
 20
2.0276185
 11
2.9675414E+001
 21
2.0002435
  0
LINE
  8
126
  6
CONTINUOUS
 62
3
 10
2.9555411E+001
 20
2.1091977
 11
2.960278E+001
 21
2.0618286
  0
LINE
  8
126
  6
CONTINUOUS
 62
3
 10
2.963699E+001
 20
2.0276185
 11
2.9664365E+001
 21
2.0002435
  0
LINE
  8
126
  6
CONTINUOUS
 62
3
 10
2.9553755E+001
 20
2.0998053
 11
2.9601124E+001
 21
2.0524362
  0
LINE
  8
126
  6
CONTINUOUS
 62
3
 10
2.9625941E+001
 20
2.0276185
 11
2.9653316E+001
 21
2.0002435
  0
LINE
  8
126
  6
CONTINUOUS
 62
3
 10
2.9552099E+001
 20
2.0904129
 11
2.9599468E+001
 21
2.0430438
  0
LINE
  8
126
  6
CONTINUOUS
 62
3
 10
2.9614893E+001
 20
2.0276185
 11
2.9642268E+001
 21
2.0002435
  0
LINE
  8
126
  6
CONTINUOUS
 62
3
 10
2.9550442E+001
 20
2.0810205
 11
2.9597812E+001
 21
2.0336514
  0
LINE
  8
126
  6
CONTINUOUS
 62
3
 10
2.9603844E+001
 20
2.0276185
 11
2.9631219E+001
 21
2.0002435
  0
LINE
  8
126
  6
CONTINUOUS
 62
3
 10
2.9548786E+001
 20
2.0716281
 11
2.9620171E+001
 21
2.0002435
  0
LINE
  8
126
  6
CONTINUOUS
 62
3
 10
2.954713E+001
 20
2.0622356
 11
2.9609122E+001
 21
2.0002435
  0
LINE
  8
126
  6
CONTINUOUS
 62
3
 10
2.9545474E+001
 20
2.0528432
 11
2.9598074E+001
 21
2.0002435
  0
LINE
  8
126
  6
CONTINUOUS
 62
3
 10
2.9543818E+001
 20
2.0434508
 11
2.9587025E+001
 21
2.0002435
  0
LINE
  8
126
  6
CONTINUOUS
 62
3
 10
2.9542162E+001
 20
2.0340584
 11
2.9575977E+001
 21
2.0002435
  0
LINE
  8
126
  6
CONTINUOUS
 62
3
 10
2.9540506E+001
 20
2.024666
 11
2.9564928E+001
 21
2.0002435
  0
LINE
  8
126
  6
CONTINUOUS
 62
3
 10
2.9538849E+001
 20
2.0152736
 11
2.955388E+001
 21
2.0002435
  0
LINE
  8
126
  6
CONTINUOUS
 62
3
 10
2.9537193E+001
 20
2.0058812
 11
2.9542831E+001
 21
2.0002435
  0
INSERT
  2
*TX59
  8
126
 10
2.5600422E+001
 20
6.992504E-001
  0
TEXT
  8
1
  6
CONTINUOUS
 62
1
 10
3.2852004E+001
 20
1.6354156
 40
1.25E-001
  1
TEMPLATE FOR EFRU191610
 72
1
 73
2
 11
3.1414504E+001
 21
1.5729156
  0
ENDSEC
  0
EOF
