  0
SECTION
  2
HEADER
  9
$ACADVER
  1
AC1015
  9
$ACADMAINTVER
 70
    20
  9
$DWGCODEPAGE
  3
ANSI_1252
  9
$INSBASE
 10
0.0
 20
0.0
 30
0.0
  9
$EXTMIN
 10
0.4160529700842375
 20
0.180961996011689
 30
-0.0000000349181948
  9
$EXTMAX
 10
43.76769326918649
 20
33.59483674865276
 30
0.0000000814935747
  9
$LIMMIN
 10
0.0
 20
0.0
  9
$LIMMAX
 10
12.0
 20
9.0
  9
$ORTHOMODE
 70
     0
  9
$REGENMODE
 70
     1
  9
$FILLMODE
 70
     1
  9
$QTEXTMODE
 70
     0
  9
$MIRRTEXT
 70
     0
  9
$LTSCALE
 40
1.0
  9
$ATTMODE
 70
     1
  9
$TEXTSIZE
 40
1.0
  9
$TRACEWID
 40
0.05
  9
$TEXTSTYLE
  7
STANDARD
  9
$CLAYER
  8
1
  9
$CELTYPE
  6
Continuous
  9
$CECOLOR
 62
     3
  9
$CELTSCALE
 40
1.0
  9
$DISPSILH
 70
     0
  9
$DIMSCALE
 40
1.0
  9
$DIMASZ
 40
0.125
  9
$DIMEXO
 40
0.0625
  9
$DIMDLI
 40
0.25
  9
$DIMRND
 40
0.0
  9
$DIMDLE
 40
0.0
  9
$DIMEXE
 40
0.125
  9
$DIMTP
 40
0.005
  9
$DIMTM
 40
-0.005
  9
$DIMTXT
 40
0.125
  9
$DIMCEN
 40
0.09
  9
$DIMTSZ
 40
0.0
  9
$DIMTOL
 70
     0
  9
$DIMLIM
 70
     0
  9
$DIMTIH
 70
     1
  9
$DIMTOH
 70
     1
  9
$DIMSE1
 70
     0
  9
$DIMSE2
 70
     0
  9
$DIMTAD
 70
     0
  9
$DIMZIN
 70
     0
  9
$DIMBLK
  1

  9
$DIMASO
 70
     1
  9
$DIMSHO
 70
     1
  9
$DIMPOST
  1

  9
$DIMAPOST
  1

  9
$DIMALT
 70
     0
  9
$DIMALTD
 70
     0
  9
$DIMALTF
 40
25.4
  9
$DIMLFAC
 40
1.0
  9
$DIMTOFL
 70
     1
  9
$DIMTVP
 40
0.0
  9
$DIMTIX
 70
     0
  9
$DIMSOXD
 70
     0
  9
$DIMSAH
 70
     0
  9
$DIMBLK1
  1

  9
$DIMBLK2
  1

  9
$DIMSTYLE
  2
DSTYLE1
  9
$DIMCLRD
 70
     0
  9
$DIMCLRE
 70
     0
  9
$DIMCLRT
 70
     0
  9
$DIMTFAC
 40
1.0
  9
$DIMGAP
 40
0.0625
  9
$DIMJUST
 70
     0
  9
$DIMSD1
 70
     0
  9
$DIMSD2
 70
     0
  9
$DIMTOLJ
 70
     1
  9
$DIMTZIN
 70
     0
  9
$DIMALTZ
 70
     0
  9
$DIMALTTZ
 70
     0
  9
$DIMUPT
 70
     0
  9
$DIMDEC
 70
     4
  9
$DIMTDEC
 70
     4
  9
$DIMALTU
 70
     2
  9
$DIMALTTD
 70
     2
  9
$DIMTXSTY
  7
STANDARD
  9
$DIMAUNIT
 70
     0
  9
$DIMADEC
 70
     0
  9
$DIMALTRND
 40
0.0
  9
$DIMAZIN
 70
     0
  9
$DIMDSEP
 70
    46
  9
$DIMATFIT
 70
     3
  9
$DIMFRAC
 70
     0
  9
$DIMLDRBLK
  1

  9
$DIMLUNIT
 70
     2
  9
$DIMLWD
 70
    -2
  9
$DIMLWE
 70
    -2
  9
$DIMTMOVE
 70
     0
  9
$LUNITS
 70
     2
  9
$LUPREC
 70
     3
  9
$SKETCHINC
 40
0.1
  9
$FILLETRAD
 40
0.25
  9
$AUNITS
 70
     0
  9
$AUPREC
 70
     1
  9
$MENU
  1
.
  9
$ELEVATION
 40
0.0
  9
$PELEVATION
 40
0.0
  9
$THICKNESS
 40
0.0
  9
$LIMCHECK
 70
     0
  9
$CHAMFERA
 40
0.25
  9
$CHAMFERB
 40
0.25
  9
$CHAMFERC
 40
0.0
  9
$CHAMFERD
 40
0.0
  9
$SKPOLY
 70
     0
  9
$TDCREATE
 40
2455127.419329723
  9
$TDUCREATE
 40
2455127.669329723
  9
$TDUPDATE
 40
2456675.409352142
  9
$TDUUPDATE
 40
2456675.659352141
  9
$TDINDWG
 40
0.0012699421
  9
$TDUSRTIMER
 40
0.0012698958
  9
$USRTIMER
 70
     1
  9
$ANGBASE
 50
0.0
  9
$ANGDIR
 70
     0
  9
$PDMODE
 70
     2
  9
$PDSIZE
 40
-0.01
  9
$PLINEWID
 40
0.0
  9
$SPLFRAME
 70
     0
  9
$SPLINETYPE
 70
     6
  9
$SPLINESEGS
 70
     8
  9
$HANDSEED
  5
591
  9
$SURFTAB1
 70
     6
  9
$SURFTAB2
 70
     6
  9
$SURFTYPE
 70
     6
  9
$SURFU
 70
     6
  9
$SURFV
 70
     6
  9
$UCSBASE
  2

  9
$UCSNAME
  2

  9
$UCSORG
 10
0.0
 20
0.0
 30
0.0
  9
$UCSXDIR
 10
1.0
 20
0.0
 30
0.0
  9
$UCSYDIR
 10
0.0
 20
1.0
 30
0.0
  9
$UCSORTHOREF
  2

  9
$UCSORTHOVIEW
 70
     0
  9
$UCSORGTOP
 10
0.0
 20
0.0
 30
0.0
  9
$UCSORGBOTTOM
 10
0.0
 20
0.0
 30
0.0
  9
$UCSORGLEFT
 10
0.0
 20
0.0
 30
0.0
  9
$UCSORGRIGHT
 10
0.0
 20
0.0
 30
0.0
  9
$UCSORGFRONT
 10
0.0
 20
0.0
 30
0.0
  9
$UCSORGBACK
 10
0.0
 20
0.0
 30
0.0
  9
$PUCSBASE
  2

  9
$PUCSNAME
  2

  9
$PUCSORG
 10
0.0
 20
0.0
 30
0.0
  9
$PUCSXDIR
 10
1.0
 20
0.0
 30
0.0
  9
$PUCSYDIR
 10
0.0
 20
1.0
 30
0.0
  9
$PUCSORTHOREF
  2

  9
$PUCSORTHOVIEW
 70
     0
  9
$PUCSORGTOP
 10
0.0
 20
0.0
 30
0.0
  9
$PUCSORGBOTTOM
 10
0.0
 20
0.0
 30
0.0
  9
$PUCSORGLEFT
 10
0.0
 20
0.0
 30
0.0
  9
$PUCSORGRIGHT
 10
0.0
 20
0.0
 30
0.0
  9
$PUCSORGFRONT
 10
0.0
 20
0.0
 30
0.0
  9
$PUCSORGBACK
 10
0.0
 20
0.0
 30
0.0
  9
$USERI1
 70
     0
  9
$USERI2
 70
     0
  9
$USERI3
 70
     0
  9
$USERI4
 70
     0
  9
$USERI5
 70
     0
  9
$USERR1
 40
0.0
  9
$USERR2
 40
0.0
  9
$USERR3
 40
0.0
  9
$USERR4
 40
0.0
  9
$USERR5
 40
0.0
  9
$WORLDVIEW
 70
     1
  9
$SHADEDGE
 70
     3
  9
$SHADEDIF
 70
    70
  9
$TILEMODE
 70
     1
  9
$MAXACTVP
 70
    64
  9
$PINSBASE
 10
0.0
 20
0.0
 30
0.0
  9
$PLIMCHECK
 70
     0
  9
$PEXTMIN
 10
1.000000000000000E+20
 20
1.000000000000000E+20
 30
1.000000000000000E+20
  9
$PEXTMAX
 10
-1.000000000000000E+20
 20
-1.000000000000000E+20
 30
-1.000000000000000E+20
  9
$PLIMMIN
 10
0.0
 20
0.0
  9
$PLIMMAX
 10
12.0
 20
9.0
  9
$UNITMODE
 70
     0
  9
$VISRETAIN
 70
     1
  9
$PLINEGEN
 70
     0
  9
$PSLTSCALE
 70
     1
  9
$TREEDEPTH
 70
  3020
  9
$CMLSTYLE
  2
Standard
  9
$CMLJUST
 70
     0
  9
$CMLSCALE
 40
1.0
  9
$PROXYGRAPHICS
 70
     1
  9
$MEASUREMENT
 70
     0
  9
$CELWEIGHT
370
    -1
  9
$ENDCAPS
280
     0
  9
$JOINSTYLE
280
     0
  9
$LWDISPLAY
290
     0
  9
$INSUNITS
 70
     0
  9
$HYPERLINKBASE
  1

  9
$STYLESHEET
  1

  9
$XEDIT
290
     1
  9
$CEPSNTYPE
380
     0
  9
$PSTYLEMODE
290
     1
  9
$FINGERPRINTGUID
  2
{60572257-AE5E-436E-B8CE-DC81A2005A0D}
  9
$VERSIONGUID
  2
{863C114F-B801-4CB2-885C-99C3FD963D54}
  9
$EXTNAMES
290
     1
  9
$PSVPSCALE
 40
0.0
  9
$OLESTARTUP
290
     0
  0
ENDSEC
  0
SECTION
  2
CLASSES
  0
CLASS
  1
ACDBDICTIONARYWDFLT
  2
AcDbDictionaryWithDefault
  3
ObjectDBX Classes
 90
        0
280
     0
281
     0
  0
CLASS
  1
TABLESTYLE
  2
AcDbTableStyle
  3
ObjectDBX Classes
 90
     4095
280
     0
281
     0
  0
CLASS
  1
SORTENTSTABLE
  2
AcDbSortentsTable
  3
ObjectDBX Classes
 90
        0
280
     0
281
     0
  0
CLASS
  1
DICTIONARYVAR
  2
AcDbDictionaryVar
  3
ObjectDBX Classes
 90
        0
280
     0
281
     0
  0
CLASS
  1
ACDBPLACEHOLDER
  2
AcDbPlaceHolder
  3
ObjectDBX Classes
 90
        0
280
     0
281
     0
  0
CLASS
  1
LAYOUT
  2
AcDbLayout
  3
ObjectDBX Classes
 90
        0
280
     0
281
     0
  0
CLASS
  1
MATERIAL
  2
AcDbMaterial
  3
ObjectDBX Classes
 90
     1153
280
     0
281
     0
  0
CLASS
  1
VISUALSTYLE
  2
AcDbVisualStyle
  3
ObjectDBX Classes
 90
     4095
280
     0
281
     0
  0
CLASS
  1
SCALE
  2
AcDbScale
  3
ObjectDBX Classes
 90
     1153
280
     0
281
     0
  0
CLASS
  1
MLEADERSTYLE
  2
AcDbMLeaderStyle
  3
ACDB_MLEADERSTYLE_CLASS
 90
     4095
280
     0
281
     0
  0
CLASS
  1
ACME_DOCUMENT
  2
AcMeDbDoc
  3
AcMeServices
 90
     1024
280
     0
281
     0
  0
CLASS
  1
ACMESCOPE
  2
AcMeScope
  3
AcMeServices
 90
     1024
280
     0
281
     0
  0
CLASS
  1
ACMECOMMANDHISTORY
  2
AcMeCommandHistory
  3
AcMeServices
 90
     1024
280
     0
281
     0
  0
CLASS
  1
ACIMSYSVARMAN
  2
AcImSysVarManager
  3
AcMeServices
 90
     1024
280
     0
281
     0
  0
CLASS
  1
ACIMINTSYSVAR
  2
AcImIntSysVar
  3
AcMeServices
 90
     1024
280
     0
281
     0
  0
CLASS
  1
ACMEDRAWINGMAN
  2
AcMeDrawingMan
  3
AcMeServices
 90
     1024
280
     0
281
     0
  0
CLASS
  1
ACMEVIEW
  2
AcMeView
  3
AcMeServices
 90
     1024
280
     0
281
     0
  0
CLASS
  1
ACDBENTITYCACHE
  2
AcMeEntityCache
  3
AcMeServices
 90
     1024
280
     0
281
     0
  0
CLASS
  1
ACMESTATEMGR
  2
AcMeStateMgr
  3
AcMeServices
 90
     1024
280
     0
281
     0
  0
CLASS
  1
ACGREFMASTER
  2
AcGrefMaster
  3
AcAttribServices
 90
     1024
280
     0
281
     0
  0
CLASS
  1
AM_DRAWING_MGR
  2
AcDmDwgMgr
  3
AcMechDwgViewMgmt
 90
     1024
280
     0
281
     0
  0
CLASS
  1
AM_DWG_DOCUMENT
  2
AcDmDwgDocument
  3
AcMechDwgViewMgmt
 90
     1024
280
     0
281
     0
  0
CLASS
  1
AM_DWG_SHEET
  2
AcDmSheet
  3
AcMechDwgViewMgmt
 90
     1024
280
     0
281
     0
  0
CLASS
  1
AM_VIEWDIMPARMAP
  2
AcDmViewDimParMap
  3
AcMechDwgViewMgmt
 90
     1024
280
     0
281
     0
  0
CLASS
  1
AMDTINTERNALREACTOR
  2
AmdtInternalReactor
  3
AcMeServices
 90
     1024
280
     0
281
     0
  0
CLASS
  1
ACIMREALSYSVAR
  2
AcImRealSysVar
  3
AcMeServices
 90
     1024
280
     0
281
     0
  0
CLASS
  1
AM_DWGMGR_NAME
  2
AcDmDwgMgrName
  3
AcMechDwgViewMgmt
 90
     1024
280
     0
281
     0
  0
CLASS
  1
ACME_DATABASE
  2
AcMeDbDatabase
  3
AcMeServices
 90
     1024
280
     0
281
     0
  0
CLASS
  1
ACRFINSADJUSTERMGR
  2
AcRfInsAdjusterMgr
  3
AcMeServices
 90
     1024
280
     0
281
     0
  0
CLASS
  1
ACGREFACADMASTER
  2
AcGrefacadMaster
  3
AcGrefServices
 90
     1024
280
     0
281
     0
  0
CLASS
  1
AMDTMENUSTATEMGR
  2
AmdtMenuStateMgr
  3
McadcomServices
 90
     1024
280
     0
281
     0
  0
CLASS
  1
AMDTMCOMMENUSTATE
  2
AmdtMcomMenuState
  3
McadcomServices
 90
     1024
280
     0
281
     0
  0
CLASS
  1
AMIMASTER
  2
AmiMaster
  3
AmiServices
 90
     1024
280
     0
281
     0
  0
CLASS
  1
AMGSETTINGSOBJ
  2
AmgSettingsObj
  3
"AcadM|Product Description: AutoCAD Mechanical|Company: Autodesk, Inc."
 90
     1024
280
     0
281
     0
  0
CLASS
  1
MAPIAMMOUDLE
  2
MApiAmModule
  3
MApiAmServices
 90
     1024
280
     0
281
     0
  0
CLASS
  1
ACIMSTRSYSVAR
  2
AcImStrSysVar
  3
AcMeServices
 90
     1024
280
     0
281
     0
  0
CLASS
  1
AMDTADMENUSTATE
  2
AmdtAdMenuState
  3
DesignerServices
 90
     1024
280
     0
281
     0
  0
CLASS
  1
ADAPPL
  2
AcAdAppl
  3
DesignerServices
 90
     1024
280
     0
281
     0
  0
CLASS
  1
DEPMGR
  2
AcAdDepMgr
  3
DesignerServices
 90
     1024
280
     0
281
     0
  0
CLASS
  1
PARAMMGR
  2
AcAdParamMgr
  3
DesignerServices
 90
     1024
280
     0
281
     0
  0
CLASS
  1
PARAMSCOPE
  2
AcAdParamScope
  3
DesignerServices
 90
     1024
280
     0
281
     0
  0
CLASS
  1
NAMEDAPPL
  2
AcAdNamedAppl
  3
DesignerServices
 90
     1024
280
     0
281
     0
  0
CLASS
  1
AMDTDMMENUSTATE
  2
AmdtDmMenuState
  3
AcMechDwgViewMgmt
 90
     1024
280
     0
281
     0
  0
CLASS
  1
AMDTAMMENUSTATE
  2
AmdtAmMenuState
  3
DesignerAssemblies
 90
     1024
280
     0
281
     0
  0
CLASS
  1
ACAMPROJECT
  2
AcAmProject
  3
DesignerAssemblies
 90
     1024
280
     0
281
     0
  0
CLASS
  1
ACAMGRCOMPDEF
  2
AcAmGrCompDef
  3
DesignerAssemblies
 90
     1024
280
     0
281
     0
  0
CLASS
  1
ACAMCOMPDEF
  2
AcAmCompDef
  3
DesignerAssemblies
 90
     1024
280
     0
281
     0
  0
CLASS
  1
ACAMCOMPDEFMGR
  2
AcAmCompDefMgr
  3
DesignerAssemblies
 90
     1024
280
     0
281
     0
  0
CLASS
  1
AMCONTEXTMGR
  2
AcAmContextMgr
  3
DesignerAssemblies
 90
     1024
280
     0
281
     0
  0
CLASS
  1
ACAMCONTEXTMODELER
  2
AcAmContextModeler
  3
DesignerAssemblies
 90
     1024
280
     0
281
     0
  0
CLASS
  1
ACMDATADICTIONARY
  2
AcmDataDictionary
  3
"AcmSymBB|Product Description: AutoCAD Mechanical|Company: Autodesk, Inc."
 90
     1024
280
     0
281
     0
  0
CLASS
  1
CATALOGSTATE
  2
AcAmCatalogState
  3
DesignerAssemblies
 90
     1024
280
     0
281
     0
  0
CLASS
  1
ACAMGRCOMPDEFSET
  2
AcAmGrCompDefSet
  3
DesignerAssemblies
 90
     1024
280
     0
281
     0
  0
CLASS
  1
AMDTBROWSERDBTAB
  2
AmdtBrowserDbTab
  3
McadcomServices
 90
     1024
280
     0
281
     0
  0
CLASS
  1
CBROWSERAPPOBJECT
  2
CBrowserAppObject
  3
McadcomServices
 90
     1024
280
     0
281
     0
  0
CLASS
  1
DM_PLACEHOLDER
  2
AcDmSelsetPlaceholder
  3
AcMechDwgViewMgmt
 90
     1024
280
     0
281
     0
  0
CLASS
  1
ACMSTANDARDANSI
  2
AcmStandardANSI
  3
"Amdt_StdImp|Product Description: AutoCAD Mechanical|Company: Autodesk, Inc."
 90
     1024
280
     0
281
     0
  0
CLASS
  1
ACMSURFSTANDARDANSI
  2
AcmSurfTextStdANSI
  3
"Amdt_StdImp|Product Description: AutoCAD Mechanical|Company: Autodesk, Inc."
 90
     1024
280
     0
281
     0
  0
CLASS
  1
ACMFCFSTANDARDANSI
  2
AcmFCFStdANSI
  3
"Amdt_StdImp|Product Description: AutoCAD Mechanical|Company: Autodesk, Inc."
 90
     1024
280
     0
281
     0
  0
CLASS
  1
ACMWELDSTANDARDANSI
  2
AcmWeldingStdANSI
  3
"Amdt_StdImp|Product Description: AutoCAD Mechanical|Company: Autodesk, Inc."
 90
     1024
280
     0
281
     0
  0
CLASS
  1
ACMIDSTANDARDANSI
  2
AcmIdStdANSI
  3
"Amdt_StdImp|Product Description: AutoCAD Mechanical|Company: Autodesk, Inc."
 90
     1024
280
     0
281
     0
  0
CLASS
  1
ACMDATUMSTANDARDANSI
  2
AcmDatumStdANSI
  3
"Amdt_StdImp|Product Description: AutoCAD Mechanical|Company: Autodesk, Inc."
 90
     1024
280
     0
281
     0
  0
CLASS
  1
ACMBOMSTANDARDANSI
  2
AcmBOMStdANSI
  3
"Amdt_StdImp|Product Description: AutoCAD Mechanical|Company: Autodesk, Inc."
 90
     1024
280
     0
281
     0
  0
CLASS
  1
ACMDETAILSTANDARDANSI
  2
AmdtDetailSymStdANSI
  3
"Amdt_StdImp|Product Description: AutoCAD Mechanical|Company: Autodesk, Inc."
 90
     1024
280
     0
281
     0
  0
CLASS
  1
ACMSECTIONSTANDARDANSI
  2
AmdtSectionSymStdANSI
  3
"Amdt_StdImp|Product Description: AutoCAD Mechanical|Company: Autodesk, Inc."
 90
     1024
280
     0
281
     0
  0
CLASS
  1
ACMCENTERLINESTANDARDANSI
  2
AmdtCenterLineStdANSI
  3
"Amdt_StdImp|Product Description: AutoCAD Mechanical|Company: Autodesk, Inc."
 90
     1024
280
     0
281
     0
  0
CLASS
  1
ACMTHREADLINESTANDARDANSI
  2
AmdtThreadLineStdANSI
  3
"Amdt_StdImp|Product Description: AutoCAD Mechanical|Company: Autodesk, Inc."
 90
     1024
280
     0
281
     0
  0
CLASS
  1
ACMNOTESTANDARDANSI
  2
AmdtNoteStdANSI
  3
"Amdt_StdImp|Product Description: AutoCAD Mechanical|Company: Autodesk, Inc."
 90
     1024
280
     0
281
     0
  0
CLASS
  1
ACMTAPERSTANDARDANSI
  2
AcmTaperStdANSI
  3
"Amdt_StdImp|Product Description: AutoCAD Mechanical|Company: Autodesk, Inc."
 90
     1024
280
     0
281
     0
  0
CLASS
  1
ACMANOOTATIONVIEWSTANDARDANSI
  2
AmdtAnViewStdANSI
  3
"Amdt_StdImp|Product Description: AutoCAD Mechanical|Company: Autodesk, Inc."
 90
     1024
280
     0
281
     0
  0
CLASS
  1
ACAMGLAYSTD
  2
AcAmgLayStd
  3
"AmgLay|Product Description: AutoCAD Mechanical|Company: Autodesk, Inc."
 90
     1024
280
     0
281
     0
  0
CLASS
  1
ACAMGDIMSTD
  2
AcAmgDimStd
  3
"AmgDim|Product Description: AutoCAD Mechanical|Company: Autodesk, Inc."
 90
     1024
280
     0
281
     0
  0
CLASS
  1
AMGOBJPROPCFG
  2
AmgObjPropCfg
  3
"AmgLay|Product Description: AutoCAD Mechanical|Company: Autodesk, Inc."
 90
     1025
280
     0
281
     0
  0
CLASS
  1
ACAMGHOLECHARTSTDANSI
  2
AcAmgHoleChartStdANSI
  3
AmgDim|Product Description: AutoCAD Mechanical|Company: Autodesk, Inc.
 90
     1024
280
     0
281
     0
  0
CLASS
  1
ACAMGTITLESTD
  2
AcAmgTitleStd
  3
"AmgTitle|Product Description: AutoCAD Mechanical|Company: Autodesk, Inc."
 90
     4095
280
     0
281
     0
  0
CLASS
  1
AMDTNOTETEMPLATEDB
  2
AmdtNoteTemplateDB
  3
AcmSymBB|Product Description: AutoCAD Mechanical|Company: Autodesk, Inc.
 90
     1024
280
     0
281
     0
  0
CLASS
  1
ACAMGFILTERDAT
  2
AcAmgFilterDat
  3
"AcadM|Product Description: AutoCAD Mechanical|Company: Autodesk, Inc."
 90
     1024
280
     0
281
     0
  0
CLASS
  1
CELLSTYLEMAP
  2
AcDbCellStyleMap
  3
ObjectDBX Classes
 90
     1152
280
     0
281
     0
  0
ENDSEC
  0
SECTION
  2
TABLES
  0
TABLE
  2
VPORT
  5
8
330
0
100
AcDbSymbolTable
 70
     1
  0
VPORT
  5
2F0
330
8
100
AcDbSymbolTableRecord
100
AcDbViewportTableRecord
  2
*Active
 70
     0
 10
0.0
 20
0.0
 11
1.0
 21
1.0
 12
22.09187311963536
 22
16.88789937233222
 13
0.0
 23
0.0
 14
1.0
 24
1.0
 15
0.0
 25
0.0
 16
0.0
 26
0.0
 36
1.0
 17
0.0
 27
0.0
 37
0.0
 40
33.71535332183782
 41
2.284638554216867
 42
50.0
 43
0.0
 44
0.0
 50
0.0
 51
0.0
 71
     0
 72
   100
 73
     1
 74
     1
 75
     0
 76
     0
 77
     0
 78
     0
281
     0
 65
     0
110
0.0
120
0.0
130
0.0
111
1.0
121
0.0
131
0.0
112
0.0
122
1.0
132
0.0
 79
     0
146
0.0
  0
ENDTAB
  0
TABLE
  2
LTYPE
  5
5
330
0
100
AcDbSymbolTable
 70
    22
  0
LTYPE
  5
13
330
5
100
AcDbSymbolTableRecord
100
AcDbLinetypeTableRecord
  2
ByBlock
 70
     0
  3

 72
    65
 73
     0
 40
0.0
  0
LTYPE
  5
14
330
5
100
AcDbSymbolTableRecord
100
AcDbLinetypeTableRecord
  2
ByLayer
 70
     0
  3

 72
    65
 73
     0
 40
0.0
  0
LTYPE
  5
15
330
5
100
AcDbSymbolTableRecord
100
AcDbLinetypeTableRecord
  2
Continuous
 70
     0
  3
Solid line
 72
    65
 73
     0
 40
0.0
  0
LTYPE
  5
27
330
5
100
AcDbSymbolTableRecord
100
AcDbLinetypeTableRecord
  2
HIDDENNEW00
 70
     0
  3
_ 
 72
    65
 73
     2
 40
0.1875
 49
0.125
 74
     0
 49
-0.0625
 74
     0
  0
LTYPE
  5
28
330
5
100
AcDbSymbolTableRecord
100
AcDbLinetypeTableRecord
  2
HIDDENNEW01
 70
     0
  3
_ 
 72
    65
 73
     2
 40
0.1875
 49
0.125
 74
     0
 49
-0.0625
 74
     0
  0
LTYPE
  5
29
330
5
100
AcDbSymbolTableRecord
100
AcDbLinetypeTableRecord
  2
HIDDEN
 70
     0
  3
_ 
 72
    65
 73
     2
 40
0.1875
 49
0.125
 74
     0
 49
-0.0625
 74
     0
  0
LTYPE
  5
2A
330
5
100
AcDbSymbolTableRecord
100
AcDbLinetypeTableRecord
  2
CENTERLINE
 70
     0
  3
_ 
 72
    65
 73
     4
 40
1.25
 49
1.0
 74
     0
 49
-0.0625
 74
     0
 49
0.125
 74
     0
 49
-0.0625
 74
     0
  0
LTYPE
  5
2B
330
5
100
AcDbSymbolTableRecord
100
AcDbLinetypeTableRecord
  2
PHANTOM
 70
     0
  3
_ 
 72
    65
 73
     6
 40
1.1875
 49
0.75
 74
     0
 49
-0.0625
 74
     0
 49
0.125
 74
     0
 49
-0.0625
 74
     0
 49
0.125
 74
     0
 49
-0.0625
 74
     0
  0
LTYPE
  5
2C
330
5
100
AcDbSymbolTableRecord
100
AcDbLinetypeTableRecord
  2
SHORT_DASH
 70
     0
  3
_ 
 72
    65
 73
     2
 40
0.125
 49
0.0625
 74
     0
 49
-0.0625
 74
     0
  0
LTYPE
  5
2D
330
5
100
AcDbSymbolTableRecord
100
AcDbLinetypeTableRecord
  2
LONG_DASH
 70
     0
  3
_ 
 72
    65
 73
     2
 40
0.375
 49
0.1875
 74
     0
 49
-0.1875
 74
     0
  0
LTYPE
  5
377
330
5
100
AcDbSymbolTableRecord
100
AcDbLinetypeTableRecord
  2
PHANTOM2
 70
     0
  3
Phantom (.5x) ___ _ _ ___ _ _ ___ _ _ ___ _ _
 72
    65
 73
     6
 40
1.25
 49
0.625
 74
     0
 49
-0.125
 74
     0
 49
0.125
 74
     0
 49
-0.125
 74
     0
 49
0.125
 74
     0
 49
-0.125
 74
     0
  0
LTYPE
  5
378
330
5
100
AcDbSymbolTableRecord
100
AcDbLinetypeTableRecord
  2
CENTER
 70
     0
  3
Center ____ _ ____ _ ____ _ ____ _ ____ _ ____
 72
    65
 73
     4
 40
2.0
 49
1.25
 74
     0
 49
-0.25
 74
     0
 49
0.25
 74
     0
 49
-0.25
 74
     0
  0
LTYPE
  5
3C1
330
5
100
AcDbSymbolTableRecord
100
AcDbLinetypeTableRecord
  2
AM_ISO02W050
 70
     0
  3
__ __ __ __ __ __ __ __ __ __ __ __ __ __ __
 72
    65
 73
     2
 40
7.5
 49
6.0
 74
     0
 49
-1.5
 74
     0
  0
LTYPE
  5
3C2
330
5
100
AcDbSymbolTableRecord
100
AcDbLinetypeTableRecord
  2
AM_ISO08W050
 70
     0
  3
____ . ____ . ____ . ____ . ____ . ____ . ____
 72
    65
 73
     4
 40
18.0
 49
12.0
 74
     0
 49
-1.5
 74
     0
 49
3.0
 74
     0
 49
-1.5
 74
     0
  0
LTYPE
  5
3C3
330
5
100
AcDbSymbolTableRecord
100
AcDbLinetypeTableRecord
  2
AM_ISO09W050
 70
     0
  3
_____ . . _____ . . _____ . . ____ .. ____
 72
    65
 73
     6
 40
22.5
 49
12.0
 74
     0
 49
-1.5
 74
     0
 49
3.0
 74
     0
 49
-1.5
 74
     0
 49
3.0
 74
     0
 49
-1.5
 74
     0
  0
LTYPE
  5
3C4
330
5
100
AcDbSymbolTableRecord
100
AcDbLinetypeTableRecord
  2
Amconstr
 70
     0
  3
_______________________
 72
    65
 73
     2
 40
9999.0
 49
9999.0
 74
     0
 49
0.0
 74
     0
  0
LTYPE
  5
3C5
330
5
100
AcDbSymbolTableRecord
100
AcDbLinetypeTableRecord
  2
AM_ISO08W050x2
 70
     0
  3
__ . __ . __ . __ . __ . __
 72
    65
 73
     4
 40
9.0
 49
6.0
 74
     0
 49
-0.75
 74
     0
 49
1.5
 74
     0
 49
-0.75
 74
     0
  0
LTYPE
  5
3C6
330
5
100
AcDbSymbolTableRecord
100
AcDbLinetypeTableRecord
  2
AM_ISO02W050x2
 70
     0
  3
 _ _ _ _ _ _ _ _ _ _ _ _
 72
    65
 73
     2
 40
3.75
 49
3.0
 74
     0
 49
-0.75
 74
     0
  0
LTYPE
  5
3C9
330
5
100
AcDbSymbolTableRecord
100
AcDbLinetypeTableRecord
  2
Amzigzag
 70
     0
  3
/\/-/\/-/\/-/\/-/\/-/\/
 72
    65
 73
     2
 40
11.0001
 49
0.0001
 74
     4
 75
   136
340
3C8
 46
0.04
 50
0.0
 44
0.0
 45
0.0
 49
-11.0
 74
     0
  0
LTYPE
  5
3CA
330
5
100
AcDbSymbolTableRecord
100
AcDbLinetypeTableRecord
  2
CENTER2
 70
     0
  3
Center (.5x) ___ _ ___ _ ___ _ ___ _ ___ _ ___
 72
    65
 73
     4
 40
1.125
 49
0.75
 74
     0
 49
-0.125
 74
     0
 49
0.125
 74
     0
 49
-0.125
 74
     0
  0
LTYPE
  5
3CB
330
5
100
AcDbSymbolTableRecord
100
AcDbLinetypeTableRecord
  2
HIDDEN2
 70
     0
  3
Hidden (.5x) _ _ _ _ _ _ _ _ _ _ _ _ _ _ _ _ _
 72
    65
 73
     2
 40
0.1875
 49
0.125
 74
     0
 49
-0.0625
 74
     0
  0
LTYPE
  5
3CC
330
5
100
AcDbSymbolTableRecord
100
AcDbLinetypeTableRecord
  2
Amzigzag2
 70
     0
  3
/\/-/\/-/\/-/\/-/\/-/\/
 72
    65
 73
     2
 40
0.4401
 49
0.0001
 74
     4
 75
   136
340
3C8
 46
0.0016
 50
0.0
 44
0.0
 45
0.0
 49
-0.4400000000000001
 74
     0
  0
LTYPE
  5
3DA
330
5
100
AcDbSymbolTableRecord
100
AcDbLinetypeTableRecord
  2
ACANSTGB
 70
     0
  3
__ . . __ . .
 72
    65
 73
     6
 40
0.35433070866
 49
0.15748031496
 74
     0
 49
-0.03937007874
 74
     0
 49
0.03937007874
 74
     0
 49
-0.03937007874
 74
     0
 49
0.03937007874
 74
     0
 49
-0.03937007874
 74
     0
  0
LTYPE
  5
3DB
330
5
100
AcDbSymbolTableRecord
100
AcDbLinetypeTableRecord
  2
ACANSTGL
 70
     0
  3
_ _ _ _ _
 72
    65
 73
     2
 40
0.11811023622
 49
0.07874015748
 74
     0
 49
-0.03937007874
 74
     0
  0
ENDTAB
  0
TABLE
  2
LAYER
  5
2
330
0
100
AcDbSymbolTable
 70
   182
  0
LAYER
  5
10
102
{ACAD_XDICTIONARY
360
3E9
102
}
330
2
100
AcDbSymbolTableRecord
100
AcDbLayerTableRecord
  2
0
 70
     0
 62
     7
  6
Continuous
370
    -3
390
F
  0
LAYER
  5
26
102
{ACAD_XDICTIONARY
360
3EB
102
}
330
2
100
AcDbSymbolTableRecord
100
AcDbLayerTableRecord
  2
1
 70
     0
 62
     7
  6
Continuous
370
    -3
390
F
  0
LAYER
  5
2E
102
{ACAD_XDICTIONARY
360
3ED
102
}
330
2
100
AcDbSymbolTableRecord
100
AcDbLayerTableRecord
  2
2
 70
     0
 62
     7
  6
Continuous
370
    -3
390
F
  0
LAYER
  5
2F
102
{ACAD_XDICTIONARY
360
3EF
102
}
330
2
100
AcDbSymbolTableRecord
100
AcDbLayerTableRecord
  2
3
 70
     0
 62
     7
  6
Continuous
370
    -3
390
F
  0
LAYER
  5
30
102
{ACAD_XDICTIONARY
360
3F1
102
}
330
2
100
AcDbSymbolTableRecord
100
AcDbLayerTableRecord
  2
4
 70
     0
 62
     7
  6
Continuous
370
    -3
390
F
  0
LAYER
  5
31
102
{ACAD_XDICTIONARY
360
3F3
102
}
330
2
100
AcDbSymbolTableRecord
100
AcDbLayerTableRecord
  2
5
 70
     0
 62
     7
  6
Continuous
370
    -3
390
F
  0
LAYER
  5
32
102
{ACAD_XDICTIONARY
360
3F5
102
}
330
2
100
AcDbSymbolTableRecord
100
AcDbLayerTableRecord
  2
6
 70
     0
 62
     7
  6
Continuous
370
    -3
390
F
  0
LAYER
  5
33
102
{ACAD_XDICTIONARY
360
3F7
102
}
330
2
100
AcDbSymbolTableRecord
100
AcDbLayerTableRecord
  2
7
 70
     0
 62
     7
  6
Continuous
370
    -3
390
F
  0
LAYER
  5
34
102
{ACAD_XDICTIONARY
360
3F9
102
}
330
2
100
AcDbSymbolTableRecord
100
AcDbLayerTableRecord
  2
8
 70
     0
 62
     7
  6
Continuous
370
    -3
390
F
  0
LAYER
  5
35
102
{ACAD_XDICTIONARY
360
3FB
102
}
330
2
100
AcDbSymbolTableRecord
100
AcDbLayerTableRecord
  2
9
 70
     0
 62
     7
  6
Continuous
370
    -3
390
F
  0
LAYER
  5
36
102
{ACAD_XDICTIONARY
360
3FD
102
}
330
2
100
AcDbSymbolTableRecord
100
AcDbLayerTableRecord
  2
10
 70
     0
 62
     7
  6
Continuous
370
    -3
390
F
  0
LAYER
  5
37
102
{ACAD_XDICTIONARY
360
3FF
102
}
330
2
100
AcDbSymbolTableRecord
100
AcDbLayerTableRecord
  2
11
 70
     0
 62
     7
  6
Continuous
370
    -3
390
F
  0
LAYER
  5
38
102
{ACAD_XDICTIONARY
360
401
102
}
330
2
100
AcDbSymbolTableRecord
100
AcDbLayerTableRecord
  2
12
 70
     0
 62
     7
  6
Continuous
370
    -3
390
F
  0
LAYER
  5
39
102
{ACAD_XDICTIONARY
360
403
102
}
330
2
100
AcDbSymbolTableRecord
100
AcDbLayerTableRecord
  2
13
 70
     0
 62
     7
  6
Continuous
370
    -3
390
F
  0
LAYER
  5
3A
102
{ACAD_XDICTIONARY
360
405
102
}
330
2
100
AcDbSymbolTableRecord
100
AcDbLayerTableRecord
  2
14
 70
     0
 62
     7
  6
Continuous
370
    -3
390
F
  0
LAYER
  5
3B
102
{ACAD_XDICTIONARY
360
407
102
}
330
2
100
AcDbSymbolTableRecord
100
AcDbLayerTableRecord
  2
15
 70
     0
 62
     7
  6
Continuous
370
    -3
390
F
  0
LAYER
  5
3C
102
{ACAD_XDICTIONARY
360
409
102
}
330
2
100
AcDbSymbolTableRecord
100
AcDbLayerTableRecord
  2
16
 70
     0
 62
     7
  6
Continuous
370
    -3
390
F
  0
LAYER
  5
3D
102
{ACAD_XDICTIONARY
360
40B
102
}
330
2
100
AcDbSymbolTableRecord
100
AcDbLayerTableRecord
  2
17
 70
     0
 62
     7
  6
Continuous
370
    -3
390
F
  0
LAYER
  5
3E
102
{ACAD_XDICTIONARY
360
40D
102
}
330
2
100
AcDbSymbolTableRecord
100
AcDbLayerTableRecord
  2
18
 70
     0
 62
     7
  6
Continuous
370
    -3
390
F
  0
LAYER
  5
3F
102
{ACAD_XDICTIONARY
360
40F
102
}
330
2
100
AcDbSymbolTableRecord
100
AcDbLayerTableRecord
  2
19
 70
     0
 62
     7
  6
Continuous
370
    -3
390
F
  0
LAYER
  5
40
102
{ACAD_XDICTIONARY
360
411
102
}
330
2
100
AcDbSymbolTableRecord
100
AcDbLayerTableRecord
  2
20
 70
     0
 62
     7
  6
Continuous
370
    -3
390
F
  0
LAYER
  5
41
102
{ACAD_XDICTIONARY
360
413
102
}
330
2
100
AcDbSymbolTableRecord
100
AcDbLayerTableRecord
  2
21
 70
     0
 62
     7
  6
Continuous
370
    -3
390
F
  0
LAYER
  5
42
102
{ACAD_XDICTIONARY
360
415
102
}
330
2
100
AcDbSymbolTableRecord
100
AcDbLayerTableRecord
  2
22
 70
     0
 62
     7
  6
Continuous
370
    -3
390
F
  0
LAYER
  5
43
102
{ACAD_XDICTIONARY
360
417
102
}
330
2
100
AcDbSymbolTableRecord
100
AcDbLayerTableRecord
  2
23
 70
     0
 62
     7
  6
Continuous
370
    -3
390
F
  0
LAYER
  5
44
102
{ACAD_XDICTIONARY
360
419
102
}
330
2
100
AcDbSymbolTableRecord
100
AcDbLayerTableRecord
  2
24
 70
     0
 62
     7
  6
Continuous
370
    -3
390
F
  0
LAYER
  5
45
102
{ACAD_XDICTIONARY
360
41B
102
}
330
2
100
AcDbSymbolTableRecord
100
AcDbLayerTableRecord
  2
25
 70
     0
 62
     7
  6
Continuous
370
    -3
390
F
  0
LAYER
  5
46
102
{ACAD_XDICTIONARY
360
41D
102
}
330
2
100
AcDbSymbolTableRecord
100
AcDbLayerTableRecord
  2
26
 70
     0
 62
     7
  6
Continuous
370
    -3
390
F
  0
LAYER
  5
47
102
{ACAD_XDICTIONARY
360
41F
102
}
330
2
100
AcDbSymbolTableRecord
100
AcDbLayerTableRecord
  2
27
 70
     0
 62
     7
  6
Continuous
370
    -3
390
F
  0
LAYER
  5
48
102
{ACAD_XDICTIONARY
360
421
102
}
330
2
100
AcDbSymbolTableRecord
100
AcDbLayerTableRecord
  2
28
 70
     0
 62
     7
  6
Continuous
370
    -3
390
F
  0
LAYER
  5
49
102
{ACAD_XDICTIONARY
360
423
102
}
330
2
100
AcDbSymbolTableRecord
100
AcDbLayerTableRecord
  2
29
 70
     0
 62
     7
  6
Continuous
370
    -3
390
F
  0
LAYER
  5
4A
102
{ACAD_XDICTIONARY
360
425
102
}
330
2
100
AcDbSymbolTableRecord
100
AcDbLayerTableRecord
  2
30
 70
     0
 62
     7
  6
Continuous
370
    -3
390
F
  0
LAYER
  5
4B
102
{ACAD_XDICTIONARY
360
427
102
}
330
2
100
AcDbSymbolTableRecord
100
AcDbLayerTableRecord
  2
31
 70
     0
 62
     7
  6
Continuous
370
    -3
390
F
  0
LAYER
  5
4C
102
{ACAD_XDICTIONARY
360
429
102
}
330
2
100
AcDbSymbolTableRecord
100
AcDbLayerTableRecord
  2
32
 70
     0
 62
     7
  6
Continuous
370
    -3
390
F
  0
LAYER
  5
4D
102
{ACAD_XDICTIONARY
360
42B
102
}
330
2
100
AcDbSymbolTableRecord
100
AcDbLayerTableRecord
  2
33
 70
     0
 62
     7
  6
Continuous
370
    -3
390
F
  0
LAYER
  5
4E
102
{ACAD_XDICTIONARY
360
42D
102
}
330
2
100
AcDbSymbolTableRecord
100
AcDbLayerTableRecord
  2
34
 70
     0
 62
     7
  6
Continuous
370
    -3
390
F
  0
LAYER
  5
4F
102
{ACAD_XDICTIONARY
360
42F
102
}
330
2
100
AcDbSymbolTableRecord
100
AcDbLayerTableRecord
  2
35
 70
     0
 62
     7
  6
Continuous
370
    -3
390
F
  0
LAYER
  5
50
102
{ACAD_XDICTIONARY
360
431
102
}
330
2
100
AcDbSymbolTableRecord
100
AcDbLayerTableRecord
  2
36
 70
     0
 62
     7
  6
Continuous
370
    -3
390
F
  0
LAYER
  5
51
102
{ACAD_XDICTIONARY
360
433
102
}
330
2
100
AcDbSymbolTableRecord
100
AcDbLayerTableRecord
  2
37
 70
     0
 62
     7
  6
Continuous
370
    -3
390
F
  0
LAYER
  5
52
102
{ACAD_XDICTIONARY
360
435
102
}
330
2
100
AcDbSymbolTableRecord
100
AcDbLayerTableRecord
  2
38
 70
     0
 62
     7
  6
Continuous
370
    -3
390
F
  0
LAYER
  5
53
102
{ACAD_XDICTIONARY
360
437
102
}
330
2
100
AcDbSymbolTableRecord
100
AcDbLayerTableRecord
  2
39
 70
     0
 62
     7
  6
Continuous
370
    -3
390
F
  0
LAYER
  5
54
102
{ACAD_XDICTIONARY
360
439
102
}
330
2
100
AcDbSymbolTableRecord
100
AcDbLayerTableRecord
  2
40
 70
     0
 62
     7
  6
Continuous
370
    -3
390
F
  0
LAYER
  5
55
102
{ACAD_XDICTIONARY
360
43B
102
}
330
2
100
AcDbSymbolTableRecord
100
AcDbLayerTableRecord
  2
41
 70
     0
 62
     7
  6
Continuous
370
    -3
390
F
  0
LAYER
  5
56
102
{ACAD_XDICTIONARY
360
43D
102
}
330
2
100
AcDbSymbolTableRecord
100
AcDbLayerTableRecord
  2
42
 70
     0
 62
     7
  6
Continuous
370
    -3
390
F
  0
LAYER
  5
57
102
{ACAD_XDICTIONARY
360
43F
102
}
330
2
100
AcDbSymbolTableRecord
100
AcDbLayerTableRecord
  2
43
 70
     0
 62
     7
  6
Continuous
370
    -3
390
F
  0
LAYER
  5
58
102
{ACAD_XDICTIONARY
360
441
102
}
330
2
100
AcDbSymbolTableRecord
100
AcDbLayerTableRecord
  2
44
 70
     0
 62
     7
  6
Continuous
370
    -3
390
F
  0
LAYER
  5
59
102
{ACAD_XDICTIONARY
360
443
102
}
330
2
100
AcDbSymbolTableRecord
100
AcDbLayerTableRecord
  2
45
 70
     0
 62
     7
  6
Continuous
370
    -3
390
F
  0
LAYER
  5
5A
102
{ACAD_XDICTIONARY
360
445
102
}
330
2
100
AcDbSymbolTableRecord
100
AcDbLayerTableRecord
  2
46
 70
     0
 62
     7
  6
Continuous
370
    -3
390
F
  0
LAYER
  5
5B
102
{ACAD_XDICTIONARY
360
447
102
}
330
2
100
AcDbSymbolTableRecord
100
AcDbLayerTableRecord
  2
47
 70
     0
 62
     7
  6
Continuous
370
    -3
390
F
  0
LAYER
  5
5C
102
{ACAD_XDICTIONARY
360
449
102
}
330
2
100
AcDbSymbolTableRecord
100
AcDbLayerTableRecord
  2
48
 70
     0
 62
     7
  6
Continuous
370
    -3
390
F
  0
LAYER
  5
5D
102
{ACAD_XDICTIONARY
360
44B
102
}
330
2
100
AcDbSymbolTableRecord
100
AcDbLayerTableRecord
  2
49
 70
     0
 62
     7
  6
Continuous
370
    -3
390
F
  0
LAYER
  5
5E
102
{ACAD_XDICTIONARY
360
44D
102
}
330
2
100
AcDbSymbolTableRecord
100
AcDbLayerTableRecord
  2
50
 70
     0
 62
     7
  6
Continuous
370
    -3
390
F
  0
LAYER
  5
5F
102
{ACAD_XDICTIONARY
360
44F
102
}
330
2
100
AcDbSymbolTableRecord
100
AcDbLayerTableRecord
  2
51
 70
     0
 62
     7
  6
Continuous
370
    -3
390
F
  0
LAYER
  5
60
102
{ACAD_XDICTIONARY
360
451
102
}
330
2
100
AcDbSymbolTableRecord
100
AcDbLayerTableRecord
  2
52
 70
     0
 62
     7
  6
Continuous
370
    -3
390
F
  0
LAYER
  5
61
102
{ACAD_XDICTIONARY
360
453
102
}
330
2
100
AcDbSymbolTableRecord
100
AcDbLayerTableRecord
  2
53
 70
     0
 62
     7
  6
Continuous
370
    -3
390
F
  0
LAYER
  5
62
102
{ACAD_XDICTIONARY
360
455
102
}
330
2
100
AcDbSymbolTableRecord
100
AcDbLayerTableRecord
  2
54
 70
     0
 62
     7
  6
Continuous
370
    -3
390
F
  0
LAYER
  5
63
102
{ACAD_XDICTIONARY
360
457
102
}
330
2
100
AcDbSymbolTableRecord
100
AcDbLayerTableRecord
  2
55
 70
     0
 62
     7
  6
Continuous
370
    -3
390
F
  0
LAYER
  5
64
102
{ACAD_XDICTIONARY
360
459
102
}
330
2
100
AcDbSymbolTableRecord
100
AcDbLayerTableRecord
  2
56
 70
     0
 62
     7
  6
Continuous
370
    -3
390
F
  0
LAYER
  5
65
102
{ACAD_XDICTIONARY
360
45B
102
}
330
2
100
AcDbSymbolTableRecord
100
AcDbLayerTableRecord
  2
57
 70
     0
 62
     7
  6
Continuous
370
    -3
390
F
  0
LAYER
  5
66
102
{ACAD_XDICTIONARY
360
45D
102
}
330
2
100
AcDbSymbolTableRecord
100
AcDbLayerTableRecord
  2
58
 70
     0
 62
     7
  6
Continuous
370
    -3
390
F
  0
LAYER
  5
67
102
{ACAD_XDICTIONARY
360
45F
102
}
330
2
100
AcDbSymbolTableRecord
100
AcDbLayerTableRecord
  2
59
 70
     0
 62
     7
  6
Continuous
370
    -3
390
F
  0
LAYER
  5
68
102
{ACAD_XDICTIONARY
360
461
102
}
330
2
100
AcDbSymbolTableRecord
100
AcDbLayerTableRecord
  2
60
 70
     0
 62
     7
  6
Continuous
370
    -3
390
F
  0
LAYER
  5
69
102
{ACAD_XDICTIONARY
360
463
102
}
330
2
100
AcDbSymbolTableRecord
100
AcDbLayerTableRecord
  2
61
 70
     0
 62
     7
  6
Continuous
370
    -3
390
F
  0
LAYER
  5
6A
102
{ACAD_XDICTIONARY
360
465
102
}
330
2
100
AcDbSymbolTableRecord
100
AcDbLayerTableRecord
  2
62
 70
     0
 62
     7
  6
Continuous
370
    -3
390
F
  0
LAYER
  5
6B
102
{ACAD_XDICTIONARY
360
467
102
}
330
2
100
AcDbSymbolTableRecord
100
AcDbLayerTableRecord
  2
63
 70
     0
 62
     7
  6
Continuous
370
    -3
390
F
  0
LAYER
  5
6C
102
{ACAD_XDICTIONARY
360
469
102
}
330
2
100
AcDbSymbolTableRecord
100
AcDbLayerTableRecord
  2
64
 70
     0
 62
     7
  6
Continuous
370
    -3
390
F
  0
LAYER
  5
6D
102
{ACAD_XDICTIONARY
360
46B
102
}
330
2
100
AcDbSymbolTableRecord
100
AcDbLayerTableRecord
  2
65
 70
     0
 62
     7
  6
Continuous
370
    -3
390
F
  0
LAYER
  5
6E
102
{ACAD_XDICTIONARY
360
46D
102
}
330
2
100
AcDbSymbolTableRecord
100
AcDbLayerTableRecord
  2
66
 70
     0
 62
     7
  6
Continuous
370
    -3
390
F
  0
LAYER
  5
6F
102
{ACAD_XDICTIONARY
360
46F
102
}
330
2
100
AcDbSymbolTableRecord
100
AcDbLayerTableRecord
  2
67
 70
     0
 62
     7
  6
Continuous
370
    -3
390
F
  0
LAYER
  5
70
102
{ACAD_XDICTIONARY
360
471
102
}
330
2
100
AcDbSymbolTableRecord
100
AcDbLayerTableRecord
  2
68
 70
     0
 62
     7
  6
Continuous
370
    -3
390
F
  0
LAYER
  5
71
102
{ACAD_XDICTIONARY
360
473
102
}
330
2
100
AcDbSymbolTableRecord
100
AcDbLayerTableRecord
  2
69
 70
     0
 62
     7
  6
Continuous
370
    -3
390
F
  0
LAYER
  5
72
102
{ACAD_XDICTIONARY
360
475
102
}
330
2
100
AcDbSymbolTableRecord
100
AcDbLayerTableRecord
  2
70
 70
     0
 62
     7
  6
Continuous
370
    -3
390
F
  0
LAYER
  5
73
102
{ACAD_XDICTIONARY
360
477
102
}
330
2
100
AcDbSymbolTableRecord
100
AcDbLayerTableRecord
  2
71
 70
     0
 62
     7
  6
Continuous
370
    -3
390
F
  0
LAYER
  5
74
102
{ACAD_XDICTIONARY
360
479
102
}
330
2
100
AcDbSymbolTableRecord
100
AcDbLayerTableRecord
  2
72
 70
     0
 62
     7
  6
Continuous
370
    -3
390
F
  0
LAYER
  5
75
102
{ACAD_XDICTIONARY
360
47B
102
}
330
2
100
AcDbSymbolTableRecord
100
AcDbLayerTableRecord
  2
73
 70
     0
 62
     7
  6
Continuous
370
    -3
390
F
  0
LAYER
  5
76
102
{ACAD_XDICTIONARY
360
47D
102
}
330
2
100
AcDbSymbolTableRecord
100
AcDbLayerTableRecord
  2
74
 70
     0
 62
     7
  6
Continuous
370
    -3
390
F
  0
LAYER
  5
77
102
{ACAD_XDICTIONARY
360
47F
102
}
330
2
100
AcDbSymbolTableRecord
100
AcDbLayerTableRecord
  2
75
 70
     0
 62
     7
  6
Continuous
370
    -3
390
F
  0
LAYER
  5
78
102
{ACAD_XDICTIONARY
360
481
102
}
330
2
100
AcDbSymbolTableRecord
100
AcDbLayerTableRecord
  2
76
 70
     0
 62
     7
  6
Continuous
370
    -3
390
F
  0
LAYER
  5
79
102
{ACAD_XDICTIONARY
360
483
102
}
330
2
100
AcDbSymbolTableRecord
100
AcDbLayerTableRecord
  2
77
 70
     0
 62
     7
  6
Continuous
370
    -3
390
F
  0
LAYER
  5
7A
102
{ACAD_XDICTIONARY
360
485
102
}
330
2
100
AcDbSymbolTableRecord
100
AcDbLayerTableRecord
  2
78
 70
     0
 62
     7
  6
Continuous
370
    -3
390
F
  0
LAYER
  5
7B
102
{ACAD_XDICTIONARY
360
487
102
}
330
2
100
AcDbSymbolTableRecord
100
AcDbLayerTableRecord
  2
79
 70
     0
 62
     7
  6
Continuous
370
    -3
390
F
  0
LAYER
  5
7C
102
{ACAD_XDICTIONARY
360
489
102
}
330
2
100
AcDbSymbolTableRecord
100
AcDbLayerTableRecord
  2
80
 70
     0
 62
     7
  6
Continuous
370
    -3
390
F
  0
LAYER
  5
7D
102
{ACAD_XDICTIONARY
360
48B
102
}
330
2
100
AcDbSymbolTableRecord
100
AcDbLayerTableRecord
  2
81
 70
     0
 62
     7
  6
Continuous
370
    -3
390
F
  0
LAYER
  5
7E
102
{ACAD_XDICTIONARY
360
48D
102
}
330
2
100
AcDbSymbolTableRecord
100
AcDbLayerTableRecord
  2
82
 70
     0
 62
     7
  6
Continuous
370
    -3
390
F
  0
LAYER
  5
7F
102
{ACAD_XDICTIONARY
360
48F
102
}
330
2
100
AcDbSymbolTableRecord
100
AcDbLayerTableRecord
  2
83
 70
     0
 62
     7
  6
Continuous
370
    -3
390
F
  0
LAYER
  5
80
102
{ACAD_XDICTIONARY
360
491
102
}
330
2
100
AcDbSymbolTableRecord
100
AcDbLayerTableRecord
  2
84
 70
     0
 62
     7
  6
Continuous
370
    -3
390
F
  0
LAYER
  5
81
102
{ACAD_XDICTIONARY
360
493
102
}
330
2
100
AcDbSymbolTableRecord
100
AcDbLayerTableRecord
  2
85
 70
     0
 62
     7
  6
Continuous
370
    -3
390
F
  0
LAYER
  5
82
102
{ACAD_XDICTIONARY
360
495
102
}
330
2
100
AcDbSymbolTableRecord
100
AcDbLayerTableRecord
  2
86
 70
     0
 62
     7
  6
Continuous
370
    -3
390
F
  0
LAYER
  5
83
102
{ACAD_XDICTIONARY
360
497
102
}
330
2
100
AcDbSymbolTableRecord
100
AcDbLayerTableRecord
  2
87
 70
     0
 62
     7
  6
Continuous
370
    -3
390
F
  0
LAYER
  5
84
102
{ACAD_XDICTIONARY
360
499
102
}
330
2
100
AcDbSymbolTableRecord
100
AcDbLayerTableRecord
  2
88
 70
     0
 62
     7
  6
Continuous
370
    -3
390
F
  0
LAYER
  5
85
102
{ACAD_XDICTIONARY
360
49B
102
}
330
2
100
AcDbSymbolTableRecord
100
AcDbLayerTableRecord
  2
89
 70
     0
 62
     7
  6
Continuous
370
    -3
390
F
  0
LAYER
  5
86
102
{ACAD_XDICTIONARY
360
49D
102
}
330
2
100
AcDbSymbolTableRecord
100
AcDbLayerTableRecord
  2
90
 70
     0
 62
     7
  6
Continuous
370
    -3
390
F
  0
LAYER
  5
87
102
{ACAD_XDICTIONARY
360
49F
102
}
330
2
100
AcDbSymbolTableRecord
100
AcDbLayerTableRecord
  2
91
 70
     0
 62
     7
  6
Continuous
370
    -3
390
F
  0
LAYER
  5
88
102
{ACAD_XDICTIONARY
360
4A1
102
}
330
2
100
AcDbSymbolTableRecord
100
AcDbLayerTableRecord
  2
92
 70
     0
 62
     7
  6
Continuous
370
    -3
390
F
  0
LAYER
  5
89
102
{ACAD_XDICTIONARY
360
4A3
102
}
330
2
100
AcDbSymbolTableRecord
100
AcDbLayerTableRecord
  2
93
 70
     0
 62
     7
  6
Continuous
370
    -3
390
F
  0
LAYER
  5
8A
102
{ACAD_XDICTIONARY
360
4A5
102
}
330
2
100
AcDbSymbolTableRecord
100
AcDbLayerTableRecord
  2
94
 70
     0
 62
     7
  6
Continuous
370
    -3
390
F
  0
LAYER
  5
8B
102
{ACAD_XDICTIONARY
360
4A7
102
}
330
2
100
AcDbSymbolTableRecord
100
AcDbLayerTableRecord
  2
95
 70
     0
 62
     7
  6
Continuous
370
    -3
390
F
  0
LAYER
  5
8C
102
{ACAD_XDICTIONARY
360
4A9
102
}
330
2
100
AcDbSymbolTableRecord
100
AcDbLayerTableRecord
  2
96
 70
     0
 62
     7
  6
Continuous
370
    -3
390
F
  0
LAYER
  5
8D
102
{ACAD_XDICTIONARY
360
4AB
102
}
330
2
100
AcDbSymbolTableRecord
100
AcDbLayerTableRecord
  2
97
 70
     0
 62
     7
  6
Continuous
370
    -3
390
F
  0
LAYER
  5
8E
102
{ACAD_XDICTIONARY
360
4AD
102
}
330
2
100
AcDbSymbolTableRecord
100
AcDbLayerTableRecord
  2
98
 70
     0
 62
     7
  6
Continuous
370
    -3
390
F
  0
LAYER
  5
8F
102
{ACAD_XDICTIONARY
360
4AF
102
}
330
2
100
AcDbSymbolTableRecord
100
AcDbLayerTableRecord
  2
99
 70
     0
 62
     7
  6
Continuous
370
    -3
390
F
  0
LAYER
  5
90
102
{ACAD_XDICTIONARY
360
4B1
102
}
330
2
100
AcDbSymbolTableRecord
100
AcDbLayerTableRecord
  2
100
 70
     0
 62
     7
  6
Continuous
370
    -3
390
F
  0
LAYER
  5
91
102
{ACAD_XDICTIONARY
360
4B3
102
}
330
2
100
AcDbSymbolTableRecord
100
AcDbLayerTableRecord
  2
101
 70
     0
 62
     7
  6
Continuous
370
    -3
390
F
  0
LAYER
  5
92
102
{ACAD_XDICTIONARY
360
4B5
102
}
330
2
100
AcDbSymbolTableRecord
100
AcDbLayerTableRecord
  2
102
 70
     0
 62
     7
  6
Continuous
370
    -3
390
F
  0
LAYER
  5
93
102
{ACAD_XDICTIONARY
360
4B7
102
}
330
2
100
AcDbSymbolTableRecord
100
AcDbLayerTableRecord
  2
103
 70
     0
 62
     7
  6
Continuous
370
    -3
390
F
  0
LAYER
  5
94
102
{ACAD_XDICTIONARY
360
4B9
102
}
330
2
100
AcDbSymbolTableRecord
100
AcDbLayerTableRecord
  2
104
 70
     0
 62
     7
  6
Continuous
370
    -3
390
F
  0
LAYER
  5
95
102
{ACAD_XDICTIONARY
360
4BB
102
}
330
2
100
AcDbSymbolTableRecord
100
AcDbLayerTableRecord
  2
105
 70
     0
 62
     7
  6
Continuous
370
    -3
390
F
  0
LAYER
  5
96
102
{ACAD_XDICTIONARY
360
4BD
102
}
330
2
100
AcDbSymbolTableRecord
100
AcDbLayerTableRecord
  2
106
 70
     0
 62
     7
  6
Continuous
370
    -3
390
F
  0
LAYER
  5
97
102
{ACAD_XDICTIONARY
360
4BF
102
}
330
2
100
AcDbSymbolTableRecord
100
AcDbLayerTableRecord
  2
107
 70
     0
 62
     7
  6
Continuous
370
    -3
390
F
  0
LAYER
  5
98
102
{ACAD_XDICTIONARY
360
4C1
102
}
330
2
100
AcDbSymbolTableRecord
100
AcDbLayerTableRecord
  2
108
 70
     0
 62
     7
  6
Continuous
370
    -3
390
F
  0
LAYER
  5
99
102
{ACAD_XDICTIONARY
360
4C3
102
}
330
2
100
AcDbSymbolTableRecord
100
AcDbLayerTableRecord
  2
109
 70
     0
 62
     7
  6
Continuous
370
    -3
390
F
  0
LAYER
  5
9A
102
{ACAD_XDICTIONARY
360
4C5
102
}
330
2
100
AcDbSymbolTableRecord
100
AcDbLayerTableRecord
  2
110
 70
     0
 62
     7
  6
Continuous
370
    -3
390
F
  0
LAYER
  5
9B
102
{ACAD_XDICTIONARY
360
4C7
102
}
330
2
100
AcDbSymbolTableRecord
100
AcDbLayerTableRecord
  2
111
 70
     0
 62
     7
  6
Continuous
370
    -3
390
F
  0
LAYER
  5
9C
102
{ACAD_XDICTIONARY
360
4C9
102
}
330
2
100
AcDbSymbolTableRecord
100
AcDbLayerTableRecord
  2
112
 70
     0
 62
     7
  6
Continuous
370
    -3
390
F
  0
LAYER
  5
9D
102
{ACAD_XDICTIONARY
360
4CB
102
}
330
2
100
AcDbSymbolTableRecord
100
AcDbLayerTableRecord
  2
113
 70
     0
 62
     7
  6
Continuous
370
    -3
390
F
  0
LAYER
  5
9E
102
{ACAD_XDICTIONARY
360
4CD
102
}
330
2
100
AcDbSymbolTableRecord
100
AcDbLayerTableRecord
  2
114
 70
     0
 62
     7
  6
Continuous
370
    -3
390
F
  0
LAYER
  5
9F
102
{ACAD_XDICTIONARY
360
4CF
102
}
330
2
100
AcDbSymbolTableRecord
100
AcDbLayerTableRecord
  2
115
 70
     0
 62
     7
  6
Continuous
370
    -3
390
F
  0
LAYER
  5
A0
102
{ACAD_XDICTIONARY
360
4D1
102
}
330
2
100
AcDbSymbolTableRecord
100
AcDbLayerTableRecord
  2
116
 70
     0
 62
     7
  6
Continuous
370
    -3
390
F
  0
LAYER
  5
A1
102
{ACAD_XDICTIONARY
360
4D3
102
}
330
2
100
AcDbSymbolTableRecord
100
AcDbLayerTableRecord
  2
117
 70
     0
 62
     7
  6
Continuous
370
    -3
390
F
  0
LAYER
  5
A2
102
{ACAD_XDICTIONARY
360
4D5
102
}
330
2
100
AcDbSymbolTableRecord
100
AcDbLayerTableRecord
  2
118
 70
     0
 62
     7
  6
Continuous
370
    -3
390
F
  0
LAYER
  5
A3
102
{ACAD_XDICTIONARY
360
4D7
102
}
330
2
100
AcDbSymbolTableRecord
100
AcDbLayerTableRecord
  2
119
 70
     0
 62
     7
  6
Continuous
370
    -3
390
F
  0
LAYER
  5
A4
102
{ACAD_XDICTIONARY
360
4D9
102
}
330
2
100
AcDbSymbolTableRecord
100
AcDbLayerTableRecord
  2
120
 70
     0
 62
     7
  6
Continuous
370
    -3
390
F
  0
LAYER
  5
A5
102
{ACAD_XDICTIONARY
360
4DB
102
}
330
2
100
AcDbSymbolTableRecord
100
AcDbLayerTableRecord
  2
121
 70
     0
 62
     7
  6
Continuous
370
    -3
390
F
  0
LAYER
  5
A6
102
{ACAD_XDICTIONARY
360
4DD
102
}
330
2
100
AcDbSymbolTableRecord
100
AcDbLayerTableRecord
  2
122
 70
     0
 62
     7
  6
Continuous
370
    -3
390
F
  0
LAYER
  5
A7
102
{ACAD_XDICTIONARY
360
4DF
102
}
330
2
100
AcDbSymbolTableRecord
100
AcDbLayerTableRecord
  2
123
 70
     0
 62
     7
  6
Continuous
370
    -3
390
F
  0
LAYER
  5
A8
102
{ACAD_XDICTIONARY
360
4E1
102
}
330
2
100
AcDbSymbolTableRecord
100
AcDbLayerTableRecord
  2
124
 70
     0
 62
     7
  6
Continuous
370
    -3
390
F
  0
LAYER
  5
A9
102
{ACAD_XDICTIONARY
360
4E3
102
}
330
2
100
AcDbSymbolTableRecord
100
AcDbLayerTableRecord
  2
125
 70
     0
 62
     7
  6
Continuous
370
    -3
390
F
  0
LAYER
  5
AA
102
{ACAD_XDICTIONARY
360
4E5
102
}
330
2
100
AcDbSymbolTableRecord
100
AcDbLayerTableRecord
  2
126
 70
     0
 62
     7
  6
Continuous
370
    -3
390
F
  0
LAYER
  5
AB
102
{ACAD_XDICTIONARY
360
4E7
102
}
330
2
100
AcDbSymbolTableRecord
100
AcDbLayerTableRecord
  2
127
 70
     0
 62
     7
  6
Continuous
370
    -3
390
F
  0
LAYER
  5
AC
102
{ACAD_XDICTIONARY
360
4E9
102
}
330
2
100
AcDbSymbolTableRecord
100
AcDbLayerTableRecord
  2
128
 70
     0
 62
     7
  6
Continuous
370
    -3
390
F
  0
LAYER
  5
AD
102
{ACAD_XDICTIONARY
360
4EB
102
}
330
2
100
AcDbSymbolTableRecord
100
AcDbLayerTableRecord
  2
129
 70
     0
 62
     7
  6
Continuous
370
    -3
390
F
  0
LAYER
  5
AE
102
{ACAD_XDICTIONARY
360
4ED
102
}
330
2
100
AcDbSymbolTableRecord
100
AcDbLayerTableRecord
  2
130
 70
     0
 62
     7
  6
Continuous
370
    -3
390
F
  0
LAYER
  5
AF
102
{ACAD_XDICTIONARY
360
4EF
102
}
330
2
100
AcDbSymbolTableRecord
100
AcDbLayerTableRecord
  2
131
 70
     0
 62
     7
  6
Continuous
370
    -3
390
F
  0
LAYER
  5
B0
102
{ACAD_XDICTIONARY
360
4F1
102
}
330
2
100
AcDbSymbolTableRecord
100
AcDbLayerTableRecord
  2
132
 70
     0
 62
     7
  6
Continuous
370
    -3
390
F
  0
LAYER
  5
B1
102
{ACAD_XDICTIONARY
360
4F3
102
}
330
2
100
AcDbSymbolTableRecord
100
AcDbLayerTableRecord
  2
133
 70
     0
 62
     7
  6
Continuous
370
    -3
390
F
  0
LAYER
  5
B2
102
{ACAD_XDICTIONARY
360
4F5
102
}
330
2
100
AcDbSymbolTableRecord
100
AcDbLayerTableRecord
  2
134
 70
     0
 62
     7
  6
Continuous
370
    -3
390
F
  0
LAYER
  5
B3
102
{ACAD_XDICTIONARY
360
4F7
102
}
330
2
100
AcDbSymbolTableRecord
100
AcDbLayerTableRecord
  2
135
 70
     0
 62
     7
  6
Continuous
370
    -3
390
F
  0
LAYER
  5
B4
102
{ACAD_XDICTIONARY
360
4F9
102
}
330
2
100
AcDbSymbolTableRecord
100
AcDbLayerTableRecord
  2
136
 70
     0
 62
     7
  6
Continuous
370
    -3
390
F
  0
LAYER
  5
B5
102
{ACAD_XDICTIONARY
360
4FB
102
}
330
2
100
AcDbSymbolTableRecord
100
AcDbLayerTableRecord
  2
137
 70
     0
 62
     7
  6
Continuous
370
    -3
390
F
  0
LAYER
  5
B6
102
{ACAD_XDICTIONARY
360
4FD
102
}
330
2
100
AcDbSymbolTableRecord
100
AcDbLayerTableRecord
  2
138
 70
     0
 62
     7
  6
Continuous
370
    -3
390
F
  0
LAYER
  5
B7
102
{ACAD_XDICTIONARY
360
4FF
102
}
330
2
100
AcDbSymbolTableRecord
100
AcDbLayerTableRecord
  2
139
 70
     0
 62
     7
  6
Continuous
370
    -3
390
F
  0
LAYER
  5
B8
102
{ACAD_XDICTIONARY
360
501
102
}
330
2
100
AcDbSymbolTableRecord
100
AcDbLayerTableRecord
  2
140
 70
     0
 62
     7
  6
Continuous
370
    -3
390
F
  0
LAYER
  5
B9
102
{ACAD_XDICTIONARY
360
503
102
}
330
2
100
AcDbSymbolTableRecord
100
AcDbLayerTableRecord
  2
141
 70
     0
 62
     7
  6
Continuous
370
    -3
390
F
  0
LAYER
  5
BA
102
{ACAD_XDICTIONARY
360
505
102
}
330
2
100
AcDbSymbolTableRecord
100
AcDbLayerTableRecord
  2
142
 70
     0
 62
     7
  6
Continuous
370
    -3
390
F
  0
LAYER
  5
BB
102
{ACAD_XDICTIONARY
360
507
102
}
330
2
100
AcDbSymbolTableRecord
100
AcDbLayerTableRecord
  2
143
 70
     0
 62
     7
  6
Continuous
370
    -3
390
F
  0
LAYER
  5
BC
102
{ACAD_XDICTIONARY
360
509
102
}
330
2
100
AcDbSymbolTableRecord
100
AcDbLayerTableRecord
  2
144
 70
     0
 62
     7
  6
Continuous
370
    -3
390
F
  0
LAYER
  5
BD
102
{ACAD_XDICTIONARY
360
50B
102
}
330
2
100
AcDbSymbolTableRecord
100
AcDbLayerTableRecord
  2
145
 70
     0
 62
     7
  6
Continuous
370
    -3
390
F
  0
LAYER
  5
BE
102
{ACAD_XDICTIONARY
360
50D
102
}
330
2
100
AcDbSymbolTableRecord
100
AcDbLayerTableRecord
  2
146
 70
     0
 62
     7
  6
Continuous
370
    -3
390
F
  0
LAYER
  5
BF
102
{ACAD_XDICTIONARY
360
50F
102
}
330
2
100
AcDbSymbolTableRecord
100
AcDbLayerTableRecord
  2
147
 70
     0
 62
     7
  6
Continuous
370
    -3
390
F
  0
LAYER
  5
C0
102
{ACAD_XDICTIONARY
360
511
102
}
330
2
100
AcDbSymbolTableRecord
100
AcDbLayerTableRecord
  2
148
 70
     0
 62
     7
  6
Continuous
370
    -3
390
F
  0
LAYER
  5
C1
102
{ACAD_XDICTIONARY
360
513
102
}
330
2
100
AcDbSymbolTableRecord
100
AcDbLayerTableRecord
  2
149
 70
     0
 62
     7
  6
Continuous
370
    -3
390
F
  0
LAYER
  5
C2
102
{ACAD_XDICTIONARY
360
515
102
}
330
2
100
AcDbSymbolTableRecord
100
AcDbLayerTableRecord
  2
150
 70
     0
 62
     7
  6
Continuous
370
    -3
390
F
  0
LAYER
  5
C3
102
{ACAD_XDICTIONARY
360
517
102
}
330
2
100
AcDbSymbolTableRecord
100
AcDbLayerTableRecord
  2
151
 70
     0
 62
     7
  6
Continuous
370
    -3
390
F
  0
LAYER
  5
C4
102
{ACAD_XDICTIONARY
360
519
102
}
330
2
100
AcDbSymbolTableRecord
100
AcDbLayerTableRecord
  2
152
 70
     0
 62
     7
  6
Continuous
370
    -3
390
F
  0
LAYER
  5
C5
102
{ACAD_XDICTIONARY
360
51B
102
}
330
2
100
AcDbSymbolTableRecord
100
AcDbLayerTableRecord
  2
153
 70
     0
 62
     7
  6
Continuous
370
    -3
390
F
  0
LAYER
  5
C6
102
{ACAD_XDICTIONARY
360
51D
102
}
330
2
100
AcDbSymbolTableRecord
100
AcDbLayerTableRecord
  2
154
 70
     0
 62
     7
  6
Continuous
370
    -3
390
F
  0
LAYER
  5
C7
102
{ACAD_XDICTIONARY
360
51F
102
}
330
2
100
AcDbSymbolTableRecord
100
AcDbLayerTableRecord
  2
155
 70
     0
 62
     7
  6
Continuous
370
    -3
390
F
  0
LAYER
  5
C8
102
{ACAD_XDICTIONARY
360
521
102
}
330
2
100
AcDbSymbolTableRecord
100
AcDbLayerTableRecord
  2
156
 70
     0
 62
     7
  6
Continuous
370
    -3
390
F
  0
LAYER
  5
C9
102
{ACAD_XDICTIONARY
360
523
102
}
330
2
100
AcDbSymbolTableRecord
100
AcDbLayerTableRecord
  2
157
 70
     0
 62
     7
  6
Continuous
370
    -3
390
F
  0
LAYER
  5
CA
102
{ACAD_XDICTIONARY
360
525
102
}
330
2
100
AcDbSymbolTableRecord
100
AcDbLayerTableRecord
  2
158
 70
     0
 62
     7
  6
Continuous
370
    -3
390
F
  0
LAYER
  5
CB
102
{ACAD_XDICTIONARY
360
527
102
}
330
2
100
AcDbSymbolTableRecord
100
AcDbLayerTableRecord
  2
159
 70
     0
 62
     7
  6
Continuous
370
    -3
390
F
  0
LAYER
  5
CC
102
{ACAD_XDICTIONARY
360
529
102
}
330
2
100
AcDbSymbolTableRecord
100
AcDbLayerTableRecord
  2
160
 70
     0
 62
     7
  6
Continuous
370
    -3
390
F
  0
LAYER
  5
CD
102
{ACAD_XDICTIONARY
360
52B
102
}
330
2
100
AcDbSymbolTableRecord
100
AcDbLayerTableRecord
  2
161
 70
     0
 62
     7
  6
Continuous
370
    -3
390
F
  0
LAYER
  5
CE
102
{ACAD_XDICTIONARY
360
52D
102
}
330
2
100
AcDbSymbolTableRecord
100
AcDbLayerTableRecord
  2
162
 70
     0
 62
     7
  6
Continuous
370
    -3
390
F
  0
LAYER
  5
CF
102
{ACAD_XDICTIONARY
360
52F
102
}
330
2
100
AcDbSymbolTableRecord
100
AcDbLayerTableRecord
  2
163
 70
     0
 62
     7
  6
Continuous
370
    -3
390
F
  0
LAYER
  5
D0
102
{ACAD_XDICTIONARY
360
531
102
}
330
2
100
AcDbSymbolTableRecord
100
AcDbLayerTableRecord
  2
164
 70
     0
 62
     7
  6
Continuous
370
    -3
390
F
  0
LAYER
  5
D1
102
{ACAD_XDICTIONARY
360
533
102
}
330
2
100
AcDbSymbolTableRecord
100
AcDbLayerTableRecord
  2
165
 70
     0
 62
     7
  6
Continuous
370
    -3
390
F
  0
LAYER
  5
D2
102
{ACAD_XDICTIONARY
360
535
102
}
330
2
100
AcDbSymbolTableRecord
100
AcDbLayerTableRecord
  2
166
 70
     0
 62
     7
  6
Continuous
370
    -3
390
F
  0
LAYER
  5
D3
102
{ACAD_XDICTIONARY
360
537
102
}
330
2
100
AcDbSymbolTableRecord
100
AcDbLayerTableRecord
  2
167
 70
     0
 62
     7
  6
Continuous
370
    -3
390
F
  0
LAYER
  5
D4
102
{ACAD_XDICTIONARY
360
539
102
}
330
2
100
AcDbSymbolTableRecord
100
AcDbLayerTableRecord
  2
168
 70
     0
 62
     7
  6
Continuous
370
    -3
390
F
  0
LAYER
  5
D5
102
{ACAD_XDICTIONARY
360
53B
102
}
330
2
100
AcDbSymbolTableRecord
100
AcDbLayerTableRecord
  2
169
 70
     0
 62
     7
  6
Continuous
370
    -3
390
F
  0
LAYER
  5
D6
102
{ACAD_XDICTIONARY
360
53D
102
}
330
2
100
AcDbSymbolTableRecord
100
AcDbLayerTableRecord
  2
170
 70
     0
 62
     7
  6
Continuous
370
    -3
390
F
  0
LAYER
  5
D7
102
{ACAD_XDICTIONARY
360
53F
102
}
330
2
100
AcDbSymbolTableRecord
100
AcDbLayerTableRecord
  2
171
 70
     0
 62
     7
  6
Continuous
370
    -3
390
F
  0
LAYER
  5
D8
102
{ACAD_XDICTIONARY
360
541
102
}
330
2
100
AcDbSymbolTableRecord
100
AcDbLayerTableRecord
  2
172
 70
     0
 62
     7
  6
Continuous
370
    -3
390
F
  0
LAYER
  5
D9
102
{ACAD_XDICTIONARY
360
543
102
}
330
2
100
AcDbSymbolTableRecord
100
AcDbLayerTableRecord
  2
173
 70
     0
 62
     7
  6
Continuous
370
    -3
390
F
  0
LAYER
  5
DA
102
{ACAD_XDICTIONARY
360
545
102
}
330
2
100
AcDbSymbolTableRecord
100
AcDbLayerTableRecord
  2
174
 70
     0
 62
     7
  6
Continuous
370
    -3
390
F
  0
LAYER
  5
DB
102
{ACAD_XDICTIONARY
360
547
102
}
330
2
100
AcDbSymbolTableRecord
100
AcDbLayerTableRecord
  2
175
 70
     0
 62
     7
  6
Continuous
370
    -3
390
F
  0
LAYER
  5
DC
102
{ACAD_XDICTIONARY
360
549
102
}
330
2
100
AcDbSymbolTableRecord
100
AcDbLayerTableRecord
  2
176
 70
     0
 62
     7
  6
Continuous
370
    -3
390
F
  0
LAYER
  5
DD
102
{ACAD_XDICTIONARY
360
54B
102
}
330
2
100
AcDbSymbolTableRecord
100
AcDbLayerTableRecord
  2
177
 70
     0
 62
     7
  6
Continuous
370
    -3
390
F
  0
LAYER
  5
DE
102
{ACAD_XDICTIONARY
360
54D
102
}
330
2
100
AcDbSymbolTableRecord
100
AcDbLayerTableRecord
  2
178
 70
     0
 62
     7
  6
Continuous
370
    -3
390
F
  0
LAYER
  5
DF
102
{ACAD_XDICTIONARY
360
54F
102
}
330
2
100
AcDbSymbolTableRecord
100
AcDbLayerTableRecord
  2
179
 70
     0
 62
     7
  6
Continuous
370
    -3
390
F
  0
LAYER
  5
E0
102
{ACAD_XDICTIONARY
360
551
102
}
330
2
100
AcDbSymbolTableRecord
100
AcDbLayerTableRecord
  2
180
 70
     0
 62
     7
  6
Continuous
370
    -3
390
F
  0
LAYER
  5
E1
102
{ACAD_XDICTIONARY
360
553
102
}
330
2
100
AcDbSymbolTableRecord
100
AcDbLayerTableRecord
  2
DRAFTING_HIDDEN_ENTITIES
 70
     1
 62
     7
  6
Continuous
370
    -3
390
F
  0
ENDTAB
  0
TABLE
  2
STYLE
  5
3
330
0
100
AcDbSymbolTable
 70
     4
  0
STYLE
  5
11
330
3
100
AcDbSymbolTableRecord
100
AcDbTextStyleTableRecord
  2
STANDARD
 70
     0
 40
0.0
 41
1.0
 50
0.0
 71
     0
 42
1.0
  3
monotxt.shx
  4
bigfont.shx
  0
STYLE
  5
3C8
330
3
100
AcDbSymbolTableRecord
100
AcDbTextStyleTableRecord
  2

 70
     1
 40
0.0
 41
1.0
 50
0.0
 71
     0
 42
1.0
  3
genltshp.shx
  4

  0
STYLE
  5
3D8
330
3
100
AcDbSymbolTableRecord
100
AcDbTextStyleTableRecord
  2
ACANSTS
 70
     0
 40
1.0
 41
1.0
 50
0.0
 71
     0
 42
1.0
  3
romans.shx
  4

  0
STYLE
  5
3D9
330
3
100
AcDbSymbolTableRecord
100
AcDbTextStyleTableRecord
  2
ACANSGDT
 70
     0
 40
0.0
 41
1.0
 50
0.0
 71
     0
 42
1.0
  3
amgdt.shx
  4

  0
ENDTAB
  0
TABLE
  2
VIEW
  5
6
330
0
100
AcDbSymbolTable
 70
     0
  0
ENDTAB
  0
TABLE
  2
UCS
  5
7
330
0
100
AcDbSymbolTable
 70
     0
  0
ENDTAB
  0
TABLE
  2
APPID
  5
9
330
0
100
AcDbSymbolTable
 70
    15
  0
APPID
  5
12
330
9
100
AcDbSymbolTableRecord
100
AcDbRegAppTableRecord
  2
ACAD
 70
     0
  0
APPID
  5
34C
330
9
100
AcDbSymbolTableRecord
100
AcDbRegAppTableRecord
  2
MCAD_NO_VIS
 70
     0
  0
APPID
  5
34D
330
9
100
AcDbSymbolTableRecord
100
AcDbRegAppTableRecord
  2
ACAD_TEMP_GRAPHIC
 70
     0
  0
APPID
  5
37A
330
9
100
AcDbSymbolTableRecord
100
AcDbRegAppTableRecord
  2
AD_DRAW
 70
     0
  0
APPID
  5
37D
330
9
100
AcDbSymbolTableRecord
100
AcDbRegAppTableRecord
  2
ACATTRIBSERVICES
 70
     0
  0
APPID
  5
3A1
330
9
100
AcDbSymbolTableRecord
100
AcDbRegAppTableRecord
  2
DESIGNERASSEMBLIES
 70
     0
  0
APPID
  5
3A7
330
9
100
AcDbSymbolTableRecord
100
AcDbRegAppTableRecord
  2
ACADM_DIM_EDIT
 70
     0
  0
APPID
  5
3A8
330
9
100
AcDbSymbolTableRecord
100
AcDbRegAppTableRecord
  2
AMDT_DM_ADJ
 70
     0
  0
APPID
  5
3BE
330
9
100
AcDbSymbolTableRecord
100
AcDbRegAppTableRecord
  2
ACAD_DSTYLE_DIMJAG
 70
     0
  0
APPID
  5
3BF
330
9
100
AcDbSymbolTableRecord
100
AcDbRegAppTableRecord
  2
ACAD_DSTYLE_DIMBREAK
 70
     0
  0
APPID
  5
58C
330
9
100
AcDbSymbolTableRecord
100
AcDbRegAppTableRecord
  2
ACAD_MLEADERVER
 70
     0
  0
APPID
  5
58D
330
9
100
AcDbSymbolTableRecord
100
AcDbRegAppTableRecord
  2
ACAD_DSTYLE_DIMARC_LENGTH_SYMBOL
 70
     0
  0
APPID
  5
58E
330
9
100
AcDbSymbolTableRecord
100
AcDbRegAppTableRecord
  2
ACAD_DSTYLE_DIM_LINETYPE
 70
     0
  0
APPID
  5
58F
330
9
100
AcDbSymbolTableRecord
100
AcDbRegAppTableRecord
  2
ACAD_DSTYLE_DIM_EXT1_LINETYPE
 70
     0
  0
APPID
  5
590
330
9
100
AcDbSymbolTableRecord
100
AcDbRegAppTableRecord
  2
ACAD_DSTYLE_DIM_EXT2_LINETYPE
 70
     0
  0
ENDTAB
  0
TABLE
  2
DIMSTYLE
  5
A
330
0
100
AcDbSymbolTable
 70
     9
100
AcDbDimStyleTable
 71
     0
  0
DIMSTYLE
105
E2
330
A
100
AcDbSymbolTableRecord
100
AcDbDimStyleTableRecord
  2
DSTYLE1
 70
     0
 41
0.15
 42
0.075
 44
0.2
 45
0.001
 47
0.005
 48
0.005
 73
     0
 74
     0
 75
     1
 76
     1
 77
     1
 78
     7
140
0.2
147
0.075
271
     3
272
     3
274
     0
279
     2
340
11
  0
DIMSTYLE
105
E3
102
{ACAD_REACTORS
330
16B
330
16C
102
}
330
A
100
AcDbSymbolTableRecord
100
AcDbDimStyleTableRecord
  2
DSTYLE2
 70
     0
 41
0.3
 42
0.125
 44
0.0625
 45
0.001
 47
0.032
 48
0.062
 71
     1
 78
     3
140
0.2
143
1.0
147
0.25
170
     1
271
     3
272
     3
274
     0
279
     2
340
11
  0
DIMSTYLE
105
E4
102
{ACAD_REACTORS
330
17B
102
}
330
A
100
AcDbSymbolTableRecord
100
AcDbDimStyleTableRecord
  2
DSTYLE3
 70
     0
 41
0.3
 44
0.125
 45
0.001
 47
0.005
 48
0.005
 75
     1
 78
     7
140
0.2
147
0.0625
271
     3
272
     3
274
     0
279
     2
340
11
  0
DIMSTYLE
105
3BD
102
{ACAD_REACTORS
330
3AD
102
}
330
A
100
AcDbSymbolTableRecord
100
AcDbDimStyleTableRecord
  2
AM_ANSI
 70
     0
  4
mm
 41
0.12
 42
0.05
 43
0.5
 44
0.1
 47
0.1
 48
0.1
 78
     7
 79
     2
140
0.12
141
0.0
146
0.71
147
0.06
176
   256
177
   256
178
     2
274
     4
284
     7
340
11
371
    -1
372
    -1
1001
ACAD_DSTYLE_DIMJAG
1070
   388
1040
1.5
1001
ACAD_DSTYLE_DIMBREAK
1070
   391
1040
0.125
1001
ACAD_DSTYLE_DIMARC_LENGTH_SYMBOL
1070
   379
1070
     1
1001
ACAD_DSTYLE_DIM_LINETYPE
1070
   380
1005
13
1001
ACAD_DSTYLE_DIM_EXT1_LINETYPE
1070
   381
1005
13
1001
ACAD_DSTYLE_DIM_EXT2_LINETYPE
1070
   382
1005
13
  0
DIMSTYLE
105
3CD
330
A
100
AcDbSymbolTableRecord
100
AcDbDimStyleTableRecord
  2
AM_ANSI$3
 70
     0
  4
mm
 41
0.12
 42
0.05
 43
0.5
 44
0.1
 47
0.1
 48
0.1
 78
     7
 79
     2
140
0.12
141
0.0
146
0.71
147
0.06
176
   256
177
   256
178
     2
274
     4
284
     7
288
     1
289
     0
340
11
371
    -1
372
    -1
1001
ACAD_DSTYLE_DIMBREAK
1070
   391
1040
0.125
1001
ACAD_DSTYLE_DIMJAG
1070
   388
1040
1.5
1001
ACAD_DSTYLE_DIMARC_LENGTH_SYMBOL
1070
   379
1070
     1
1001
ACAD_DSTYLE_DIM_LINETYPE
1070
   380
1005
13
1001
ACAD_DSTYLE_DIM_EXT1_LINETYPE
1070
   381
1005
13
1001
ACAD_DSTYLE_DIM_EXT2_LINETYPE
1070
   382
1005
13
  0
DIMSTYLE
105
3CE
330
A
100
AcDbSymbolTableRecord
100
AcDbDimStyleTableRecord
  2
AM_ANSI$4
 70
     0
  4
mm
 41
0.12
 42
0.05
 43
0.5
 44
0.1
 47
0.1
 48
0.1
 78
     7
 79
     2
140
0.12
141
0.0
146
0.71
147
0.06
176
   256
177
   256
178
     2
274
     4
284
     7
288
     1
289
     0
340
11
371
    -1
372
    -1
1001
ACAD_DSTYLE_DIMBREAK
1070
   391
1040
0.125
1001
ACAD_DSTYLE_DIMJAG
1070
   388
1040
1.5
1001
ACAD_DSTYLE_DIMARC_LENGTH_SYMBOL
1070
   379
1070
     1
1001
ACAD_DSTYLE_DIM_LINETYPE
1070
   380
1005
13
1001
ACAD_DSTYLE_DIM_EXT1_LINETYPE
1070
   381
1005
13
1001
ACAD_DSTYLE_DIM_EXT2_LINETYPE
1070
   382
1005
13
  0
DIMSTYLE
105
3CF
330
A
100
AcDbSymbolTableRecord
100
AcDbDimStyleTableRecord
  2
AM_ANSI$7
 70
     0
  4
mm
 41
0.12
 42
0.05
 43
0.5
 44
0.1
 47
0.1
 48
0.1
 78
     7
 79
     2
140
0.12
141
0.0
146
0.71
147
0.06
176
   256
177
   256
178
     2
274
     4
284
     7
340
11
371
    -1
372
    -1
1001
ACAD_DSTYLE_DIMBREAK
1070
   391
1040
0.125
1001
ACAD_DSTYLE_DIMJAG
1070
   388
1040
1.5
1001
ACAD_DSTYLE_DIMARC_LENGTH_SYMBOL
1070
   379
1070
     1
1001
ACAD_DSTYLE_DIM_LINETYPE
1070
   380
1005
13
1001
ACAD_DSTYLE_DIM_EXT1_LINETYPE
1070
   381
1005
13
1001
ACAD_DSTYLE_DIM_EXT2_LINETYPE
1070
   382
1005
13
  0
DIMSTYLE
105
3D0
330
A
100
AcDbSymbolTableRecord
100
AcDbDimStyleTableRecord
  2
AM_ANSI$SF
 70
     0
  4
mm
 41
0.12
 42
0.05
 43
0.5
 44
0.1
 47
0.1
 48
0.1
 75
     1
 76
     1
 78
     7
 79
     2
140
0.12
141
0.0
146
0.71
147
0.06
176
   256
177
   256
178
     2
274
     4
284
     7
340
11
371
    -1
372
    -1
1001
ACAD_DSTYLE_DIMBREAK
1070
   391
1040
0.125
1001
ACAD_DSTYLE_DIMJAG
1070
   388
1040
1.5
1001
ACAD_DSTYLE_DIMARC_LENGTH_SYMBOL
1070
   379
1070
     1
1001
ACAD_DSTYLE_DIM_LINETYPE
1070
   380
1005
13
1001
ACAD_DSTYLE_DIM_EXT1_LINETYPE
1070
   381
1005
13
1001
ACAD_DSTYLE_DIM_EXT2_LINETYPE
1070
   382
1005
13
  0
DIMSTYLE
105
3D5
330
A
100
AcDbSymbolTableRecord
100
AcDbDimStyleTableRecord
  2
AM_ANSI$SH
 70
     0
  4
mm
 41
0.12
 42
0.05
 43
0.5
 44
0.1
 47
0.1
 48
0.1
 75
     1
 76
     1
 78
     7
 79
     2
140
0.12
141
0.0
146
0.71
147
0.06
173
     1
176
   256
177
   256
178
     2
274
     4
284
     7
340
11
343
3D1
371
    -1
372
    -1
1001
ACAD_DSTYLE_DIMBREAK
1070
   391
1040
0.125
1001
ACAD_DSTYLE_DIMJAG
1070
   388
1040
1.5
1001
ACAD_DSTYLE_DIMARC_LENGTH_SYMBOL
1070
   379
1070
     1
1001
ACAD_DSTYLE_DIM_LINETYPE
1070
   380
1005
13
1001
ACAD_DSTYLE_DIM_EXT1_LINETYPE
1070
   381
1005
13
1001
ACAD_DSTYLE_DIM_EXT2_LINETYPE
1070
   382
1005
13
  0
ENDTAB
  0
TABLE
  2
BLOCK_RECORD
  5
1
330
0
100
AcDbSymbolTable
 70
    16
  0
BLOCK_RECORD
  5
22
102
{ACAD_XDICTIONARY
360
2E3
102
}
330
1
100
AcDbSymbolTableRecord
100
AcDbBlockTableRecord
  2
*Model_Space
340
25
  0
BLOCK_RECORD
  5
1E
330
1
100
AcDbSymbolTableRecord
100
AcDbBlockTableRecord
  2
*Paper_Space
340
21
  0
BLOCK_RECORD
  5
E8
330
1
100
AcDbSymbolTableRecord
100
AcDbBlockTableRecord
  2
SOUTH
340
0
  0
BLOCK_RECORD
  5
EE
330
1
100
AcDbSymbolTableRecord
100
AcDbBlockTableRecord
  2
BNEW01
340
0
102
{BLKREFS
331
F6
102
}
  0
BLOCK_RECORD
  5
F4
330
1
100
AcDbSymbolTableRecord
100
AcDbBlockTableRecord
  2
1
340
0
  0
BLOCK_RECORD
  5
F9
330
1
100
AcDbSymbolTableRecord
100
AcDbBlockTableRecord
  2
*U3
340
0
102
{BLKREFS
331
168
102
}
  0
BLOCK_RECORD
  5
FE
330
1
100
AcDbSymbolTableRecord
100
AcDbBlockTableRecord
  2
*U4
340
0
102
{BLKREFS
331
2DE
102
}
  0
BLOCK_RECORD
  5
106
330
1
100
AcDbSymbolTableRecord
100
AcDbBlockTableRecord
  2
*U5
340
0
102
{BLKREFS
331
2DF
102
}
  0
BLOCK_RECORD
  5
10E
330
1
100
AcDbSymbolTableRecord
100
AcDbBlockTableRecord
  2
*U6
340
0
102
{BLKREFS
331
166
102
}
  0
BLOCK_RECORD
  5
119
330
1
100
AcDbSymbolTableRecord
100
AcDbBlockTableRecord
  2
*U7
340
0
102
{BLKREFS
331
167
102
}
  0
BLOCK_RECORD
  5
11E
330
1
100
AcDbSymbolTableRecord
100
AcDbBlockTableRecord
  2
*U8
340
0
102
{BLKREFS
331
16E
102
}
  0
BLOCK_RECORD
  5
123
330
1
100
AcDbSymbolTableRecord
100
AcDbBlockTableRecord
  2
*U9
340
0
102
{BLKREFS
331
171
102
}
  0
BLOCK_RECORD
  5
128
330
1
100
AcDbSymbolTableRecord
100
AcDbBlockTableRecord
  2
*D10
340
0
102
{BLKREFS
331
169
102
}
  0
BLOCK_RECORD
  5
12D
330
1
100
AcDbSymbolTableRecord
100
AcDbBlockTableRecord
  2
*D11
340
0
  0
BLOCK_RECORD
  5
140
330
1
100
AcDbSymbolTableRecord
100
AcDbBlockTableRecord
  2
*D12
340
0
  0
BLOCK_RECORD
  5
153
330
1
100
AcDbSymbolTableRecord
100
AcDbBlockTableRecord
  2
*D13
340
0
  0
BLOCK_RECORD
  5
3D1
330
1
100
AcDbSymbolTableRecord
100
AcDbBlockTableRecord
  2
GENAXEH
340
0
  0
ENDTAB
  0
ENDSEC
  0
SECTION
  2
BLOCKS
  0
BLOCK
  5
23
330
22
100
AcDbEntity
  8
0
100
AcDbBlockBegin
  2
*Model_Space
 70
     0
 10
0.0
 20
0.0
 30
0.0
  3
*Model_Space
  1

  0
ENDBLK
  5
24
330
22
100
AcDbEntity
  8
0
100
AcDbBlockEnd
  0
BLOCK
  5
1F
330
1E
100
AcDbEntity
 67
     1
  8
0
100
AcDbBlockBegin
  2
*Paper_Space
 70
     0
 10
0.0
 20
0.0
 30
0.0
  3
*Paper_Space
  1

  0
ENDBLK
  5
20
330
1E
100
AcDbEntity
 67
     1
  8
0
100
AcDbBlockEnd
  0
BLOCK
  5
E9
330
E8
100
AcDbEntity
  8
0
100
AcDbBlockBegin
  2
SOUTH
 70
     0
 10
0.0
 20
0.0
 30
0.0
  3
SOUTH
  1

  0
TEXT
  5
EA
330
E8
100
AcDbEntity
  8
180
  6
Continuous
 62
     1
100
AcDbText
 10
-3.409640899999998
 20
-0.2546476
 30
0.0
 40
0.15
  1
ELKAY SOUTHERN CORP.
 51
359.9999958057
100
AcDbText
  0
TEXT
  5
EB
330
E8
100
AcDbEntity
  8
126
  6
Continuous
 62
     3
100
AcDbText
 10
-2.847571999999998
 20
-0.3929015
 30
0.0
 40
0.06
  1
LUMBERTON, NORTH CAROLINA
100
AcDbText
  0
POINT
  5
EC
330
E8
100
AcDbEntity
  8
1
  6
Continuous
 62
     1
100
AcDbPoint
 10
0.0
 20
0.0
 30
0.0
  0
ENDBLK
  5
ED
330
E8
100
AcDbEntity
  8
0
100
AcDbBlockEnd
  0
BLOCK
  5
EF
330
EE
100
AcDbEntity
  8
0
100
AcDbBlockBegin
  2
BNEW01
 70
     0
 10
0.0
 20
0.0
 30
0.0
  3
BNEW01
  1

  0
TEXT
  5
F0
330
EE
100
AcDbEntity
  8
180
  6
Continuous
 62
     1
100
AcDbText
 10
0.232143
 20
-0.2003522
 30
0.0
 40
0.125
  1
ELKAY MANUFACTURING COMPANY
 41
1.047619099999999
 51
359.9999958057
100
AcDbText
  0
TEXT
  5
F1
330
EE
100
AcDbEntity
  8
126
  6
Continuous
 62
     3
100
AcDbText
 10
1.292685499999999
 20
-0.3553995
 30
0.0
 40
0.075
  1
BROADVIEW, ILLINOIS
 41
1.047619099999999
 51
359.9999958057
100
AcDbText
  0
POINT
  5
F2
330
EE
100
AcDbEntity
  8
1
  6
Continuous
 62
     1
100
AcDbPoint
 10
0.0
 20
0.0
 30
0.0
  0
ENDBLK
  5
F3
330
EE
100
AcDbEntity
  8
0
100
AcDbBlockEnd
  0
BLOCK
  5
F5
330
F4
100
AcDbEntity
  8
0
100
AcDbBlockBegin
  2
1
 70
     0
 10
0.0
 20
0.0
 30
0.0
  3
1
  1

  0
INSERT
  5
F6
330
F4
100
AcDbEntity
  8
1
100
AcDbBlockReference
  2
BNEW01
 10
0.0000003
 20
0.0
 30
0.0
  0
POINT
  5
F7
330
F4
100
AcDbEntity
  8
1
  6
Continuous
 62
     1
100
AcDbPoint
 10
0.0
 20
0.0
 30
0.0
  0
ENDBLK
  5
F8
330
F4
100
AcDbEntity
  8
0
100
AcDbBlockEnd
  0
BLOCK
  5
FA
330
F9
100
AcDbEntity
  8
0
100
AcDbBlockBegin
  2
*U3
 70
     1
 10
0.0
 20
0.0
 30
0.0
  3
*U3
  1

  0
TEXT
  5
FB
330
F9
100
AcDbEntity
  8
126
  6
Continuous
 62
     3
100
AcDbText
 10
-0.6633333333333333
 20
0.0
 30
0.0
 40
0.1
  1
32-ECT E-FLUTE
 72
     1
 11
0.0
 21
0.0
 31
0.0
100
AcDbText
  0
TEXT
  5
FC
330
F9
100
AcDbEntity
  8
126
  6
Continuous
 62
     3
100
AcDbText
 10
-0.7433333333333336
 20
-0.15
 30
0.0
 40
0.1
  1
KRAFT BOTH SIDES
 72
     1
 11
0.0
 21
-0.15
 31
0.0
100
AcDbText
  0
ENDBLK
  5
FD
330
F9
100
AcDbEntity
  8
0
100
AcDbBlockEnd
  0
BLOCK
  5
FF
330
FE
100
AcDbEntity
  8
0
100
AcDbBlockBegin
  2
*U4
 70
     1
 10
0.0
 20
0.0
 30
0.0
  3
*U4
  1

  0
TEXT
  5
100
330
FE
100
AcDbEntity
  8
126
  6
Continuous
 62
     3
100
AcDbText
 10
0.0
 20
0.0
 30
0.0
 40
0.06053
  1
THIS PRINT IS THE PROPERTY OF ELKAY MANUFACTURING COMPANY
 41
1.0344828
100
AcDbText
  0
TEXT
  5
101
330
FE
100
AcDbEntity
  8
126
  6
Continuous
 62
     3
100
AcDbText
 10
0.0
 20
-0.10553
 30
0.0
 40
0.06053
  1
AND IS LOANED SUBJECT TO RETURN UPON DEMAND AND UPON THE
 41
1.0344828
100
AcDbText
  0
TEXT
  5
102
330
FE
100
AcDbEntity
  8
126
  6
Continuous
 62
     3
100
AcDbText
 10
0.0
 20
-0.21106
 30
0.0
 40
0.06053
  1
EXPRESS CONDITION THAT IT IS NOT TO BE USED DIRECTLY OR
 41
1.0344828
100
AcDbText
  0
TEXT
  5
103
330
FE
100
AcDbEntity
  8
126
  6
Continuous
 62
     3
100
AcDbText
 10
0.0
 20
-0.31659
 30
0.0
 40
0.06053
  1
INDIRECTLY WITHOUT OUR PERMISSION FOR PURPOSES OTHER THAN
 41
1.0344828
100
AcDbText
  0
TEXT
  5
104
330
FE
100
AcDbEntity
  8
126
  6
Continuous
 62
     3
100
AcDbText
 10
0.0
 20
-0.42212
 30
0.0
 40
0.06053
  1
THOSE FOR WHICH IT WAS FURNISHED.
 41
1.0344828
100
AcDbText
  0
ENDBLK
  5
105
330
FE
100
AcDbEntity
  8
0
100
AcDbBlockEnd
  0
BLOCK
  5
107
330
106
100
AcDbEntity
  8
0
100
AcDbBlockBegin
  2
*U5
 70
     1
 10
0.0
 20
0.0
 30
0.0
  3
*U5
  1

  0
TEXT
  5
108
330
106
100
AcDbEntity
  8
126
  6
Continuous
 62
     3
100
AcDbText
 10
0.0
 20
0.0
 30
0.0
 40
0.175
  1
NOTE:
 41
1.047619
100
AcDbText
  0
TEXT
  5
109
330
106
100
AcDbEntity
  8
126
  6
Continuous
 62
     3
100
AcDbText
 10
0.0
 20
-0.2625
 30
0.0
 40
0.175
  1
 
 41
1.047619
100
AcDbText
  0
TEXT
  5
10A
330
106
100
AcDbEntity
  8
126
  6
Continuous
 62
     3
100
AcDbText
 10
0.0
 20
-0.525
 30
0.0
 40
0.175
  1
DIMENSIONS ARE FOR COSTING ONLY.
 41
1.047619
100
AcDbText
  0
TEXT
  5
10B
330
106
100
AcDbEntity
  8
126
  6
Continuous
 62
     3
100
AcDbText
 10
0.0
 20
-0.7875
 30
0.0
 40
0.175
  1
SAMPLES SHOULD BE CHECKED FOR
 41
1.047619
100
AcDbText
  0
TEXT
  5
10C
330
106
100
AcDbEntity
  8
126
  6
Continuous
 62
     3
100
AcDbText
 10
0.0
 20
-1.05
 30
0.0
 40
0.175
  1
FINAL FIT.
 41
1.047619
100
AcDbText
  0
ENDBLK
  5
10D
330
106
100
AcDbEntity
  8
0
100
AcDbBlockEnd
  0
BLOCK
  5
10F
330
10E
100
AcDbEntity
  8
0
100
AcDbBlockBegin
  2
*U6
 70
     1
 10
0.0
 20
0.0
 30
0.0
  3
*U6
  1

  0
TEXT
  5
110
330
10E
100
AcDbEntity
  8
1
  6
Continuous
 62
     1
100
AcDbText
 10
-2.933333333333334
 20
-0.275
 30
0.0
 40
0.55
  1
ELGU1515BK0
 72
     1
 11
0.0
 21
0.0
 31
0.0
100
AcDbText
 73
     2
  0
TEXT
  5
111
330
10E
100
AcDbEntity
  8
1
  6
Continuous
 62
     1
100
AcDbText
 10
-2.933333333333334
 20
-1.1
 30
0.0
 40
0.55
  1
ELGU1515BQ0
 72
     1
 11
0.0
 21
-0.825
 31
0.0
100
AcDbText
 73
     2
  0
TEXT
  5
112
330
10E
100
AcDbEntity
  8
1
  6
Continuous
 62
     1
100
AcDbText
 10
-2.933333333333334
 20
-1.924999999999998
 30
0.0
 40
0.55
  1
ELGU1515WH0
 72
     1
 11
0.0
 21
-1.649999999999999
 31
0.0
100
AcDbText
 73
     2
  0
TEXT
  5
113
330
10E
100
AcDbEntity
  8
1
  6
Continuous
 62
     1
100
AcDbText
 10
-2.933333333333334
 20
-2.75
 30
0.0
 40
0.55
  1
ELGU1515MC0
 72
     1
 11
0.0
 21
-2.475
 31
0.0
100
AcDbText
 73
     2
  0
TEXT
  5
114
330
10E
100
AcDbEntity
  8
1
  6
Continuous
 62
     1
100
AcDbText
 10
-2.933333333333334
 20
-3.574999999999998
 30
0.0
 40
0.55
  1
RVGU1515BK0
 72
     1
 11
0.0
 21
-3.299999999999998
 31
0.0
100
AcDbText
 73
     2
  0
TEXT
  5
115
330
10E
100
AcDbEntity
  8
1
  6
Continuous
 62
     1
100
AcDbText
 10
-2.933333333333334
 20
-4.4
 30
0.0
 40
0.55
  1
RVGU1515BQ0
 72
     1
 11
0.0
 21
-4.125
 31
0.0
100
AcDbText
 73
     2
  0
TEXT
  5
116
330
10E
100
AcDbEntity
  8
1
  6
Continuous
 62
     1
100
AcDbText
 10
-2.933333333333334
 20
-5.225
 30
0.0
 40
0.55
  1
RVGU1515WH0
 72
     1
 11
0.0
 21
-4.95
 31
0.0
100
AcDbText
 73
     2
  0
TEXT
  5
117
330
10E
100
AcDbEntity
  8
1
  6
Continuous
 62
     1
100
AcDbText
 10
-2.933333333333334
 20
-6.05
 30
0.0
 40
0.55
  1
RVGU1515BR0
 72
     1
 11
0.0
 21
-5.775
 31
0.0
100
AcDbText
 73
     2
  0
ENDBLK
  5
118
330
10E
100
AcDbEntity
  8
0
100
AcDbBlockEnd
  0
BLOCK
  5
11A
330
119
100
AcDbEntity
  8
0
100
AcDbBlockBegin
  2
*U7
 70
     1
 10
0.0
 20
0.0
 30
0.0
  3
*U7
  1

  0
TEXT
  5
11B
330
119
100
AcDbEntity
  8
126
  6
Continuous
 62
     3
100
AcDbText
 10
0.0
 20
0.0
 30
0.0
 40
0.08
  1
RL - ECNBV07191 06JUL07
100
AcDbText
  0
TEXT
  5
11C
330
119
100
AcDbEntity
  8
126
  6
Continuous
 62
     3
100
AcDbText
 10
0.0
 20
-0.12
 30
0.0
 40
0.08
  1
A  - ECNBV08069 15FEB08
100
AcDbText
  0
ENDBLK
  5
11D
330
119
100
AcDbEntity
  8
0
100
AcDbBlockEnd
  0
BLOCK
  5
11F
330
11E
100
AcDbEntity
  8
0
100
AcDbBlockBegin
  2
*U8
 70
     1
 10
0.0
 20
0.0
 30
0.0
  3
*U8
  1

  0
TEXT
  5
120
330
11E
100
AcDbEntity
  8
126
  6
Continuous
 62
     3
100
AcDbText
 10
0.0
 20
0.0
 30
0.0
 40
0.08
  1
 
 50
90.0
100
AcDbText
  0
TEXT
  5
121
330
11E
100
AcDbEntity
  8
126
  6
Continuous
 62
     3
100
AcDbText
 10
0.12
 20
0.0
 30
0.0
 40
0.08
  1
 B - ECNBV09054 18FEB09
 50
90.0
100
AcDbText
  0
ENDBLK
  5
122
330
11E
100
AcDbEntity
  8
0
100
AcDbBlockEnd
  0
BLOCK
  5
124
330
123
100
AcDbEntity
  8
0
100
AcDbBlockBegin
  2
*U9
 70
     1
 10
0.0
 20
0.0
 30
0.0
  3
*U9
  1

  0
TEXT
  5
125
330
123
100
AcDbEntity
  8
1
  6
Continuous
 62
     1
100
AcDbText
 10
-1.2375
 20
-0.0625
 30
0.0
 40
0.125
  1
TEMPLATE FOR ELG1515 
 72
     1
 11
0.0
 21
0.0
 31
0.0
100
AcDbText
 73
     2
  0
TEXT
  5
126
330
123
100
AcDbEntity
  8
1
  6
Continuous
 62
     1
100
AcDbText
 10
-1.391666666666666
 20
-0.25
 30
0.0
 40
0.125
  1
UNDERMOUNT INSTALLATION
 72
     1
 11
0.0
 21
-0.1875
 31
0.0
100
AcDbText
 73
     2
  0
ENDBLK
  5
127
330
123
100
AcDbEntity
  8
0
100
AcDbBlockEnd
  0
BLOCK
  5
129
330
128
100
AcDbEntity
  8
0
100
AcDbBlockBegin
  2
*D10
 70
     1
 10
0.0
 20
0.0
 30
0.0
  3
*D10
  1

  0
CIRCLE
  5
12A
330
128
100
AcDbEntity
  8
1
  6
Continuous
 62
     1
100
AcDbCircle
 10
17.953845
 20
19.481126
 30
0.0
 40
0.2
  0
TEXT
  5
12B
330
128
100
AcDbEntity
  8
1
  6
Continuous
 62
     1
100
AcDbText
 10
17.853845
 20
19.381126
 30
0.0
 40
0.2
  1
B
100
AcDbText
  0
ENDBLK
  5
12C
330
128
100
AcDbEntity
  8
0
100
AcDbBlockEnd
  0
BLOCK
  5
12E
330
12D
100
AcDbEntity
  8
0
100
AcDbBlockBegin
  2
*D11
 70
     1
 10
0.0
 20
0.0
 30
0.0
  3
*D11
  1

  0
LINE
  5
12F
330
12D
100
AcDbEntity
  8
1
  6
Continuous
 62
     3
100
AcDbLine
 10
28.608452
 20
25.860535
 30
0.0
 11
32.54515700000001
 21
25.860535
 31
0.0
  0
LINE
  5
130
330
12D
100
AcDbEntity
  8
1
  6
Continuous
 62
     3
100
AcDbLine
 10
28.608452
 20
11.184944
 30
0.0
 11
32.54515700000001
 21
11.184944
 31
0.0
  0
LINE
  5
131
330
12D
100
AcDbEntity
  8
1
  6
Continuous
 62
     3
100
AcDbLine
 10
32.48265700000001
 20
25.860535
 30
0.0
 11
32.432657
 21
25.560535
 31
0.0
  0
LINE
  5
132
330
12D
100
AcDbEntity
  8
1
  6
Continuous
 62
     3
100
AcDbLine
 10
32.48265700000001
 20
25.860535
 30
0.0
 11
32.532657
 21
25.560535
 31
0.0
  0
LINE
  5
133
330
12D
100
AcDbEntity
  8
1
  6
Continuous
 62
     3
100
AcDbLine
 10
32.432657
 20
25.560535
 30
0.0
 11
32.532657
 21
25.560535
 31
0.0
  0
LINE
  5
134
330
12D
100
AcDbEntity
  8
1
  6
Continuous
 62
     3
100
AcDbLine
 10
32.48265700000001
 20
11.184944
 30
0.0
 11
32.432657
 21
11.484944
 31
0.0
  0
LINE
  5
135
330
12D
100
AcDbEntity
  8
1
  6
Continuous
 62
     3
100
AcDbLine
 10
32.48265700000001
 20
11.184944
 30
0.0
 11
32.532657
 21
11.484944
 31
0.0
  0
LINE
  5
136
330
12D
100
AcDbEntity
  8
1
  6
Continuous
 62
     3
100
AcDbLine
 10
32.432657
 20
11.484944
 30
0.0
 11
32.532657
 21
11.484944
 31
0.0
  0
LINE
  5
137
330
12D
100
AcDbEntity
  8
1
  6
Continuous
 62
     3
100
AcDbLine
 10
32.48265700000001
 20
25.860535
 30
0.0
 11
32.48265700000001
 21
19.52274
 31
0.0
  0
LINE
  5
138
330
12D
100
AcDbEntity
  8
1
  6
Continuous
 62
     3
100
AcDbLine
 10
32.48265700000001
 20
11.184944
 30
0.0
 11
32.48265700000001
 21
17.52274
 31
0.0
  0
TEXT
  5
139
330
12D
100
AcDbEntity
  8
1
  6
Continuous
 62
     3
100
AcDbText
 10
30.357657
 20
17.92274
 30
0.0
 40
0.2
  1
[372.760 mm]
100
AcDbText
  0
TEXT
  5
13A
330
12D
100
AcDbEntity
  8
1
  6
Continuous
 62
     3
100
AcDbText
 10
32.557657
 20
18.07274
 30
0.0
 40
0.2
  1
+0.813 mm
100
AcDbText
  0
TEXT
  5
13B
330
12D
100
AcDbEntity
  8
1
  6
Continuous
 62
     3
100
AcDbText
 10
32.557657
 20
17.77274
 30
0.0
 40
0.2
  1
-1.575 mm
100
AcDbText
  0
TEXT
  5
13C
330
12D
100
AcDbEntity
  8
1
  6
Continuous
 62
     3
100
AcDbText
 10
31.257657
 20
18.92274
 30
0.0
 40
0.2
  1
14.676
100
AcDbText
  0
TEXT
  5
13D
330
12D
100
AcDbEntity
  8
1
  6
Continuous
 62
     3
100
AcDbText
 10
32.507657
 20
19.07274
 30
0.0
 40
0.2
  1
+0.032
100
AcDbText
  0
TEXT
  5
13E
330
12D
100
AcDbEntity
  8
1
  6
Continuous
 62
     3
100
AcDbText
 10
32.507657
 20
18.77274
 30
0.0
 40
0.2
  1
-0.062
100
AcDbText
  0
ENDBLK
  5
13F
330
12D
100
AcDbEntity
  8
0
100
AcDbBlockEnd
  0
BLOCK
  5
141
330
140
100
AcDbEntity
  8
0
100
AcDbBlockBegin
  2
*D12
 70
     1
 10
0.0
 20
0.0
 30
0.0
  3
*D12
  1

  0
LINE
  5
142
330
140
100
AcDbEntity
  8
1
  6
Continuous
 62
     3
100
AcDbLine
 10
28.80525200000001
 20
11.381744
 30
0.0
 11
28.80525200000001
 21
8.7266095
 31
0.0
  0
LINE
  5
143
330
140
100
AcDbEntity
  8
1
  6
Continuous
 62
     3
100
AcDbLine
 10
14.129661
 20
11.381744
 30
0.0
 11
14.129661
 21
8.7266095
 31
0.0
  0
LINE
  5
144
330
140
100
AcDbEntity
  8
1
  6
Continuous
 62
     3
100
AcDbLine
 10
28.80525200000001
 20
8.7891095
 30
0.0
 11
28.505252
 21
8.839109499999997
 31
0.0
  0
LINE
  5
145
330
140
100
AcDbEntity
  8
1
  6
Continuous
 62
     3
100
AcDbLine
 10
28.80525200000001
 20
8.7891095
 30
0.0
 11
28.505252
 21
8.739109499999999
 31
0.0
  0
LINE
  5
146
330
140
100
AcDbEntity
  8
1
  6
Continuous
 62
     3
100
AcDbLine
 10
28.505252
 20
8.839109499999997
 30
0.0
 11
28.505252
 21
8.739109499999999
 31
0.0
  0
LINE
  5
147
330
140
100
AcDbEntity
  8
1
  6
Continuous
 62
     3
100
AcDbLine
 10
14.129661
 20
8.7891095
 30
0.0
 11
14.429661
 21
8.839109499999997
 31
0.0
  0
LINE
  5
148
330
140
100
AcDbEntity
  8
1
  6
Continuous
 62
     3
100
AcDbLine
 10
14.129661
 20
8.7891095
 30
0.0
 11
14.429661
 21
8.739109499999999
 31
0.0
  0
LINE
  5
149
330
140
100
AcDbEntity
  8
1
  6
Continuous
 62
     3
100
AcDbLine
 10
14.429661
 20
8.839109499999997
 30
0.0
 11
14.429661
 21
8.739109499999999
 31
0.0
  0
LINE
  5
14A
330
140
100
AcDbEntity
  8
1
  6
Continuous
 62
     3
100
AcDbLine
 10
28.80525200000001
 20
8.7891095
 30
0.0
 11
23.642457
 21
8.7891095
 31
0.0
  0
LINE
  5
14B
330
140
100
AcDbEntity
  8
1
  6
Continuous
 62
     3
100
AcDbLine
 10
14.129661
 20
8.7891095
 30
0.0
 11
19.292457
 21
8.7891095
 31
0.0
  0
TEXT
  5
14C
330
140
100
AcDbEntity
  8
1
  6
Continuous
 62
     3
100
AcDbText
 10
19.542457
 20
8.1891095
 30
0.0
 40
0.2
  1
[372.76 mm]
100
AcDbText
  0
TEXT
  5
14D
330
140
100
AcDbEntity
  8
1
  6
Continuous
 62
     3
100
AcDbText
 10
21.542457
 20
8.339109499999999
 30
0.0
 40
0.2
  1
+.81 mm
100
AcDbText
  0
TEXT
  5
14E
330
140
100
AcDbEntity
  8
1
  6
Continuous
 62
     3
100
AcDbText
 10
21.542457
 20
8.0391095
 30
0.0
 40
0.2
  1
-1.57 mm
100
AcDbText
  0
TEXT
  5
14F
330
140
100
AcDbEntity
  8
1
  6
Continuous
 62
     3
100
AcDbText
 10
20.242457
 20
9.1891095
 30
0.0
 40
0.2
  1
14.676
100
AcDbText
  0
TEXT
  5
150
330
140
100
AcDbEntity
  8
1
  6
Continuous
 62
     3
100
AcDbText
 10
21.492457
 20
9.339109499999999
 30
0.0
 40
0.2
  1
+0.032
100
AcDbText
  0
TEXT
  5
151
330
140
100
AcDbEntity
  8
1
  6
Continuous
 62
     3
100
AcDbText
 10
21.492457
 20
9.0391095
 30
0.0
 40
0.2
  1
-0.062
100
AcDbText
  0
ENDBLK
  5
152
330
140
100
AcDbEntity
  8
0
100
AcDbBlockEnd
  0
BLOCK
  5
154
330
153
100
AcDbEntity
  8
0
100
AcDbBlockBegin
  2
*D13
 70
     1
 10
0.0
 20
0.0
 30
0.0
  3
*D13
  1

  0
LINE
  5
155
330
153
100
AcDbEntity
  8
1
  6
Continuous
 62
     3
100
AcDbLine
 10
28.676164
 20
11.249029
 30
0.0
 11
27.796475
 21
12.425446
 31
0.0
  0
LINE
  5
156
330
153
100
AcDbEntity
  8
1
  6
Continuous
 62
     3
100
AcDbLine
 10
28.676164
 20
11.249029
 30
0.0
 11
28.53655
 21
11.519228
 31
0.0
  0
LINE
  5
157
330
153
100
AcDbEntity
  8
1
  6
Continuous
 62
     3
100
AcDbLine
 10
28.676164
 20
11.249029
 30
0.0
 11
28.456464
 21
11.459343
 31
0.0
  0
LINE
  5
158
330
153
100
AcDbEntity
  8
1
  6
Continuous
 62
     3
100
AcDbLine
 10
28.53655
 20
11.519228
 30
0.0
 11
28.456464
 21
11.459343
 31
0.0
  0
LINE
  5
159
330
153
100
AcDbEntity
  8
1
  6
Continuous
 62
     3
100
AcDbLine
 10
27.671475
 20
12.425446
 30
0.0
 11
27.796475
 21
12.425446
 31
0.0
  0
TEXT
  5
15A
330
153
100
AcDbEntity
  8
1
  6
Continuous
 62
     3
100
AcDbText
 10
25.808975
 20
12.325446
 30
0.0
 40
0.2
  1
R.322
100
AcDbText
  0
TEXT
  5
15B
330
153
100
AcDbEntity
  8
1
  6
Continuous
 62
     3
100
AcDbText
 10
26.808975
 20
12.325446
 30
0.0
 40
0.2
  1
 TYP
100
AcDbText
  0
ENDBLK
  5
15C
330
153
100
AcDbEntity
  8
0
100
AcDbBlockEnd
  0
BLOCK
  5
3D3
330
3D1
100
AcDbEntity
  8
0
 62
     3
100
AcDbBlockBegin
  2
GENAXEH
 70
     0
 10
0.0
 20
0.0
 30
0.0
  3
GENAXEH
  1

  0
LINE
  5
3D2
330
3D1
100
AcDbEntity
  8
0
100
AcDbLine
 10
-1.0
 20
0.0
 30
0.0
 11
1.0
 21
0.0
 31
0.0
  0
ENDBLK
  5
3D4
330
3D1
100
AcDbEntity
  8
0
 62
     3
100
AcDbBlockEnd
  0
ENDSEC
  0
SECTION
  2
ENTITIES
  0
TEXT
  5
162
330
22
100
AcDbEntity
  8
126
  6
Continuous
 62
     3
100
AcDbText
 10
42.69512699999999
 20
1.019203499999999
 30
0.0
 40
0.1
  1
05JUL07
100
AcDbText
  0
LINE
  5
163
330
22
100
AcDbEntity
  8
1
  6
Continuous
 62
     6
100
AcDbLine
 10
43.764981
 20
33.59483400000002
 30
0.0
 11
43.764981
 21
0.1826134
 31
0.0
  0
LINE
  5
164
330
22
100
AcDbEntity
  8
1
  6
Continuous
 62
     6
100
AcDbLine
 10
0.41691414
 20
0.1826134
 30
0.0
 11
43.764981
 21
0.1826134
 31
0.0
  0
TEXT
  5
165
330
22
100
AcDbEntity
  8
126
  6
Continuous
 62
     3
100
AcDbText
 10
41.39472
 20
1.160183399999998
 30
0.0
 40
0.1
  1
JAS
100
AcDbText
  0
INSERT
  5
166
330
22
100
AcDbEntity
  8
1
100
AcDbBlockReference
  2
*U6
 10
21.475244
 20
18.758362
 30
0.0
  0
INSERT
  5
167
330
22
100
AcDbEntity
  8
126
100
AcDbBlockReference
  2
*U7
 10
39.837981
 20
0.6631446
 30
0.0
  0
INSERT
  5
168
330
22
100
AcDbEntity
  8
126
100
AcDbBlockReference
  2
*U3
 10
37.846724
 20
1.3897752
 30
0.0
  0
INSERT
  5
169
330
22
100
AcDbEntity
  8
1
100
AcDbBlockReference
  2
*D10
 10
0.0
 20
0.0
 30
0.0
  0
LINE
  5
16A
330
22
100
AcDbEntity
  8
1
  6
Continuous
 62
     6
100
AcDbLine
 10
0.41691414
 20
33.59483400000002
 30
0.0
 11
43.764981
 21
33.59483400000002
 31
0.0
  0
DIMENSION
  5
16B
330
22
100
AcDbEntity
  8
1
  6
Continuous
 62
     3
100
AcDbDimension
  2
*D11
 10
32.48265700000001
 20
11.184944
 30
0.0
 11
32.48265700000001
 21
18.52274
 31
0.0
 70
   128
 71
     5
 42
-1.0
  3
DSTYLE2
100
AcDbAlignedDimension
 13
28.48345200000001
 23
25.860535
 33
0.0
 14
28.48345200000001
 24
11.184944
 34
0.0
 50
90.0
100
AcDbRotatedDimension
  0
DIMENSION
  5
16C
330
22
100
AcDbEntity
  8
1
  6
Continuous
 62
     3
100
AcDbDimension
  2
*D12
 10
14.129661
 20
8.7891095
 30
0.0
 11
21.467457
 21
8.7891095
 31
0.0
 70
   128
 71
     5
 42
-1.0
  3
DSTYLE2
100
AcDbAlignedDimension
 13
28.80525200000001
 23
11.506744
 33
0.0
 14
14.129661
 24
11.506744
 34
0.0
100
AcDbRotatedDimension
  0
LINE
  5
16D
330
22
100
AcDbEntity
  8
1
  6
Continuous
 62
     6
100
AcDbLine
 10
0.41691414
 20
33.59483400000002
 30
0.0
 11
0.41691414
 21
0.1826134
 31
0.0
  0
INSERT
  5
16E
330
22
100
AcDbEntity
  8
126
100
AcDbBlockReference
  2
*U8
 10
35.44936
 20
0.3623444
 30
0.0
  0
TEXT
  5
16F
330
22
100
AcDbEntity
  8
126
  6
Continuous
 62
     3
100
AcDbText
 10
43.49299099999998
 20
1.6560828
 30
0.0
 40
0.1
  1
A
100
AcDbText
  0
CIRCLE
  5
170
330
22
100
AcDbEntity
  8
1
  6
Continuous
 62
     3
100
AcDbCircle
 10
43.54293499999999
 20
1.6994538
 30
0.0
 40
0.071311644
  0
INSERT
  5
171
330
22
100
AcDbEntity
  8
1
100
AcDbBlockReference
  2
*U9
 10
41.683592
 20
1.636579999999999
 30
0.0
  0
TEXT
  5
172
330
22
100
AcDbEntity
  8
1
  6
Continuous
 62
     1
100
AcDbText
 10
24.352197
 20
18.814936
 30
0.0
 40
0.25
  1
 
 72
     1
 11
24.427197
 21
18.939936
 31
0.0
100
AcDbText
 73
     2
  0
DIMENSION
  5
17B
330
22
100
AcDbEntity
  8
1
  6
Continuous
 62
     3
100
AcDbDimension
  2
*D13
 10
28.48345200000001
 20
11.506744
 30
0.0
 11
26.708975
 21
12.425446
 31
0.0
 70
     4
  1
<>
 71
     5
 42
-1.0
  3
DSTYLE3
100
AcDbRadialDimension
 15
28.676164
 25
11.249029
 35
0.0
 40
-1.468948399999999
  0
TEXT
  5
17C
330
22
100
AcDbEntity
  8
180
  6
Continuous
 62
     1
100
AcDbText
 10
41.35035300000001
 20
2.0259256
 30
0.0
 40
0.125
  1
MANUFACTURING COMPANY
 41
0.9
100
AcDbText
  0
TEXT
  5
17D
330
22
100
AcDbEntity
  8
126
  6
Continuous
 62
     3
100
AcDbText
 10
41.08247399999998
 20
1.870983799999999
 30
0.0
 40
0.075
  1
BROADVIEW, ILLINOIS
 72
     1
 11
41.76747399999999
 21
1.908483799999999
 31
0.0
100
AcDbText
 73
     2
  0
LINE
  5
17E
330
22
100
AcDbEntity
  8
126
  6
Continuous
 62
     3
100
AcDbLine
 10
40.161132
 20
2.027618499999999
 30
0.0
 11
40.350763
 21
2.027618499999999
 31
0.0
  0
LINE
  5
17F
330
22
100
AcDbEntity
  8
126
  6
Continuous
 62
     3
100
AcDbLine
 10
39.834707
 20
2.188672899999998
 30
0.0
 11
40.09701399999999
 21
2.188672899999998
 31
0.0
  0
LINE
  5
180
330
22
100
AcDbEntity
  8
126
  6
Continuous
 62
     3
100
AcDbLine
 10
39.801481
 20
2.0002435
 30
0.0
 11
40.07648099999999
 21
2.0002435
 31
0.0
  0
LINE
  5
181
330
22
100
AcDbEntity
  8
126
  6
Continuous
 62
     3
100
AcDbLine
 10
39.801481
 20
2.0002435
 30
0.0
 11
39.834707
 21
2.188672899999998
 31
0.0
  0
LINE
  5
182
330
22
100
AcDbEntity
  8
126
  6
Continuous
 62
     3
100
AcDbLine
 10
39.882021
 20
2.1612979
 30
0.0
 11
40.092187
 21
2.1612979
 31
0.0
  0
LINE
  5
183
330
22
100
AcDbEntity
  8
126
  6
Continuous
 62
     3
100
AcDbLine
 10
40.104138
 20
2.0002435
 30
0.0
 11
40.137363
 21
2.188672899999998
 31
0.0
  0
LINE
  5
184
330
22
100
AcDbEntity
  8
126
  6
Continuous
 62
     3
100
AcDbLine
 10
40.137363
 20
2.188672899999998
 30
0.0
 11
40.18952999999998
 21
2.188672899999998
 31
0.0
  0
LINE
  5
185
330
22
100
AcDbEntity
  8
126
  6
Continuous
 62
     3
100
AcDbLine
 10
40.104138
 20
2.0002435
 30
0.0
 11
40.345936
 21
2.0002435
 31
0.0
  0
LINE
  5
186
330
22
100
AcDbEntity
  8
126
  6
Continuous
 62
     3
100
AcDbLine
 10
40.161132
 20
2.027618499999999
 30
0.0
 11
40.18952999999998
 21
2.188672899999998
 31
0.0
  0
LINE
  5
187
330
22
100
AcDbEntity
  8
126
  6
Continuous
 62
     3
100
AcDbLine
 10
39.87266
 20
2.1082082
 30
0.0
 11
39.882021
 21
2.1612979
 31
0.0
  0
LINE
  5
188
330
22
100
AcDbEntity
  8
126
  6
Continuous
 62
     3
100
AcDbLine
 10
40.092187
 20
2.1612979
 30
0.0
 11
40.09701399999999
 21
2.188672899999998
 31
0.0
  0
LINE
  5
189
330
22
100
AcDbEntity
  8
126
  6
Continuous
 62
     3
100
AcDbLine
 10
40.065284
 20
2.080708199999999
 30
0.0
 11
40.07013299999999
 21
2.1082082
 31
0.0
  0
LINE
  5
18A
330
22
100
AcDbEntity
  8
126
  6
Continuous
 62
     3
100
AcDbLine
 10
41.29906199999999
 20
2.188672899999998
 30
0.0
 11
41.14478599999999
 21
2.0734935
 31
0.0
  0
LINE
  5
18B
330
22
100
AcDbEntity
  8
126
  6
Continuous
 62
     3
100
AcDbLine
 10
41.29906199999999
 20
2.188672899999998
 30
0.0
 11
41.237842
 21
2.188672899999998
 31
0.0
  0
LINE
  5
18C
330
22
100
AcDbEntity
  8
126
  6
Continuous
 62
     3
100
AcDbLine
 10
41.237842
 20
2.188672899999998
 30
0.0
 11
41.12449
 21
2.104047
 31
0.0
  0
LINE
  5
18D
330
22
100
AcDbEntity
  8
126
  6
Continuous
 62
     3
100
AcDbLine
 10
40.07648099999999
 20
2.0002435
 30
0.0
 11
40.08130799999999
 21
2.027618499999999
 31
0.0
  0
LINE
  5
18E
330
22
100
AcDbEntity
  8
126
  6
Continuous
 62
     3
100
AcDbLine
 10
39.86203
 20
2.027618499999999
 30
0.0
 11
39.871391
 21
2.080708199999999
 31
0.0
  0
LINE
  5
18F
330
22
100
AcDbEntity
  8
126
  6
Continuous
 62
     3
100
AcDbLine
 10
40.07013299999999
 20
2.1082082
 30
0.0
 11
39.87266
 21
2.1082082
 31
0.0
  0
LINE
  5
190
330
22
100
AcDbEntity
  8
126
  6
Continuous
 62
     3
100
AcDbLine
 10
39.871391
 20
2.080708199999999
 30
0.0
 11
40.065284
 21
2.080708199999999
 31
0.0
  0
LINE
  5
191
330
22
100
AcDbEntity
  8
126
  6
Continuous
 62
     3
100
AcDbLine
 10
40.699636
 20
2.188672899999998
 30
0.0
 11
40.55651199999998
 21
2.1074812
 31
0.0
  0
LINE
  5
192
330
22
100
AcDbEntity
  8
126
  6
Continuous
 62
     3
100
AcDbLine
 10
39.86203
 20
2.027618499999999
 30
0.0
 11
40.08130799999999
 21
2.027618499999999
 31
0.0
  0
LINE
  5
193
330
22
100
AcDbEntity
  8
126
  6
Continuous
 62
     3
100
AcDbLine
 10
40.345936
 20
2.0002435
 30
0.0
 11
40.350763
 21
2.027618499999999
 31
0.0
  0
LINE
  5
194
330
22
100
AcDbEntity
  8
126
  6
Continuous
 62
     3
100
AcDbLine
 10
40.62540900000001
 20
2.188672899999998
 30
0.0
 11
40.699636
 21
2.188672899999998
 31
0.0
  0
LINE
  5
195
330
22
100
AcDbEntity
  8
126
  6
Continuous
 62
     3
100
AcDbLine
 10
40.592015
 20
2.0002435
 30
0.0
 11
40.67323599999999
 21
2.0002435
 31
0.0
  0
LINE
  5
196
330
22
100
AcDbEntity
  8
126
  6
Continuous
 62
     3
100
AcDbLine
 10
40.432037
 20
2.0368685
 30
0.0
 11
40.425579
 21
2.0002435
 31
0.0
  0
LINE
  5
197
330
22
100
AcDbEntity
  8
126
  6
Continuous
 62
     3
100
AcDbLine
 10
40.458804
 20
2.188672899999998
 30
0.0
 11
40.440287
 21
2.0836563
 31
0.0
  0
LINE
  5
198
330
22
100
AcDbEntity
  8
126
  6
Continuous
 62
     3
100
AcDbLine
 10
40.847274
 20
2.188672899999998
 30
0.0
 11
40.938774
 21
2.188672899999998
 31
0.0
  0
LINE
  5
199
330
22
100
AcDbEntity
  8
126
  6
Continuous
 62
     3
100
AcDbLine
 10
40.96938
 20
2.0002435
 30
0.0
 11
41.03039899999998
 21
2.0002435
 31
0.0
  0
LINE
  5
19A
330
22
100
AcDbEntity
  8
126
  6
Continuous
 62
     3
100
AcDbLine
 10
40.50629699999999
 20
2.0789951
 30
0.0
 11
40.432037
 21
2.0368685
 31
0.0
  0
LINE
  5
19B
330
22
100
AcDbEntity
  8
126
  6
Continuous
 62
     3
100
AcDbLine
 10
40.62540900000001
 20
2.188672899999998
 30
0.0
 11
40.440287
 21
2.0836563
 31
0.0
  0
LINE
  5
19C
330
22
100
AcDbEntity
  8
126
  6
Continuous
 62
     3
100
AcDbLine
 10
40.458804
 20
2.188672899999998
 30
0.0
 11
40.406636
 21
2.188672899999998
 31
0.0
  0
LINE
  5
19D
330
22
100
AcDbEntity
  8
126
  6
Continuous
 62
     3
100
AcDbLine
 10
40.37341099999999
 20
2.0002435
 30
0.0
 11
40.406636
 21
2.188672899999998
 31
0.0
  0
LINE
  5
19E
330
22
100
AcDbEntity
  8
126
  6
Continuous
 62
     3
100
AcDbLine
 10
40.67323599999999
 20
2.0002435
 30
0.0
 11
40.55651199999998
 21
2.1074812
 31
0.0
  0
LINE
  5
19F
330
22
100
AcDbEntity
  8
126
  6
Continuous
 62
     3
100
AcDbLine
 10
40.592015
 20
2.0002435
 30
0.0
 11
40.50629699999999
 21
2.0789951
 31
0.0
  0
LINE
  5
1A0
330
22
100
AcDbEntity
  8
126
  6
Continuous
 62
     3
100
AcDbLine
 10
40.425579
 20
2.0002435
 30
0.0
 11
40.37341099999999
 21
2.0002435
 31
0.0
  0
LINE
  5
1A1
330
22
100
AcDbEntity
  8
126
  6
Continuous
 62
     3
100
AcDbLine
 10
40.682399
 20
2.0002435
 30
0.0
 11
40.731065
 21
2.0002435
 31
0.0
  0
LINE
  5
1A2
330
22
100
AcDbEntity
  8
126
  6
Continuous
 62
     3
100
AcDbLine
 10
40.78619
 20
2.0632435
 30
0.0
 11
40.884251
 21
2.1753141
 31
0.0
  0
LINE
  5
1A3
330
22
100
AcDbEntity
  8
126
  6
Continuous
 62
     3
100
AcDbLine
 10
40.938746
 20
2.0632435
 30
0.0
 11
40.884251
 21
2.1753141
 31
0.0
  0
LINE
  5
1A4
330
22
100
AcDbEntity
  8
126
  6
Continuous
 62
     3
100
AcDbLine
 10
40.682399
 20
2.0002435
 30
0.0
 11
40.847274
 21
2.188672899999998
 31
0.0
  0
LINE
  5
1A5
330
22
100
AcDbEntity
  8
126
  6
Continuous
 62
     3
100
AcDbLine
 10
40.763112
 20
2.0368685
 30
0.0
 11
40.951571
 21
2.0368685
 31
0.0
  0
LINE
  5
1A6
330
22
100
AcDbEntity
  8
126
  6
Continuous
 62
     3
100
AcDbLine
 10
41.03039899999998
 20
2.0002435
 30
0.0
 11
40.938774
 21
2.188672899999998
 31
0.0
  0
LINE
  5
1A7
330
22
100
AcDbEntity
  8
126
  6
Continuous
 62
     3
100
AcDbLine
 10
40.78619
 20
2.0632435
 30
0.0
 11
40.938746
 21
2.0632435
 31
0.0
  0
LINE
  5
1A8
330
22
100
AcDbEntity
  8
126
  6
Continuous
 62
     3
100
AcDbLine
 10
40.731065
 20
2.0002435
 30
0.0
 11
40.763112
 21
2.0368685
 31
0.0
  0
LINE
  5
1A9
330
22
100
AcDbEntity
  8
126
  6
Continuous
 62
     3
100
AcDbLine
 10
40.96938
 20
2.0002435
 30
0.0
 11
40.951571
 21
2.0368685
 31
0.0
  0
LINE
  5
1AA
330
22
100
AcDbEntity
  8
126
  6
Continuous
 62
     3
100
AcDbLine
 10
41.237842
 20
2.188672899999998
 30
0.0
 11
41.29906199999999
 21
2.188672899999998
 31
0.0
  0
LINE
  5
1AB
330
22
100
AcDbEntity
  8
126
  6
Continuous
 62
     3
100
AcDbLine
 10
41.076149
 20
2.0002435
 30
0.0
 11
41.131871
 21
2.0002435
 31
0.0
  0
LINE
  5
1AC
330
22
100
AcDbEntity
  8
126
  6
Continuous
 62
     3
100
AcDbLine
 10
41.076149
 20
2.0002435
 30
0.0
 11
41.087284
 21
2.0633943
 31
0.0
  0
LINE
  5
1AD
330
22
100
AcDbEntity
  8
126
  6
Continuous
 62
     3
100
AcDbLine
 10
41.131871
 20
2.0002435
 30
0.0
 11
41.14478599999999
 21
2.0734935
 31
0.0
  0
LINE
  5
1AE
330
22
100
AcDbEntity
  8
126
  6
Continuous
 62
     3
100
AcDbLine
 10
41.044809
 20
2.188672899999998
 30
0.0
 11
41.12449
 21
2.104047
 31
0.0
  0
LINE
  5
1AF
330
22
100
AcDbEntity
  8
126
  6
Continuous
 62
     3
100
AcDbLine
 10
41.087284
 20
2.0633943
 30
0.0
 11
40.969325
 21
2.188672899999998
 31
0.0
  0
LINE
  5
1B0
330
22
100
AcDbEntity
  8
126
  6
Continuous
 62
     3
100
AcDbLine
 10
40.969325
 20
2.188672899999998
 30
0.0
 11
41.044809
 21
2.188672899999998
 31
0.0
  0
LINE
  5
1B1
330
22
100
AcDbEntity
  8
126
  6
Continuous
 62
     3
100
AcDbLine
 10
41.288014
 20
2.188672899999998
 30
0.0
 11
41.292737
 21
2.1839501
 31
0.0
  0
LINE
  5
1B2
330
22
100
AcDbEntity
  8
126
  6
Continuous
 62
     3
100
AcDbLine
 10
41.276965
 20
2.188672899999998
 30
0.0
 11
41.286411
 21
2.179227399999998
 31
0.0
  0
LINE
  5
1B3
330
22
100
AcDbEntity
  8
126
  6
Continuous
 62
     3
100
AcDbLine
 10
41.265917
 20
2.188672899999998
 30
0.0
 11
41.28008499999999
 21
2.1745047
 31
0.0
  0
LINE
  5
1B4
330
22
100
AcDbEntity
  8
126
  6
Continuous
 62
     3
100
AcDbLine
 10
41.254868
 20
2.188672899999998
 30
0.0
 11
41.273759
 21
2.169782
 31
0.0
  0
LINE
  5
1B5
330
22
100
AcDbEntity
  8
126
  6
Continuous
 62
     3
100
AcDbLine
 10
41.24381999999999
 20
2.188672899999998
 30
0.0
 11
41.267433
 21
2.165059199999999
 31
0.0
  0
LINE
  5
1B6
330
22
100
AcDbEntity
  8
126
  6
Continuous
 62
     3
100
AcDbLine
 10
41.234939
 20
2.186505499999999
 30
0.0
 11
41.261108
 21
2.1603365
 31
0.0
  0
LINE
  5
1B7
330
22
100
AcDbEntity
  8
126
  6
Continuous
 62
     3
100
AcDbLine
 10
41.228613
 20
2.181782799999999
 30
0.0
 11
41.25478199999998
 21
2.155613799999998
 31
0.0
  0
LINE
  5
1B8
330
22
100
AcDbEntity
  8
126
  6
Continuous
 62
     3
100
AcDbLine
 10
41.22228699999999
 20
2.177059999999999
 30
0.0
 11
41.24845599999999
 21
2.150891099999999
 31
0.0
  0
LINE
  5
1B9
330
22
100
AcDbEntity
  8
126
  6
Continuous
 62
     3
100
AcDbLine
 10
41.215961
 20
2.1723373
 30
0.0
 11
41.24213
 21
2.146168299999998
 31
0.0
  0
LINE
  5
1BA
330
22
100
AcDbEntity
  8
126
  6
Continuous
 62
     3
100
AcDbLine
 10
41.209635
 20
2.1676146
 30
0.0
 11
41.23580399999998
 21
2.1414456
 31
0.0
  0
LINE
  5
1BB
330
22
100
AcDbEntity
  8
126
  6
Continuous
 62
     3
100
AcDbLine
 10
41.20330999999999
 20
2.162891799999999
 30
0.0
 11
41.229478
 21
2.1367229
 31
0.0
  0
LINE
  5
1BC
330
22
100
AcDbEntity
  8
126
  6
Continuous
 62
     3
100
AcDbLine
 10
41.19698399999999
 20
2.1581691
 30
0.0
 11
41.223153
 21
2.1320002
 31
0.0
  0
LINE
  5
1BD
330
22
100
AcDbEntity
  8
126
  6
Continuous
 62
     3
100
AcDbLine
 10
41.190658
 20
2.153446399999999
 30
0.0
 11
41.216827
 21
2.127277399999999
 31
0.0
  0
LINE
  5
1BE
330
22
100
AcDbEntity
  8
126
  6
Continuous
 62
     3
100
AcDbLine
 10
41.184332
 20
2.1487237
 30
0.0
 11
41.210501
 21
2.1225547
 31
0.0
  0
LINE
  5
1BF
330
22
100
AcDbEntity
  8
126
  6
Continuous
 62
     3
100
AcDbLine
 10
41.17800599999998
 20
2.144000899999999
 30
0.0
 11
41.204175
 21
2.117831999999999
 31
0.0
  0
LINE
  5
1C0
330
22
100
AcDbEntity
  8
126
  6
Continuous
 62
     3
100
AcDbLine
 10
41.17168
 20
2.1392782
 30
0.0
 11
41.19784899999999
 21
2.1131092
 31
0.0
  0
LINE
  5
1C1
330
22
100
AcDbEntity
  8
126
  6
Continuous
 62
     3
100
AcDbLine
 10
41.165355
 20
2.134555499999998
 30
0.0
 11
41.19152399999999
 21
2.108386499999999
 31
0.0
  0
LINE
  5
1C2
330
22
100
AcDbEntity
  8
126
  6
Continuous
 62
     3
100
AcDbLine
 10
41.159029
 20
2.129832799999999
 30
0.0
 11
41.185198
 21
2.1036638
 31
0.0
  0
LINE
  5
1C3
330
22
100
AcDbEntity
  8
126
  6
Continuous
 62
     3
100
AcDbLine
 10
41.152703
 20
2.125109999999998
 30
0.0
 11
41.178872
 21
2.0989411
 31
0.0
  0
LINE
  5
1C4
330
22
100
AcDbEntity
  8
126
  6
Continuous
 62
     3
100
AcDbLine
 10
41.146377
 20
2.120387299999999
 30
0.0
 11
41.172546
 21
2.0942183
 31
0.0
  0
LINE
  5
1C5
330
22
100
AcDbEntity
  8
126
  6
Continuous
 62
     3
100
AcDbLine
 10
41.14005099999999
 20
2.1156646
 30
0.0
 11
41.16622
 21
2.0894956
 31
0.0
  0
LINE
  5
1C6
330
22
100
AcDbEntity
  8
126
  6
Continuous
 62
     3
100
AcDbLine
 10
41.133726
 20
2.110941899999998
 30
0.0
 11
41.159895
 21
2.084772899999999
 31
0.0
  0
LINE
  5
1C7
330
22
100
AcDbEntity
  8
126
  6
Continuous
 62
     3
100
AcDbLine
 10
41.1274
 20
2.1062191
 30
0.0
 11
41.153569
 21
2.0800501
 31
0.0
  0
LINE
  5
1C8
330
22
100
AcDbEntity
  8
126
  6
Continuous
 62
     3
100
AcDbLine
 10
41.033897
 20
2.188672899999998
 30
0.0
 11
41.14724299999998
 21
2.075327399999999
 31
0.0
  0
LINE
  5
1C9
330
22
100
AcDbEntity
  8
126
  6
Continuous
 62
     3
100
AcDbLine
 10
41.02284899999999
 20
2.188672899999998
 30
0.0
 11
41.143773
 21
2.067748299999998
 31
0.0
  0
LINE
  5
1CA
330
22
100
AcDbEntity
  8
126
  6
Continuous
 62
     3
100
AcDbLine
 10
41.0118
 20
2.188672899999998
 30
0.0
 11
41.142117
 21
2.058355899999999
 31
0.0
  0
LINE
  5
1CB
330
22
100
AcDbEntity
  8
126
  6
Continuous
 62
     3
100
AcDbLine
 10
41.000752
 20
2.188672899999998
 30
0.0
 11
41.140461
 21
2.048963499999999
 31
0.0
  0
LINE
  5
1CC
330
22
100
AcDbEntity
  8
126
  6
Continuous
 62
     3
100
AcDbLine
 10
40.989703
 20
2.188672899999998
 30
0.0
 11
41.13880499999999
 21
2.039571099999998
 31
0.0
  0
LINE
  5
1CD
330
22
100
AcDbEntity
  8
126
  6
Continuous
 62
     3
100
AcDbLine
 10
40.978655
 20
2.188672899999998
 30
0.0
 11
41.137149
 21
2.0301787
 31
0.0
  0
LINE
  5
1CE
330
22
100
AcDbEntity
  8
126
  6
Continuous
 62
     3
100
AcDbLine
 10
40.997025
 20
2.159253699999998
 30
0.0
 11
41.13549299999998
 21
2.0207863
 31
0.0
  0
LINE
  5
1CF
330
22
100
AcDbEntity
  8
126
  6
Continuous
 62
     3
100
AcDbLine
 10
41.08646799999998
 20
2.058762999999999
 30
0.0
 11
41.13383699999999
 21
2.011393899999998
 31
0.0
  0
LINE
  5
1D0
330
22
100
AcDbEntity
  8
126
  6
Continuous
 62
     3
100
AcDbLine
 10
41.084811
 20
2.0493705
 30
0.0
 11
41.132181
 21
2.002001499999999
 31
0.0
  0
LINE
  5
1D1
330
22
100
AcDbEntity
  8
126
  6
Continuous
 62
     3
100
AcDbLine
 10
40.934461
 20
2.188672899999998
 30
0.0
 11
40.942857
 21
2.180276799999999
 31
0.0
  0
LINE
  5
1D2
330
22
100
AcDbEntity
  8
126
  6
Continuous
 62
     3
100
AcDbLine
 10
41.08315499999998
 20
2.0399781
 30
0.0
 11
41.12289
 21
2.0002435
 31
0.0
  0
LINE
  5
1D3
330
22
100
AcDbEntity
  8
126
  6
Continuous
 62
     3
100
AcDbLine
 10
40.92341199999999
 20
2.188672899999998
 30
0.0
 11
40.953314
 21
2.158770799999999
 31
0.0
  0
LINE
  5
1D4
330
22
100
AcDbEntity
  8
126
  6
Continuous
 62
     3
100
AcDbLine
 10
41.08149899999999
 20
2.0305857
 30
0.0
 11
41.111841
 21
2.0002435
 31
0.0
  0
LINE
  5
1D5
330
22
100
AcDbEntity
  8
126
  6
Continuous
 62
     3
100
AcDbLine
 10
40.912363
 20
2.188672899999998
 30
0.0
 11
40.963771
 21
2.137264899999999
 31
0.0
  0
LINE
  5
1D6
330
22
100
AcDbEntity
  8
126
  6
Continuous
 62
     3
100
AcDbLine
 10
41.079843
 20
2.0211933
 30
0.0
 11
41.10079299999998
 21
2.0002435
 31
0.0
  0
LINE
  5
1D7
330
22
100
AcDbEntity
  8
126
  6
Continuous
 62
     3
100
AcDbLine
 10
40.901315
 20
2.188672899999998
 30
0.0
 11
40.974229
 21
2.115758899999998
 31
0.0
  0
LINE
  5
1D8
330
22
100
AcDbEntity
  8
126
  6
Continuous
 62
     3
100
AcDbLine
 10
41.078187
 20
2.011800899999999
 30
0.0
 11
41.089744
 21
2.0002435
 31
0.0
  0
LINE
  5
1D9
330
22
100
AcDbEntity
  8
126
  6
Continuous
 62
     3
100
AcDbLine
 10
40.89026599999999
 20
2.188672899999998
 30
0.0
 11
40.98468599999999
 21
2.094252999999999
 31
0.0
  0
LINE
  5
1DA
330
22
100
AcDbEntity
  8
126
  6
Continuous
 62
     3
100
AcDbLine
 10
41.076531
 20
2.0024085
 30
0.0
 11
41.07869599999999
 21
2.0002435
 31
0.0
  0
LINE
  5
1DB
330
22
100
AcDbEntity
  8
126
  6
Continuous
 62
     3
100
AcDbLine
 10
40.879218
 20
2.188672899999998
 30
0.0
 11
40.995144
 21
2.072747
 31
0.0
  0
LINE
  5
1DC
330
22
100
AcDbEntity
  8
126
  6
Continuous
 62
     3
100
AcDbLine
 10
40.868169
 20
2.188672899999998
 30
0.0
 11
40.88297999999999
 21
2.1738618
 31
0.0
  0
LINE
  5
1DD
330
22
100
AcDbEntity
  8
126
  6
Continuous
 62
     3
100
AcDbLine
 10
40.886829
 20
2.1700135
 30
0.0
 11
41.005601
 21
2.051241
 31
0.0
  0
LINE
  5
1DE
330
22
100
AcDbEntity
  8
126
  6
Continuous
 62
     3
100
AcDbLine
 10
40.857121
 20
2.188672899999998
 30
0.0
 11
40.877824
 21
2.1679692
 31
0.0
  0
TEXT
  5
1DF
330
22
100
AcDbEntity
  8
126
  6
Continuous
 62
     3
100
AcDbText
 10
39.837981
 20
1.1631446
 30
0.0
 40
0.09375
  1
DR.BY
 41
0.9
100
AcDbText
  0
TEXT
  5
1E0
330
22
100
AcDbEntity
  8
126
  6
Continuous
 62
     3
100
AcDbText
 10
35.830243
 20
1.6527791
 30
0.0
 40
0.08
  1
MATERIAL
100
AcDbText
  0
TEXT
  5
1E1
330
22
100
AcDbEntity
  8
126
  6
Continuous
 62
     3
100
AcDbText
 10
35.813849
 20
2.1066497
 30
0.0
 40
0.08
  1
FINISH
100
AcDbText
  0
TEXT
  5
1E2
330
22
100
AcDbEntity
  8
126
  6
Continuous
 62
     3
100
AcDbText
 10
40.832871
 20
1.1615472
 30
0.0
 40
0.09375
  1
CH.BY
 41
0.9
100
AcDbText
  0
TEXT
  5
1E3
330
22
100
AcDbEntity
  8
126
  6
Continuous
 62
     3
100
AcDbText
 10
39.840737
 20
0.9591703
 30
0.0
 40
0.09375
  1
SCALE
 41
1.04
100
AcDbText
  0
TEXT
  5
1E4
330
22
100
AcDbEntity
  8
1
  6
Continuous
 62
     1
100
AcDbText
 10
41.844023
 20
0.5755090000000001
 30
0.0
 40
0.1875
  1
REV-B
 41
0.975
100
AcDbText
  0
TEXT
  5
1E5
330
22
100
AcDbEntity
  8
126
  6
Continuous
 62
     3
100
AcDbText
 10
41.835291
 20
1.1442235
 30
0.0
 40
0.09375
  1
DATE
 41
1.024999999999999
100
AcDbText
  0
LINE
  5
1E6
330
22
100
AcDbEntity
  8
180
  6
Continuous
 62
     6
100
AcDbLine
 10
35.764978
 20
0.1826134
 30
0.0
 11
35.764978
 21
2.2451137
 31
0.0
  0
LINE
  5
1E7
330
22
100
AcDbEntity
  8
180
  6
Continuous
 62
     6
100
AcDbLine
 10
35.764978
 20
2.2451137
 30
0.0
 11
43.764981
 21
2.2451137
 31
0.0
  0
LINE
  5
1E8
330
22
100
AcDbEntity
  8
180
  6
Continuous
 62
     6
100
AcDbLine
 10
39.764979
 20
2.2451137
 30
0.0
 11
39.764979
 21
0.1826134
 31
0.0
  0
LINE
  5
1E9
330
22
100
AcDbEntity
  8
180
  6
Continuous
 62
     6
100
AcDbLine
 10
39.764979
 20
0.4951134
 30
0.0
 11
43.764981
 21
0.4951134
 31
0.0
  0
LINE
  5
1EA
330
22
100
AcDbEntity
  8
180
  6
Continuous
 62
     6
100
AcDbLine
 10
43.764981
 20
0.8076135
 30
0.0
 11
39.764979
 21
0.8076135
 31
0.0
  0
LINE
  5
1EB
330
22
100
AcDbEntity
  8
180
  6
Continuous
 62
     6
100
AcDbLine
 10
39.764979
 20
1.307613499999998
 30
0.0
 11
43.764981
 21
1.307613499999998
 31
0.0
  0
LINE
  5
1EC
330
22
100
AcDbEntity
  8
180
  6
Continuous
 62
     6
100
AcDbLine
 10
39.764979
 20
1.807613499999999
 30
0.0
 11
43.764981
 21
1.807613499999999
 31
0.0
  0
LINE
  5
1ED
330
22
100
AcDbEntity
  8
180
  6
Continuous
 62
     6
100
AcDbLine
 10
41.764979
 20
1.307613499999998
 30
0.0
 11
41.764979
 21
0.4951134
 31
0.0
  0
LINE
  5
1EE
330
22
100
AcDbEntity
  8
180
  6
Continuous
 62
     6
100
AcDbLine
 10
39.764979
 20
1.120113499999998
 30
0.0
 11
41.764979
 21
1.120113499999998
 31
0.0
  0
LINE
  5
1EF
330
22
100
AcDbEntity
  8
180
  6
Continuous
 62
     6
100
AcDbLine
 10
40.76497899999998
 20
1.120113499999998
 30
0.0
 11
40.76497899999998
 21
1.307613499999998
 31
0.0
  0
LINE
  5
1F0
330
22
100
AcDbEntity
  8
180
  6
Continuous
 62
     6
100
AcDbLine
 10
39.764979
 20
1.807613499999999
 30
0.0
 11
35.764978
 21
1.807613499999999
 31
0.0
  0
LINE
  5
1F1
330
22
100
AcDbEntity
  8
180
  6
Continuous
 62
     6
100
AcDbLine
 10
39.764979
 20
0.8076135
 30
0.0
 11
35.764978
 21
0.8076135
 31
0.0
  0
LINE
  5
1F2
330
22
100
AcDbEntity
  8
126
  6
Continuous
 62
     3
100
AcDbLine
 10
40.89728599999999
 20
2.1485075
 30
0.0
 11
41.016059
 21
2.0297351
 31
0.0
  0
LINE
  5
1F3
330
22
100
AcDbEntity
  8
126
  6
Continuous
 62
     3
100
AcDbLine
 10
40.846713
 20
2.188031899999999
 30
0.0
 11
40.872668
 21
2.162076599999998
 31
0.0
  0
LINE
  5
1F4
330
22
100
AcDbEntity
  8
126
  6
Continuous
 62
     3
100
AcDbLine
 10
40.90774399999999
 20
2.127001599999998
 30
0.0
 11
41.026516
 21
2.0082291
 31
0.0
  0
LINE
  5
1F5
330
22
100
AcDbEntity
  8
126
  6
Continuous
 62
     3
100
AcDbLine
 10
40.841557
 20
2.182139299999998
 30
0.0
 11
40.867512
 21
2.156184099999999
 31
0.0
  0
LINE
  5
1F6
330
22
100
AcDbEntity
  8
126
  6
Continuous
 62
     3
100
AcDbLine
 10
40.918201
 20
2.1054956
 30
0.0
 11
41.023453
 21
2.0002435
 31
0.0
  0
LINE
  5
1F7
330
22
100
AcDbEntity
  8
126
  6
Continuous
 62
     3
100
AcDbLine
 10
40.836401
 20
2.176246799999999
 30
0.0
 11
40.862356
 21
2.1502915
 31
0.0
  0
LINE
  5
1F8
330
22
100
AcDbEntity
  8
126
  6
Continuous
 62
     3
100
AcDbLine
 10
40.928658
 20
2.0839897
 30
0.0
 11
41.012404
 21
2.0002435
 31
0.0
  0
LINE
  5
1F9
330
22
100
AcDbEntity
  8
126
  6
Continuous
 62
     3
100
AcDbLine
 10
40.831245
 20
2.1703542
 30
0.0
 11
40.857201
 21
2.144398899999999
 31
0.0
  0
LINE
  5
1FA
330
22
100
AcDbEntity
  8
126
  6
Continuous
 62
     3
100
AcDbLine
 10
40.938356
 20
2.0632435
 30
0.0
 11
41.001356
 21
2.0002435
 31
0.0
  0
LINE
  5
1FB
330
22
100
AcDbEntity
  8
126
  6
Continuous
 62
     3
100
AcDbLine
 10
40.826089
 20
2.1644616
 30
0.0
 11
40.852045
 21
2.138506399999998
 31
0.0
  0
LINE
  5
1FC
330
22
100
AcDbEntity
  8
126
  6
Continuous
 62
     3
100
AcDbLine
 10
40.92730699999999
 20
2.0632435
 30
0.0
 11
40.990307
 21
2.0002435
 31
0.0
  0
LINE
  5
1FD
330
22
100
AcDbEntity
  8
126
  6
Continuous
 62
     3
100
AcDbLine
 10
40.820933
 20
2.1585691
 30
0.0
 11
40.846889
 21
2.1326138
 31
0.0
  0
LINE
  5
1FE
330
22
100
AcDbEntity
  8
126
  6
Continuous
 62
     3
100
AcDbLine
 10
40.916259
 20
2.0632435
 30
0.0
 11
40.942634
 21
2.0368685
 31
0.0
  0
LINE
  5
1FF
330
22
100
AcDbEntity
  8
126
  6
Continuous
 62
     3
100
AcDbLine
 10
40.96003099999999
 20
2.0194718
 30
0.0
 11
40.979259
 21
2.0002435
 31
0.0
  0
LINE
  5
200
330
22
100
AcDbEntity
  8
126
  6
Continuous
 62
     3
100
AcDbLine
 10
40.815777
 20
2.1526765
 30
0.0
 11
40.841733
 21
2.1267212
 31
0.0
  0
LINE
  5
201
330
22
100
AcDbEntity
  8
126
  6
Continuous
 62
     3
100
AcDbLine
 10
40.90520999999998
 20
2.0632435
 30
0.0
 11
40.931585
 21
2.0368685
 31
0.0
  0
LINE
  5
202
330
22
100
AcDbEntity
  8
126
  6
Continuous
 62
     3
100
AcDbLine
 10
40.810621
 20
2.146783899999999
 30
0.0
 11
40.83657699999998
 21
2.1208287
 31
0.0
  0
LINE
  5
203
330
22
100
AcDbEntity
  8
126
  6
Continuous
 62
     3
100
AcDbLine
 10
40.894162
 20
2.0632435
 30
0.0
 11
40.920537
 21
2.0368685
 31
0.0
  0
LINE
  5
204
330
22
100
AcDbEntity
  8
126
  6
Continuous
 62
     3
100
AcDbLine
 10
40.805465
 20
2.1408914
 30
0.0
 11
40.83142099999998
 21
2.114936099999999
 31
0.0
  0
LINE
  5
205
330
22
100
AcDbEntity
  8
126
  6
Continuous
 62
     3
100
AcDbLine
 10
40.88311299999999
 20
2.0632435
 30
0.0
 11
40.909488
 21
2.0368685
 31
0.0
  0
LINE
  5
206
330
22
100
AcDbEntity
  8
126
  6
Continuous
 62
     3
100
AcDbLine
 10
40.800309
 20
2.134998799999999
 30
0.0
 11
40.82626499999999
 21
2.1090435
 31
0.0
  0
LINE
  5
207
330
22
100
AcDbEntity
  8
126
  6
Continuous
 62
     3
100
AcDbLine
 10
40.87206499999999
 20
2.0632435
 30
0.0
 11
40.89844
 21
2.0368685
 31
0.0
  0
LINE
  5
208
330
22
100
AcDbEntity
  8
126
  6
Continuous
 62
     3
100
AcDbLine
 10
40.795153
 20
2.1291062
 30
0.0
 11
40.82110899999999
 21
2.103150999999999
 31
0.0
  0
LINE
  5
209
330
22
100
AcDbEntity
  8
126
  6
Continuous
 62
     3
100
AcDbLine
 10
40.861016
 20
2.0632435
 30
0.0
 11
40.887391
 21
2.0368685
 31
0.0
  0
LINE
  5
20A
330
22
100
AcDbEntity
  8
126
  6
Continuous
 62
     3
100
AcDbLine
 10
40.78999699999999
 20
2.1232137
 30
0.0
 11
40.815953
 21
2.097258399999998
 31
0.0
  0
LINE
  5
20B
330
22
100
AcDbEntity
  8
126
  6
Continuous
 62
     3
100
AcDbLine
 10
40.84996799999998
 20
2.0632435
 30
0.0
 11
40.876343
 21
2.0368685
 31
0.0
  0
LINE
  5
20C
330
22
100
AcDbEntity
  8
126
  6
Continuous
 62
     3
100
AcDbLine
 10
40.78484099999999
 20
2.117321099999998
 30
0.0
 11
40.81079699999999
 21
2.0913658
 31
0.0
  0
LINE
  5
20D
330
22
100
AcDbEntity
  8
126
  6
Continuous
 62
     3
100
AcDbLine
 10
40.838919
 20
2.0632435
 30
0.0
 11
40.86529399999998
 21
2.0368685
 31
0.0
  0
LINE
  5
20E
330
22
100
AcDbEntity
  8
126
  6
Continuous
 62
     3
100
AcDbLine
 10
40.77968499999999
 20
2.1114285
 30
0.0
 11
40.80564099999999
 21
2.085473299999998
 31
0.0
  0
LINE
  5
20F
330
22
100
AcDbEntity
  8
126
  6
Continuous
 62
     3
100
AcDbLine
 10
40.82787
 20
2.0632435
 30
0.0
 11
40.854245
 21
2.0368685
 31
0.0
  0
LINE
  5
210
330
22
100
AcDbEntity
  8
126
  6
Continuous
 62
     3
100
AcDbLine
 10
40.69139299999998
 20
2.188672899999998
 30
0.0
 11
40.69437599999999
 21
2.185688999999999
 31
0.0
  0
LINE
  5
211
330
22
100
AcDbEntity
  8
126
  6
Continuous
 62
     3
100
AcDbLine
 10
40.77452899999999
 20
2.105535999999998
 30
0.0
 11
40.80048499999999
 21
2.0795807
 31
0.0
  0
LINE
  5
212
330
22
100
AcDbEntity
  8
126
  6
Continuous
 62
     3
100
AcDbLine
 10
40.81682199999998
 20
2.0632435
 30
0.0
 11
40.84319699999999
 21
2.0368685
 31
0.0
  0
LINE
  5
213
330
22
100
AcDbEntity
  8
126
  6
Continuous
 62
     3
100
AcDbLine
 10
40.680344
 20
2.188672899999998
 30
0.0
 11
40.687327
 21
2.18169
 31
0.0
  0
LINE
  5
214
330
22
100
AcDbEntity
  8
126
  6
Continuous
 62
     3
100
AcDbLine
 10
40.769374
 20
2.099643399999999
 30
0.0
 11
40.79532899999999
 21
2.0736881
 31
0.0
  0
LINE
  5
215
330
22
100
AcDbEntity
  8
126
  6
Continuous
 62
     3
100
AcDbLine
 10
40.80577299999998
 20
2.0632435
 30
0.0
 11
40.83214799999999
 21
2.0368685
 31
0.0
  0
LINE
  5
216
330
22
100
AcDbEntity
  8
126
  6
Continuous
 62
     3
100
AcDbLine
 10
40.669296
 20
2.188672899999998
 30
0.0
 11
40.680277
 21
2.177690899999999
 31
0.0
  0
LINE
  5
217
330
22
100
AcDbEntity
  8
126
  6
Continuous
 62
     3
100
AcDbLine
 10
40.764218
 20
2.0937508
 30
0.0
 11
40.79017299999999
 21
2.0677956
 31
0.0
  0
LINE
  5
218
330
22
100
AcDbEntity
  8
126
  6
Continuous
 62
     3
100
AcDbLine
 10
40.794725
 20
2.0632435
 30
0.0
 11
40.8211
 21
2.0368685
 31
0.0
  0
LINE
  5
219
330
22
100
AcDbEntity
  8
126
  6
Continuous
 62
     3
100
AcDbLine
 10
40.65824699999999
 20
2.188672899999998
 30
0.0
 11
40.673228
 21
2.173691899999999
 31
0.0
  0
LINE
  5
21A
330
22
100
AcDbEntity
  8
126
  6
Continuous
 62
     3
100
AcDbLine
 10
40.759062
 20
2.087858299999999
 30
0.0
 11
40.810051
 21
2.0368685
 31
0.0
  0
LINE
  5
21B
330
22
100
AcDbEntity
  8
126
  6
Continuous
 62
     3
100
AcDbLine
 10
40.64719799999998
 20
2.188672899999998
 30
0.0
 11
40.666178
 21
2.169692799999999
 31
0.0
  0
LINE
  5
21C
330
22
100
AcDbEntity
  8
126
  6
Continuous
 62
     3
100
AcDbLine
 10
40.753906
 20
2.0819657
 30
0.0
 11
40.79900300000001
 21
2.0368685
 31
0.0
  0
LINE
  5
21D
330
22
100
AcDbEntity
  8
126
  6
Continuous
 62
     3
100
AcDbLine
 10
40.63615
 20
2.188672899999998
 30
0.0
 11
40.65912899999999
 21
2.165693799999999
 31
0.0
  0
LINE
  5
21E
330
22
100
AcDbEntity
  8
126
  6
Continuous
 62
     3
100
AcDbLine
 10
40.74875
 20
2.076073099999999
 30
0.0
 11
40.78795399999999
 21
2.0368685
 31
0.0
  0
LINE
  5
21F
330
22
100
AcDbEntity
  8
126
  6
Continuous
 62
     3
100
AcDbLine
 10
40.625213
 20
2.188561399999999
 30
0.0
 11
40.65207899999999
 21
2.161694699999999
 31
0.0
  0
LINE
  5
220
330
22
100
AcDbEntity
  8
126
  6
Continuous
 62
     3
100
AcDbLine
 10
40.743594
 20
2.0701806
 30
0.0
 11
40.77690599999999
 21
2.0368685
 31
0.0
  0
LINE
  5
221
330
22
100
AcDbEntity
  8
126
  6
Continuous
 62
     3
100
AcDbLine
 10
40.618163
 20
2.184562399999999
 30
0.0
 11
40.64503
 21
2.1576957
 31
0.0
  0
LINE
  5
222
330
22
100
AcDbEntity
  8
126
  6
Continuous
 62
     3
100
AcDbLine
 10
40.738438
 20
2.064287999999999
 30
0.0
 11
40.765857
 21
2.0368685
 31
0.0
  0
LINE
  5
223
330
22
100
AcDbEntity
  8
126
  6
Continuous
 62
     3
100
AcDbLine
 10
40.611114
 20
2.1805634
 30
0.0
 11
40.63798
 21
2.153696599999999
 31
0.0
  0
LINE
  5
224
330
22
100
AcDbEntity
  8
126
  6
Continuous
 62
     3
100
AcDbLine
 10
40.733282
 20
2.058395399999999
 30
0.0
 11
40.75923699999999
 21
2.0324401
 31
0.0
  0
LINE
  5
225
330
22
100
AcDbEntity
  8
126
  6
Continuous
 62
     3
100
AcDbLine
 10
40.604064
 20
2.176564299999999
 30
0.0
 11
40.63093099999998
 21
2.1496976
 31
0.0
  0
LINE
  5
226
330
22
100
AcDbEntity
  8
126
  6
Continuous
 62
     3
100
AcDbLine
 10
40.728126
 20
2.052502899999999
 30
0.0
 11
40.75408099999999
 21
2.0265476
 31
0.0
  0
LINE
  5
227
330
22
100
AcDbEntity
  8
126
  6
Continuous
 62
     3
100
AcDbLine
 10
40.597015
 20
2.1725653
 30
0.0
 11
40.62388099999998
 21
2.145698499999999
 31
0.0
  0
LINE
  5
228
330
22
100
AcDbEntity
  8
126
  6
Continuous
 62
     3
100
AcDbLine
 10
40.72297
 20
2.046610299999999
 30
0.0
 11
40.74892499999999
 21
2.020655
 31
0.0
  0
LINE
  5
229
330
22
100
AcDbEntity
  8
126
  6
Continuous
 62
     3
100
AcDbLine
 10
40.589965
 20
2.168566199999999
 30
0.0
 11
40.616832
 21
2.1416995
 31
0.0
  0
LINE
  5
22A
330
22
100
AcDbEntity
  8
126
  6
Continuous
 62
     3
100
AcDbLine
 10
40.717814
 20
2.0407177
 30
0.0
 11
40.74376899999999
 21
2.014762399999999
 31
0.0
  0
LINE
  5
22B
330
22
100
AcDbEntity
  8
126
  6
Continuous
 62
     3
100
AcDbLine
 10
40.58291599999999
 20
2.1645672
 30
0.0
 11
40.609783
 21
2.137700399999999
 31
0.0
  0
LINE
  5
22C
330
22
100
AcDbEntity
  8
126
  6
Continuous
 62
     3
100
AcDbLine
 10
40.712658
 20
2.0348252
 30
0.0
 11
40.73861299999999
 21
2.0088699
 31
0.0
  0
LINE
  5
22D
330
22
100
AcDbEntity
  8
126
  6
Continuous
 62
     3
100
AcDbLine
 10
40.57586599999999
 20
2.160568099999998
 30
0.0
 11
40.602733
 21
2.1337014
 31
0.0
  0
LINE
  5
22E
330
22
100
AcDbEntity
  8
126
  6
Continuous
 62
     3
100
AcDbLine
 10
40.707502
 20
2.0289326
 30
0.0
 11
40.73345699999999
 21
2.002977299999999
 31
0.0
  0
LINE
  5
22F
330
22
100
AcDbEntity
  8
126
  6
Continuous
 62
     3
100
AcDbLine
 10
40.56881699999999
 20
2.1565691
 30
0.0
 11
40.595684
 21
2.129702299999999
 31
0.0
  0
LINE
  5
230
330
22
100
AcDbEntity
  8
126
  6
Continuous
 62
     3
100
AcDbLine
 10
40.702346
 20
2.023039999999999
 30
0.0
 11
40.72514199999999
 21
2.0002435
 31
0.0
  0
LINE
  5
231
330
22
100
AcDbEntity
  8
126
  6
Continuous
 62
     3
100
AcDbLine
 10
40.56176699999999
 20
2.152569999999998
 30
0.0
 11
40.588634
 21
2.1257033
 31
0.0
  0
LINE
  5
232
330
22
100
AcDbEntity
  8
126
  6
Continuous
 62
     3
100
AcDbLine
 10
40.69719
 20
2.017147499999999
 30
0.0
 11
40.714094
 21
2.0002435
 31
0.0
  0
LINE
  5
233
330
22
100
AcDbEntity
  8
126
  6
Continuous
 62
     3
100
AcDbLine
 10
40.554718
 20
2.148571
 30
0.0
 11
40.581585
 21
2.121704199999999
 31
0.0
  0
LINE
  5
234
330
22
100
AcDbEntity
  8
126
  6
Continuous
 62
     3
100
AcDbLine
 10
40.692034
 20
2.011254899999999
 30
0.0
 11
40.703045
 21
2.0002435
 31
0.0
  0
LINE
  5
235
330
22
100
AcDbEntity
  8
126
  6
Continuous
 62
     3
100
AcDbLine
 10
40.547668
 20
2.144571899999998
 30
0.0
 11
40.574535
 21
2.1177052
 31
0.0
  0
LINE
  5
236
330
22
100
AcDbEntity
  8
126
  6
Continuous
 62
     3
100
AcDbLine
 10
40.686878
 20
2.005362299999998
 30
0.0
 11
40.691997
 21
2.0002435
 31
0.0
  0
LINE
  5
237
330
22
100
AcDbEntity
  8
126
  6
Continuous
 62
     3
100
AcDbLine
 10
40.54061899999999
 20
2.1405729
 30
0.0
 11
40.56748599999998
 21
2.1137061
 31
0.0
  0
LINE
  5
238
330
22
100
AcDbEntity
  8
126
  6
Continuous
 62
     3
100
AcDbLine
 10
40.53356899999999
 20
2.136573799999998
 30
0.0
 11
40.56043599999998
 21
2.1097071
 31
0.0
  0
LINE
  5
239
330
22
100
AcDbEntity
  8
126
  6
Continuous
 62
     3
100
AcDbLine
 10
40.632179
 20
2.0379643
 30
0.0
 11
40.66989999999999
 21
2.0002435
 31
0.0
  0
LINE
  5
23A
330
22
100
AcDbEntity
  8
126
  6
Continuous
 62
     3
100
AcDbLine
 10
40.52652
 20
2.132574799999999
 30
0.0
 11
40.658851
 21
2.0002435
 31
0.0
  0
LINE
  5
23B
330
22
100
AcDbEntity
  8
126
  6
Continuous
 62
     3
100
AcDbLine
 10
40.51947
 20
2.1285757
 30
0.0
 11
40.647803
 21
2.0002435
 31
0.0
  0
LINE
  5
23C
330
22
100
AcDbEntity
  8
126
  6
Continuous
 62
     3
100
AcDbLine
 10
40.448325
 20
2.188672899999998
 30
0.0
 11
40.457233
 21
2.179764399999998
 31
0.0
  0
LINE
  5
23D
330
22
100
AcDbEntity
  8
126
  6
Continuous
 62
     3
100
AcDbLine
 10
40.512421
 20
2.1245767
 30
0.0
 11
40.636754
 21
2.0002435
 31
0.0
  0
LINE
  5
23E
330
22
100
AcDbEntity
  8
126
  6
Continuous
 62
     3
100
AcDbLine
 10
40.437276
 20
2.188672899999998
 30
0.0
 11
40.455577
 21
2.170371999999999
 31
0.0
  0
LINE
  5
23F
330
22
100
AcDbEntity
  8
126
  6
Continuous
 62
     3
100
AcDbLine
 10
40.505371
 20
2.1205776
 30
0.0
 11
40.62570499999998
 21
2.0002435
 31
0.0
  0
LINE
  5
240
330
22
100
AcDbEntity
  8
126
  6
Continuous
 62
     3
100
AcDbLine
 10
40.426228
 20
2.188672899999998
 30
0.0
 11
40.45392099999999
 21
2.1609796
 31
0.0
  0
LINE
  5
241
330
22
100
AcDbEntity
  8
126
  6
Continuous
 62
     3
100
AcDbLine
 10
40.49832199999999
 20
2.116578599999999
 30
0.0
 11
40.614657
 21
2.0002435
 31
0.0
  0
LINE
  5
242
330
22
100
AcDbEntity
  8
126
  6
Continuous
 62
     3
100
AcDbLine
 10
40.41517899999998
 20
2.188672899999998
 30
0.0
 11
40.452265
 21
2.1515872
 31
0.0
  0
LINE
  5
243
330
22
100
AcDbEntity
  8
126
  6
Continuous
 62
     3
100
AcDbLine
 10
40.491272
 20
2.112579499999998
 30
0.0
 11
40.603608
 21
2.0002435
 31
0.0
  0
LINE
  5
244
330
22
100
AcDbEntity
  8
126
  6
Continuous
 62
     3
100
AcDbLine
 10
40.40626099999999
 20
2.1865426
 30
0.0
 11
40.450609
 21
2.142194799999999
 31
0.0
  0
LINE
  5
245
330
22
100
AcDbEntity
  8
126
  6
Continuous
 62
     3
100
AcDbLine
 10
40.484223
 20
2.108580499999999
 30
0.0
 11
40.59256
 21
2.0002435
 31
0.0
  0
LINE
  5
246
330
22
100
AcDbEntity
  8
126
  6
Continuous
 62
     3
100
AcDbLine
 10
40.404605
 20
2.1771502
 30
0.0
 11
40.448952
 21
2.132802399999999
 31
0.0
  0
LINE
  5
247
330
22
100
AcDbEntity
  8
126
  6
Continuous
 62
     3
100
AcDbLine
 10
40.477173
 20
2.104581399999998
 30
0.0
 11
40.50404
 21
2.0777147
 31
0.0
  0
LINE
  5
248
330
22
100
AcDbEntity
  8
126
  6
Continuous
 62
     3
100
AcDbLine
 10
40.40294799999998
 20
2.167757799999999
 30
0.0
 11
40.447296
 21
2.123409899999999
 31
0.0
  0
LINE
  5
249
330
22
100
AcDbEntity
  8
126
  6
Continuous
 62
     3
100
AcDbLine
 10
40.47012399999998
 20
2.100582399999999
 30
0.0
 11
40.49699099999998
 21
2.073715699999999
 31
0.0
  0
LINE
  5
24A
330
22
100
AcDbEntity
  8
126
  6
Continuous
 62
     3
100
AcDbLine
 10
40.40129199999999
 20
2.158365399999999
 30
0.0
 11
40.44564
 21
2.1140175
 31
0.0
  0
LINE
  5
24B
330
22
100
AcDbEntity
  8
126
  6
Continuous
 62
     3
100
AcDbLine
 10
40.46307399999998
 20
2.096583299999998
 30
0.0
 11
40.48994099999998
 21
2.0697166
 31
0.0
  0
LINE
  5
24C
330
22
100
AcDbEntity
  8
126
  6
Continuous
 62
     3
100
AcDbLine
 10
40.399636
 20
2.148972999999998
 30
0.0
 11
40.443984
 21
2.104625099999998
 31
0.0
  0
LINE
  5
24D
330
22
100
AcDbEntity
  8
126
  6
Continuous
 62
     3
100
AcDbLine
 10
40.456025
 20
2.092584299999999
 30
0.0
 11
40.482892
 21
2.0657176
 31
0.0
  0
LINE
  5
24E
330
22
100
AcDbEntity
  8
126
  6
Continuous
 62
     3
100
AcDbLine
 10
40.39798
 20
2.1395805
 30
0.0
 11
40.442328
 21
2.095232699999999
 31
0.0
  0
LINE
  5
24F
330
22
100
AcDbEntity
  8
126
  6
Continuous
 62
     3
100
AcDbLine
 10
40.448975
 20
2.088585199999998
 30
0.0
 11
40.475842
 21
2.0617185
 31
0.0
  0
LINE
  5
250
330
22
100
AcDbEntity
  8
126
  6
Continuous
 62
     3
100
AcDbLine
 10
40.396324
 20
2.1301881
 30
0.0
 11
40.44067199999999
 21
2.0858403
 31
0.0
  0
LINE
  5
251
330
22
100
AcDbEntity
  8
126
  6
Continuous
 62
     3
100
AcDbLine
 10
40.441926
 20
2.084586199999999
 30
0.0
 11
40.46879299999999
 21
2.0577195
 31
0.0
  0
LINE
  5
252
330
22
100
AcDbEntity
  8
126
  6
Continuous
 62
     3
100
AcDbLine
 10
40.39466799999998
 20
2.1207957
 30
0.0
 11
40.46174299999999
 21
2.0537204
 31
0.0
  0
LINE
  5
253
330
22
100
AcDbEntity
  8
126
  6
Continuous
 62
     3
100
AcDbLine
 10
40.39301199999999
 20
2.1114033
 30
0.0
 11
40.454694
 21
2.0497214
 31
0.0
  0
LINE
  5
254
330
22
100
AcDbEntity
  8
126
  6
Continuous
 62
     3
100
AcDbLine
 10
40.391356
 20
2.1020109
 30
0.0
 11
40.447644
 21
2.045722299999999
 31
0.0
  0
LINE
  5
255
330
22
100
AcDbEntity
  8
126
  6
Continuous
 62
     3
100
AcDbLine
 10
40.389699
 20
2.092618499999999
 30
0.0
 11
40.440595
 21
2.0417233
 31
0.0
  0
LINE
  5
256
330
22
100
AcDbEntity
  8
126
  6
Continuous
 62
     3
100
AcDbLine
 10
40.38804299999998
 20
2.0832261
 30
0.0
 11
40.433545
 21
2.037724199999999
 31
0.0
  0
LINE
  5
257
330
22
100
AcDbEntity
  8
126
  6
Continuous
 62
     3
100
AcDbLine
 10
40.38638699999999
 20
2.073833699999998
 30
0.0
 11
40.430735
 21
2.0294859
 31
0.0
  0
LINE
  5
258
330
22
100
AcDbEntity
  8
126
  6
Continuous
 62
     3
100
AcDbLine
 10
40.384731
 20
2.064441299999999
 30
0.0
 11
40.42907899999998
 21
2.0200935
 31
0.0
  0
LINE
  5
259
330
22
100
AcDbEntity
  8
126
  6
Continuous
 62
     3
100
AcDbLine
 10
40.383075
 20
2.055048899999999
 30
0.0
 11
40.42742299999999
 21
2.010700999999999
 31
0.0
  0
LINE
  5
25A
330
22
100
AcDbEntity
  8
126
  6
Continuous
 62
     3
100
AcDbLine
 10
40.381419
 20
2.045656499999999
 30
0.0
 11
40.425767
 21
2.001308599999999
 31
0.0
  0
LINE
  5
25B
330
22
100
AcDbEntity
  8
126
  6
Continuous
 62
     3
100
AcDbLine
 10
40.37976299999999
 20
2.036264099999999
 30
0.0
 11
40.415783
 21
2.0002435
 31
0.0
  0
LINE
  5
25C
330
22
100
AcDbEntity
  8
126
  6
Continuous
 62
     3
100
AcDbLine
 10
40.378106
 20
2.0268716
 30
0.0
 11
40.404735
 21
2.0002435
 31
0.0
  0
TEXT
  5
25D
330
22
100
AcDbEntity
  8
126
  6
Continuous
 62
     3
100
AcDbText
 10
40.39471999999999
 20
1.160183399999998
 30
0.0
 40
0.1
  1
KAB
100
AcDbText
  0
TEXT
  5
25E
330
22
100
AcDbEntity
  8
126
  6
Continuous
 62
     3
100
AcDbText
 10
40.645417
 20
0.9181309
 30
0.0
 40
0.1
  1
FULL
100
AcDbText
  0
TEXT
  5
25F
330
22
100
AcDbEntity
  8
1
  6
Continuous
 62
     1
100
AcDbText
 10
41.04183799999999
 20
0.245184
 30
0.0
 40
0.1875
  1
74180488
 72
     1
 11
41.76058799999998
 21
0.338934
 31
0.0
100
AcDbText
 73
     2
  0
LINE
  5
260
330
22
100
AcDbEntity
  8
126
  6
Continuous
 62
     3
100
AcDbLine
 10
40.37645
 20
2.017479199999999
 30
0.0
 11
40.39368599999998
 21
2.0002435
 31
0.0
  0
LINE
  5
261
330
22
100
AcDbEntity
  8
126
  6
Continuous
 62
     3
100
AcDbLine
 10
40.374794
 20
2.0080868
 30
0.0
 11
40.382637
 21
2.0002435
 31
0.0
  0
LINE
  5
262
330
22
100
AcDbEntity
  8
126
  6
Continuous
 62
     3
100
AcDbLine
 10
40.18316
 20
2.188672899999998
 30
0.0
 11
40.188575
 21
2.183256999999998
 31
0.0
  0
LINE
  5
263
330
22
100
AcDbEntity
  8
126
  6
Continuous
 62
     3
100
AcDbLine
 10
40.344214
 20
2.027618499999999
 30
0.0
 11
40.349781
 21
2.022050999999998
 31
0.0
  0
LINE
  5
264
330
22
100
AcDbEntity
  8
126
  6
Continuous
 62
     3
100
AcDbLine
 10
40.17211099999999
 20
2.188672899999998
 30
0.0
 11
40.186919
 21
2.173864599999999
 31
0.0
  0
LINE
  5
265
330
22
100
AcDbEntity
  8
126
  6
Continuous
 62
     3
100
AcDbLine
 10
40.333165
 20
2.027618499999999
 30
0.0
 11
40.348125
 21
2.012658599999999
 31
0.0
  0
LINE
  5
266
330
22
100
AcDbEntity
  8
126
  6
Continuous
 62
     3
100
AcDbLine
 10
40.161062
 20
2.188672899999998
 30
0.0
 11
40.185263
 21
2.1644721
 31
0.0
  0
LINE
  5
267
330
22
100
AcDbEntity
  8
126
  6
Continuous
 62
     3
100
AcDbLine
 10
40.322117
 20
2.027618499999999
 30
0.0
 11
40.346469
 21
2.0032662
 31
0.0
  0
LINE
  5
268
330
22
100
AcDbEntity
  8
126
  6
Continuous
 62
     3
100
AcDbLine
 10
40.150014
 20
2.188672899999998
 30
0.0
 11
40.183607
 21
2.155079799999999
 31
0.0
  0
LINE
  5
269
330
22
100
AcDbEntity
  8
126
  6
Continuous
 62
     3
100
AcDbLine
 10
40.31106799999998
 20
2.027618499999999
 30
0.0
 11
40.338443
 21
2.0002435
 31
0.0
  0
LINE
  5
26A
330
22
100
AcDbEntity
  8
126
  6
Continuous
 62
     3
100
AcDbLine
 10
40.138965
 20
2.188672899999998
 30
0.0
 11
40.18195099999998
 21
2.1456873
 31
0.0
  0
LINE
  5
26B
330
22
100
AcDbEntity
  8
126
  6
Continuous
 62
     3
100
AcDbLine
 10
40.30002
 20
2.027618499999999
 30
0.0
 11
40.327395
 21
2.0002435
 31
0.0
  0
LINE
  5
26C
330
22
100
AcDbEntity
  8
126
  6
Continuous
 62
     3
100
AcDbLine
 10
40.13594699999998
 20
2.180642799999999
 30
0.0
 11
40.18029499999999
 21
2.1362949
 31
0.0
  0
LINE
  5
26D
330
22
100
AcDbEntity
  8
126
  6
Continuous
 62
     3
100
AcDbLine
 10
40.288971
 20
2.027618499999999
 30
0.0
 11
40.316346
 21
2.0002435
 31
0.0
  0
LINE
  5
26E
330
22
100
AcDbEntity
  8
126
  6
Continuous
 62
     3
100
AcDbLine
 10
40.13429099999998
 20
2.171250399999999
 30
0.0
 11
40.178639
 21
2.1269025
 31
0.0
  0
LINE
  5
26F
330
22
100
AcDbEntity
  8
126
  6
Continuous
 62
     3
100
AcDbLine
 10
40.277923
 20
2.027618499999999
 30
0.0
 11
40.305298
 21
2.0002435
 31
0.0
  0
LINE
  5
270
330
22
100
AcDbEntity
  8
126
  6
Continuous
 62
     3
100
AcDbLine
 10
40.13263499999999
 20
2.161857899999998
 30
0.0
 11
40.176983
 21
2.1175101
 31
0.0
  0
LINE
  5
271
330
22
100
AcDbEntity
  8
126
  6
Continuous
 62
     3
100
AcDbLine
 10
40.266874
 20
2.027618499999999
 30
0.0
 11
40.294249
 21
2.0002435
 31
0.0
  0
LINE
  5
272
330
22
100
AcDbEntity
  8
126
  6
Continuous
 62
     3
100
AcDbLine
 10
40.094771
 20
2.188672899999998
 30
0.0
 11
40.096678
 21
2.1867664
 31
0.0
  0
LINE
  5
273
330
22
100
AcDbEntity
  8
126
  6
Continuous
 62
     3
100
AcDbLine
 10
40.13097899999999
 20
2.152465499999999
 30
0.0
 11
40.175326
 21
2.1081177
 31
0.0
  0
LINE
  5
274
330
22
100
AcDbEntity
  8
126
  6
Continuous
 62
     3
100
AcDbLine
 10
40.25582599999999
 20
2.027618499999999
 30
0.0
 11
40.283201
 21
2.0002435
 31
0.0
  0
LINE
  5
275
330
22
100
AcDbEntity
  8
126
  6
Continuous
 62
     3
100
AcDbLine
 10
40.083723
 20
2.188672899999998
 30
0.0
 11
40.095022
 21
2.177374
 31
0.0
  0
LINE
  5
276
330
22
100
AcDbEntity
  8
126
  6
Continuous
 62
     3
100
AcDbLine
 10
40.12932199999998
 20
2.1430731
 30
0.0
 11
40.17367
 21
2.098725299999999
 31
0.0
  0
LINE
  5
277
330
22
100
AcDbEntity
  8
126
  6
Continuous
 62
     3
100
AcDbLine
 10
40.244777
 20
2.027618499999999
 30
0.0
 11
40.27215199999999
 21
2.0002435
 31
0.0
  0
LINE
  5
278
330
22
100
AcDbEntity
  8
126
  6
Continuous
 62
     3
100
AcDbLine
 10
40.07267399999999
 20
2.188672899999998
 30
0.0
 11
40.093365
 21
2.1679816
 31
0.0
  0
LINE
  5
279
330
22
100
AcDbEntity
  8
126
  6
Continuous
 62
     3
100
AcDbLine
 10
40.12766599999999
 20
2.1336807
 30
0.0
 11
40.172014
 21
2.089332899999999
 31
0.0
  0
LINE
  5
27A
330
22
100
AcDbEntity
  8
126
  6
Continuous
 62
     3
100
AcDbLine
 10
40.233729
 20
2.027618499999999
 30
0.0
 11
40.26110399999999
 21
2.0002435
 31
0.0
  0
LINE
  5
27B
330
22
100
AcDbEntity
  8
126
  6
Continuous
 62
     3
100
AcDbLine
 10
40.061626
 20
2.188672899999998
 30
0.0
 11
40.089001
 21
2.1612979
 31
0.0
  0
LINE
  5
27C
330
22
100
AcDbEntity
  8
126
  6
Continuous
 62
     3
100
AcDbLine
 10
40.12601
 20
2.124288299999999
 30
0.0
 11
40.170358
 21
2.079940499999999
 31
0.0
  0
LINE
  5
27D
330
22
100
AcDbEntity
  8
126
  6
Continuous
 62
     3
100
AcDbLine
 10
40.22267999999999
 20
2.027618499999999
 30
0.0
 11
40.25005499999998
 21
2.0002435
 31
0.0
  0
LINE
  5
27E
330
22
100
AcDbEntity
  8
126
  6
Continuous
 62
     3
100
AcDbLine
 10
40.050577
 20
2.188672899999998
 30
0.0
 11
40.077952
 21
2.1612979
 31
0.0
  0
LINE
  5
27F
330
22
100
AcDbEntity
  8
126
  6
Continuous
 62
     3
100
AcDbLine
 10
40.124354
 20
2.1148959
 30
0.0
 11
40.168702
 21
2.070548099999999
 31
0.0
  0
LINE
  5
280
330
22
100
AcDbEntity
  8
126
  6
Continuous
 62
     3
100
AcDbLine
 10
40.21163099999998
 20
2.027618499999999
 30
0.0
 11
40.239006
 21
2.0002435
 31
0.0
  0
LINE
  5
281
330
22
100
AcDbEntity
  8
126
  6
Continuous
 62
     3
100
AcDbLine
 10
40.03952899999998
 20
2.188672899999998
 30
0.0
 11
40.066904
 21
2.1612979
 31
0.0
  0
LINE
  5
282
330
22
100
AcDbEntity
  8
126
  6
Continuous
 62
     3
100
AcDbLine
 10
40.122698
 20
2.1055035
 30
0.0
 11
40.16704599999999
 21
2.0611557
 31
0.0
  0
LINE
  5
283
330
22
100
AcDbEntity
  8
126
  6
Continuous
 62
     3
100
AcDbLine
 10
40.200583
 20
2.027618499999999
 30
0.0
 11
40.22795799999999
 21
2.0002435
 31
0.0
  0
LINE
  5
284
330
22
100
AcDbEntity
  8
126
  6
Continuous
 62
     3
100
AcDbLine
 10
40.02848
 20
2.188672899999998
 30
0.0
 11
40.055855
 21
2.1612979
 31
0.0
  0
LINE
  5
285
330
22
100
AcDbEntity
  8
126
  6
Continuous
 62
     3
100
AcDbLine
 10
40.12104199999998
 20
2.096111099999999
 30
0.0
 11
40.16539
 21
2.0517633
 31
0.0
  0
LINE
  5
286
330
22
100
AcDbEntity
  8
126
  6
Continuous
 62
     3
100
AcDbLine
 10
40.189534
 20
2.027618499999999
 30
0.0
 11
40.216909
 21
2.0002435
 31
0.0
  0
LINE
  5
287
330
22
100
AcDbEntity
  8
126
  6
Continuous
 62
     3
100
AcDbLine
 10
40.017431
 20
2.188672899999998
 30
0.0
 11
40.04480599999999
 21
2.1612979
 31
0.0
  0
LINE
  5
288
330
22
100
AcDbEntity
  8
126
  6
Continuous
 62
     3
100
AcDbLine
 10
40.11938599999999
 20
2.086718699999999
 30
0.0
 11
40.163733
 21
2.042370899999998
 31
0.0
  0
LINE
  5
289
330
22
100
AcDbEntity
  8
126
  6
Continuous
 62
     3
100
AcDbLine
 10
40.17848599999999
 20
2.027618499999999
 30
0.0
 11
40.205861
 21
2.0002435
 31
0.0
  0
LINE
  5
28A
330
22
100
AcDbEntity
  8
126
  6
Continuous
 62
     3
100
AcDbLine
 10
40.006383
 20
2.188672899999998
 30
0.0
 11
40.03375799999999
 21
2.1612979
 31
0.0
  0
LINE
  5
28B
330
22
100
AcDbEntity
  8
126
  6
Continuous
 62
     3
100
AcDbLine
 10
40.11772899999999
 20
2.077326299999999
 30
0.0
 11
40.162077
 21
2.0329784
 31
0.0
  0
LINE
  5
28C
330
22
100
AcDbEntity
  8
126
  6
Continuous
 62
     3
100
AcDbLine
 10
40.167437
 20
2.027618499999999
 30
0.0
 11
40.194812
 21
2.0002435
 31
0.0
  0
LINE
  5
28D
330
22
100
AcDbEntity
  8
126
  6
Continuous
 62
     3
100
AcDbLine
 10
39.995334
 20
2.188672899999998
 30
0.0
 11
40.022709
 21
2.1612979
 31
0.0
  0
LINE
  5
28E
330
22
100
AcDbEntity
  8
126
  6
Continuous
 62
     3
100
AcDbLine
 10
40.116073
 20
2.067933899999998
 30
0.0
 11
40.183764
 21
2.0002435
 31
0.0
  0
LINE
  5
28F
330
22
100
AcDbEntity
  8
126
  6
Continuous
 62
     3
100
AcDbLine
 10
39.984286
 20
2.188672899999998
 30
0.0
 11
40.01166099999998
 21
2.1612979
 31
0.0
  0
LINE
  5
290
330
22
100
AcDbEntity
  8
126
  6
Continuous
 62
     3
100
AcDbLine
 10
40.06475
 20
2.1082082
 30
0.0
 11
40.069326
 21
2.1036326
 31
0.0
  0
LINE
  5
291
330
22
100
AcDbEntity
  8
126
  6
Continuous
 62
     3
100
AcDbLine
 10
40.11441699999998
 20
2.0585414
 30
0.0
 11
40.172715
 21
2.0002435
 31
0.0
  0
LINE
  5
292
330
22
100
AcDbEntity
  8
126
  6
Continuous
 62
     3
100
AcDbLine
 10
39.973237
 20
2.188672899999998
 30
0.0
 11
40.000612
 21
2.1612979
 31
0.0
  0
LINE
  5
293
330
22
100
AcDbEntity
  8
126
  6
Continuous
 62
     3
100
AcDbLine
 10
40.053702
 20
2.1082082
 30
0.0
 11
40.06766999999999
 21
2.094240199999998
 31
0.0
  0
LINE
  5
294
330
22
100
AcDbEntity
  8
126
  6
Continuous
 62
     3
100
AcDbLine
 10
40.11276099999999
 20
2.049149
 30
0.0
 11
40.161667
 21
2.0002435
 31
0.0
  0
LINE
  5
295
330
22
100
AcDbEntity
  8
126
  6
Continuous
 62
     3
100
AcDbLine
 10
39.962189
 20
2.188672899999998
 30
0.0
 11
39.989564
 21
2.1612979
 31
0.0
  0
LINE
  5
296
330
22
100
AcDbEntity
  8
126
  6
Continuous
 62
     3
100
AcDbLine
 10
40.042653
 20
2.1082082
 30
0.0
 11
40.066014
 21
2.084847799999999
 31
0.0
  0
LINE
  5
297
330
22
100
AcDbEntity
  8
126
  6
Continuous
 62
     3
100
AcDbLine
 10
40.111105
 20
2.0397566
 30
0.0
 11
40.150618
 21
2.0002435
 31
0.0
  0
LINE
  5
298
330
22
100
AcDbEntity
  8
126
  6
Continuous
 62
     3
100
AcDbLine
 10
39.95114
 20
2.188672899999998
 30
0.0
 11
39.978515
 21
2.1612979
 31
0.0
  0
LINE
  5
299
330
22
100
AcDbEntity
  8
126
  6
Continuous
 62
     3
100
AcDbLine
 10
40.03160499999999
 20
2.1082082
 30
0.0
 11
40.05910499999998
 21
2.080708199999999
 31
0.0
  0
LINE
  5
29A
330
22
100
AcDbEntity
  8
126
  6
Continuous
 62
     3
100
AcDbLine
 10
40.109449
 20
2.0303642
 30
0.0
 11
40.13957
 21
2.0002435
 31
0.0
  0
LINE
  5
29B
330
22
100
AcDbEntity
  8
126
  6
Continuous
 62
     3
100
AcDbLine
 10
39.940092
 20
2.188672899999998
 30
0.0
 11
39.967467
 21
2.1612979
 31
0.0
  0
LINE
  5
29C
330
22
100
AcDbEntity
  8
126
  6
Continuous
 62
     3
100
AcDbLine
 10
40.020556
 20
2.1082082
 30
0.0
 11
40.048056
 21
2.080708199999999
 31
0.0
  0
LINE
  5
29D
330
22
100
AcDbEntity
  8
126
  6
Continuous
 62
     3
100
AcDbLine
 10
40.107793
 20
2.020971799999998
 30
0.0
 11
40.12852099999999
 21
2.0002435
 31
0.0
  0
LINE
  5
29E
330
22
100
AcDbEntity
  8
126
  6
Continuous
 62
     3
100
AcDbLine
 10
39.929043
 20
2.188672899999998
 30
0.0
 11
39.956418
 21
2.1612979
 31
0.0
  0
LINE
  5
29F
330
22
100
AcDbEntity
  8
126
  6
Continuous
 62
     3
100
AcDbLine
 10
40.009508
 20
2.1082082
 30
0.0
 11
40.03700799999999
 21
2.080708199999999
 31
0.0
  0
LINE
  5
2A0
330
22
100
AcDbEntity
  8
126
  6
Continuous
 62
     3
100
AcDbLine
 10
40.10613699999999
 20
2.0115794
 30
0.0
 11
40.117472
 21
2.0002435
 31
0.0
  0
LINE
  5
2A1
330
22
100
AcDbEntity
  8
126
  6
Continuous
 62
     3
100
AcDbLine
 10
39.917995
 20
2.188672899999998
 30
0.0
 11
39.94537000000001
 21
2.1612979
 31
0.0
  0
LINE
  5
2A2
330
22
100
AcDbEntity
  8
126
  6
Continuous
 62
     3
100
AcDbLine
 10
39.998459
 20
2.1082082
 30
0.0
 11
40.025959
 21
2.080708199999999
 31
0.0
  0
LINE
  5
2A3
330
22
100
AcDbEntity
  8
126
  6
Continuous
 62
     3
100
AcDbLine
 10
40.07904899999998
 20
2.027618499999999
 30
0.0
 11
40.08097
 21
2.025697699999998
 31
0.0
  0
LINE
  5
2A4
330
22
100
AcDbEntity
  8
126
  6
Continuous
 62
     3
100
AcDbLine
 10
40.10448
 20
2.002186999999999
 30
0.0
 11
40.106424
 21
2.0002435
 31
0.0
  0
LINE
  5
2A5
330
22
100
AcDbEntity
  8
126
  6
Continuous
 62
     3
100
AcDbLine
 10
39.90694600000001
 20
2.188672899999998
 30
0.0
 11
39.93432100000001
 21
2.1612979
 31
0.0
  0
LINE
  5
2A6
330
22
100
AcDbEntity
  8
126
  6
Continuous
 62
     3
100
AcDbLine
 10
39.987411
 20
2.1082082
 30
0.0
 11
40.01491099999999
 21
2.080708199999999
 31
0.0
  0
LINE
  5
2A7
330
22
100
AcDbEntity
  8
126
  6
Continuous
 62
     3
100
AcDbLine
 10
40.06800000000001
 20
2.027618499999999
 30
0.0
 11
40.079314
 21
2.016305299999999
 31
0.0
  0
LINE
  5
2A8
330
22
100
AcDbEntity
  8
126
  6
Continuous
 62
     3
100
AcDbLine
 10
39.895897
 20
2.188672899999998
 30
0.0
 11
39.923272
 21
2.1612979
 31
0.0
  0
LINE
  5
2A9
330
22
100
AcDbEntity
  8
126
  6
Continuous
 62
     3
100
AcDbLine
 10
39.976362
 20
2.1082082
 30
0.0
 11
40.003862
 21
2.080708199999999
 31
0.0
  0
LINE
  5
2AA
330
22
100
AcDbEntity
  8
126
  6
Continuous
 62
     3
100
AcDbLine
 10
40.056952
 20
2.027618499999999
 30
0.0
 11
40.077657
 21
2.0069129
 31
0.0
  0
LINE
  5
2AB
330
22
100
AcDbEntity
  8
126
  6
Continuous
 62
     3
100
AcDbLine
 10
39.88484899999999
 20
2.188672899999998
 30
0.0
 11
39.912224
 21
2.1612979
 31
0.0
  0
LINE
  5
2AC
330
22
100
AcDbEntity
  8
126
  6
Continuous
 62
     3
100
AcDbLine
 10
39.965314
 20
2.1082082
 30
0.0
 11
39.992814
 21
2.080708199999999
 31
0.0
  0
LINE
  5
2AD
330
22
100
AcDbEntity
  8
126
  6
Continuous
 62
     3
100
AcDbLine
 10
40.045903
 20
2.027618499999999
 30
0.0
 11
40.073278
 21
2.0002435
 31
0.0
  0
LINE
  5
2AE
330
22
100
AcDbEntity
  8
126
  6
Continuous
 62
     3
100
AcDbLine
 10
39.8738
 20
2.188672899999998
 30
0.0
 11
39.901175
 21
2.1612979
 31
0.0
  0
LINE
  5
2AF
330
22
100
AcDbEntity
  8
126
  6
Continuous
 62
     3
100
AcDbLine
 10
39.954265
 20
2.1082082
 30
0.0
 11
39.981765
 21
2.080708199999999
 31
0.0
  0
LINE
  5
2B0
330
22
100
AcDbEntity
  8
126
  6
Continuous
 62
     3
100
AcDbLine
 10
40.034855
 20
2.027618499999999
 30
0.0
 11
40.06223
 21
2.0002435
 31
0.0
  0
LINE
  5
2B1
330
22
100
AcDbEntity
  8
126
  6
Continuous
 62
     3
100
AcDbLine
 10
39.862752
 20
2.188672899999998
 30
0.0
 11
39.890127
 21
2.1612979
 31
0.0
  0
LINE
  5
2B2
330
22
100
AcDbEntity
  8
126
  6
Continuous
 62
     3
100
AcDbLine
 10
39.943217
 20
2.1082082
 30
0.0
 11
39.970716
 21
2.080708199999999
 31
0.0
  0
LINE
  5
2B3
330
22
100
AcDbEntity
  8
126
  6
Continuous
 62
     3
100
AcDbLine
 10
40.023806
 20
2.027618499999999
 30
0.0
 11
40.05118099999999
 21
2.0002435
 31
0.0
  0
LINE
  5
2B4
330
22
100
AcDbEntity
  8
126
  6
Continuous
 62
     3
100
AcDbLine
 10
39.851703
 20
2.188672899999998
 30
0.0
 11
39.88158
 21
2.1587965
 31
0.0
  0
LINE
  5
2B5
330
22
100
AcDbEntity
  8
126
  6
Continuous
 62
     3
100
AcDbLine
 10
39.932168
 20
2.1082082
 30
0.0
 11
39.959668
 21
2.080708199999999
 31
0.0
  0
LINE
  5
2B6
330
22
100
AcDbEntity
  8
126
  6
Continuous
 62
     3
100
AcDbLine
 10
40.01275800000001
 20
2.027618499999999
 30
0.0
 11
40.040133
 21
2.0002435
 31
0.0
  0
LINE
  5
2B7
330
22
100
AcDbEntity
  8
126
  6
Continuous
 62
     3
100
AcDbLine
 10
39.840655
 20
2.188672899999998
 30
0.0
 11
39.879924
 21
2.149404099999999
 31
0.0
  0
LINE
  5
2B8
330
22
100
AcDbEntity
  8
126
  6
Continuous
 62
     3
100
AcDbLine
 10
39.921119
 20
2.1082082
 30
0.0
 11
39.948619
 21
2.080708199999999
 31
0.0
  0
LINE
  5
2B9
330
22
100
AcDbEntity
  8
126
  6
Continuous
 62
     3
100
AcDbLine
 10
40.001709
 20
2.027618499999999
 30
0.0
 11
40.029084
 21
2.0002435
 31
0.0
  0
LINE
  5
2BA
330
22
100
AcDbEntity
  8
126
  6
Continuous
 62
     3
100
AcDbLine
 10
39.833942
 20
2.184336999999999
 30
0.0
 11
39.878267
 21
2.1400117
 31
0.0
  0
LINE
  5
2BB
330
22
100
AcDbEntity
  8
126
  6
Continuous
 62
     3
100
AcDbLine
 10
39.910071
 20
2.1082082
 30
0.0
 11
39.93757100000001
 21
2.080708199999999
 31
0.0
  0
LINE
  5
2BC
330
22
100
AcDbEntity
  8
126
  6
Continuous
 62
     3
100
AcDbLine
 10
39.990661
 20
2.027618499999999
 30
0.0
 11
40.01803599999998
 21
2.0002435
 31
0.0
  0
LINE
  5
2BD
330
22
100
AcDbEntity
  8
126
  6
Continuous
 62
     3
100
AcDbLine
 10
39.832286
 20
2.1749445
 30
0.0
 11
39.876611
 21
2.130619299999999
 31
0.0
  0
LINE
  5
2BE
330
22
100
AcDbEntity
  8
126
  6
Continuous
 62
     3
100
AcDbLine
 10
39.89902199999999
 20
2.1082082
 30
0.0
 11
39.926522
 21
2.080708199999999
 31
0.0
  0
LINE
  5
2BF
330
22
100
AcDbEntity
  8
126
  6
Continuous
 62
     3
100
AcDbLine
 10
39.97961200000001
 20
2.027618499999999
 30
0.0
 11
40.006987
 21
2.0002435
 31
0.0
  0
LINE
  5
2C0
330
22
100
AcDbEntity
  8
126
  6
Continuous
 62
     3
100
AcDbLine
 10
39.83063
 20
2.1655521
 30
0.0
 11
39.874955
 21
2.121226899999999
 31
0.0
  0
LINE
  5
2C1
330
22
100
AcDbEntity
  8
126
  6
Continuous
 62
     3
100
AcDbLine
 10
39.887974
 20
2.1082082
 30
0.0
 11
39.915474
 21
2.080708199999999
 31
0.0
  0
LINE
  5
2C2
330
22
100
AcDbEntity
  8
126
  6
Continuous
 62
     3
100
AcDbLine
 10
39.96856300000001
 20
2.027618499999999
 30
0.0
 11
39.995938
 21
2.0002435
 31
0.0
  0
LINE
  5
2C3
330
22
100
AcDbEntity
  8
126
  6
Continuous
 62
     3
100
AcDbLine
 10
39.828974
 20
2.1561597
 30
0.0
 11
39.873299
 21
2.1118345
 31
0.0
  0
LINE
  5
2C4
330
22
100
AcDbEntity
  8
126
  6
Continuous
 62
     3
100
AcDbLine
 10
39.876925
 20
2.1082082
 30
0.0
 11
39.904425
 21
2.080708199999999
 31
0.0
  0
LINE
  5
2C5
330
22
100
AcDbEntity
  8
126
  6
Continuous
 62
     3
100
AcDbLine
 10
39.957515
 20
2.027618499999999
 30
0.0
 11
39.98489
 21
2.0002435
 31
0.0
  0
LINE
  5
2C6
330
22
100
AcDbEntity
  8
126
  6
Continuous
 62
     3
100
AcDbLine
 10
39.827318
 20
2.1467673
 30
0.0
 11
39.893377
 21
2.080708199999999
 31
0.0
  0
LINE
  5
2C7
330
22
100
AcDbEntity
  8
126
  6
Continuous
 62
     3
100
AcDbLine
 10
39.946466
 20
2.027618499999999
 30
0.0
 11
39.973841
 21
2.0002435
 31
0.0
  0
LINE
  5
2C8
330
22
100
AcDbEntity
  8
126
  6
Continuous
 62
     3
100
AcDbLine
 10
39.825661
 20
2.1373749
 30
0.0
 11
39.882328
 21
2.080708199999999
 31
0.0
  0
LINE
  5
2C9
330
22
100
AcDbEntity
  8
126
  6
Continuous
 62
     3
100
AcDbLine
 10
39.935418
 20
2.027618499999999
 30
0.0
 11
39.962793
 21
2.0002435
 31
0.0
  0
LINE
  5
2CA
330
22
100
AcDbEntity
  8
126
  6
Continuous
 62
     3
100
AcDbLine
 10
39.824005
 20
2.127982499999998
 30
0.0
 11
39.871374
 21
2.080613399999998
 31
0.0
  0
LINE
  5
2CB
330
22
100
AcDbEntity
  8
126
  6
Continuous
 62
     3
100
AcDbLine
 10
39.924369
 20
2.027618499999999
 30
0.0
 11
39.951744
 21
2.0002435
 31
0.0
  0
LINE
  5
2CC
330
22
100
AcDbEntity
  8
126
  6
Continuous
 62
     3
100
AcDbLine
 10
39.822349
 20
2.1185901
 30
0.0
 11
39.869718
 21
2.071220999999999
 31
0.0
  0
LINE
  5
2CD
330
22
100
AcDbEntity
  8
126
  6
Continuous
 62
     3
100
AcDbLine
 10
39.91332100000001
 20
2.027618499999999
 30
0.0
 11
39.940696
 21
2.0002435
 31
0.0
  0
LINE
  5
2CE
330
22
100
AcDbEntity
  8
126
  6
Continuous
 62
     3
100
AcDbLine
 10
39.820693
 20
2.1091977
 30
0.0
 11
39.868062
 21
2.0618286
 31
0.0
  0
LINE
  5
2CF
330
22
100
AcDbEntity
  8
126
  6
Continuous
 62
     3
100
AcDbLine
 10
39.90227199999999
 20
2.027618499999999
 30
0.0
 11
39.929647
 21
2.0002435
 31
0.0
  0
LINE
  5
2D0
330
22
100
AcDbEntity
  8
126
  6
Continuous
 62
     3
100
AcDbLine
 10
39.819037
 20
2.099805299999998
 30
0.0
 11
39.866406
 21
2.0524362
 31
0.0
  0
LINE
  5
2D1
330
22
100
AcDbEntity
  8
126
  6
Continuous
 62
     3
100
AcDbLine
 10
39.891224
 20
2.027618499999999
 30
0.0
 11
39.918599
 21
2.0002435
 31
0.0
  0
LINE
  5
2D2
330
22
100
AcDbEntity
  8
126
  6
Continuous
 62
     3
100
AcDbLine
 10
39.817381
 20
2.0904129
 30
0.0
 11
39.86475
 21
2.0430438
 31
0.0
  0
LINE
  5
2D3
330
22
100
AcDbEntity
  8
126
  6
Continuous
 62
     3
100
AcDbLine
 10
39.880175
 20
2.027618499999999
 30
0.0
 11
39.90755
 21
2.0002435
 31
0.0
  0
LINE
  5
2D4
330
22
100
AcDbEntity
  8
126
  6
Continuous
 62
     3
100
AcDbLine
 10
39.815725
 20
2.0810205
 30
0.0
 11
39.863094
 21
2.0336514
 31
0.0
  0
LINE
  5
2D5
330
22
100
AcDbEntity
  8
126
  6
Continuous
 62
     3
100
AcDbLine
 10
39.869127
 20
2.027618499999999
 30
0.0
 11
39.89650200000001
 21
2.0002435
 31
0.0
  0
LINE
  5
2D6
330
22
100
AcDbEntity
  8
126
  6
Continuous
 62
     3
100
AcDbLine
 10
39.81406900000001
 20
2.0716281
 30
0.0
 11
39.88545300000001
 21
2.0002435
 31
0.0
  0
LINE
  5
2D7
330
22
100
AcDbEntity
  8
126
  6
Continuous
 62
     3
100
AcDbLine
 10
39.812412
 20
2.0622356
 30
0.0
 11
39.874404
 21
2.0002435
 31
0.0
  0
LINE
  5
2D8
330
22
100
AcDbEntity
  8
126
  6
Continuous
 62
     3
100
AcDbLine
 10
39.810756
 20
2.052843199999998
 30
0.0
 11
39.863356
 21
2.0002435
 31
0.0
  0
LINE
  5
2D9
330
22
100
AcDbEntity
  8
126
  6
Continuous
 62
     3
100
AcDbLine
 10
39.8091
 20
2.0434508
 30
0.0
 11
39.85230700000001
 21
2.0002435
 31
0.0
  0
LINE
  5
2DA
330
22
100
AcDbEntity
  8
126
  6
Continuous
 62
     3
100
AcDbLine
 10
39.807444
 20
2.034058399999999
 30
0.0
 11
39.841259
 21
2.0002435
 31
0.0
  0
LINE
  5
2DB
330
22
100
AcDbEntity
  8
126
  6
Continuous
 62
     3
100
AcDbLine
 10
39.805788
 20
2.024665999999998
 30
0.0
 11
39.83021
 21
2.0002435
 31
0.0
  0
LINE
  5
2DC
330
22
100
AcDbEntity
  8
126
  6
Continuous
 62
     3
100
AcDbLine
 10
39.804132
 20
2.015273599999999
 30
0.0
 11
39.819162
 21
2.0002435
 31
0.0
  0
LINE
  5
2DD
330
22
100
AcDbEntity
  8
126
  6
Continuous
 62
     3
100
AcDbLine
 10
39.802476
 20
2.005881199999999
 30
0.0
 11
39.808113
 21
2.0002435
 31
0.0
  0
INSERT
  5
2DE
330
22
100
AcDbEntity
  8
126
100
AcDbBlockReference
  2
*U4
 10
35.865704
 20
0.6992504
 30
0.0
  0
INSERT
  5
2DF
330
22
100
AcDbEntity
  8
126
100
AcDbBlockReference
  2
*U5
 10
10.159243
 20
3.7735267
 30
0.0
  0
TEXT
  5
2E0
330
22
100
AcDbEntity
  8
1
  6
Continuous
 62
     3
100
AcDbText
 10
20.373326
 20
20.276714
 30
0.0
 40
0.3
  1
74180488
 51
359.9999958057
 72
     1
 11
21.523326
 21
20.426714
 31
0.0
100
AcDbText
 73
     2
  0
LWPOLYLINE
  5
2E2
330
22
100
AcDbEntity
  8
1
  6
Continuous
 62
     1
100
AcDbPolyline
 90
        8
 70
     1
 43
0.0
 10
28.80525200000001
 20
11.506744
 10
28.80525200000001
 20
25.538735
 42
0.4142135623730921
 10
28.48345200000001
 20
25.860535
 10
14.451461
 20
25.860535
 42
0.4142135623730951
 10
14.129661
 20
25.538735
 10
14.129661
 20
11.506744
 42
0.4142135623730951
 10
14.451461
 20
11.184944
 10
28.48345200000001
 20
11.184944
 42
0.4142135623730921
  0
ENDSEC
  0
SECTION
  2
OBJECTS
  0
DICTIONARY
  5
C
330
0
100
AcDbDictionary
281
     1
  3
ACAD_COLOR
350
1B
  3
ACAD_GROUP
350
D
  3
ACAD_LAYOUT
350
19
  3
ACAD_MATERIAL
350
1A
  3
ACAD_MLEADERSTYLE
350
348
  3
ACAD_MLINESTYLE
350
16
  3
ACAD_PLOTSETTINGS
350
18
  3
ACAD_PLOTSTYLENAME
350
E
  3
ACAD_SCALELIST
350
326
  3
ACAD_TABLESTYLE
350
1C
  3
ACAD_VISUALSTYLE
350
312
  3
ACDB_RECOMPOSE_DATA
350
55C
  3
AcDbVariableDictionary
350
2EC
  3
AcmDictionary
350
3A2
  3
AMG
350
382
  3
AMGSNAPSETTINGS
350
3E2
  3
DWGPROPS
350
55D
  0
DICTIONARY
  5
3E9
330
10
100
AcDbDictionary
280
     1
281
     1
  3
ADSK_XREC_LAYER_RECONCILED
360
3EA
  0
DICTIONARY
  5
3EB
330
26
100
AcDbDictionary
280
     1
281
     1
  3
ADSK_XREC_LAYER_RECONCILED
360
3EC
  0
DICTIONARY
  5
3ED
330
2E
100
AcDbDictionary
280
     1
281
     1
  3
ADSK_XREC_LAYER_RECONCILED
360
3EE
  0
DICTIONARY
  5
3EF
330
2F
100
AcDbDictionary
280
     1
281
     1
  3
ADSK_XREC_LAYER_RECONCILED
360
3F0
  0
DICTIONARY
  5
3F1
330
30
100
AcDbDictionary
280
     1
281
     1
  3
ADSK_XREC_LAYER_RECONCILED
360
3F2
  0
DICTIONARY
  5
3F3
330
31
100
AcDbDictionary
280
     1
281
     1
  3
ADSK_XREC_LAYER_RECONCILED
360
3F4
  0
DICTIONARY
  5
3F5
330
32
100
AcDbDictionary
280
     1
281
     1
  3
ADSK_XREC_LAYER_RECONCILED
360
3F6
  0
DICTIONARY
  5
3F7
330
33
100
AcDbDictionary
280
     1
281
     1
  3
ADSK_XREC_LAYER_RECONCILED
360
3F8
  0
DICTIONARY
  5
3F9
330
34
100
AcDbDictionary
280
     1
281
     1
  3
ADSK_XREC_LAYER_RECONCILED
360
3FA
  0
DICTIONARY
  5
3FB
330
35
100
AcDbDictionary
280
     1
281
     1
  3
ADSK_XREC_LAYER_RECONCILED
360
3FC
  0
DICTIONARY
  5
3FD
330
36
100
AcDbDictionary
280
     1
281
     1
  3
ADSK_XREC_LAYER_RECONCILED
360
3FE
  0
DICTIONARY
  5
3FF
330
37
100
AcDbDictionary
280
     1
281
     1
  3
ADSK_XREC_LAYER_RECONCILED
360
400
  0
DICTIONARY
  5
401
330
38
100
AcDbDictionary
280
     1
281
     1
  3
ADSK_XREC_LAYER_RECONCILED
360
402
  0
DICTIONARY
  5
403
330
39
100
AcDbDictionary
280
     1
281
     1
  3
ADSK_XREC_LAYER_RECONCILED
360
404
  0
DICTIONARY
  5
405
330
3A
100
AcDbDictionary
280
     1
281
     1
  3
ADSK_XREC_LAYER_RECONCILED
360
406
  0
DICTIONARY
  5
407
330
3B
100
AcDbDictionary
280
     1
281
     1
  3
ADSK_XREC_LAYER_RECONCILED
360
408
  0
DICTIONARY
  5
409
330
3C
100
AcDbDictionary
280
     1
281
     1
  3
ADSK_XREC_LAYER_RECONCILED
360
40A
  0
DICTIONARY
  5
40B
330
3D
100
AcDbDictionary
280
     1
281
     1
  3
ADSK_XREC_LAYER_RECONCILED
360
40C
  0
DICTIONARY
  5
40D
330
3E
100
AcDbDictionary
280
     1
281
     1
  3
ADSK_XREC_LAYER_RECONCILED
360
40E
  0
DICTIONARY
  5
40F
330
3F
100
AcDbDictionary
280
     1
281
     1
  3
ADSK_XREC_LAYER_RECONCILED
360
410
  0
DICTIONARY
  5
411
330
40
100
AcDbDictionary
280
     1
281
     1
  3
ADSK_XREC_LAYER_RECONCILED
360
412
  0
DICTIONARY
  5
413
330
41
100
AcDbDictionary
280
     1
281
     1
  3
ADSK_XREC_LAYER_RECONCILED
360
414
  0
DICTIONARY
  5
415
330
42
100
AcDbDictionary
280
     1
281
     1
  3
ADSK_XREC_LAYER_RECONCILED
360
416
  0
DICTIONARY
  5
417
330
43
100
AcDbDictionary
280
     1
281
     1
  3
ADSK_XREC_LAYER_RECONCILED
360
418
  0
DICTIONARY
  5
419
330
44
100
AcDbDictionary
280
     1
281
     1
  3
ADSK_XREC_LAYER_RECONCILED
360
41A
  0
DICTIONARY
  5
41B
330
45
100
AcDbDictionary
280
     1
281
     1
  3
ADSK_XREC_LAYER_RECONCILED
360
41C
  0
DICTIONARY
  5
41D
330
46
100
AcDbDictionary
280
     1
281
     1
  3
ADSK_XREC_LAYER_RECONCILED
360
41E
  0
DICTIONARY
  5
41F
330
47
100
AcDbDictionary
280
     1
281
     1
  3
ADSK_XREC_LAYER_RECONCILED
360
420
  0
DICTIONARY
  5
421
330
48
100
AcDbDictionary
280
     1
281
     1
  3
ADSK_XREC_LAYER_RECONCILED
360
422
  0
DICTIONARY
  5
423
330
49
100
AcDbDictionary
280
     1
281
     1
  3
ADSK_XREC_LAYER_RECONCILED
360
424
  0
DICTIONARY
  5
425
330
4A
100
AcDbDictionary
280
     1
281
     1
  3
ADSK_XREC_LAYER_RECONCILED
360
426
  0
DICTIONARY
  5
427
330
4B
100
AcDbDictionary
280
     1
281
     1
  3
ADSK_XREC_LAYER_RECONCILED
360
428
  0
DICTIONARY
  5
429
330
4C
100
AcDbDictionary
280
     1
281
     1
  3
ADSK_XREC_LAYER_RECONCILED
360
42A
  0
DICTIONARY
  5
42B
330
4D
100
AcDbDictionary
280
     1
281
     1
  3
ADSK_XREC_LAYER_RECONCILED
360
42C
  0
DICTIONARY
  5
42D
330
4E
100
AcDbDictionary
280
     1
281
     1
  3
ADSK_XREC_LAYER_RECONCILED
360
42E
  0
DICTIONARY
  5
42F
330
4F
100
AcDbDictionary
280
     1
281
     1
  3
ADSK_XREC_LAYER_RECONCILED
360
430
  0
DICTIONARY
  5
431
330
50
100
AcDbDictionary
280
     1
281
     1
  3
ADSK_XREC_LAYER_RECONCILED
360
432
  0
DICTIONARY
  5
433
330
51
100
AcDbDictionary
280
     1
281
     1
  3
ADSK_XREC_LAYER_RECONCILED
360
434
  0
DICTIONARY
  5
435
330
52
100
AcDbDictionary
280
     1
281
     1
  3
ADSK_XREC_LAYER_RECONCILED
360
436
  0
DICTIONARY
  5
437
330
53
100
AcDbDictionary
280
     1
281
     1
  3
ADSK_XREC_LAYER_RECONCILED
360
438
  0
DICTIONARY
  5
439
330
54
100
AcDbDictionary
280
     1
281
     1
  3
ADSK_XREC_LAYER_RECONCILED
360
43A
  0
DICTIONARY
  5
43B
330
55
100
AcDbDictionary
280
     1
281
     1
  3
ADSK_XREC_LAYER_RECONCILED
360
43C
  0
DICTIONARY
  5
43D
330
56
100
AcDbDictionary
280
     1
281
     1
  3
ADSK_XREC_LAYER_RECONCILED
360
43E
  0
DICTIONARY
  5
43F
330
57
100
AcDbDictionary
280
     1
281
     1
  3
ADSK_XREC_LAYER_RECONCILED
360
440
  0
DICTIONARY
  5
441
330
58
100
AcDbDictionary
280
     1
281
     1
  3
ADSK_XREC_LAYER_RECONCILED
360
442
  0
DICTIONARY
  5
443
330
59
100
AcDbDictionary
280
     1
281
     1
  3
ADSK_XREC_LAYER_RECONCILED
360
444
  0
DICTIONARY
  5
445
330
5A
100
AcDbDictionary
280
     1
281
     1
  3
ADSK_XREC_LAYER_RECONCILED
360
446
  0
DICTIONARY
  5
447
330
5B
100
AcDbDictionary
280
     1
281
     1
  3
ADSK_XREC_LAYER_RECONCILED
360
448
  0
DICTIONARY
  5
449
330
5C
100
AcDbDictionary
280
     1
281
     1
  3
ADSK_XREC_LAYER_RECONCILED
360
44A
  0
DICTIONARY
  5
44B
330
5D
100
AcDbDictionary
280
     1
281
     1
  3
ADSK_XREC_LAYER_RECONCILED
360
44C
  0
DICTIONARY
  5
44D
330
5E
100
AcDbDictionary
280
     1
281
     1
  3
ADSK_XREC_LAYER_RECONCILED
360
44E
  0
DICTIONARY
  5
44F
330
5F
100
AcDbDictionary
280
     1
281
     1
  3
ADSK_XREC_LAYER_RECONCILED
360
450
  0
DICTIONARY
  5
451
330
60
100
AcDbDictionary
280
     1
281
     1
  3
ADSK_XREC_LAYER_RECONCILED
360
452
  0
DICTIONARY
  5
453
330
61
100
AcDbDictionary
280
     1
281
     1
  3
ADSK_XREC_LAYER_RECONCILED
360
454
  0
DICTIONARY
  5
455
330
62
100
AcDbDictionary
280
     1
281
     1
  3
ADSK_XREC_LAYER_RECONCILED
360
456
  0
DICTIONARY
  5
457
330
63
100
AcDbDictionary
280
     1
281
     1
  3
ADSK_XREC_LAYER_RECONCILED
360
458
  0
DICTIONARY
  5
459
330
64
100
AcDbDictionary
280
     1
281
     1
  3
ADSK_XREC_LAYER_RECONCILED
360
45A
  0
DICTIONARY
  5
45B
330
65
100
AcDbDictionary
280
     1
281
     1
  3
ADSK_XREC_LAYER_RECONCILED
360
45C
  0
DICTIONARY
  5
45D
330
66
100
AcDbDictionary
280
     1
281
     1
  3
ADSK_XREC_LAYER_RECONCILED
360
45E
  0
DICTIONARY
  5
45F
330
67
100
AcDbDictionary
280
     1
281
     1
  3
ADSK_XREC_LAYER_RECONCILED
360
460
  0
DICTIONARY
  5
461
330
68
100
AcDbDictionary
280
     1
281
     1
  3
ADSK_XREC_LAYER_RECONCILED
360
462
  0
DICTIONARY
  5
463
330
69
100
AcDbDictionary
280
     1
281
     1
  3
ADSK_XREC_LAYER_RECONCILED
360
464
  0
DICTIONARY
  5
465
330
6A
100
AcDbDictionary
280
     1
281
     1
  3
ADSK_XREC_LAYER_RECONCILED
360
466
  0
DICTIONARY
  5
467
330
6B
100
AcDbDictionary
280
     1
281
     1
  3
ADSK_XREC_LAYER_RECONCILED
360
468
  0
DICTIONARY
  5
469
330
6C
100
AcDbDictionary
280
     1
281
     1
  3
ADSK_XREC_LAYER_RECONCILED
360
46A
  0
DICTIONARY
  5
46B
330
6D
100
AcDbDictionary
280
     1
281
     1
  3
ADSK_XREC_LAYER_RECONCILED
360
46C
  0
DICTIONARY
  5
46D
330
6E
100
AcDbDictionary
280
     1
281
     1
  3
ADSK_XREC_LAYER_RECONCILED
360
46E
  0
DICTIONARY
  5
46F
330
6F
100
AcDbDictionary
280
     1
281
     1
  3
ADSK_XREC_LAYER_RECONCILED
360
470
  0
DICTIONARY
  5
471
330
70
100
AcDbDictionary
280
     1
281
     1
  3
ADSK_XREC_LAYER_RECONCILED
360
472
  0
DICTIONARY
  5
473
330
71
100
AcDbDictionary
280
     1
281
     1
  3
ADSK_XREC_LAYER_RECONCILED
360
474
  0
DICTIONARY
  5
475
330
72
100
AcDbDictionary
280
     1
281
     1
  3
ADSK_XREC_LAYER_RECONCILED
360
476
  0
DICTIONARY
  5
477
330
73
100
AcDbDictionary
280
     1
281
     1
  3
ADSK_XREC_LAYER_RECONCILED
360
478
  0
DICTIONARY
  5
479
330
74
100
AcDbDictionary
280
     1
281
     1
  3
ADSK_XREC_LAYER_RECONCILED
360
47A
  0
DICTIONARY
  5
47B
330
75
100
AcDbDictionary
280
     1
281
     1
  3
ADSK_XREC_LAYER_RECONCILED
360
47C
  0
DICTIONARY
  5
47D
330
76
100
AcDbDictionary
280
     1
281
     1
  3
ADSK_XREC_LAYER_RECONCILED
360
47E
  0
DICTIONARY
  5
47F
330
77
100
AcDbDictionary
280
     1
281
     1
  3
ADSK_XREC_LAYER_RECONCILED
360
480
  0
DICTIONARY
  5
481
330
78
100
AcDbDictionary
280
     1
281
     1
  3
ADSK_XREC_LAYER_RECONCILED
360
482
  0
DICTIONARY
  5
483
330
79
100
AcDbDictionary
280
     1
281
     1
  3
ADSK_XREC_LAYER_RECONCILED
360
484
  0
DICTIONARY
  5
485
330
7A
100
AcDbDictionary
280
     1
281
     1
  3
ADSK_XREC_LAYER_RECONCILED
360
486
  0
DICTIONARY
  5
487
330
7B
100
AcDbDictionary
280
     1
281
     1
  3
ADSK_XREC_LAYER_RECONCILED
360
488
  0
DICTIONARY
  5
489
330
7C
100
AcDbDictionary
280
     1
281
     1
  3
ADSK_XREC_LAYER_RECONCILED
360
48A
  0
DICTIONARY
  5
48B
330
7D
100
AcDbDictionary
280
     1
281
     1
  3
ADSK_XREC_LAYER_RECONCILED
360
48C
  0
DICTIONARY
  5
48D
330
7E
100
AcDbDictionary
280
     1
281
     1
  3
ADSK_XREC_LAYER_RECONCILED
360
48E
  0
DICTIONARY
  5
48F
330
7F
100
AcDbDictionary
280
     1
281
     1
  3
ADSK_XREC_LAYER_RECONCILED
360
490
  0
DICTIONARY
  5
491
330
80
100
AcDbDictionary
280
     1
281
     1
  3
ADSK_XREC_LAYER_RECONCILED
360
492
  0
DICTIONARY
  5
493
330
81
100
AcDbDictionary
280
     1
281
     1
  3
ADSK_XREC_LAYER_RECONCILED
360
494
  0
DICTIONARY
  5
495
330
82
100
AcDbDictionary
280
     1
281
     1
  3
ADSK_XREC_LAYER_RECONCILED
360
496
  0
DICTIONARY
  5
497
330
83
100
AcDbDictionary
280
     1
281
     1
  3
ADSK_XREC_LAYER_RECONCILED
360
498
  0
DICTIONARY
  5
499
330
84
100
AcDbDictionary
280
     1
281
     1
  3
ADSK_XREC_LAYER_RECONCILED
360
49A
  0
DICTIONARY
  5
49B
330
85
100
AcDbDictionary
280
     1
281
     1
  3
ADSK_XREC_LAYER_RECONCILED
360
49C
  0
DICTIONARY
  5
49D
330
86
100
AcDbDictionary
280
     1
281
     1
  3
ADSK_XREC_LAYER_RECONCILED
360
49E
  0
DICTIONARY
  5
49F
330
87
100
AcDbDictionary
280
     1
281
     1
  3
ADSK_XREC_LAYER_RECONCILED
360
4A0
  0
DICTIONARY
  5
4A1
330
88
100
AcDbDictionary
280
     1
281
     1
  3
ADSK_XREC_LAYER_RECONCILED
360
4A2
  0
DICTIONARY
  5
4A3
330
89
100
AcDbDictionary
280
     1
281
     1
  3
ADSK_XREC_LAYER_RECONCILED
360
4A4
  0
DICTIONARY
  5
4A5
330
8A
100
AcDbDictionary
280
     1
281
     1
  3
ADSK_XREC_LAYER_RECONCILED
360
4A6
  0
DICTIONARY
  5
4A7
330
8B
100
AcDbDictionary
280
     1
281
     1
  3
ADSK_XREC_LAYER_RECONCILED
360
4A8
  0
DICTIONARY
  5
4A9
330
8C
100
AcDbDictionary
280
     1
281
     1
  3
ADSK_XREC_LAYER_RECONCILED
360
4AA
  0
DICTIONARY
  5
4AB
330
8D
100
AcDbDictionary
280
     1
281
     1
  3
ADSK_XREC_LAYER_RECONCILED
360
4AC
  0
DICTIONARY
  5
4AD
330
8E
100
AcDbDictionary
280
     1
281
     1
  3
ADSK_XREC_LAYER_RECONCILED
360
4AE
  0
DICTIONARY
  5
4AF
330
8F
100
AcDbDictionary
280
     1
281
     1
  3
ADSK_XREC_LAYER_RECONCILED
360
4B0
  0
DICTIONARY
  5
4B1
330
90
100
AcDbDictionary
280
     1
281
     1
  3
ADSK_XREC_LAYER_RECONCILED
360
4B2
  0
DICTIONARY
  5
4B3
330
91
100
AcDbDictionary
280
     1
281
     1
  3
ADSK_XREC_LAYER_RECONCILED
360
4B4
  0
DICTIONARY
  5
4B5
330
92
100
AcDbDictionary
280
     1
281
     1
  3
ADSK_XREC_LAYER_RECONCILED
360
4B6
  0
DICTIONARY
  5
4B7
330
93
100
AcDbDictionary
280
     1
281
     1
  3
ADSK_XREC_LAYER_RECONCILED
360
4B8
  0
DICTIONARY
  5
4B9
330
94
100
AcDbDictionary
280
     1
281
     1
  3
ADSK_XREC_LAYER_RECONCILED
360
4BA
  0
DICTIONARY
  5
4BB
330
95
100
AcDbDictionary
280
     1
281
     1
  3
ADSK_XREC_LAYER_RECONCILED
360
4BC
  0
DICTIONARY
  5
4BD
330
96
100
AcDbDictionary
280
     1
281
     1
  3
ADSK_XREC_LAYER_RECONCILED
360
4BE
  0
DICTIONARY
  5
4BF
330
97
100
AcDbDictionary
280
     1
281
     1
  3
ADSK_XREC_LAYER_RECONCILED
360
4C0
  0
DICTIONARY
  5
4C1
330
98
100
AcDbDictionary
280
     1
281
     1
  3
ADSK_XREC_LAYER_RECONCILED
360
4C2
  0
DICTIONARY
  5
4C3
330
99
100
AcDbDictionary
280
     1
281
     1
  3
ADSK_XREC_LAYER_RECONCILED
360
4C4
  0
DICTIONARY
  5
4C5
330
9A
100
AcDbDictionary
280
     1
281
     1
  3
ADSK_XREC_LAYER_RECONCILED
360
4C6
  0
DICTIONARY
  5
4C7
330
9B
100
AcDbDictionary
280
     1
281
     1
  3
ADSK_XREC_LAYER_RECONCILED
360
4C8
  0
DICTIONARY
  5
4C9
330
9C
100
AcDbDictionary
280
     1
281
     1
  3
ADSK_XREC_LAYER_RECONCILED
360
4CA
  0
DICTIONARY
  5
4CB
330
9D
100
AcDbDictionary
280
     1
281
     1
  3
ADSK_XREC_LAYER_RECONCILED
360
4CC
  0
DICTIONARY
  5
4CD
330
9E
100
AcDbDictionary
280
     1
281
     1
  3
ADSK_XREC_LAYER_RECONCILED
360
4CE
  0
DICTIONARY
  5
4CF
330
9F
100
AcDbDictionary
280
     1
281
     1
  3
ADSK_XREC_LAYER_RECONCILED
360
4D0
  0
DICTIONARY
  5
4D1
330
A0
100
AcDbDictionary
280
     1
281
     1
  3
ADSK_XREC_LAYER_RECONCILED
360
4D2
  0
DICTIONARY
  5
4D3
330
A1
100
AcDbDictionary
280
     1
281
     1
  3
ADSK_XREC_LAYER_RECONCILED
360
4D4
  0
DICTIONARY
  5
4D5
330
A2
100
AcDbDictionary
280
     1
281
     1
  3
ADSK_XREC_LAYER_RECONCILED
360
4D6
  0
DICTIONARY
  5
4D7
330
A3
100
AcDbDictionary
280
     1
281
     1
  3
ADSK_XREC_LAYER_RECONCILED
360
4D8
  0
DICTIONARY
  5
4D9
330
A4
100
AcDbDictionary
280
     1
281
     1
  3
ADSK_XREC_LAYER_RECONCILED
360
4DA
  0
DICTIONARY
  5
4DB
330
A5
100
AcDbDictionary
280
     1
281
     1
  3
ADSK_XREC_LAYER_RECONCILED
360
4DC
  0
DICTIONARY
  5
4DD
330
A6
100
AcDbDictionary
280
     1
281
     1
  3
ADSK_XREC_LAYER_RECONCILED
360
4DE
  0
DICTIONARY
  5
4DF
330
A7
100
AcDbDictionary
280
     1
281
     1
  3
ADSK_XREC_LAYER_RECONCILED
360
4E0
  0
DICTIONARY
  5
4E1
330
A8
100
AcDbDictionary
280
     1
281
     1
  3
ADSK_XREC_LAYER_RECONCILED
360
4E2
  0
DICTIONARY
  5
4E3
330
A9
100
AcDbDictionary
280
     1
281
     1
  3
ADSK_XREC_LAYER_RECONCILED
360
4E4
  0
DICTIONARY
  5
4E5
330
AA
100
AcDbDictionary
280
     1
281
     1
  3
ADSK_XREC_LAYER_RECONCILED
360
4E6
  0
DICTIONARY
  5
4E7
330
AB
100
AcDbDictionary
280
     1
281
     1
  3
ADSK_XREC_LAYER_RECONCILED
360
4E8
  0
DICTIONARY
  5
4E9
330
AC
100
AcDbDictionary
280
     1
281
     1
  3
ADSK_XREC_LAYER_RECONCILED
360
4EA
  0
DICTIONARY
  5
4EB
330
AD
100
AcDbDictionary
280
     1
281
     1
  3
ADSK_XREC_LAYER_RECONCILED
360
4EC
  0
DICTIONARY
  5
4ED
330
AE
100
AcDbDictionary
280
     1
281
     1
  3
ADSK_XREC_LAYER_RECONCILED
360
4EE
  0
DICTIONARY
  5
4EF
330
AF
100
AcDbDictionary
280
     1
281
     1
  3
ADSK_XREC_LAYER_RECONCILED
360
4F0
  0
DICTIONARY
  5
4F1
330
B0
100
AcDbDictionary
280
     1
281
     1
  3
ADSK_XREC_LAYER_RECONCILED
360
4F2
  0
DICTIONARY
  5
4F3
330
B1
100
AcDbDictionary
280
     1
281
     1
  3
ADSK_XREC_LAYER_RECONCILED
360
4F4
  0
DICTIONARY
  5
4F5
330
B2
100
AcDbDictionary
280
     1
281
     1
  3
ADSK_XREC_LAYER_RECONCILED
360
4F6
  0
DICTIONARY
  5
4F7
330
B3
100
AcDbDictionary
280
     1
281
     1
  3
ADSK_XREC_LAYER_RECONCILED
360
4F8
  0
DICTIONARY
  5
4F9
330
B4
100
AcDbDictionary
280
     1
281
     1
  3
ADSK_XREC_LAYER_RECONCILED
360
4FA
  0
DICTIONARY
  5
4FB
330
B5
100
AcDbDictionary
280
     1
281
     1
  3
ADSK_XREC_LAYER_RECONCILED
360
4FC
  0
DICTIONARY
  5
4FD
330
B6
100
AcDbDictionary
280
     1
281
     1
  3
ADSK_XREC_LAYER_RECONCILED
360
4FE
  0
DICTIONARY
  5
4FF
330
B7
100
AcDbDictionary
280
     1
281
     1
  3
ADSK_XREC_LAYER_RECONCILED
360
500
  0
DICTIONARY
  5
501
330
B8
100
AcDbDictionary
280
     1
281
     1
  3
ADSK_XREC_LAYER_RECONCILED
360
502
  0
DICTIONARY
  5
503
330
B9
100
AcDbDictionary
280
     1
281
     1
  3
ADSK_XREC_LAYER_RECONCILED
360
504
  0
DICTIONARY
  5
505
330
BA
100
AcDbDictionary
280
     1
281
     1
  3
ADSK_XREC_LAYER_RECONCILED
360
506
  0
DICTIONARY
  5
507
330
BB
100
AcDbDictionary
280
     1
281
     1
  3
ADSK_XREC_LAYER_RECONCILED
360
508
  0
DICTIONARY
  5
509
330
BC
100
AcDbDictionary
280
     1
281
     1
  3
ADSK_XREC_LAYER_RECONCILED
360
50A
  0
DICTIONARY
  5
50B
330
BD
100
AcDbDictionary
280
     1
281
     1
  3
ADSK_XREC_LAYER_RECONCILED
360
50C
  0
DICTIONARY
  5
50D
330
BE
100
AcDbDictionary
280
     1
281
     1
  3
ADSK_XREC_LAYER_RECONCILED
360
50E
  0
DICTIONARY
  5
50F
330
BF
100
AcDbDictionary
280
     1
281
     1
  3
ADSK_XREC_LAYER_RECONCILED
360
510
  0
DICTIONARY
  5
511
330
C0
100
AcDbDictionary
280
     1
281
     1
  3
ADSK_XREC_LAYER_RECONCILED
360
512
  0
DICTIONARY
  5
513
330
C1
100
AcDbDictionary
280
     1
281
     1
  3
ADSK_XREC_LAYER_RECONCILED
360
514
  0
DICTIONARY
  5
515
330
C2
100
AcDbDictionary
280
     1
281
     1
  3
ADSK_XREC_LAYER_RECONCILED
360
516
  0
DICTIONARY
  5
517
330
C3
100
AcDbDictionary
280
     1
281
     1
  3
ADSK_XREC_LAYER_RECONCILED
360
518
  0
DICTIONARY
  5
519
330
C4
100
AcDbDictionary
280
     1
281
     1
  3
ADSK_XREC_LAYER_RECONCILED
360
51A
  0
DICTIONARY
  5
51B
330
C5
100
AcDbDictionary
280
     1
281
     1
  3
ADSK_XREC_LAYER_RECONCILED
360
51C
  0
DICTIONARY
  5
51D
330
C6
100
AcDbDictionary
280
     1
281
     1
  3
ADSK_XREC_LAYER_RECONCILED
360
51E
  0
DICTIONARY
  5
51F
330
C7
100
AcDbDictionary
280
     1
281
     1
  3
ADSK_XREC_LAYER_RECONCILED
360
520
  0
DICTIONARY
  5
521
330
C8
100
AcDbDictionary
280
     1
281
     1
  3
ADSK_XREC_LAYER_RECONCILED
360
522
  0
DICTIONARY
  5
523
330
C9
100
AcDbDictionary
280
     1
281
     1
  3
ADSK_XREC_LAYER_RECONCILED
360
524
  0
DICTIONARY
  5
525
330
CA
100
AcDbDictionary
280
     1
281
     1
  3
ADSK_XREC_LAYER_RECONCILED
360
526
  0
DICTIONARY
  5
527
330
CB
100
AcDbDictionary
280
     1
281
     1
  3
ADSK_XREC_LAYER_RECONCILED
360
528
  0
DICTIONARY
  5
529
330
CC
100
AcDbDictionary
280
     1
281
     1
  3
ADSK_XREC_LAYER_RECONCILED
360
52A
  0
DICTIONARY
  5
52B
330
CD
100
AcDbDictionary
280
     1
281
     1
  3
ADSK_XREC_LAYER_RECONCILED
360
52C
  0
DICTIONARY
  5
52D
330
CE
100
AcDbDictionary
280
     1
281
     1
  3
ADSK_XREC_LAYER_RECONCILED
360
52E
  0
DICTIONARY
  5
52F
330
CF
100
AcDbDictionary
280
     1
281
     1
  3
ADSK_XREC_LAYER_RECONCILED
360
530
  0
DICTIONARY
  5
531
330
D0
100
AcDbDictionary
280
     1
281
     1
  3
ADSK_XREC_LAYER_RECONCILED
360
532
  0
DICTIONARY
  5
533
330
D1
100
AcDbDictionary
280
     1
281
     1
  3
ADSK_XREC_LAYER_RECONCILED
360
534
  0
DICTIONARY
  5
535
330
D2
100
AcDbDictionary
280
     1
281
     1
  3
ADSK_XREC_LAYER_RECONCILED
360
536
  0
DICTIONARY
  5
537
330
D3
100
AcDbDictionary
280
     1
281
     1
  3
ADSK_XREC_LAYER_RECONCILED
360
538
  0
DICTIONARY
  5
539
330
D4
100
AcDbDictionary
280
     1
281
     1
  3
ADSK_XREC_LAYER_RECONCILED
360
53A
  0
DICTIONARY
  5
53B
330
D5
100
AcDbDictionary
280
     1
281
     1
  3
ADSK_XREC_LAYER_RECONCILED
360
53C
  0
DICTIONARY
  5
53D
330
D6
100
AcDbDictionary
280
     1
281
     1
  3
ADSK_XREC_LAYER_RECONCILED
360
53E
  0
DICTIONARY
  5
53F
330
D7
100
AcDbDictionary
280
     1
281
     1
  3
ADSK_XREC_LAYER_RECONCILED
360
540
  0
DICTIONARY
  5
541
330
D8
100
AcDbDictionary
280
     1
281
     1
  3
ADSK_XREC_LAYER_RECONCILED
360
542
  0
DICTIONARY
  5
543
330
D9
100
AcDbDictionary
280
     1
281
     1
  3
ADSK_XREC_LAYER_RECONCILED
360
544
  0
DICTIONARY
  5
545
330
DA
100
AcDbDictionary
280
     1
281
     1
  3
ADSK_XREC_LAYER_RECONCILED
360
546
  0
DICTIONARY
  5
547
330
DB
100
AcDbDictionary
280
     1
281
     1
  3
ADSK_XREC_LAYER_RECONCILED
360
548
  0
DICTIONARY
  5
549
330
DC
100
AcDbDictionary
280
     1
281
     1
  3
ADSK_XREC_LAYER_RECONCILED
360
54A
  0
DICTIONARY
  5
54B
330
DD
100
AcDbDictionary
280
     1
281
     1
  3
ADSK_XREC_LAYER_RECONCILED
360
54C
  0
DICTIONARY
  5
54D
330
DE
100
AcDbDictionary
280
     1
281
     1
  3
ADSK_XREC_LAYER_RECONCILED
360
54E
  0
DICTIONARY
  5
54F
330
DF
100
AcDbDictionary
280
     1
281
     1
  3
ADSK_XREC_LAYER_RECONCILED
360
550
  0
DICTIONARY
  5
551
330
E0
100
AcDbDictionary
280
     1
281
     1
  3
ADSK_XREC_LAYER_RECONCILED
360
552
  0
DICTIONARY
  5
553
330
E1
100
AcDbDictionary
280
     1
281
     1
  3
ADSK_XREC_LAYER_RECONCILED
360
554
  0
DICTIONARY
  5
2E3
330
22
100
AcDbDictionary
280
     1
281
     1
  3
ACAD_SORTENTS
360
2E4
  0
DICTIONARY
  5
1B
102
{ACAD_REACTORS
330
C
102
}
330
C
100
AcDbDictionary
281
     1
  0
DICTIONARY
  5
D
102
{ACAD_REACTORS
330
C
102
}
330
C
100
AcDbDictionary
281
     1
  0
DICTIONARY
  5
19
102
{ACAD_REACTORS
330
C
102
}
330
C
100
AcDbDictionary
281
     1
  3
Layout1
350
21
  3
Model
350
25
  0
DICTIONARY
  5
1A
102
{ACAD_REACTORS
330
C
102
}
330
C
100
AcDbDictionary
281
     1
  3
ByBlock
350
302
  3
ByLayer
350
2FA
  3
Global
350
30A
  0
DICTIONARY
  5
348
102
{ACAD_REACTORS
330
C
102
}
330
C
100
AcDbDictionary
281
     1
  3
Standard
350
349
  0
DICTIONARY
  5
16
102
{ACAD_REACTORS
330
C
102
}
330
C
100
AcDbDictionary
281
     1
  3
Standard
350
17
  0
DICTIONARY
  5
18
102
{ACAD_REACTORS
330
C
102
}
330
C
100
AcDbDictionary
281
     1
  0
ACDBDICTIONARYWDFLT
  5
E
102
{ACAD_REACTORS
330
C
102
}
330
C
100
AcDbDictionary
281
     1
  3
Normal
350
F
100
AcDbDictionaryWithDefault
340
F
  0
DICTIONARY
  5
326
102
{ACAD_REACTORS
330
C
102
}
330
C
100
AcDbDictionary
281
     1
  3
A0
350
327
  3
A1
350
328
  3
A2
350
329
  3
A3
350
32A
  3
A4
350
32B
  3
A5
350
32C
  3
A6
350
32D
  3
A7
350
32E
  3
A8
350
32F
  3
A9
350
330
  3
B0
350
331
  3
B1
350
332
  3
B2
350
333
  3
B3
350
334
  3
B4
350
335
  3
B5
350
336
  3
B6
350
337
  3
B7
350
338
  3
B8
350
339
  3
B9
350
33A
  3
C0
350
33B
  3
C1
350
33C
  3
C2
350
33D
  3
C3
350
33E
  3
C4
350
33F
  3
C5
350
340
  3
C6
350
341
  3
C7
350
342
  3
C8
350
343
  3
C9
350
344
  3
D0
350
345
  3
D1
350
346
  3
D2
350
347
  0
DICTIONARY
  5
1C
102
{ACAD_REACTORS
330
C
102
}
330
C
100
AcDbDictionary
281
     1
  3
Standard
350
1D
  0
DICTIONARY
  5
312
102
{ACAD_REACTORS
330
C
102
}
330
C
100
AcDbDictionary
281
     1
  3
2dWireframe
350
318
  3
3D Hidden
350
31A
  3
3dWireframe
350
319
  3
Basic
350
317
  3
Brighten
350
31E
  3
ColorChange
350
322
  3
Conceptual
350
31B
  3
Dim
350
31D
  3
EdgeColorOff
350
325
  3
Facepattern
350
321
  3
Flat
350
313
  3
FlatWithEdges
350
314
  3
Gouraud
350
315
  3
GouraudWithEdges
350
316
  3
JitterOff
350
323
  3
Linepattern
350
320
  3
OverhangOff
350
324
  3
Realistic
350
31C
  3
Thicken
350
31F
  0
XRECORD
  5
55C
102
{ACAD_REACTORS
330
C
102
}
330
C
100
AcDbXrecord
280
     1
 90
        1
330
1D
  0
DICTIONARY
  5
2EC
102
{ACAD_REACTORS
330
C
102
}
330
C
100
AcDbDictionary
281
     1
  3
CANNOSCALE
350
556
  3
CMLEADERSTYLE
350
555
  3
CTABLESTYLE
350
2ED
  3
DIMASSOC
350
2EE
  3
INDEXCTL
350
558
  3
PROJECTNAME
350
2EF
  3
SORTENTS
350
557
  3
XCLIPFRAME
350
559
  0
DICTIONARY
  5
3A2
102
{ACAD_REACTORS
330
C
102
}
330
C
100
AcDbDictionary
281
     1
  3
AcmStdDictionary
350
3AC
  0
DICTIONARY
  5
382
102
{ACAD_REACTORS
330
C
102
}
330
C
100
AcDbDictionary
281
     1
  0
DICTIONARY
  5
3E2
102
{ACAD_REACTORS
330
C
102
}
330
C
100
AcDbDictionary
281
     1
  0
XRECORD
  5
55D
102
{ACAD_REACTORS
330
C
102
}
330
C
100
AcDbXrecord
280
     1
  1
DWGPROPS COOKIE
  2

  3

  4

  6

  7

  8
nick.oyenik
  9

300
=
301
=
302
=
303
=
304
=
305
=
306
=
307
=
308
=
309
=
 40
0.0012697569444444
 41
2455127.419329723
 42
2456675.409352142
  1

 90
        0
  0
XRECORD
  5
3EA
102
{ACAD_REACTORS
330
3E9
102
}
330
3E9
100
AcDbXrecord
280
     1
290
     1
  0
XRECORD
  5
3EC
102
{ACAD_REACTORS
330
3EB
102
}
330
3EB
100
AcDbXrecord
280
     1
290
     1
  0
XRECORD
  5
3EE
102
{ACAD_REACTORS
330
3ED
102
}
330
3ED
100
AcDbXrecord
280
     1
290
     1
  0
XRECORD
  5
3F0
102
{ACAD_REACTORS
330
3EF
102
}
330
3EF
100
AcDbXrecord
280
     1
290
     1
  0
XRECORD
  5
3F2
102
{ACAD_REACTORS
330
3F1
102
}
330
3F1
100
AcDbXrecord
280
     1
290
     1
  0
XRECORD
  5
3F4
102
{ACAD_REACTORS
330
3F3
102
}
330
3F3
100
AcDbXrecord
280
     1
290
     1
  0
XRECORD
  5
3F6
102
{ACAD_REACTORS
330
3F5
102
}
330
3F5
100
AcDbXrecord
280
     1
290
     1
  0
XRECORD
  5
3F8
102
{ACAD_REACTORS
330
3F7
102
}
330
3F7
100
AcDbXrecord
280
     1
290
     1
  0
XRECORD
  5
3FA
102
{ACAD_REACTORS
330
3F9
102
}
330
3F9
100
AcDbXrecord
280
     1
290
     1
  0
XRECORD
  5
3FC
102
{ACAD_REACTORS
330
3FB
102
}
330
3FB
100
AcDbXrecord
280
     1
290
     1
  0
XRECORD
  5
3FE
102
{ACAD_REACTORS
330
3FD
102
}
330
3FD
100
AcDbXrecord
280
     1
290
     1
  0
XRECORD
  5
400
102
{ACAD_REACTORS
330
3FF
102
}
330
3FF
100
AcDbXrecord
280
     1
290
     1
  0
XRECORD
  5
402
102
{ACAD_REACTORS
330
401
102
}
330
401
100
AcDbXrecord
280
     1
290
     1
  0
XRECORD
  5
404
102
{ACAD_REACTORS
330
403
102
}
330
403
100
AcDbXrecord
280
     1
290
     1
  0
XRECORD
  5
406
102
{ACAD_REACTORS
330
405
102
}
330
405
100
AcDbXrecord
280
     1
290
     1
  0
XRECORD
  5
408
102
{ACAD_REACTORS
330
407
102
}
330
407
100
AcDbXrecord
280
     1
290
     1
  0
XRECORD
  5
40A
102
{ACAD_REACTORS
330
409
102
}
330
409
100
AcDbXrecord
280
     1
290
     1
  0
XRECORD
  5
40C
102
{ACAD_REACTORS
330
40B
102
}
330
40B
100
AcDbXrecord
280
     1
290
     1
  0
XRECORD
  5
40E
102
{ACAD_REACTORS
330
40D
102
}
330
40D
100
AcDbXrecord
280
     1
290
     1
  0
XRECORD
  5
410
102
{ACAD_REACTORS
330
40F
102
}
330
40F
100
AcDbXrecord
280
     1
290
     1
  0
XRECORD
  5
412
102
{ACAD_REACTORS
330
411
102
}
330
411
100
AcDbXrecord
280
     1
290
     1
  0
XRECORD
  5
414
102
{ACAD_REACTORS
330
413
102
}
330
413
100
AcDbXrecord
280
     1
290
     1
  0
XRECORD
  5
416
102
{ACAD_REACTORS
330
415
102
}
330
415
100
AcDbXrecord
280
     1
290
     1
  0
XRECORD
  5
418
102
{ACAD_REACTORS
330
417
102
}
330
417
100
AcDbXrecord
280
     1
290
     1
  0
XRECORD
  5
41A
102
{ACAD_REACTORS
330
419
102
}
330
419
100
AcDbXrecord
280
     1
290
     1
  0
XRECORD
  5
41C
102
{ACAD_REACTORS
330
41B
102
}
330
41B
100
AcDbXrecord
280
     1
290
     1
  0
XRECORD
  5
41E
102
{ACAD_REACTORS
330
41D
102
}
330
41D
100
AcDbXrecord
280
     1
290
     1
  0
XRECORD
  5
420
102
{ACAD_REACTORS
330
41F
102
}
330
41F
100
AcDbXrecord
280
     1
290
     1
  0
XRECORD
  5
422
102
{ACAD_REACTORS
330
421
102
}
330
421
100
AcDbXrecord
280
     1
290
     1
  0
XRECORD
  5
424
102
{ACAD_REACTORS
330
423
102
}
330
423
100
AcDbXrecord
280
     1
290
     1
  0
XRECORD
  5
426
102
{ACAD_REACTORS
330
425
102
}
330
425
100
AcDbXrecord
280
     1
290
     1
  0
XRECORD
  5
428
102
{ACAD_REACTORS
330
427
102
}
330
427
100
AcDbXrecord
280
     1
290
     1
  0
XRECORD
  5
42A
102
{ACAD_REACTORS
330
429
102
}
330
429
100
AcDbXrecord
280
     1
290
     1
  0
XRECORD
  5
42C
102
{ACAD_REACTORS
330
42B
102
}
330
42B
100
AcDbXrecord
280
     1
290
     1
  0
XRECORD
  5
42E
102
{ACAD_REACTORS
330
42D
102
}
330
42D
100
AcDbXrecord
280
     1
290
     1
  0
XRECORD
  5
430
102
{ACAD_REACTORS
330
42F
102
}
330
42F
100
AcDbXrecord
280
     1
290
     1
  0
XRECORD
  5
432
102
{ACAD_REACTORS
330
431
102
}
330
431
100
AcDbXrecord
280
     1
290
     1
  0
XRECORD
  5
434
102
{ACAD_REACTORS
330
433
102
}
330
433
100
AcDbXrecord
280
     1
290
     1
  0
XRECORD
  5
436
102
{ACAD_REACTORS
330
435
102
}
330
435
100
AcDbXrecord
280
     1
290
     1
  0
XRECORD
  5
438
102
{ACAD_REACTORS
330
437
102
}
330
437
100
AcDbXrecord
280
     1
290
     1
  0
XRECORD
  5
43A
102
{ACAD_REACTORS
330
439
102
}
330
439
100
AcDbXrecord
280
     1
290
     1
  0
XRECORD
  5
43C
102
{ACAD_REACTORS
330
43B
102
}
330
43B
100
AcDbXrecord
280
     1
290
     1
  0
XRECORD
  5
43E
102
{ACAD_REACTORS
330
43D
102
}
330
43D
100
AcDbXrecord
280
     1
290
     1
  0
XRECORD
  5
440
102
{ACAD_REACTORS
330
43F
102
}
330
43F
100
AcDbXrecord
280
     1
290
     1
  0
XRECORD
  5
442
102
{ACAD_REACTORS
330
441
102
}
330
441
100
AcDbXrecord
280
     1
290
     1
  0
XRECORD
  5
444
102
{ACAD_REACTORS
330
443
102
}
330
443
100
AcDbXrecord
280
     1
290
     1
  0
XRECORD
  5
446
102
{ACAD_REACTORS
330
445
102
}
330
445
100
AcDbXrecord
280
     1
290
     1
  0
XRECORD
  5
448
102
{ACAD_REACTORS
330
447
102
}
330
447
100
AcDbXrecord
280
     1
290
     1
  0
XRECORD
  5
44A
102
{ACAD_REACTORS
330
449
102
}
330
449
100
AcDbXrecord
280
     1
290
     1
  0
XRECORD
  5
44C
102
{ACAD_REACTORS
330
44B
102
}
330
44B
100
AcDbXrecord
280
     1
290
     1
  0
XRECORD
  5
44E
102
{ACAD_REACTORS
330
44D
102
}
330
44D
100
AcDbXrecord
280
     1
290
     1
  0
XRECORD
  5
450
102
{ACAD_REACTORS
330
44F
102
}
330
44F
100
AcDbXrecord
280
     1
290
     1
  0
XRECORD
  5
452
102
{ACAD_REACTORS
330
451
102
}
330
451
100
AcDbXrecord
280
     1
290
     1
  0
XRECORD
  5
454
102
{ACAD_REACTORS
330
453
102
}
330
453
100
AcDbXrecord
280
     1
290
     1
  0
XRECORD
  5
456
102
{ACAD_REACTORS
330
455
102
}
330
455
100
AcDbXrecord
280
     1
290
     1
  0
XRECORD
  5
458
102
{ACAD_REACTORS
330
457
102
}
330
457
100
AcDbXrecord
280
     1
290
     1
  0
XRECORD
  5
45A
102
{ACAD_REACTORS
330
459
102
}
330
459
100
AcDbXrecord
280
     1
290
     1
  0
XRECORD
  5
45C
102
{ACAD_REACTORS
330
45B
102
}
330
45B
100
AcDbXrecord
280
     1
290
     1
  0
XRECORD
  5
45E
102
{ACAD_REACTORS
330
45D
102
}
330
45D
100
AcDbXrecord
280
     1
290
     1
  0
XRECORD
  5
460
102
{ACAD_REACTORS
330
45F
102
}
330
45F
100
AcDbXrecord
280
     1
290
     1
  0
XRECORD
  5
462
102
{ACAD_REACTORS
330
461
102
}
330
461
100
AcDbXrecord
280
     1
290
     1
  0
XRECORD
  5
464
102
{ACAD_REACTORS
330
463
102
}
330
463
100
AcDbXrecord
280
     1
290
     1
  0
XRECORD
  5
466
102
{ACAD_REACTORS
330
465
102
}
330
465
100
AcDbXrecord
280
     1
290
     1
  0
XRECORD
  5
468
102
{ACAD_REACTORS
330
467
102
}
330
467
100
AcDbXrecord
280
     1
290
     1
  0
XRECORD
  5
46A
102
{ACAD_REACTORS
330
469
102
}
330
469
100
AcDbXrecord
280
     1
290
     1
  0
XRECORD
  5
46C
102
{ACAD_REACTORS
330
46B
102
}
330
46B
100
AcDbXrecord
280
     1
290
     1
  0
XRECORD
  5
46E
102
{ACAD_REACTORS
330
46D
102
}
330
46D
100
AcDbXrecord
280
     1
290
     1
  0
XRECORD
  5
470
102
{ACAD_REACTORS
330
46F
102
}
330
46F
100
AcDbXrecord
280
     1
290
     1
  0
XRECORD
  5
472
102
{ACAD_REACTORS
330
471
102
}
330
471
100
AcDbXrecord
280
     1
290
     1
  0
XRECORD
  5
474
102
{ACAD_REACTORS
330
473
102
}
330
473
100
AcDbXrecord
280
     1
290
     1
  0
XRECORD
  5
476
102
{ACAD_REACTORS
330
475
102
}
330
475
100
AcDbXrecord
280
     1
290
     1
  0
XRECORD
  5
478
102
{ACAD_REACTORS
330
477
102
}
330
477
100
AcDbXrecord
280
     1
290
     1
  0
XRECORD
  5
47A
102
{ACAD_REACTORS
330
479
102
}
330
479
100
AcDbXrecord
280
     1
290
     1
  0
XRECORD
  5
47C
102
{ACAD_REACTORS
330
47B
102
}
330
47B
100
AcDbXrecord
280
     1
290
     1
  0
XRECORD
  5
47E
102
{ACAD_REACTORS
330
47D
102
}
330
47D
100
AcDbXrecord
280
     1
290
     1
  0
XRECORD
  5
480
102
{ACAD_REACTORS
330
47F
102
}
330
47F
100
AcDbXrecord
280
     1
290
     1
  0
XRECORD
  5
482
102
{ACAD_REACTORS
330
481
102
}
330
481
100
AcDbXrecord
280
     1
290
     1
  0
XRECORD
  5
484
102
{ACAD_REACTORS
330
483
102
}
330
483
100
AcDbXrecord
280
     1
290
     1
  0
XRECORD
  5
486
102
{ACAD_REACTORS
330
485
102
}
330
485
100
AcDbXrecord
280
     1
290
     1
  0
XRECORD
  5
488
102
{ACAD_REACTORS
330
487
102
}
330
487
100
AcDbXrecord
280
     1
290
     1
  0
XRECORD
  5
48A
102
{ACAD_REACTORS
330
489
102
}
330
489
100
AcDbXrecord
280
     1
290
     1
  0
XRECORD
  5
48C
102
{ACAD_REACTORS
330
48B
102
}
330
48B
100
AcDbXrecord
280
     1
290
     1
  0
XRECORD
  5
48E
102
{ACAD_REACTORS
330
48D
102
}
330
48D
100
AcDbXrecord
280
     1
290
     1
  0
XRECORD
  5
490
102
{ACAD_REACTORS
330
48F
102
}
330
48F
100
AcDbXrecord
280
     1
290
     1
  0
XRECORD
  5
492
102
{ACAD_REACTORS
330
491
102
}
330
491
100
AcDbXrecord
280
     1
290
     1
  0
XRECORD
  5
494
102
{ACAD_REACTORS
330
493
102
}
330
493
100
AcDbXrecord
280
     1
290
     1
  0
XRECORD
  5
496
102
{ACAD_REACTORS
330
495
102
}
330
495
100
AcDbXrecord
280
     1
290
     1
  0
XRECORD
  5
498
102
{ACAD_REACTORS
330
497
102
}
330
497
100
AcDbXrecord
280
     1
290
     1
  0
XRECORD
  5
49A
102
{ACAD_REACTORS
330
499
102
}
330
499
100
AcDbXrecord
280
     1
290
     1
  0
XRECORD
  5
49C
102
{ACAD_REACTORS
330
49B
102
}
330
49B
100
AcDbXrecord
280
     1
290
     1
  0
XRECORD
  5
49E
102
{ACAD_REACTORS
330
49D
102
}
330
49D
100
AcDbXrecord
280
     1
290
     1
  0
XRECORD
  5
4A0
102
{ACAD_REACTORS
330
49F
102
}
330
49F
100
AcDbXrecord
280
     1
290
     1
  0
XRECORD
  5
4A2
102
{ACAD_REACTORS
330
4A1
102
}
330
4A1
100
AcDbXrecord
280
     1
290
     1
  0
XRECORD
  5
4A4
102
{ACAD_REACTORS
330
4A3
102
}
330
4A3
100
AcDbXrecord
280
     1
290
     1
  0
XRECORD
  5
4A6
102
{ACAD_REACTORS
330
4A5
102
}
330
4A5
100
AcDbXrecord
280
     1
290
     1
  0
XRECORD
  5
4A8
102
{ACAD_REACTORS
330
4A7
102
}
330
4A7
100
AcDbXrecord
280
     1
290
     1
  0
XRECORD
  5
4AA
102
{ACAD_REACTORS
330
4A9
102
}
330
4A9
100
AcDbXrecord
280
     1
290
     1
  0
XRECORD
  5
4AC
102
{ACAD_REACTORS
330
4AB
102
}
330
4AB
100
AcDbXrecord
280
     1
290
     1
  0
XRECORD
  5
4AE
102
{ACAD_REACTORS
330
4AD
102
}
330
4AD
100
AcDbXrecord
280
     1
290
     1
  0
XRECORD
  5
4B0
102
{ACAD_REACTORS
330
4AF
102
}
330
4AF
100
AcDbXrecord
280
     1
290
     1
  0
XRECORD
  5
4B2
102
{ACAD_REACTORS
330
4B1
102
}
330
4B1
100
AcDbXrecord
280
     1
290
     1
  0
XRECORD
  5
4B4
102
{ACAD_REACTORS
330
4B3
102
}
330
4B3
100
AcDbXrecord
280
     1
290
     1
  0
XRECORD
  5
4B6
102
{ACAD_REACTORS
330
4B5
102
}
330
4B5
100
AcDbXrecord
280
     1
290
     1
  0
XRECORD
  5
4B8
102
{ACAD_REACTORS
330
4B7
102
}
330
4B7
100
AcDbXrecord
280
     1
290
     1
  0
XRECORD
  5
4BA
102
{ACAD_REACTORS
330
4B9
102
}
330
4B9
100
AcDbXrecord
280
     1
290
     1
  0
XRECORD
  5
4BC
102
{ACAD_REACTORS
330
4BB
102
}
330
4BB
100
AcDbXrecord
280
     1
290
     1
  0
XRECORD
  5
4BE
102
{ACAD_REACTORS
330
4BD
102
}
330
4BD
100
AcDbXrecord
280
     1
290
     1
  0
XRECORD
  5
4C0
102
{ACAD_REACTORS
330
4BF
102
}
330
4BF
100
AcDbXrecord
280
     1
290
     1
  0
XRECORD
  5
4C2
102
{ACAD_REACTORS
330
4C1
102
}
330
4C1
100
AcDbXrecord
280
     1
290
     1
  0
XRECORD
  5
4C4
102
{ACAD_REACTORS
330
4C3
102
}
330
4C3
100
AcDbXrecord
280
     1
290
     1
  0
XRECORD
  5
4C6
102
{ACAD_REACTORS
330
4C5
102
}
330
4C5
100
AcDbXrecord
280
     1
290
     1
  0
XRECORD
  5
4C8
102
{ACAD_REACTORS
330
4C7
102
}
330
4C7
100
AcDbXrecord
280
     1
290
     1
  0
XRECORD
  5
4CA
102
{ACAD_REACTORS
330
4C9
102
}
330
4C9
100
AcDbXrecord
280
     1
290
     1
  0
XRECORD
  5
4CC
102
{ACAD_REACTORS
330
4CB
102
}
330
4CB
100
AcDbXrecord
280
     1
290
     1
  0
XRECORD
  5
4CE
102
{ACAD_REACTORS
330
4CD
102
}
330
4CD
100
AcDbXrecord
280
     1
290
     1
  0
XRECORD
  5
4D0
102
{ACAD_REACTORS
330
4CF
102
}
330
4CF
100
AcDbXrecord
280
     1
290
     1
  0
XRECORD
  5
4D2
102
{ACAD_REACTORS
330
4D1
102
}
330
4D1
100
AcDbXrecord
280
     1
290
     1
  0
XRECORD
  5
4D4
102
{ACAD_REACTORS
330
4D3
102
}
330
4D3
100
AcDbXrecord
280
     1
290
     1
  0
XRECORD
  5
4D6
102
{ACAD_REACTORS
330
4D5
102
}
330
4D5
100
AcDbXrecord
280
     1
290
     1
  0
XRECORD
  5
4D8
102
{ACAD_REACTORS
330
4D7
102
}
330
4D7
100
AcDbXrecord
280
     1
290
     1
  0
XRECORD
  5
4DA
102
{ACAD_REACTORS
330
4D9
102
}
330
4D9
100
AcDbXrecord
280
     1
290
     1
  0
XRECORD
  5
4DC
102
{ACAD_REACTORS
330
4DB
102
}
330
4DB
100
AcDbXrecord
280
     1
290
     1
  0
XRECORD
  5
4DE
102
{ACAD_REACTORS
330
4DD
102
}
330
4DD
100
AcDbXrecord
280
     1
290
     1
  0
XRECORD
  5
4E0
102
{ACAD_REACTORS
330
4DF
102
}
330
4DF
100
AcDbXrecord
280
     1
290
     1
  0
XRECORD
  5
4E2
102
{ACAD_REACTORS
330
4E1
102
}
330
4E1
100
AcDbXrecord
280
     1
290
     1
  0
XRECORD
  5
4E4
102
{ACAD_REACTORS
330
4E3
102
}
330
4E3
100
AcDbXrecord
280
     1
290
     1
  0
XRECORD
  5
4E6
102
{ACAD_REACTORS
330
4E5
102
}
330
4E5
100
AcDbXrecord
280
     1
290
     1
  0
XRECORD
  5
4E8
102
{ACAD_REACTORS
330
4E7
102
}
330
4E7
100
AcDbXrecord
280
     1
290
     1
  0
XRECORD
  5
4EA
102
{ACAD_REACTORS
330
4E9
102
}
330
4E9
100
AcDbXrecord
280
     1
290
     1
  0
XRECORD
  5
4EC
102
{ACAD_REACTORS
330
4EB
102
}
330
4EB
100
AcDbXrecord
280
     1
290
     1
  0
XRECORD
  5
4EE
102
{ACAD_REACTORS
330
4ED
102
}
330
4ED
100
AcDbXrecord
280
     1
290
     1
  0
XRECORD
  5
4F0
102
{ACAD_REACTORS
330
4EF
102
}
330
4EF
100
AcDbXrecord
280
     1
290
     1
  0
XRECORD
  5
4F2
102
{ACAD_REACTORS
330
4F1
102
}
330
4F1
100
AcDbXrecord
280
     1
290
     1
  0
XRECORD
  5
4F4
102
{ACAD_REACTORS
330
4F3
102
}
330
4F3
100
AcDbXrecord
280
     1
290
     1
  0
XRECORD
  5
4F6
102
{ACAD_REACTORS
330
4F5
102
}
330
4F5
100
AcDbXrecord
280
     1
290
     1
  0
XRECORD
  5
4F8
102
{ACAD_REACTORS
330
4F7
102
}
330
4F7
100
AcDbXrecord
280
     1
290
     1
  0
XRECORD
  5
4FA
102
{ACAD_REACTORS
330
4F9
102
}
330
4F9
100
AcDbXrecord
280
     1
290
     1
  0
XRECORD
  5
4FC
102
{ACAD_REACTORS
330
4FB
102
}
330
4FB
100
AcDbXrecord
280
     1
290
     1
  0
XRECORD
  5
4FE
102
{ACAD_REACTORS
330
4FD
102
}
330
4FD
100
AcDbXrecord
280
     1
290
     1
  0
XRECORD
  5
500
102
{ACAD_REACTORS
330
4FF
102
}
330
4FF
100
AcDbXrecord
280
     1
290
     1
  0
XRECORD
  5
502
102
{ACAD_REACTORS
330
501
102
}
330
501
100
AcDbXrecord
280
     1
290
     1
  0
XRECORD
  5
504
102
{ACAD_REACTORS
330
503
102
}
330
503
100
AcDbXrecord
280
     1
290
     1
  0
XRECORD
  5
506
102
{ACAD_REACTORS
330
505
102
}
330
505
100
AcDbXrecord
280
     1
290
     1
  0
XRECORD
  5
508
102
{ACAD_REACTORS
330
507
102
}
330
507
100
AcDbXrecord
280
     1
290
     1
  0
XRECORD
  5
50A
102
{ACAD_REACTORS
330
509
102
}
330
509
100
AcDbXrecord
280
     1
290
     1
  0
XRECORD
  5
50C
102
{ACAD_REACTORS
330
50B
102
}
330
50B
100
AcDbXrecord
280
     1
290
     1
  0
XRECORD
  5
50E
102
{ACAD_REACTORS
330
50D
102
}
330
50D
100
AcDbXrecord
280
     1
290
     1
  0
XRECORD
  5
510
102
{ACAD_REACTORS
330
50F
102
}
330
50F
100
AcDbXrecord
280
     1
290
     1
  0
XRECORD
  5
512
102
{ACAD_REACTORS
330
511
102
}
330
511
100
AcDbXrecord
280
     1
290
     1
  0
XRECORD
  5
514
102
{ACAD_REACTORS
330
513
102
}
330
513
100
AcDbXrecord
280
     1
290
     1
  0
XRECORD
  5
516
102
{ACAD_REACTORS
330
515
102
}
330
515
100
AcDbXrecord
280
     1
290
     1
  0
XRECORD
  5
518
102
{ACAD_REACTORS
330
517
102
}
330
517
100
AcDbXrecord
280
     1
290
     1
  0
XRECORD
  5
51A
102
{ACAD_REACTORS
330
519
102
}
330
519
100
AcDbXrecord
280
     1
290
     1
  0
XRECORD
  5
51C
102
{ACAD_REACTORS
330
51B
102
}
330
51B
100
AcDbXrecord
280
     1
290
     1
  0
XRECORD
  5
51E
102
{ACAD_REACTORS
330
51D
102
}
330
51D
100
AcDbXrecord
280
     1
290
     1
  0
XRECORD
  5
520
102
{ACAD_REACTORS
330
51F
102
}
330
51F
100
AcDbXrecord
280
     1
290
     1
  0
XRECORD
  5
522
102
{ACAD_REACTORS
330
521
102
}
330
521
100
AcDbXrecord
280
     1
290
     1
  0
XRECORD
  5
524
102
{ACAD_REACTORS
330
523
102
}
330
523
100
AcDbXrecord
280
     1
290
     1
  0
XRECORD
  5
526
102
{ACAD_REACTORS
330
525
102
}
330
525
100
AcDbXrecord
280
     1
290
     1
  0
XRECORD
  5
528
102
{ACAD_REACTORS
330
527
102
}
330
527
100
AcDbXrecord
280
     1
290
     1
  0
XRECORD
  5
52A
102
{ACAD_REACTORS
330
529
102
}
330
529
100
AcDbXrecord
280
     1
290
     1
  0
XRECORD
  5
52C
102
{ACAD_REACTORS
330
52B
102
}
330
52B
100
AcDbXrecord
280
     1
290
     1
  0
XRECORD
  5
52E
102
{ACAD_REACTORS
330
52D
102
}
330
52D
100
AcDbXrecord
280
     1
290
     1
  0
XRECORD
  5
530
102
{ACAD_REACTORS
330
52F
102
}
330
52F
100
AcDbXrecord
280
     1
290
     1
  0
XRECORD
  5
532
102
{ACAD_REACTORS
330
531
102
}
330
531
100
AcDbXrecord
280
     1
290
     1
  0
XRECORD
  5
534
102
{ACAD_REACTORS
330
533
102
}
330
533
100
AcDbXrecord
280
     1
290
     1
  0
XRECORD
  5
536
102
{ACAD_REACTORS
330
535
102
}
330
535
100
AcDbXrecord
280
     1
290
     1
  0
XRECORD
  5
538
102
{ACAD_REACTORS
330
537
102
}
330
537
100
AcDbXrecord
280
     1
290
     1
  0
XRECORD
  5
53A
102
{ACAD_REACTORS
330
539
102
}
330
539
100
AcDbXrecord
280
     1
290
     1
  0
XRECORD
  5
53C
102
{ACAD_REACTORS
330
53B
102
}
330
53B
100
AcDbXrecord
280
     1
290
     1
  0
XRECORD
  5
53E
102
{ACAD_REACTORS
330
53D
102
}
330
53D
100
AcDbXrecord
280
     1
290
     1
  0
XRECORD
  5
540
102
{ACAD_REACTORS
330
53F
102
}
330
53F
100
AcDbXrecord
280
     1
290
     1
  0
XRECORD
  5
542
102
{ACAD_REACTORS
330
541
102
}
330
541
100
AcDbXrecord
280
     1
290
     1
  0
XRECORD
  5
544
102
{ACAD_REACTORS
330
543
102
}
330
543
100
AcDbXrecord
280
     1
290
     1
  0
XRECORD
  5
546
102
{ACAD_REACTORS
330
545
102
}
330
545
100
AcDbXrecord
280
     1
290
     1
  0
XRECORD
  5
548
102
{ACAD_REACTORS
330
547
102
}
330
547
100
AcDbXrecord
280
     1
290
     1
  0
XRECORD
  5
54A
102
{ACAD_REACTORS
330
549
102
}
330
549
100
AcDbXrecord
280
     1
290
     1
  0
XRECORD
  5
54C
102
{ACAD_REACTORS
330
54B
102
}
330
54B
100
AcDbXrecord
280
     1
290
     1
  0
XRECORD
  5
54E
102
{ACAD_REACTORS
330
54D
102
}
330
54D
100
AcDbXrecord
280
     1
290
     1
  0
XRECORD
  5
550
102
{ACAD_REACTORS
330
54F
102
}
330
54F
100
AcDbXrecord
280
     1
290
     1
  0
XRECORD
  5
552
102
{ACAD_REACTORS
330
551
102
}
330
551
100
AcDbXrecord
280
     1
290
     1
  0
XRECORD
  5
554
102
{ACAD_REACTORS
330
553
102
}
330
553
100
AcDbXrecord
280
     1
290
     1
  0
SORTENTSTABLE
  5
2E4
102
{ACAD_REACTORS
330
2E3
102
}
330
2E3
100
AcDbSortentsTable
330
22
331
287
  5
28F
331
283
  5
28B
331
2BE
  5
2C6
331
27F
  5
287
331
27B
  5
283
331
2BA
  5
2C2
331
17D
  5
185
331
164
  5
164
331
196
  5
19E
331
192
  5
19A
331
20C
  5
214
331
208
  5
210
331
247
  5
24F
331
18E
  5
196
331
1CD
  5
1D5
331
1C9
  5
1D1
331
204
  5
20C
331
243
  5
24B
331
18A
  5
192
331
200
  5
208
331
277
  5
27F
331
2B6
  5
2BE
331
273
  5
27B
331
2B2
  5
2BA
331
2AE
  5
2B6
331
26F
  5
277
331
26B
  5
273
331
2AA
  5
2B2
331
16D
  5
16D
331
169
  5
169
331
2DC
  5
2E7
331
186
  5
18E
331
1C5
  5
1CD
331
23F
  5
247
331
2D8
  5
2E0
331
23B
  5
243
331
182
  5
18A
331
1C1
  5
1C9
331
1FC
  5
204
331
1F8
  5
200
331
237
  5
23F
331
1BD
  5
1C5
331
1B9
  5
1C1
331
1F4
  5
1FC
331
233
  5
23B
331
1F0
  5
1F8
331
267
  5
26F
331
2A6
  5
2AE
331
263
  5
26B
331
2A2
  5
2AA
331
29E
  5
2A6
331
25F
  5
267
331
25B
  5
263
331
29A
  5
2A2
331
2D5
  5
2DD
331
2D1
  5
2D9
331
1B5
  5
1BD
331
22F
  5
237
331
22B
  5
233
331
1B1
  5
1B9
331
1EC
  5
1F4
331
227
  5
22F
331
1AD
  5
1B5
331
1E8
  5
1F0
331
1A9
  5
1B1
331
1E4
  5
1EC
331
223
  5
22B
331
1E0
  5
1E8
331
257
  5
25F
331
296
  5
29E
331
253
  5
25B
331
292
  5
29A
331
2CD
  5
2D5
331
28E
  5
296
331
2C9
  5
2D1
331
24F
  5
257
331
24B
  5
253
331
28A
  5
292
331
2C5
  5
2CD
331
2C1
  5
2C9
331
1A5
  5
1AD
331
2E2
  5
182
331
21F
  5
227
331
1A1
  5
1A9
331
1DC
  5
1E4
331
21B
  5
223
331
217
  5
21F
331
19D
  5
1A5
331
1D8
  5
1E0
331
199
  5
1A1
331
1D4
  5
1DC
331
213
  5
21B
331
1D0
  5
1D8
331
286
  5
28E
331
282
  5
28A
331
27E
  5
286
331
2BD
  5
2C5
331
27A
  5
282
331
2B9
  5
2C1
331
17C
  5
184
331
167
  5
167
331
163
  5
163
331
195
  5
19D
331
20F
  5
217
331
191
  5
199
331
20B
  5
213
331
1CC
  5
1D4
331
207
  5
20F
331
246
  5
24E
331
18D
  5
195
331
1C8
  5
1D0
331
203
  5
20B
331
242
  5
24A
331
189
  5
191
331
276
  5
27E
331
2B5
  5
2BD
331
2B1
  5
2B9
331
272
  5
27A
331
2AD
  5
2B5
331
26E
  5
276
331
26A
  5
272
331
2A9
  5
2B1
331
16C
  5
16C
331
168
  5
168
331
2DF
  5
2EA
331
2DB
  5
2E6
331
185
  5
18D
331
1C4
  5
1CC
331
1FF
  5
207
331
23E
  5
246
331
23A
  5
242
331
181
  5
189
331
1C0
  5
1C8
331
1FB
  5
203
331
1F7
  5
1FF
331
236
  5
23E
331
1BC
  5
1C4
331
1B8
  5
1C0
331
1F3
  5
1FB
331
232
  5
23A
331
266
  5
26E
331
2A5
  5
2AD
331
262
  5
26A
331
2A1
  5
2A9
331
29D
  5
2A5
331
25E
  5
266
331
25A
  5
262
331
299
  5
2A1
331
2D4
  5
2DC
331
2D0
  5
2D8
331
1B4
  5
1BC
331
1EF
  5
1F7
331
22E
  5
236
331
22A
  5
232
331
1B0
  5
1B8
331
1EB
  5
1F3
331
1E7
  5
1EF
331
226
  5
22E
331
1AC
  5
1B4
331
1A8
  5
1B0
331
1E3
  5
1EB
331
222
  5
22A
331
256
  5
25E
331
295
  5
29D
331
2CC
  5
2D4
331
252
  5
25A
331
291
  5
299
331
28D
  5
295
331
2C8
  5
2D0
331
24E
  5
256
331
24A
  5
252
331
289
  5
291
331
2C4
  5
2CC
331
2C0
  5
2C8
331
172
  5
172
331
1A4
  5
1AC
331
1DF
  5
1E7
331
21E
  5
226
331
21A
  5
222
331
1A0
  5
1A8
331
1DB
  5
1E3
331
216
  5
21E
331
19C
  5
1A4
331
1D7
  5
1DF
331
198
  5
1A0
331
1D3
  5
1DB
331
212
  5
21A
331
285
  5
28D
331
281
  5
289
331
27D
  5
285
331
2BC
  5
2C4
331
279
  5
281
331
2B8
  5
2C0
331
17F
  5
187
331
17B
  5
183
331
166
  5
166
331
162
  5
162
331
194
  5
19C
331
20E
  5
216
331
190
  5
198
331
1CF
  5
1D7
331
20A
  5
212
331
1CB
  5
1D3
331
206
  5
20E
331
245
  5
24D
331
18C
  5
194
331
188
  5
190
331
202
  5
20A
331
241
  5
249
331
275
  5
27D
331
2B4
  5
2BC
331
2B0
  5
2B8
331
271
  5
279
331
26D
  5
275
331
2AC
  5
2B4
331
269
  5
271
331
2A8
  5
2B0
331
16F
  5
16F
331
16B
  5
16B
331
1C7
  5
1CF
331
2DE
  5
2E9
331
2DA
  5
2E5
331
184
  5
18C
331
1C3
  5
1CB
331
1FE
  5
206
331
23D
  5
245
331
239
  5
241
331
180
  5
188
331
1BF
  5
1C7
331
1FA
  5
202
331
1BB
  5
1C3
331
1F6
  5
1FE
331
235
  5
23D
331
1F2
  5
1FA
331
231
  5
239
331
265
  5
26D
331
2A4
  5
2AC
331
2A0
  5
2A8
331
261
  5
269
331
29C
  5
2A4
331
2D7
  5
2DF
331
25D
  5
265
331
259
  5
261
331
298
  5
2A0
331
2D3
  5
2DB
331
1B7
  5
1BF
331
1B3
  5
1BB
331
1EE
  5
1F6
331
22D
  5
235
331
229
  5
231
331
1AF
  5
1B7
331
1EA
  5
1F2
331
1E6
  5
1EE
331
225
  5
22D
331
1AB
  5
1B3
331
1E2
  5
1EA
331
221
  5
229
331
255
  5
25D
331
294
  5
29C
331
2CF
  5
2D7
331
2CB
  5
2D3
331
251
  5
259
331
290
  5
298
331
28C
  5
294
331
2C7
  5
2CF
331
24D
  5
255
331
249
  5
251
331
288
  5
290
331
2C3
  5
2CB
331
171
  5
171
331
1A7
  5
1AF
331
1A3
  5
1AB
331
2E0
  5
2EB
331
1DE
  5
1E6
331
21D
  5
225
331
219
  5
221
331
19F
  5
1A7
331
1DA
  5
1E2
331
1D6
  5
1DE
331
215
  5
21D
331
19B
  5
1A3
331
1D2
  5
1DA
331
211
  5
219
331
284
  5
28C
331
2BF
  5
2C7
331
280
  5
288
331
27C
  5
284
331
2BB
  5
2C3
331
278
  5
280
331
17E
  5
186
331
165
  5
165
331
197
  5
19F
331
193
  5
19B
331
20D
  5
215
331
209
  5
211
331
18F
  5
197
331
1CE
  5
1D6
331
1CA
  5
1D2
331
205
  5
20D
331
244
  5
24C
331
18B
  5
193
331
201
  5
209
331
240
  5
248
331
2B7
  5
2BF
331
274
  5
27C
331
2B3
  5
2BB
331
2AF
  5
2B7
331
270
  5
278
331
26C
  5
274
331
2AB
  5
2B3
331
268
  5
270
331
16E
  5
16E
331
16A
  5
16A
331
2DD
  5
2E8
331
187
  5
18F
331
1C6
  5
1CE
331
2D9
  5
2E2
331
23C
  5
244
331
183
  5
18B
331
1C2
  5
1CA
331
1FD
  5
205
331
238
  5
240
331
1BE
  5
1C6
331
1F9
  5
201
331
1BA
  5
1C2
331
1F5
  5
1FD
331
234
  5
23C
331
1F1
  5
1F9
331
230
  5
238
331
2A7
  5
2AF
331
264
  5
26C
331
2A3
  5
2AB
331
29F
  5
2A7
331
260
  5
268
331
25C
  5
264
331
29B
  5
2A3
331
2D6
  5
2DE
331
258
  5
260
331
2D2
  5
2DA
331
1B6
  5
1BE
331
1B2
  5
1BA
331
1ED
  5
1F5
331
22C
  5
234
331
228
  5
230
331
1AE
  5
1B6
331
1E9
  5
1F1
331
1AA
  5
1B2
331
1E5
  5
1ED
331
224
  5
22C
331
1E1
  5
1E9
331
220
  5
228
331
297
  5
29F
331
254
  5
25C
331
293
  5
29B
331
2CE
  5
2D6
331
28F
  5
297
331
2CA
  5
2D2
331
250
  5
258
331
28B
  5
293
331
2C6
  5
2CE
331
24C
  5
254
331
248
  5
250
331
2C2
  5
2CA
331
170
  5
170
331
1A6
  5
1AE
331
1A2
  5
1AA
331
1DD
  5
1E5
331
21C
  5
224
331
218
  5
220
331
19E
  5
1A6
331
1D9
  5
1E1
331
1D5
  5
1DD
331
214
  5
21C
331
19A
  5
1A2
331
1D1
  5
1D9
331
210
  5
218
  0
LAYOUT
  5
21
102
{ACAD_XDICTIONARY
360
55F
102
}
102
{ACAD_REACTORS
330
19
102
}
330
19
100
AcDbPlotSettings
  1

  2
\\lkfpbv\BV016
  4

  6

 40
0.0
 41
0.0
 42
0.0
 43
0.0
 44
0.0
 45
0.0
 46
0.0
 47
0.0
 48
0.0
 49
0.0
140
0.0
141
0.0
142
1.0
143
1.0
 70
   688
 72
     0
 73
     0
 74
     5
  7

 75
    16
147
1.0
148
0.0
149
0.0
100
AcDbLayout
  1
Layout1
 70
     1
 71
     1
 10
0.0
 20
0.0
 11
12.0
 21
9.0
 12
0.0
 22
0.0
 32
0.0
 14
1.000000000000000E+20
 24
1.000000000000000E+20
 34
1.000000000000000E+20
 15
-1.000000000000000E+20
 25
-1.000000000000000E+20
 35
-1.000000000000000E+20
146
0.0
 13
0.0
 23
0.0
 33
0.0
 16
1.0
 26
0.0
 36
0.0
 17
0.0
 27
1.0
 37
0.0
 76
     0
330
1E
  0
LAYOUT
  5
25
102
{ACAD_XDICTIONARY
360
561
102
}
102
{ACAD_REACTORS
330
19
102
}
330
19
100
AcDbPlotSettings
  1

  2
\\lkfpbv\BV016
  4

  6

 40
0.0
 41
0.0
 42
0.0
 43
0.0
 44
0.0
 45
0.0
 46
0.0
 47
0.0
 48
0.0
 49
0.0
140
0.0
141
0.0
142
1.0
143
1.0
 70
  1712
 72
     0
 73
     0
 74
     0
  7

 75
     0
147
1.0
148
0.0
149
0.0
100
AcDbLayout
  1
Model
 70
     1
 71
     0
 10
0.0
 20
0.0
 11
12.0
 21
9.0
 12
0.0
 22
0.0
 32
0.0
 14
0.0
 24
0.0
 34
0.0
 15
0.0
 25
0.0
 35
0.0
146
0.0
 13
0.0
 23
0.0
 33
0.0
 16
1.0
 26
0.0
 36
0.0
 17
0.0
 27
1.0
 37
0.0
 76
     0
330
22
331
2F0
  0
MATERIAL
  5
302
102
{ACAD_XDICTIONARY
360
303
102
}
102
{ACAD_REACTORS
330
1A
102
}
330
1A
100
AcDbMaterial
  1
ByBlock
 72
     0
 43
0.0208333333333333
 43
0.0
 43
0.0
 43
0.0
 43
0.0
 43
0.0208333333333333
 43
0.0
 43
0.0
 43
0.0
 43
0.0
 43
1.0
 43
0.0
 43
0.0
 43
0.0
 43
0.0
 43
1.0
 77
     0
 47
0.0208333333333333
 47
0.0
 47
0.0
 47
0.0
 47
0.0
 47
0.0208333333333333
 47
0.0
 47
0.0
 47
0.0
 47
0.0
 47
1.0
 47
0.0
 47
0.0
 47
0.0
 47
0.0
 47
1.0
171
     0
 49
0.0208333333333333
 49
0.0
 49
0.0
 49
0.0
 49
0.0
 49
0.0208333333333333
 49
0.0
 49
0.0
 49
0.0
 49
0.0
 49
1.0
 49
0.0
 49
0.0
 49
0.0
 49
0.0
 49
1.0
175
     0
142
0.0208333333333333
142
0.0
142
0.0
142
0.0
142
0.0
142
0.0208333333333333
142
0.0
142
0.0
142
0.0
142
0.0
142
1.0
142
0.0
142
0.0
142
0.0
142
0.0
142
1.0
179
     0
144
0.0208333333333333
144
0.0
144
0.0
144
0.0
144
0.0
144
0.0208333333333333
144
0.0
144
0.0
144
0.0
144
0.0
144
1.0
144
0.0
144
0.0
144
0.0
144
0.0
144
1.0
147
0.0208333333333333
147
0.0
147
0.0
147
0.0
147
0.0
147
0.0208333333333333
147
0.0
147
0.0
147
0.0
147
0.0
147
1.0
147
0.0
147
0.0
147
0.0
147
0.0
147
1.0
  0
MATERIAL
  5
2FA
102
{ACAD_XDICTIONARY
360
2FB
102
}
102
{ACAD_REACTORS
330
1A
102
}
330
1A
100
AcDbMaterial
  1
ByLayer
 72
     0
 43
0.0208333333333333
 43
0.0
 43
0.0
 43
0.0
 43
0.0
 43
0.0208333333333333
 43
0.0
 43
0.0
 43
0.0
 43
0.0
 43
1.0
 43
0.0
 43
0.0
 43
0.0
 43
0.0
 43
1.0
 77
     0
 47
0.0208333333333333
 47
0.0
 47
0.0
 47
0.0
 47
0.0
 47
0.0208333333333333
 47
0.0
 47
0.0
 47
0.0
 47
0.0
 47
1.0
 47
0.0
 47
0.0
 47
0.0
 47
0.0
 47
1.0
171
     0
 49
0.0208333333333333
 49
0.0
 49
0.0
 49
0.0
 49
0.0
 49
0.0208333333333333
 49
0.0
 49
0.0
 49
0.0
 49
0.0
 49
1.0
 49
0.0
 49
0.0
 49
0.0
 49
0.0
 49
1.0
175
     0
142
0.0208333333333333
142
0.0
142
0.0
142
0.0
142
0.0
142
0.0208333333333333
142
0.0
142
0.0
142
0.0
142
0.0
142
1.0
142
0.0
142
0.0
142
0.0
142
0.0
142
1.0
179
     0
144
0.0208333333333333
144
0.0
144
0.0
144
0.0
144
0.0
144
0.0208333333333333
144
0.0
144
0.0
144
0.0
144
0.0
144
1.0
144
0.0
144
0.0
144
0.0
144
0.0
144
1.0
147
0.0208333333333333
147
0.0
147
0.0
147
0.0
147
0.0
147
0.0208333333333333
147
0.0
147
0.0
147
0.0
147
0.0
147
1.0
147
0.0
147
0.0
147
0.0
147
0.0
147
1.0
  0
MATERIAL
  5
30A
102
{ACAD_XDICTIONARY
360
30B
102
}
102
{ACAD_REACTORS
330
1A
102
}
330
1A
100
AcDbMaterial
  1
Global
 72
     0
 43
0.0208333333333333
 43
0.0
 43
0.0
 43
0.0
 43
0.0
 43
0.0208333333333333
 43
0.0
 43
0.0
 43
0.0
 43
0.0
 43
1.0
 43
0.0
 43
0.0
 43
0.0
 43
0.0
 43
1.0
 77
     0
 47
0.0208333333333333
 47
0.0
 47
0.0
 47
0.0
 47
0.0
 47
0.0208333333333333
 47
0.0
 47
0.0
 47
0.0
 47
0.0
 47
1.0
 47
0.0
 47
0.0
 47
0.0
 47
0.0
 47
1.0
171
     0
 49
0.0208333333333333
 49
0.0
 49
0.0
 49
0.0
 49
0.0
 49
0.0208333333333333
 49
0.0
 49
0.0
 49
0.0
 49
0.0
 49
1.0
 49
0.0
 49
0.0
 49
0.0
 49
0.0
 49
1.0
175
     0
142
0.0208333333333333
142
0.0
142
0.0
142
0.0
142
0.0
142
0.0208333333333333
142
0.0
142
0.0
142
0.0
142
0.0
142
1.0
142
0.0
142
0.0
142
0.0
142
0.0
142
1.0
179
     0
144
0.0208333333333333
144
0.0
144
0.0
144
0.0
144
0.0
144
0.0208333333333333
144
0.0
144
0.0
144
0.0
144
0.0
144
1.0
144
0.0
144
0.0
144
0.0
144
0.0
144
1.0
147
0.0208333333333333
147
0.0
147
0.0
147
0.0
147
0.0
147
0.0208333333333333
147
0.0
147
0.0
147
0.0
147
0.0
147
1.0
147
0.0
147
0.0
147
0.0
147
0.0
147
1.0
  0
MLEADERSTYLE
  5
349
102
{ACAD_REACTORS
330
348
102
}
330
348
100
AcDbMLeaderStyle
170
     2
171
     1
172
     0
 90
        2
 40
0.0
 41
0.0
173
     1
 91
-1056964608
340
13
 92
       -2
290
     1
 42
0.09
291
     1
 43
0.36
  3
Standard
 44
0.18
300

342
11
174
     1
178
     6
175
     1
176
     0
 93
-1056964608
 45
0.18
292
     0
297
     0
 46
0.18
 94
-1056964608
 47
1.0
 49
1.0
140
1.0
293
     1
141
0.0
294
     1
177
     0
142
1.0
295
     0
296
     0
143
0.125
1001
ACAD_MLEADERVER
1070
     2
  0
MLINESTYLE
  5
17
102
{ACAD_REACTORS
330
16
102
}
330
16
100
AcDbMlineStyle
  2
STANDARD
 70
     0
  3

 62
   256
 51
90.0
 52
90.0
 71
     2
 49
0.5
 62
   256
  6
BYLAYER
 49
-0.5
 62
   256
  6
BYLAYER
  0
ACDBPLACEHOLDER
  5
F
102
{ACAD_REACTORS
330
E
102
}
330
E
  0
SCALE
  5
327
102
{ACAD_REACTORS
330
326
102
}
330
326
100
AcDbScale
 70
     0
300
1:1
140
1.0
141
1.0
290
     1
  0
SCALE
  5
328
102
{ACAD_REACTORS
330
326
102
}
330
326
100
AcDbScale
 70
     0
300
1:2
140
1.0
141
2.0
290
     0
  0
SCALE
  5
329
102
{ACAD_REACTORS
330
326
102
}
330
326
100
AcDbScale
 70
     0
300
1:4
140
1.0
141
4.0
290
     0
  0
SCALE
  5
32A
102
{ACAD_REACTORS
330
326
102
}
330
326
100
AcDbScale
 70
     0
300
1:5
140
1.0
141
5.0
290
     0
  0
SCALE
  5
32B
102
{ACAD_REACTORS
330
326
102
}
330
326
100
AcDbScale
 70
     0
300
1:8
140
1.0
141
8.0
290
     0
  0
SCALE
  5
32C
102
{ACAD_REACTORS
330
326
102
}
330
326
100
AcDbScale
 70
     0
300
1:10
140
1.0
141
10.0
290
     0
  0
SCALE
  5
32D
102
{ACAD_REACTORS
330
326
102
}
330
326
100
AcDbScale
 70
     0
300
1:16
140
1.0
141
16.0
290
     0
  0
SCALE
  5
32E
102
{ACAD_REACTORS
330
326
102
}
330
326
100
AcDbScale
 70
     0
300
1:20
140
1.0
141
20.0
290
     0
  0
SCALE
  5
32F
102
{ACAD_REACTORS
330
326
102
}
330
326
100
AcDbScale
 70
     0
300
1:30
140
1.0
141
30.0
290
     0
  0
SCALE
  5
330
102
{ACAD_REACTORS
330
326
102
}
330
326
100
AcDbScale
 70
     0
300
1:40
140
1.0
141
40.0
290
     0
  0
SCALE
  5
331
102
{ACAD_REACTORS
330
326
102
}
330
326
100
AcDbScale
 70
     0
300
1:50
140
1.0
141
50.0
290
     0
  0
SCALE
  5
332
102
{ACAD_REACTORS
330
326
102
}
330
326
100
AcDbScale
 70
     0
300
1:100
140
1.0
141
100.0
290
     0
  0
SCALE
  5
333
102
{ACAD_REACTORS
330
326
102
}
330
326
100
AcDbScale
 70
     0
300
2:1
140
2.0
141
1.0
290
     0
  0
SCALE
  5
334
102
{ACAD_REACTORS
330
326
102
}
330
326
100
AcDbScale
 70
     0
300
4:1
140
4.0
141
1.0
290
     0
  0
SCALE
  5
335
102
{ACAD_REACTORS
330
326
102
}
330
326
100
AcDbScale
 70
     0
300
8:1
140
8.0
141
1.0
290
     0
  0
SCALE
  5
336
102
{ACAD_REACTORS
330
326
102
}
330
326
100
AcDbScale
 70
     0
300
10:1
140
10.0
141
1.0
290
     0
  0
SCALE
  5
337
102
{ACAD_REACTORS
330
326
102
}
330
326
100
AcDbScale
 70
     0
300
100:1
140
100.0
141
1.0
290
     0
  0
SCALE
  5
338
102
{ACAD_REACTORS
330
326
102
}
330
326
100
AcDbScale
 70
     0
300
1/128" = 1'-0"
140
0.0078125
141
12.0
290
     0
  0
SCALE
  5
339
102
{ACAD_REACTORS
330
326
102
}
330
326
100
AcDbScale
 70
     0
300
1/64" = 1'-0"
140
0.015625
141
12.0
290
     0
  0
SCALE
  5
33A
102
{ACAD_REACTORS
330
326
102
}
330
326
100
AcDbScale
 70
     0
300
1/32" = 1'-0"
140
0.03125
141
12.0
290
     0
  0
SCALE
  5
33B
102
{ACAD_REACTORS
330
326
102
}
330
326
100
AcDbScale
 70
     0
300
1/16" = 1'-0"
140
0.0625
141
12.0
290
     0
  0
SCALE
  5
33C
102
{ACAD_REACTORS
330
326
102
}
330
326
100
AcDbScale
 70
     0
300
3/32" = 1'-0"
140
0.09375
141
12.0
290
     0
  0
SCALE
  5
33D
102
{ACAD_REACTORS
330
326
102
}
330
326
100
AcDbScale
 70
     0
300
1/8" = 1'-0"
140
0.125
141
12.0
290
     0
  0
SCALE
  5
33E
102
{ACAD_REACTORS
330
326
102
}
330
326
100
AcDbScale
 70
     0
300
3/16" = 1'-0"
140
0.1875
141
12.0
290
     0
  0
SCALE
  5
33F
102
{ACAD_REACTORS
330
326
102
}
330
326
100
AcDbScale
 70
     0
300
1/4" = 1'-0"
140
0.25
141
12.0
290
     0
  0
SCALE
  5
340
102
{ACAD_REACTORS
330
326
102
}
330
326
100
AcDbScale
 70
     0
300
3/8" = 1'-0"
140
0.375
141
12.0
290
     0
  0
SCALE
  5
341
102
{ACAD_REACTORS
330
326
102
}
330
326
100
AcDbScale
 70
     0
300
1/2" = 1'-0"
140
0.5
141
12.0
290
     0
  0
SCALE
  5
342
102
{ACAD_REACTORS
330
326
102
}
330
326
100
AcDbScale
 70
     0
300
3/4" = 1'-0"
140
0.75
141
12.0
290
     0
  0
SCALE
  5
343
102
{ACAD_REACTORS
330
326
102
}
330
326
100
AcDbScale
 70
     0
300
1" = 1'-0"
140
1.0
141
12.0
290
     0
  0
SCALE
  5
344
102
{ACAD_REACTORS
330
326
102
}
330
326
100
AcDbScale
 70
     0
300
1-1/2" = 1'-0"
140
1.5
141
12.0
290
     0
  0
SCALE
  5
345
102
{ACAD_REACTORS
330
326
102
}
330
326
100
AcDbScale
 70
     0
300
3" = 1'-0"
140
3.0
141
12.0
290
     0
  0
SCALE
  5
346
102
{ACAD_REACTORS
330
326
102
}
330
326
100
AcDbScale
 70
     0
300
6" = 1'-0"
140
6.0
141
12.0
290
     0
  0
SCALE
  5
347
102
{ACAD_REACTORS
330
326
102
}
330
326
100
AcDbScale
 70
     0
300
1'-0" = 1'-0"
140
12.0
141
12.0
290
     0
  0
TABLESTYLE
  5
1D
102
{ACAD_XDICTIONARY
360
55A
102
}
102
{ACAD_REACTORS
330
1C
102
}
330
1C
100
AcDbTableStyle
  3
Standard
 70
     0
 71
     0
 40
0.06
 41
0.06
280
     0
281
     0
  7
STANDARD
140
0.18
170
     2
 62
     0
 63
     7
283
     0
274
    -2
284
     1
 64
     0
275
    -2
285
     1
 65
     0
276
    -2
286
     1
 66
     0
277
    -2
287
     1
 67
     0
278
    -2
288
     1
 68
     0
279
    -2
289
     1
 69
     0
  7
STANDARD
140
0.25
170
     5
 62
     0
 63
     7
283
     0
274
    -2
284
     1
 64
     0
275
    -2
285
     1
 65
     0
276
    -2
286
     1
 66
     0
277
    -2
287
     1
 67
     0
278
    -2
288
     1
 68
     0
279
    -2
289
     1
 69
     0
  7
STANDARD
140
0.18
170
     5
 62
     0
 63
     7
283
     0
274
    -2
284
     1
 64
     0
275
    -2
285
     1
 65
     0
276
    -2
286
     1
 66
     0
277
    -2
287
     1
 67
     0
278
    -2
288
     1
 68
     0
279
    -2
289
     1
 69
     0
  0
VISUALSTYLE
  5
318
102
{ACAD_XDICTIONARY
360
570
102
}
102
{ACAD_REACTORS
330
312
102
}
330
312
100
AcDbVisualStyle
  2
2dWireframe
 70
     4
 71
     0
 72
     2
 73
     0
 90
        0
 40
-0.6
 41
-30.0
 62
     5
 63
     7
 74
     1
 91
        4
 64
     7
 65
   257
 75
     1
175
     1
 42
1.0
 92
        0
 66
   257
 43
1.0
 76
     1
 77
     6
 78
     2
 67
     7
 79
     5
170
     0
171
     0
290
     0
174
     0
 93
        1
 44
0.0
173
     0
291
     0
 45
0.0
1001
ACAD
1000
AcDbSavedByObjectVersion
1070
     0
  0
VISUALSTYLE
  5
31A
102
{ACAD_XDICTIONARY
360
574
102
}
102
{ACAD_REACTORS
330
312
102
}
330
312
100
AcDbVisualStyle
  2
3D Hidden
 70
     6
 71
     1
 72
     2
 73
     2
 90
        0
 40
-0.6
 41
-30.0
 62
     5
 63
     7
 74
     2
 91
        2
 64
     7
 65
   257
 75
     2
175
     1
 42
179.0
 92
        0
 66
   257
 43
1.0
 76
     1
 77
     6
 78
     2
 67
     7
 79
     3
170
     0
171
     0
290
     0
174
     0
 93
        1
 44
0.0
173
     0
291
     0
 45
0.0
1001
ACAD
1000
AcDbSavedByObjectVersion
1070
     0
  0
VISUALSTYLE
  5
319
102
{ACAD_XDICTIONARY
360
572
102
}
102
{ACAD_REACTORS
330
312
102
}
330
312
100
AcDbVisualStyle
  2
3dWireframe
 70
     5
 71
     0
 72
     2
 73
     0
 90
        0
 40
-0.6
 41
-30.0
 62
     5
 63
     7
 74
     1
 91
        4
 64
     7
 65
   257
 75
     1
175
     1
 42
1.0
 92
        0
 66
   257
 43
1.0
 76
     1
 77
     6
 78
     2
 67
     7
 79
     5
170
     0
171
     0
290
     0
174
     0
 93
        1
 44
0.0
173
     0
291
     0
 45
0.0
1001
ACAD
1000
AcDbSavedByObjectVersion
1070
     0
  0
VISUALSTYLE
  5
317
102
{ACAD_XDICTIONARY
360
56E
102
}
102
{ACAD_REACTORS
330
312
102
}
330
312
100
AcDbVisualStyle
  2
Basic
 70
     7
 71
     1
 72
     0
 73
     1
 90
        0
 40
-0.6
 41
-30.0
 62
     5
 63
     7
 74
     0
 91
        4
 64
     7
 65
   257
 75
     1
175
     1
 42
1.0
 92
        8
 66
     7
 43
1.0
 76
     1
 77
     6
 78
     2
 67
     7
 79
     5
170
     0
171
     0
290
     0
174
     0
 93
        1
 44
0.0
173
     0
291
     1
 45
0.0
1001
ACAD
1000
AcDbSavedByObjectVersion
1070
     0
  0
VISUALSTYLE
  5
31E
102
{ACAD_XDICTIONARY
360
57C
102
}
102
{ACAD_REACTORS
330
312
102
}
330
312
100
AcDbVisualStyle
  2
Brighten
 70
    12
 71
     2
 72
     2
 73
     0
 90
        0
 40
-0.6
 41
-30.0
 62
     5
 63
     7
 74
     1
 91
        4
 64
     7
 65
   257
 75
     1
175
     1
 42
1.0
 92
        8
 66
     7
 43
1.0
 76
     1
 77
     6
 78
     2
 67
     7
 79
     5
170
     0
171
     0
290
     0
174
     0
 93
        1
 44
50.0
173
     0
291
     1
 45
0.0
1001
ACAD
1000
AcDbSavedByObjectVersion
1070
     0
  0
VISUALSTYLE
  5
322
102
{ACAD_XDICTIONARY
360
584
102
}
102
{ACAD_REACTORS
330
312
102
}
330
312
100
AcDbVisualStyle
  2
ColorChange
 70
    16
 71
     2
 72
     2
 73
     3
 90
        0
 40
-0.6
 41
-30.0
 62
     5
 63
     8
 74
     1
 91
        4
 64
     7
 65
   257
 75
     1
175
     1
 42
1.0
 92
        8
 66
     8
 43
1.0
 76
     1
 77
     6
 78
     2
 67
     7
 79
     5
170
     0
171
     0
290
     0
174
     0
 93
        1
 44
0.0
173
     0
291
     1
 45
0.0
1001
ACAD
1000
AcDbSavedByObjectVersion
1070
     0
  0
VISUALSTYLE
  5
31B
102
{ACAD_XDICTIONARY
360
576
102
}
102
{ACAD_REACTORS
330
312
102
}
330
312
100
AcDbVisualStyle
  2
Conceptual
 70
     9
 71
     3
 72
     2
 73
     0
 90
        0
 40
-0.6
 41
-30.0
 62
     5
 63
     7
 74
     2
 91
        2
 64
     7
 65
   257
 75
     1
175
     1
 42
179.0
 92
        8
 66
     7
 43
1.0
 76
     1
 77
     6
 78
     2
 67
     7
 79
     3
170
     0
171
     0
290
     0
174
     0
 93
        1
 44
0.0
173
     0
291
     0
 45
0.0
1001
ACAD
1000
AcDbSavedByObjectVersion
1070
     0
  0
VISUALSTYLE
  5
31D
102
{ACAD_XDICTIONARY
360
57A
102
}
102
{ACAD_REACTORS
330
312
102
}
330
312
100
AcDbVisualStyle
  2
Dim
 70
    11
 71
     2
 72
     2
 73
     0
 90
        0
 40
-0.6
 41
-30.0
 62
     5
 63
     7
 74
     1
 91
        4
 64
     7
 65
   257
 75
     1
175
     1
 42
1.0
 92
        8
 66
     7
 43
1.0
 76
     1
 77
     6
 78
     2
 67
     7
 79
     5
170
     0
171
     0
290
     0
174
     0
 93
        1
 44
-50.0
173
     0
291
     1
 45
0.0
1001
ACAD
1000
AcDbSavedByObjectVersion
1070
     0
  0
VISUALSTYLE
  5
325
102
{ACAD_XDICTIONARY
360
58A
102
}
102
{ACAD_REACTORS
330
312
102
}
330
312
100
AcDbVisualStyle
  2
EdgeColorOff
 70
    22
 71
     2
 72
     2
 73
     0
 90
        0
 40
-0.6
 41
-30.0
 62
     5
 63
     7
 74
     1
 91
        4
 64
     7
 65
   257
 75
     1
175
     1
 42
1.0
 92
        8
 66
     7
 43
1.0
 76
     1
 77
     6
 78
     2
 67
     7
 79
     5
170
     0
171
     0
290
     0
174
     0
 93
        1
 44
0.0
173
     0
291
     1
 45
0.0
1001
ACAD
1000
AcDbSavedByObjectVersion
1070
     0
  0
VISUALSTYLE
  5
321
102
{ACAD_XDICTIONARY
360
582
102
}
102
{ACAD_REACTORS
330
312
102
}
330
312
100
AcDbVisualStyle
  2
Facepattern
 70
    15
 71
     2
 72
     2
 73
     0
 90
        0
 40
-0.6
 41
-30.0
 62
     5
 63
     7
 74
     1
 91
        4
 64
     7
 65
   257
 75
     1
175
     1
 42
1.0
 92
        8
 66
     7
 43
1.0
 76
     1
 77
     6
 78
     2
 67
     7
 79
     5
170
     0
171
     0
290
     0
174
     0
 93
        1
 44
0.0
173
     0
291
     1
 45
0.0
1001
ACAD
1000
AcDbSavedByObjectVersion
1070
     0
  0
VISUALSTYLE
  5
313
102
{ACAD_XDICTIONARY
360
566
102
}
102
{ACAD_REACTORS
330
312
102
}
330
312
100
AcDbVisualStyle
  2
Flat
 70
     0
 71
     2
 72
     1
 73
     1
 90
        2
 40
-0.6
 41
30.0
 62
     5
 63
     7
 74
     0
 91
        4
 64
     7
 65
   257
 75
     1
175
     1
 42
1.0
 92
        8
 66
     7
 43
1.0
 76
     1
 77
     6
 78
     2
 67
     7
 79
     5
170
     0
171
     0
290
     0
174
     0
 93
       13
 44
0.0
173
     0
291
     1
 45
0.0
1001
ACAD
1000
AcDbSavedByObjectVersion
1070
     0
  0
VISUALSTYLE
  5
314
102
{ACAD_XDICTIONARY
360
568
102
}
102
{ACAD_REACTORS
330
312
102
}
330
312
100
AcDbVisualStyle
  2
FlatWithEdges
 70
     1
 71
     2
 72
     1
 73
     1
 90
        2
 40
-0.6
 41
30.0
 62
     5
 63
     7
 74
     1
 91
        4
 64
     7
 65
   257
 75
     1
175
     1
 42
1.0
 92
        0
 66
   257
 43
1.0
 76
     1
 77
     6
 78
     2
 67
     7
 79
     5
170
     0
171
     0
290
     0
174
     0
 93
       13
 44
0.0
173
     0
291
     1
 45
0.0
1001
ACAD
1000
AcDbSavedByObjectVersion
1070
     0
  0
VISUALSTYLE
  5
315
102
{ACAD_XDICTIONARY
360
56A
102
}
102
{ACAD_REACTORS
330
312
102
}
330
312
100
AcDbVisualStyle
  2
Gouraud
 70
     2
 71
     2
 72
     2
 73
     1
 90
        2
 40
-0.6
 41
30.0
 62
     5
 63
     7
 74
     0
 91
        4
 64
     7
 65
   257
 75
     1
175
     1
 42
1.0
 92
        0
 66
     7
 43
1.0
 76
     1
 77
     6
 78
     2
 67
     7
 79
     5
170
     0
171
     0
290
     0
174
     0
 93
       13
 44
0.0
173
     0
291
     1
 45
0.0
1001
ACAD
1000
AcDbSavedByObjectVersion
1070
     0
  0
VISUALSTYLE
  5
316
102
{ACAD_XDICTIONARY
360
56C
102
}
102
{ACAD_REACTORS
330
312
102
}
330
312
100
AcDbVisualStyle
  2
GouraudWithEdges
 70
     3
 71
     2
 72
     2
 73
     1
 90
        2
 40
-0.6
 41
30.0
 62
     5
 63
     7
 74
     1
 91
        4
 64
     7
 65
   257
 75
     1
175
     1
 42
1.0
 92
        0
 66
   257
 43
1.0
 76
     1
 77
     6
 78
     2
 67
     7
 79
     5
170
     0
171
     0
290
     0
174
     0
 93
       13
 44
0.0
173
     0
291
     1
 45
0.0
1001
ACAD
1000
AcDbSavedByObjectVersion
1070
     0
  0
VISUALSTYLE
  5
323
102
{ACAD_XDICTIONARY
360
586
102
}
102
{ACAD_REACTORS
330
312
102
}
330
312
100
AcDbVisualStyle
  2
JitterOff
 70
    20
 71
     2
 72
     2
 73
     0
 90
        0
 40
-0.6
 41
-30.0
 62
     5
 63
     7
 74
     1
 91
        4
 64
     7
 65
   257
 75
     1
175
     1
 42
1.0
 92
       10
 66
     7
 43
1.0
 76
     1
 77
     6
 78
     2
 67
     7
 79
     5
170
     0
171
     0
290
     0
174
     0
 93
        1
 44
0.0
173
     0
291
     1
 45
0.0
1001
ACAD
1000
AcDbSavedByObjectVersion
1070
     0
  0
VISUALSTYLE
  5
320
102
{ACAD_XDICTIONARY
360
580
102
}
102
{ACAD_REACTORS
330
312
102
}
330
312
100
AcDbVisualStyle
  2
Linepattern
 70
    14
 71
     2
 72
     2
 73
     0
 90
        0
 40
-0.6
 41
-30.0
 62
     5
 63
     7
 74
     1
 91
        4
 64
     7
 65
   257
 75
     7
175
     7
 42
1.0
 92
        8
 66
     7
 43
1.0
 76
     1
 77
     6
 78
     2
 67
     7
 79
     5
170
     0
171
     0
290
     0
174
     0
 93
        1
 44
0.0
173
     0
291
     1
 45
0.0
1001
ACAD
1000
AcDbSavedByObjectVersion
1070
     0
  0
VISUALSTYLE
  5
324
102
{ACAD_XDICTIONARY
360
588
102
}
102
{ACAD_REACTORS
330
312
102
}
330
312
100
AcDbVisualStyle
  2
OverhangOff
 70
    21
 71
     2
 72
     2
 73
     0
 90
        0
 40
-0.6
 41
-30.0
 62
     5
 63
     7
 74
     1
 91
        4
 64
     7
 65
   257
 75
     1
175
     1
 42
1.0
 92
        9
 66
     7
 43
1.0
 76
     1
 77
     6
 78
     2
 67
     7
 79
     5
170
     0
171
     0
290
     0
174
     0
 93
        1
 44
0.0
173
     0
291
     1
 45
0.0
1001
ACAD
1000
AcDbSavedByObjectVersion
1070
     0
  0
VISUALSTYLE
  5
31C
102
{ACAD_XDICTIONARY
360
578
102
}
102
{ACAD_REACTORS
330
312
102
}
330
312
100
AcDbVisualStyle
  2
Realistic
 70
     8
 71
     2
 72
     2
 73
     0
 90
        0
 40
-0.6
 41
-30.0
 62
     5
 63
     7
 74
     1
 91
        0
 64
     7
 65
   257
 75
     1
175
     1
 42
1.0
 92
        8
 66
     8
 43
1.0
 76
     1
 77
     6
 78
     2
 67
     7
 79
     5
170
     0
171
     0
290
     0
174
     0
 93
       13
 44
0.0
173
     0
291
     0
 45
0.0
1001
ACAD
1000
AcDbSavedByObjectVersion
1070
     0
  0
VISUALSTYLE
  5
31F
102
{ACAD_XDICTIONARY
360
57E
102
}
102
{ACAD_REACTORS
330
312
102
}
330
312
100
AcDbVisualStyle
  2
Thicken
 70
    13
 71
     2
 72
     2
 73
     0
 90
        0
 40
-0.6
 41
-30.0
 62
     5
 63
     7
 74
     1
 91
        4
 64
     7
 65
   257
 75
     1
175
     1
 42
1.0
 92
       12
 66
     7
 43
1.0
 76
     1
 77
     6
 78
     2
 67
     7
 79
     5
170
     0
171
     0
290
     0
174
     0
 93
        1
 44
0.0
173
     0
291
     1
 45
0.0
1001
ACAD
1000
AcDbSavedByObjectVersion
1070
     0
  0
DICTIONARYVAR
  5
556
102
{ACAD_REACTORS
330
2EC
102
}
330
2EC
100
DictionaryVariables
280
     0
  1
1:1
  0
DICTIONARYVAR
  5
555
102
{ACAD_REACTORS
330
2EC
102
}
330
2EC
100
DictionaryVariables
280
     0
  1
STANDARD
  0
DICTIONARYVAR
  5
2ED
102
{ACAD_REACTORS
330
2EC
102
}
330
2EC
100
DictionaryVariables
280
     0
  1
STANDARD
  0
DICTIONARYVAR
  5
2EE
102
{ACAD_REACTORS
330
2EC
102
}
330
2EC
100
DictionaryVariables
280
     0
  1
1
  0
DICTIONARYVAR
  5
558
102
{ACAD_REACTORS
330
2EC
102
}
330
2EC
100
DictionaryVariables
280
     0
  1
0
  0
DICTIONARYVAR
  5
2EF
102
{ACAD_REACTORS
330
2EC
102
}
330
2EC
100
DictionaryVariables
280
     0
  1

  0
DICTIONARYVAR
  5
557
102
{ACAD_REACTORS
330
2EC
102
}
330
2EC
100
DictionaryVariables
280
     0
  1
127
  0
DICTIONARYVAR
  5
559
102
{ACAD_REACTORS
330
2EC
102
}
330
2EC
100
DictionaryVariables
280
     0
  1
2
  0
DICTIONARY
  5
3AC
102
{ACAD_REACTORS
330
3A2
102
}
330
3A2
100
AcDbDictionary
281
     1
  0
DICTIONARY
  5
55F
330
21
100
AcDbDictionary
280
     1
281
     1
  3
ACAD_XREC_ROUNDTRIP
360
560
  0
DICTIONARY
  5
561
330
25
100
AcDbDictionary
280
     1
281
     1
  3
ACAD_XREC_ROUNDTRIP
360
562
  0
DICTIONARY
  5
303
330
302
100
AcDbDictionary
280
     1
281
     1
  3
ACAD_XREC_ROUNDTRIP
360
564
  3
BUMPTILE
360
305
  3
DIFFUSETILE
360
304
  3
OPACITYTILE
360
308
  3
REFLECTIONTILE
360
307
  3
REFRACTIONTILE
360
309
  3
SPECULARTILE
360
306
  0
DICTIONARY
  5
2FB
330
2FA
100
AcDbDictionary
280
     1
281
     1
  3
ACAD_XREC_ROUNDTRIP
360
563
  3
BUMPTILE
360
2FD
  3
DIFFUSETILE
360
2FC
  3
OPACITYTILE
360
300
  3
REFLECTIONTILE
360
2FF
  3
REFRACTIONTILE
360
301
  3
SPECULARTILE
360
2FE
  0
DICTIONARY
  5
30B
330
30A
100
AcDbDictionary
280
     1
281
     1
  3
ACAD_XREC_ROUNDTRIP
360
565
  3
BUMPTILE
360
30D
  3
DIFFUSETILE
360
30C
  3
OPACITYTILE
360
310
  3
REFLECTIONTILE
360
30F
  3
REFRACTIONTILE
360
311
  3
SPECULARTILE
360
30E
  0
DICTIONARY
  5
55A
330
1D
100
AcDbDictionary
280
     1
281
     1
  3
ACAD_ROUNDTRIP_2008_TABLESTYLE_CELLSTYLEMAP
360
55B
  3
ACAD_XREC_ROUNDTRIP
360
55E
  0
DICTIONARY
  5
570
330
318
100
AcDbDictionary
280
     1
281
     1
  3
ACAD_XREC_ROUNDTRIP
360
571
  0
DICTIONARY
  5
574
330
31A
100
AcDbDictionary
280
     1
281
     1
  3
ACAD_XREC_ROUNDTRIP
360
575
  0
DICTIONARY
  5
572
330
319
100
AcDbDictionary
280
     1
281
     1
  3
ACAD_XREC_ROUNDTRIP
360
573
  0
DICTIONARY
  5
56E
330
317
100
AcDbDictionary
280
     1
281
     1
  3
ACAD_XREC_ROUNDTRIP
360
56F
  0
DICTIONARY
  5
57C
330
31E
100
AcDbDictionary
280
     1
281
     1
  3
ACAD_XREC_ROUNDTRIP
360
57D
  0
DICTIONARY
  5
584
330
322
100
AcDbDictionary
280
     1
281
     1
  3
ACAD_XREC_ROUNDTRIP
360
585
  0
DICTIONARY
  5
576
330
31B
100
AcDbDictionary
280
     1
281
     1
  3
ACAD_XREC_ROUNDTRIP
360
577
  0
DICTIONARY
  5
57A
330
31D
100
AcDbDictionary
280
     1
281
     1
  3
ACAD_XREC_ROUNDTRIP
360
57B
  0
DICTIONARY
  5
58A
330
325
100
AcDbDictionary
280
     1
281
     1
  3
ACAD_XREC_ROUNDTRIP
360
58B
  0
DICTIONARY
  5
582
330
321
100
AcDbDictionary
280
     1
281
     1
  3
ACAD_XREC_ROUNDTRIP
360
583
  0
DICTIONARY
  5
566
330
313
100
AcDbDictionary
280
     1
281
     1
  3
ACAD_XREC_ROUNDTRIP
360
567
  0
DICTIONARY
  5
568
330
314
100
AcDbDictionary
280
     1
281
     1
  3
ACAD_XREC_ROUNDTRIP
360
569
  0
DICTIONARY
  5
56A
330
315
100
AcDbDictionary
280
     1
281
     1
  3
ACAD_XREC_ROUNDTRIP
360
56B
  0
DICTIONARY
  5
56C
330
316
100
AcDbDictionary
280
     1
281
     1
  3
ACAD_XREC_ROUNDTRIP
360
56D
  0
DICTIONARY
  5
586
330
323
100
AcDbDictionary
280
     1
281
     1
  3
ACAD_XREC_ROUNDTRIP
360
587
  0
DICTIONARY
  5
580
330
320
100
AcDbDictionary
280
     1
281
     1
  3
ACAD_XREC_ROUNDTRIP
360
581
  0
DICTIONARY
  5
588
330
324
100
AcDbDictionary
280
     1
281
     1
  3
ACAD_XREC_ROUNDTRIP
360
589
  0
DICTIONARY
  5
578
330
31C
100
AcDbDictionary
280
     1
281
     1
  3
ACAD_XREC_ROUNDTRIP
360
579
  0
DICTIONARY
  5
57E
330
31F
100
AcDbDictionary
280
     1
281
     1
  3
ACAD_XREC_ROUNDTRIP
360
57F
  0
XRECORD
  5
560
102
{ACAD_REACTORS
330
55F
102
}
330
55F
100
AcDbXrecord
280
     1
102
SHADEPLOT
 70
     0
102
SHADEPLOTRESLEVEL
 70
     2
102
SHADEPLOTCUSTOMDPI
 70
   300
  0
XRECORD
  5
562
102
{ACAD_REACTORS
330
561
102
}
330
561
100
AcDbXrecord
280
     1
102
SHADEPLOT
 70
     0
102
SHADEPLOTRESLEVEL
 70
     2
102
SHADEPLOTCUSTOMDPI
 70
   300
  0
XRECORD
  5
564
102
{ACAD_REACTORS
330
303
102
}
330
303
100
AcDbXrecord
280
     1
102
MATERIAL
148
0.0
149
0.0
149
0.0
 93
        0
 94
      127
282
     0
 72
     0
 77
     0
171
     0
175
     0
179
     0
273
     0
  0
XRECORD
  5
305
102
{ACAD_REACTORS
330
303
102
}
330
303
100
AcDbXrecord
280
     1
270
     1
271
     1
  0
XRECORD
  5
304
102
{ACAD_REACTORS
330
303
102
}
330
303
100
AcDbXrecord
280
     1
270
     1
271
     1
  0
XRECORD
  5
308
102
{ACAD_REACTORS
330
303
102
}
330
303
100
AcDbXrecord
280
     1
270
     1
271
     1
  0
XRECORD
  5
307
102
{ACAD_REACTORS
330
303
102
}
330
303
100
AcDbXrecord
280
     1
270
     1
271
     1
  0
XRECORD
  5
309
102
{ACAD_REACTORS
330
303
102
}
330
303
100
AcDbXrecord
280
     1
270
     1
271
     1
  0
XRECORD
  5
306
102
{ACAD_REACTORS
330
303
102
}
330
303
100
AcDbXrecord
280
     1
270
     1
271
     1
  0
XRECORD
  5
563
102
{ACAD_REACTORS
330
2FB
102
}
330
2FB
100
AcDbXrecord
280
     1
102
MATERIAL
148
0.0
149
0.0
149
0.0
 93
        0
 94
      127
282
     0
 72
     0
 77
     0
171
     0
175
     0
179
     0
273
     0
  0
XRECORD
  5
2FD
102
{ACAD_REACTORS
330
2FB
102
}
330
2FB
100
AcDbXrecord
280
     1
270
     1
271
     1
  0
XRECORD
  5
2FC
102
{ACAD_REACTORS
330
2FB
102
}
330
2FB
100
AcDbXrecord
280
     1
270
     1
271
     1
  0
XRECORD
  5
300
102
{ACAD_REACTORS
330
2FB
102
}
330
2FB
100
AcDbXrecord
280
     1
270
     1
271
     1
  0
XRECORD
  5
2FF
102
{ACAD_REACTORS
330
2FB
102
}
330
2FB
100
AcDbXrecord
280
     1
270
     1
271
     1
  0
XRECORD
  5
301
102
{ACAD_REACTORS
330
2FB
102
}
330
2FB
100
AcDbXrecord
280
     1
270
     1
271
     1
  0
XRECORD
  5
2FE
102
{ACAD_REACTORS
330
2FB
102
}
330
2FB
100
AcDbXrecord
280
     1
270
     1
271
     1
  0
XRECORD
  5
565
102
{ACAD_REACTORS
330
30B
102
}
330
30B
100
AcDbXrecord
280
     1
102
MATERIAL
148
0.0
149
0.0
149
0.0
 93
        0
 94
      127
282
     0
 72
     0
 77
     0
171
     0
175
     0
179
     0
273
     0
  0
XRECORD
  5
30D
102
{ACAD_REACTORS
330
30B
102
}
330
30B
100
AcDbXrecord
280
     1
270
     1
271
     1
  0
XRECORD
  5
30C
102
{ACAD_REACTORS
330
30B
102
}
330
30B
100
AcDbXrecord
280
     1
270
     1
271
     1
  0
XRECORD
  5
310
102
{ACAD_REACTORS
330
30B
102
}
330
30B
100
AcDbXrecord
280
     1
270
     1
271
     1
  0
XRECORD
  5
30F
102
{ACAD_REACTORS
330
30B
102
}
330
30B
100
AcDbXrecord
280
     1
270
     1
271
     1
  0
XRECORD
  5
311
102
{ACAD_REACTORS
330
30B
102
}
330
30B
100
AcDbXrecord
280
     1
270
     1
271
     1
  0
XRECORD
  5
30E
102
{ACAD_REACTORS
330
30B
102
}
330
30B
100
AcDbXrecord
280
     1
270
     1
271
     1
  0
CELLSTYLEMAP
  5
55B
102
{ACAD_REACTORS
330
55A
102
}
330
55A
100
AcDbCellStyleMap
 90
        3
300
CELLSTYLE
  1
TABLEFORMAT_BEGIN
 90
        5
170
     1
 91
        0
 92
    32768
 62
   257
 93
        1
300
CONTENTFORMAT
  1
CONTENTFORMAT_BEGIN
 90
        0
 91
        0
 92
        4
 93
        0
300

 40
0.0
140
1.0
 94
        5
 62
     0
340
11
144
0.25
309
CONTENTFORMAT_END
171
     0
 94
        6
 95
        1
302
GRIDFORMAT
  1
GRIDFORMAT_BEGIN
 90
        0
 91
        1
 62
     0
 92
       -2
340
0
 93
        0
 40
0.045
309
GRIDFORMAT_END
 95
        2
302
GRIDFORMAT
  1
GRIDFORMAT_BEGIN
 90
        0
 91
        1
 62
     0
 92
       -2
340
0
 93
        0
 40
0.045
309
GRIDFORMAT_END
 95
        4
302
GRIDFORMAT
  1
GRIDFORMAT_BEGIN
 90
        0
 91
        1
 62
     0
 92
       -2
340
0
 93
        0
 40
0.045
309
GRIDFORMAT_END
 95
        8
302
GRIDFORMAT
  1
GRIDFORMAT_BEGIN
 90
        0
 91
        1
 62
     0
 92
       -2
340
0
 93
        0
 40
0.045
309
GRIDFORMAT_END
 95
       16
302
GRIDFORMAT
  1
GRIDFORMAT_BEGIN
 90
        0
 91
        1
 62
     0
 92
       -2
340
0
 93
        0
 40
0.045
309
GRIDFORMAT_END
 95
       32
302
GRIDFORMAT
  1
GRIDFORMAT_BEGIN
 90
        0
 91
        1
 62
     0
 92
       -2
340
0
 93
        0
 40
0.045
309
GRIDFORMAT_END
309
TABLEFORMAT_END
  1
CELLSTYLE_BEGIN
 90
        1
 91
        1
300
_TITLE
309
CELLSTYLE_END
300
CELLSTYLE
  1
TABLEFORMAT_BEGIN
 90
        5
170
     1
 91
        0
 92
        0
 62
   257
 93
        1
300
CONTENTFORMAT
  1
CONTENTFORMAT_BEGIN
 90
        0
 91
        0
 92
        4
 93
        0
300

 40
0.0
140
1.0
 94
        5
 62
     0
340
11
144
0.18
309
CONTENTFORMAT_END
171
     0
 94
        6
 95
        1
302
GRIDFORMAT
  1
GRIDFORMAT_BEGIN
 90
        0
 91
        1
 62
     0
 92
       -2
340
0
 93
        0
 40
0.045
309
GRIDFORMAT_END
 95
        2
302
GRIDFORMAT
  1
GRIDFORMAT_BEGIN
 90
        0
 91
        1
 62
     0
 92
       -2
340
0
 93
        0
 40
0.045
309
GRIDFORMAT_END
 95
        4
302
GRIDFORMAT
  1
GRIDFORMAT_BEGIN
 90
        0
 91
        1
 62
     0
 92
       -2
340
0
 93
        0
 40
0.045
309
GRIDFORMAT_END
 95
        8
302
GRIDFORMAT
  1
GRIDFORMAT_BEGIN
 90
        0
 91
        1
 62
     0
 92
       -2
340
0
 93
        0
 40
0.045
309
GRIDFORMAT_END
 95
       16
302
GRIDFORMAT
  1
GRIDFORMAT_BEGIN
 90
        0
 91
        1
 62
     0
 92
       -2
340
0
 93
        0
 40
0.045
309
GRIDFORMAT_END
 95
       32
302
GRIDFORMAT
  1
GRIDFORMAT_BEGIN
 90
        0
 91
        1
 62
     0
 92
       -2
340
0
 93
        0
 40
0.045
309
GRIDFORMAT_END
309
TABLEFORMAT_END
  1
CELLSTYLE_BEGIN
 90
        2
 91
        1
300
_HEADER
309
CELLSTYLE_END
300
CELLSTYLE
  1
TABLEFORMAT_BEGIN
 90
        5
170
     1
 91
        0
 92
        0
 62
   257
 93
        1
300
CONTENTFORMAT
  1
CONTENTFORMAT_BEGIN
 90
        0
 91
        0
 92
        4
 93
        0
300

 40
0.0
140
1.0
 94
        2
 62
     0
340
11
144
0.18
309
CONTENTFORMAT_END
171
     0
 94
        6
 95
        1
302
GRIDFORMAT
  1
GRIDFORMAT_BEGIN
 90
        0
 91
        1
 62
     0
 92
       -2
340
0
 93
        0
 40
0.045
309
GRIDFORMAT_END
 95
        2
302
GRIDFORMAT
  1
GRIDFORMAT_BEGIN
 90
        0
 91
        1
 62
     0
 92
       -2
340
0
 93
        0
 40
0.045
309
GRIDFORMAT_END
 95
        4
302
GRIDFORMAT
  1
GRIDFORMAT_BEGIN
 90
        0
 91
        1
 62
     0
 92
       -2
340
0
 93
        0
 40
0.045
309
GRIDFORMAT_END
 95
        8
302
GRIDFORMAT
  1
GRIDFORMAT_BEGIN
 90
        0
 91
        1
 62
     0
 92
       -2
340
0
 93
        0
 40
0.045
309
GRIDFORMAT_END
 95
       16
302
GRIDFORMAT
  1
GRIDFORMAT_BEGIN
 90
        0
 91
        1
 62
     0
 92
       -2
340
0
 93
        0
 40
0.045
309
GRIDFORMAT_END
 95
       32
302
GRIDFORMAT
  1
GRIDFORMAT_BEGIN
 90
        0
 91
        1
 62
     0
 92
       -2
340
0
 93
        0
 40
0.045
309
GRIDFORMAT_END
309
TABLEFORMAT_END
  1
CELLSTYLE_BEGIN
 90
        3
 91
        2
300
_DATA
309
CELLSTYLE_END
  0
XRECORD
  5
55E
102
{ACAD_REACTORS
330
55A
102
}
330
55A
100
AcDbXrecord
280
     1
102
ACAD_ROUNDTRIP_PRE2007_TABLESTYLE
 90
        4
 91
        0
  1

 92
        4
 93
        0
  2

 94
        4
 95
        0
  3

  0
XRECORD
  5
571
102
{ACAD_REACTORS
330
570
102
}
330
570
100
AcDbXrecord
280
     1
102
RTVSPropertyOp0
 70
     1
102
RTVSPropertyOp1
 70
     1
102
RTVSPropertyOp2
 70
     1
102
RTVSPropertyOp3
 70
     1
102
RTVSPropertyOp4
 70
     1
102
RTVSPropertyOp5
 70
     1
102
RTVSPropertyOp6
 70
     1
102
RTVSPropertyOp7
 70
     1
102
RTVSPropertyOp8
 70
     1
102
RTVSPropertyOp9
 70
     1
102
RTVSPropertyOp10
 70
     1
102
RTVSPropertyOp11
 70
     1
102
RTVSPropertyOp12
 70
     1
102
RTVSPropertyOp13
 70
     1
102
RTVSPropertyOp14
 70
     1
102
RTVSPropertyOp15
 70
     1
102
RTVSPropertyOp16
 70
     1
102
RTVSPropertyOp17
 70
     1
102
RTVSPropertyOp18
 70
     1
102
RTVSPropertyOp19
 70
     1
102
RTVSPropertyOp20
 70
     1
102
RTVSPropertyOp21
 70
     1
102
RTVSPropertyOp22
 70
     1
102
RTVSPropertyOp23
 70
     1
102
RTVSPropertyOp24
 70
     1
102
RTVSPropertyOp25
 70
     1
102
RTVSPropertyOp26
 70
     1
102
RTVSPropertyOp27
 70
     1
  0
XRECORD
  5
575
102
{ACAD_REACTORS
330
574
102
}
330
574
100
AcDbXrecord
280
     1
102
RTVSPropertyOp0
 70
     1
102
RTVSPropertyOp1
 70
     1
102
RTVSPropertyOp2
 70
     1
102
RTVSPropertyOp3
 70
     1
102
RTVSPropertyOp4
 70
     1
102
RTVSPropertyOp5
 70
     1
102
RTVSPropertyOp6
 70
     1
102
RTVSPropertyOp7
 70
     1
102
RTVSPropertyOp8
 70
     1
102
RTVSPropertyOp9
 70
     1
102
RTVSPropertyOp10
 70
     1
102
RTVSPropertyOp11
 70
     1
102
RTVSPropertyOp12
 70
     1
102
RTVSPropertyOp13
 70
     1
102
RTVSPropertyOp14
 70
     1
102
RTVSPropertyOp15
 70
     1
102
RTVSPropertyOp16
 70
     1
102
RTVSPropertyOp17
 70
     1
102
RTVSPropertyOp18
 70
     1
102
RTVSPropertyOp19
 70
     1
102
RTVSPropertyOp20
 70
     1
102
RTVSPropertyOp21
 70
     1
102
RTVSPropertyOp22
 70
     1
102
RTVSPropertyOp23
 70
     1
102
RTVSPropertyOp24
 70
     1
102
RTVSPropertyOp25
 70
     1
102
RTVSPropertyOp26
 70
     1
102
RTVSPropertyOp27
 70
     1
  0
XRECORD
  5
573
102
{ACAD_REACTORS
330
572
102
}
330
572
100
AcDbXrecord
280
     1
102
RTVSPropertyOp0
 70
     1
102
RTVSPropertyOp1
 70
     1
102
RTVSPropertyOp2
 70
     1
102
RTVSPropertyOp3
 70
     1
102
RTVSPropertyOp4
 70
     1
102
RTVSPropertyOp5
 70
     1
102
RTVSPropertyOp6
 70
     1
102
RTVSPropertyOp7
 70
     1
102
RTVSPropertyOp8
 70
     1
102
RTVSPropertyOp9
 70
     1
102
RTVSPropertyOp10
 70
     1
102
RTVSPropertyOp11
 70
     1
102
RTVSPropertyOp12
 70
     1
102
RTVSPropertyOp13
 70
     1
102
RTVSPropertyOp14
 70
     1
102
RTVSPropertyOp15
 70
     1
102
RTVSPropertyOp16
 70
     1
102
RTVSPropertyOp17
 70
     1
102
RTVSPropertyOp18
 70
     1
102
RTVSPropertyOp19
 70
     1
102
RTVSPropertyOp20
 70
     1
102
RTVSPropertyOp21
 70
     1
102
RTVSPropertyOp22
 70
     1
102
RTVSPropertyOp23
 70
     1
102
RTVSPropertyOp24
 70
     1
102
RTVSPropertyOp25
 70
     1
102
RTVSPropertyOp26
 70
     1
102
RTVSPropertyOp27
 70
     1
  0
XRECORD
  5
56F
102
{ACAD_REACTORS
330
56E
102
}
330
56E
100
AcDbXrecord
280
     1
102
RTVSPropertyOp0
 70
     1
102
RTVSPropertyOp1
 70
     1
102
RTVSPropertyOp2
 70
     1
102
RTVSPropertyOp3
 70
     1
102
RTVSPropertyOp4
 70
     1
102
RTVSPropertyOp5
 70
     1
102
RTVSPropertyOp6
 70
     1
102
RTVSPropertyOp7
 70
     1
102
RTVSPropertyOp8
 70
     1
102
RTVSPropertyOp9
 70
     1
102
RTVSPropertyOp10
 70
     1
102
RTVSPropertyOp11
 70
     1
102
RTVSPropertyOp12
 70
     1
102
RTVSPropertyOp13
 70
     1
102
RTVSPropertyOp14
 70
     1
102
RTVSPropertyOp15
 70
     1
102
RTVSPropertyOp16
 70
     1
102
RTVSPropertyOp17
 70
     1
102
RTVSPropertyOp18
 70
     1
102
RTVSPropertyOp19
 70
     1
102
RTVSPropertyOp20
 70
     1
102
RTVSPropertyOp21
 70
     1
102
RTVSPropertyOp22
 70
     1
102
RTVSPropertyOp23
 70
     1
102
RTVSPropertyOp24
 70
     1
102
RTVSPropertyOp25
 70
     1
102
RTVSPropertyOp26
 70
     1
102
RTVSPropertyOp27
 70
     1
  0
XRECORD
  5
57D
102
{ACAD_REACTORS
330
57C
102
}
330
57C
100
AcDbXrecord
280
     1
102
RTVSPropertyOp0
 70
     1
102
RTVSPropertyOp1
 70
     1
102
RTVSPropertyOp2
 70
     1
102
RTVSPropertyOp3
 70
     1
102
RTVSPropertyOp4
 70
     1
102
RTVSPropertyOp5
 70
     1
102
RTVSPropertyOp6
 70
     1
102
RTVSPropertyOp7
 70
     1
102
RTVSPropertyOp8
 70
     1
102
RTVSPropertyOp9
 70
     1
102
RTVSPropertyOp10
 70
     1
102
RTVSPropertyOp11
 70
     1
102
RTVSPropertyOp12
 70
     1
102
RTVSPropertyOp13
 70
     1
102
RTVSPropertyOp14
 70
     1
102
RTVSPropertyOp15
 70
     1
102
RTVSPropertyOp16
 70
     1
102
RTVSPropertyOp17
 70
     1
102
RTVSPropertyOp18
 70
     1
102
RTVSPropertyOp19
 70
     1
102
RTVSPropertyOp20
 70
     1
102
RTVSPropertyOp21
 70
     1
102
RTVSPropertyOp22
 70
     1
102
RTVSPropertyOp23
 70
     1
102
RTVSPropertyOp24
 70
     1
102
RTVSPropertyOp25
 70
     1
102
RTVSPropertyOp26
 70
     1
102
RTVSPropertyOp27
 70
     1
  0
XRECORD
  5
585
102
{ACAD_REACTORS
330
584
102
}
330
584
100
AcDbXrecord
280
     1
102
RTVSPropertyOp0
 70
     1
102
RTVSPropertyOp1
 70
     1
102
RTVSPropertyOp2
 70
     1
102
RTVSPropertyOp3
 70
     1
102
RTVSPropertyOp4
 70
     1
102
RTVSPropertyOp5
 70
     1
102
RTVSPropertyOp6
 70
     1
102
RTVSPropertyOp7
 70
     1
102
RTVSPropertyOp8
 70
     1
102
RTVSPropertyOp9
 70
     1
102
RTVSPropertyOp10
 70
     1
102
RTVSPropertyOp11
 70
     1
102
RTVSPropertyOp12
 70
     1
102
RTVSPropertyOp13
 70
     1
102
RTVSPropertyOp14
 70
     1
102
RTVSPropertyOp15
 70
     1
102
RTVSPropertyOp16
 70
     1
102
RTVSPropertyOp17
 70
     1
102
RTVSPropertyOp18
 70
     1
102
RTVSPropertyOp19
 70
     1
102
RTVSPropertyOp20
 70
     1
102
RTVSPropertyOp21
 70
     1
102
RTVSPropertyOp22
 70
     1
102
RTVSPropertyOp23
 70
     1
102
RTVSPropertyOp24
 70
     1
102
RTVSPropertyOp25
 70
     1
102
RTVSPropertyOp26
 70
     1
102
RTVSPropertyOp27
 70
     1
  0
XRECORD
  5
577
102
{ACAD_REACTORS
330
576
102
}
330
576
100
AcDbXrecord
280
     1
102
RTVSPropertyOp0
 70
     1
102
RTVSPropertyOp1
 70
     1
102
RTVSPropertyOp2
 70
     1
102
RTVSPropertyOp3
 70
     1
102
RTVSPropertyOp4
 70
     1
102
RTVSPropertyOp5
 70
     1
102
RTVSPropertyOp6
 70
     1
102
RTVSPropertyOp7
 70
     1
102
RTVSPropertyOp8
 70
     1
102
RTVSPropertyOp9
 70
     1
102
RTVSPropertyOp10
 70
     1
102
RTVSPropertyOp11
 70
     1
102
RTVSPropertyOp12
 70
     1
102
RTVSPropertyOp13
 70
     1
102
RTVSPropertyOp14
 70
     1
102
RTVSPropertyOp15
 70
     1
102
RTVSPropertyOp16
 70
     1
102
RTVSPropertyOp17
 70
     1
102
RTVSPropertyOp18
 70
     1
102
RTVSPropertyOp19
 70
     1
102
RTVSPropertyOp20
 70
     1
102
RTVSPropertyOp21
 70
     1
102
RTVSPropertyOp22
 70
     1
102
RTVSPropertyOp23
 70
     1
102
RTVSPropertyOp24
 70
     1
102
RTVSPropertyOp25
 70
     1
102
RTVSPropertyOp26
 70
     1
102
RTVSPropertyOp27
 70
     1
  0
XRECORD
  5
57B
102
{ACAD_REACTORS
330
57A
102
}
330
57A
100
AcDbXrecord
280
     1
102
RTVSPropertyOp0
 70
     1
102
RTVSPropertyOp1
 70
     1
102
RTVSPropertyOp2
 70
     1
102
RTVSPropertyOp3
 70
     1
102
RTVSPropertyOp4
 70
     1
102
RTVSPropertyOp5
 70
     1
102
RTVSPropertyOp6
 70
     1
102
RTVSPropertyOp7
 70
     1
102
RTVSPropertyOp8
 70
     1
102
RTVSPropertyOp9
 70
     1
102
RTVSPropertyOp10
 70
     1
102
RTVSPropertyOp11
 70
     1
102
RTVSPropertyOp12
 70
     1
102
RTVSPropertyOp13
 70
     1
102
RTVSPropertyOp14
 70
     1
102
RTVSPropertyOp15
 70
     1
102
RTVSPropertyOp16
 70
     1
102
RTVSPropertyOp17
 70
     1
102
RTVSPropertyOp18
 70
     1
102
RTVSPropertyOp19
 70
     1
102
RTVSPropertyOp20
 70
     1
102
RTVSPropertyOp21
 70
     1
102
RTVSPropertyOp22
 70
     1
102
RTVSPropertyOp23
 70
     1
102
RTVSPropertyOp24
 70
     1
102
RTVSPropertyOp25
 70
     1
102
RTVSPropertyOp26
 70
     1
102
RTVSPropertyOp27
 70
     1
  0
XRECORD
  5
58B
102
{ACAD_REACTORS
330
58A
102
}
330
58A
100
AcDbXrecord
280
     1
102
RTVSPropertyOp0
 70
     0
102
RTVSPropertyOp1
 70
     0
102
RTVSPropertyOp2
 70
     0
102
RTVSPropertyOp3
 70
     0
102
RTVSPropertyOp4
 70
     0
102
RTVSPropertyOp5
 70
     0
102
RTVSPropertyOp6
 70
     0
102
RTVSPropertyOp7
 70
     0
102
RTVSPropertyOp8
 70
     0
102
RTVSPropertyOp9
 70
     0
102
RTVSPropertyOp10
 70
     0
102
RTVSPropertyOp11
 70
     0
102
RTVSPropertyOp12
 70
     0
102
RTVSPropertyOp13
 70
     0
102
RTVSPropertyOp14
 70
     2
102
RTVSPropertyOp15
 70
     0
102
RTVSPropertyOp16
 70
     0
102
RTVSPropertyOp17
 70
     0
102
RTVSPropertyOp18
 70
     0
102
RTVSPropertyOp19
 70
     0
102
RTVSPropertyOp20
 70
     0
102
RTVSPropertyOp21
 70
     0
102
RTVSPropertyOp22
 70
     0
102
RTVSPropertyOp23
 70
     0
102
RTVSPropertyOp24
 70
     0
102
RTVSPropertyOp25
 70
     0
102
RTVSPropertyOp26
 70
     0
102
RTVSPropertyOp27
 70
     0
  0
XRECORD
  5
583
102
{ACAD_REACTORS
330
582
102
}
330
582
100
AcDbXrecord
280
     1
102
RTVSPropertyOp0
 70
     1
102
RTVSPropertyOp1
 70
     1
102
RTVSPropertyOp2
 70
     1
102
RTVSPropertyOp3
 70
     1
102
RTVSPropertyOp4
 70
     1
102
RTVSPropertyOp5
 70
     1
102
RTVSPropertyOp6
 70
     1
102
RTVSPropertyOp7
 70
     1
102
RTVSPropertyOp8
 70
     1
102
RTVSPropertyOp9
 70
     1
102
RTVSPropertyOp10
 70
     1
102
RTVSPropertyOp11
 70
     1
102
RTVSPropertyOp12
 70
     1
102
RTVSPropertyOp13
 70
     1
102
RTVSPropertyOp14
 70
     1
102
RTVSPropertyOp15
 70
     1
102
RTVSPropertyOp16
 70
     1
102
RTVSPropertyOp17
 70
     1
102
RTVSPropertyOp18
 70
     1
102
RTVSPropertyOp19
 70
     1
102
RTVSPropertyOp20
 70
     1
102
RTVSPropertyOp21
 70
     1
102
RTVSPropertyOp22
 70
     1
102
RTVSPropertyOp23
 70
     1
102
RTVSPropertyOp24
 70
     1
102
RTVSPropertyOp25
 70
     1
102
RTVSPropertyOp26
 70
     1
102
RTVSPropertyOp27
 70
     1
  0
XRECORD
  5
567
102
{ACAD_REACTORS
330
566
102
}
330
566
100
AcDbXrecord
280
     1
102
RTVSPropertyOp0
 70
     1
102
RTVSPropertyOp1
 70
     1
102
RTVSPropertyOp2
 70
     1
102
RTVSPropertyOp3
 70
     1
102
RTVSPropertyOp4
 70
     1
102
RTVSPropertyOp5
 70
     1
102
RTVSPropertyOp6
 70
     1
102
RTVSPropertyOp7
 70
     1
102
RTVSPropertyOp8
 70
     1
102
RTVSPropertyOp9
 70
     1
102
RTVSPropertyOp10
 70
     1
102
RTVSPropertyOp11
 70
     1
102
RTVSPropertyOp12
 70
     1
102
RTVSPropertyOp13
 70
     1
102
RTVSPropertyOp14
 70
     1
102
RTVSPropertyOp15
 70
     1
102
RTVSPropertyOp16
 70
     1
102
RTVSPropertyOp17
 70
     1
102
RTVSPropertyOp18
 70
     1
102
RTVSPropertyOp19
 70
     1
102
RTVSPropertyOp20
 70
     1
102
RTVSPropertyOp21
 70
     1
102
RTVSPropertyOp22
 70
     1
102
RTVSPropertyOp23
 70
     1
102
RTVSPropertyOp24
 70
     1
102
RTVSPropertyOp25
 70
     1
102
RTVSPropertyOp26
 70
     1
102
RTVSPropertyOp27
 70
     1
  0
XRECORD
  5
569
102
{ACAD_REACTORS
330
568
102
}
330
568
100
AcDbXrecord
280
     1
102
RTVSPropertyOp0
 70
     1
102
RTVSPropertyOp1
 70
     1
102
RTVSPropertyOp2
 70
     1
102
RTVSPropertyOp3
 70
     1
102
RTVSPropertyOp4
 70
     1
102
RTVSPropertyOp5
 70
     1
102
RTVSPropertyOp6
 70
     1
102
RTVSPropertyOp7
 70
     1
102
RTVSPropertyOp8
 70
     1
102
RTVSPropertyOp9
 70
     1
102
RTVSPropertyOp10
 70
     1
102
RTVSPropertyOp11
 70
     1
102
RTVSPropertyOp12
 70
     1
102
RTVSPropertyOp13
 70
     1
102
RTVSPropertyOp14
 70
     1
102
RTVSPropertyOp15
 70
     1
102
RTVSPropertyOp16
 70
     1
102
RTVSPropertyOp17
 70
     1
102
RTVSPropertyOp18
 70
     1
102
RTVSPropertyOp19
 70
     1
102
RTVSPropertyOp20
 70
     1
102
RTVSPropertyOp21
 70
     1
102
RTVSPropertyOp22
 70
     1
102
RTVSPropertyOp23
 70
     1
102
RTVSPropertyOp24
 70
     1
102
RTVSPropertyOp25
 70
     1
102
RTVSPropertyOp26
 70
     1
102
RTVSPropertyOp27
 70
     1
  0
XRECORD
  5
56B
102
{ACAD_REACTORS
330
56A
102
}
330
56A
100
AcDbXrecord
280
     1
102
RTVSPropertyOp0
 70
     1
102
RTVSPropertyOp1
 70
     1
102
RTVSPropertyOp2
 70
     1
102
RTVSPropertyOp3
 70
     1
102
RTVSPropertyOp4
 70
     1
102
RTVSPropertyOp5
 70
     1
102
RTVSPropertyOp6
 70
     1
102
RTVSPropertyOp7
 70
     1
102
RTVSPropertyOp8
 70
     1
102
RTVSPropertyOp9
 70
     1
102
RTVSPropertyOp10
 70
     1
102
RTVSPropertyOp11
 70
     1
102
RTVSPropertyOp12
 70
     1
102
RTVSPropertyOp13
 70
     1
102
RTVSPropertyOp14
 70
     1
102
RTVSPropertyOp15
 70
     1
102
RTVSPropertyOp16
 70
     1
102
RTVSPropertyOp17
 70
     1
102
RTVSPropertyOp18
 70
     1
102
RTVSPropertyOp19
 70
     1
102
RTVSPropertyOp20
 70
     1
102
RTVSPropertyOp21
 70
     1
102
RTVSPropertyOp22
 70
     1
102
RTVSPropertyOp23
 70
     1
102
RTVSPropertyOp24
 70
     1
102
RTVSPropertyOp25
 70
     1
102
RTVSPropertyOp26
 70
     1
102
RTVSPropertyOp27
 70
     1
  0
XRECORD
  5
56D
102
{ACAD_REACTORS
330
56C
102
}
330
56C
100
AcDbXrecord
280
     1
102
RTVSPropertyOp0
 70
     1
102
RTVSPropertyOp1
 70
     1
102
RTVSPropertyOp2
 70
     1
102
RTVSPropertyOp3
 70
     1
102
RTVSPropertyOp4
 70
     1
102
RTVSPropertyOp5
 70
     1
102
RTVSPropertyOp6
 70
     1
102
RTVSPropertyOp7
 70
     1
102
RTVSPropertyOp8
 70
     1
102
RTVSPropertyOp9
 70
     1
102
RTVSPropertyOp10
 70
     1
102
RTVSPropertyOp11
 70
     1
102
RTVSPropertyOp12
 70
     1
102
RTVSPropertyOp13
 70
     1
102
RTVSPropertyOp14
 70
     1
102
RTVSPropertyOp15
 70
     1
102
RTVSPropertyOp16
 70
     1
102
RTVSPropertyOp17
 70
     1
102
RTVSPropertyOp18
 70
     1
102
RTVSPropertyOp19
 70
     1
102
RTVSPropertyOp20
 70
     1
102
RTVSPropertyOp21
 70
     1
102
RTVSPropertyOp22
 70
     1
102
RTVSPropertyOp23
 70
     1
102
RTVSPropertyOp24
 70
     1
102
RTVSPropertyOp25
 70
     1
102
RTVSPropertyOp26
 70
     1
102
RTVSPropertyOp27
 70
     1
  0
XRECORD
  5
587
102
{ACAD_REACTORS
330
586
102
}
330
586
100
AcDbXrecord
280
     1
102
RTVSPropertyOp0
 70
     0
102
RTVSPropertyOp1
 70
     0
102
RTVSPropertyOp2
 70
     0
102
RTVSPropertyOp3
 70
     0
102
RTVSPropertyOp4
 70
     0
102
RTVSPropertyOp5
 70
     0
102
RTVSPropertyOp6
 70
     0
102
RTVSPropertyOp7
 70
     0
102
RTVSPropertyOp8
 70
     0
102
RTVSPropertyOp9
 70
     0
102
RTVSPropertyOp10
 70
     0
102
RTVSPropertyOp11
 70
     0
102
RTVSPropertyOp12
 70
     0
102
RTVSPropertyOp13
 70
     0
102
RTVSPropertyOp14
 70
     2
102
RTVSPropertyOp15
 70
     0
102
RTVSPropertyOp16
 70
     0
102
RTVSPropertyOp17
 70
     0
102
RTVSPropertyOp18
 70
     0
102
RTVSPropertyOp19
 70
     0
102
RTVSPropertyOp20
 70
     0
102
RTVSPropertyOp21
 70
     0
102
RTVSPropertyOp22
 70
     0
102
RTVSPropertyOp23
 70
     0
102
RTVSPropertyOp24
 70
     0
102
RTVSPropertyOp25
 70
     0
102
RTVSPropertyOp26
 70
     0
102
RTVSPropertyOp27
 70
     0
  0
XRECORD
  5
581
102
{ACAD_REACTORS
330
580
102
}
330
580
100
AcDbXrecord
280
     1
102
RTVSPropertyOp0
 70
     1
102
RTVSPropertyOp1
 70
     1
102
RTVSPropertyOp2
 70
     1
102
RTVSPropertyOp3
 70
     1
102
RTVSPropertyOp4
 70
     1
102
RTVSPropertyOp5
 70
     1
102
RTVSPropertyOp6
 70
     1
102
RTVSPropertyOp7
 70
     1
102
RTVSPropertyOp8
 70
     1
102
RTVSPropertyOp9
 70
     1
102
RTVSPropertyOp10
 70
     1
102
RTVSPropertyOp11
 70
     1
102
RTVSPropertyOp12
 70
     1
102
RTVSPropertyOp13
 70
     1
102
RTVSPropertyOp14
 70
     1
102
RTVSPropertyOp15
 70
     1
102
RTVSPropertyOp16
 70
     1
102
RTVSPropertyOp17
 70
     1
102
RTVSPropertyOp18
 70
     1
102
RTVSPropertyOp19
 70
     1
102
RTVSPropertyOp20
 70
     1
102
RTVSPropertyOp21
 70
     1
102
RTVSPropertyOp22
 70
     1
102
RTVSPropertyOp23
 70
     1
102
RTVSPropertyOp24
 70
     1
102
RTVSPropertyOp25
 70
     1
102
RTVSPropertyOp26
 70
     1
102
RTVSPropertyOp27
 70
     1
  0
XRECORD
  5
589
102
{ACAD_REACTORS
330
588
102
}
330
588
100
AcDbXrecord
280
     1
102
RTVSPropertyOp0
 70
     0
102
RTVSPropertyOp1
 70
     0
102
RTVSPropertyOp2
 70
     0
102
RTVSPropertyOp3
 70
     0
102
RTVSPropertyOp4
 70
     0
102
RTVSPropertyOp5
 70
     0
102
RTVSPropertyOp6
 70
     0
102
RTVSPropertyOp7
 70
     0
102
RTVSPropertyOp8
 70
     0
102
RTVSPropertyOp9
 70
     0
102
RTVSPropertyOp10
 70
     0
102
RTVSPropertyOp11
 70
     0
102
RTVSPropertyOp12
 70
     0
102
RTVSPropertyOp13
 70
     0
102
RTVSPropertyOp14
 70
     2
102
RTVSPropertyOp15
 70
     0
102
RTVSPropertyOp16
 70
     0
102
RTVSPropertyOp17
 70
     0
102
RTVSPropertyOp18
 70
     0
102
RTVSPropertyOp19
 70
     0
102
RTVSPropertyOp20
 70
     0
102
RTVSPropertyOp21
 70
     0
102
RTVSPropertyOp22
 70
     0
102
RTVSPropertyOp23
 70
     0
102
RTVSPropertyOp24
 70
     0
102
RTVSPropertyOp25
 70
     0
102
RTVSPropertyOp26
 70
     0
102
RTVSPropertyOp27
 70
     0
  0
XRECORD
  5
579
102
{ACAD_REACTORS
330
578
102
}
330
578
100
AcDbXrecord
280
     1
102
RTVSPropertyOp0
 70
     1
102
RTVSPropertyOp1
 70
     1
102
RTVSPropertyOp2
 70
     1
102
RTVSPropertyOp3
 70
     1
102
RTVSPropertyOp4
 70
     1
102
RTVSPropertyOp5
 70
     1
102
RTVSPropertyOp6
 70
     1
102
RTVSPropertyOp7
 70
     1
102
RTVSPropertyOp8
 70
     1
102
RTVSPropertyOp9
 70
     1
102
RTVSPropertyOp10
 70
     1
102
RTVSPropertyOp11
 70
     1
102
RTVSPropertyOp12
 70
     1
102
RTVSPropertyOp13
 70
     1
102
RTVSPropertyOp14
 70
     1
102
RTVSPropertyOp15
 70
     1
102
RTVSPropertyOp16
 70
     1
102
RTVSPropertyOp17
 70
     1
102
RTVSPropertyOp18
 70
     1
102
RTVSPropertyOp19
 70
     1
102
RTVSPropertyOp20
 70
     1
102
RTVSPropertyOp21
 70
     1
102
RTVSPropertyOp22
 70
     1
102
RTVSPropertyOp23
 70
     1
102
RTVSPropertyOp24
 70
     1
102
RTVSPropertyOp25
 70
     1
102
RTVSPropertyOp26
 70
     1
102
RTVSPropertyOp27
 70
     1
  0
XRECORD
  5
57F
102
{ACAD_REACTORS
330
57E
102
}
330
57E
100
AcDbXrecord
280
     1
102
RTVSPropertyOp0
 70
     1
102
RTVSPropertyOp1
 70
     1
102
RTVSPropertyOp2
 70
     1
102
RTVSPropertyOp3
 70
     1
102
RTVSPropertyOp4
 70
     1
102
RTVSPropertyOp5
 70
     1
102
RTVSPropertyOp6
 70
     1
102
RTVSPropertyOp7
 70
     1
102
RTVSPropertyOp8
 70
     1
102
RTVSPropertyOp9
 70
     1
102
RTVSPropertyOp10
 70
     1
102
RTVSPropertyOp11
 70
     1
102
RTVSPropertyOp12
 70
     1
102
RTVSPropertyOp13
 70
     1
102
RTVSPropertyOp14
 70
     1
102
RTVSPropertyOp15
 70
     1
102
RTVSPropertyOp16
 70
     1
102
RTVSPropertyOp17
 70
     1
102
RTVSPropertyOp18
 70
     1
102
RTVSPropertyOp19
 70
     1
102
RTVSPropertyOp20
 70
     1
102
RTVSPropertyOp21
 70
     1
102
RTVSPropertyOp22
 70
     1
102
RTVSPropertyOp23
 70
     1
102
RTVSPropertyOp24
 70
     1
102
RTVSPropertyOp25
 70
     1
102
RTVSPropertyOp26
 70
     1
102
RTVSPropertyOp27
 70
     1
  0
ENDSEC
  0
EOF
