  0
SECTION
  2
HEADER
  9
$ACADVER
  1
AC1009
999
I-DEAS Drafting Master Series 7m1 Not Encoded
  9
$EXTMIN
 10
0.0
 20
0.0
  9
$EXTMAX
 10
3.5E+001
 20
2.3E+001
  9
$TEXTSIZE
 40
1.25E-001
  9
$LTSCALE
 40
1.0
  9
$CLAYER
  8
1
  9
$CECOLOR
 62
1
  9
$DIMASZ
 40
1.25E-001
  9
$DIMEXO
 40
6.25E-002
  9
$DIMDLI
 40
2.5E-001
  9
$DIMEXE
 40
1.25E-001
  9
$DIMTP
 40
5.0E-003
  9
$DIMTM
 40
-5.0E-003
  9
$DIMTXT
 40
1.25E-001
  9
$DIMLIM
 70
0
  9
$DIMTIH
 70
1
  9
$DIMTOH
 70
1
  9
$DIMSE1
 70
0
  9
$DIMSE2
 70
0
  9
$DIMTAD
 70
0
  9
$DIMASO
 70
1
  9
$DIMALT
 70
0
  9
$DIMALTD
 70
0
  9
$DIMTOFL
 70
1
  9
$DIMTIX
 70
0
  9
$DIMSAH
 70
0
  9
$DIMTFAC
 40
1.0
  9
$DIMGAP
 40
6.25E-002
  9
$LUNITS
 70
2
  9
$LUPREC
 70
3
  9
$FILLETRAD
 40
2.5E-001
  9
$AUNITS
 70
0
  9
$AUPREC
 70
1
  9
$CHAMFERA
 40
2.5E-001
  9
$CHAMFERB
 40
2.5E-001
  9
$ANGBASE
 50
0.0
  9
$ANGDIR
 70
0
  9
$PDMODE
 70
2
  9
$PDSIZE
 40
-1.0E-002
  9
$SPLINETYPE
 70
6
  0
ENDSEC
  0
SECTION
  2
TABLES
  0
TABLE
  2
LTYPE
 70
7
  0
LTYPE
  2
HIDDENNEW00
  3
_ 
 70
64
 72
65
 73
2
 40
1.875E-001
 49
1.25E-001
 49
-6.25E-002
  0
LTYPE
  2
HIDDENNEW01
  3
_ 
 70
64
 72
65
 73
2
 40
1.875E-001
 49
1.25E-001
 49
-6.25E-002
  0
LTYPE
  2
HIDDEN
  3
_ 
 70
64
 72
65
 73
2
 40
1.875E-001
 49
1.25E-001
 49
-6.25E-002
  0
LTYPE
  2
CENTERLINE
  3
_ 
 70
64
 72
65
 73
4
 40
1.25
 49
1.0
 49
-6.25E-002
 49
1.25E-001
 49
-6.25E-002
  0
LTYPE
  2
PHANTOM
  3
_ 
 70
64
 72
65
 73
6
 40
1.1875
 49
7.5E-001
 49
-6.25E-002
 49
1.25E-001
 49
-6.25E-002
 49
1.25E-001
 49
-6.25E-002
  0
LTYPE
  2
SHORT_DASH
  3
_ 
 70
64
 72
65
 73
2
 40
1.25E-001
 49
6.25E-002
 49
-6.25E-002
  0
LTYPE
  2
LONG_DASH
  3
_ 
 70
64
 72
65
 73
2
 40
3.75E-001
 49
1.875E-001
 49
-1.875E-001
  0
ENDTAB
  0
TABLE
  2
LAYER
 70
258
  0
LAYER
  2
1
 70
0
 62
7
  6
CONTINUOUS
  0
LAYER
  2
2
 70
0
 62
7
  6
CONTINUOUS
  0
LAYER
  2
3
 70
0
 62
7
  6
CONTINUOUS
  0
LAYER
  2
4
 70
0
 62
7
  6
CONTINUOUS
  0
LAYER
  2
5
 70
0
 62
7
  6
CONTINUOUS
  0
LAYER
  2
6
 70
0
 62
7
  6
CONTINUOUS
  0
LAYER
  2
7
 70
0
 62
7
  6
CONTINUOUS
  0
LAYER
  2
8
 70
0
 62
7
  6
CONTINUOUS
  0
LAYER
  2
9
 70
0
 62
7
  6
CONTINUOUS
  0
LAYER
  2
10
 70
0
 62
7
  6
CONTINUOUS
  0
LAYER
  2
11
 70
0
 62
7
  6
CONTINUOUS
  0
LAYER
  2
12
 70
0
 62
7
  6
CONTINUOUS
  0
LAYER
  2
13
 70
0
 62
7
  6
CONTINUOUS
  0
LAYER
  2
14
 70
0
 62
7
  6
CONTINUOUS
  0
LAYER
  2
15
 70
0
 62
7
  6
CONTINUOUS
  0
LAYER
  2
16
 70
0
 62
7
  6
CONTINUOUS
  0
LAYER
  2
17
 70
0
 62
7
  6
CONTINUOUS
  0
LAYER
  2
18
 70
0
 62
7
  6
CONTINUOUS
  0
LAYER
  2
19
 70
0
 62
7
  6
CONTINUOUS
  0
LAYER
  2
20
 70
0
 62
7
  6
CONTINUOUS
  0
LAYER
  2
21
 70
0
 62
7
  6
CONTINUOUS
  0
LAYER
  2
22
 70
0
 62
7
  6
CONTINUOUS
  0
LAYER
  2
23
 70
0
 62
7
  6
CONTINUOUS
  0
LAYER
  2
24
 70
0
 62
7
  6
CONTINUOUS
  0
LAYER
  2
25
 70
0
 62
7
  6
CONTINUOUS
  0
LAYER
  2
26
 70
0
 62
7
  6
CONTINUOUS
  0
LAYER
  2
27
 70
0
 62
7
  6
CONTINUOUS
  0
LAYER
  2
28
 70
0
 62
7
  6
CONTINUOUS
  0
LAYER
  2
29
 70
0
 62
7
  6
CONTINUOUS
  0
LAYER
  2
30
 70
0
 62
7
  6
CONTINUOUS
  0
LAYER
  2
31
 70
0
 62
7
  6
CONTINUOUS
  0
LAYER
  2
32
 70
0
 62
7
  6
CONTINUOUS
  0
LAYER
  2
33
 70
0
 62
7
  6
CONTINUOUS
  0
LAYER
  2
34
 70
0
 62
7
  6
CONTINUOUS
  0
LAYER
  2
35
 70
0
 62
7
  6
CONTINUOUS
  0
LAYER
  2
36
 70
0
 62
7
  6
CONTINUOUS
  0
LAYER
  2
37
 70
0
 62
7
  6
CONTINUOUS
  0
LAYER
  2
38
 70
0
 62
7
  6
CONTINUOUS
  0
LAYER
  2
39
 70
0
 62
7
  6
CONTINUOUS
  0
LAYER
  2
40
 70
0
 62
7
  6
CONTINUOUS
  0
LAYER
  2
41
 70
0
 62
7
  6
CONTINUOUS
  0
LAYER
  2
42
 70
0
 62
7
  6
CONTINUOUS
  0
LAYER
  2
43
 70
0
 62
7
  6
CONTINUOUS
  0
LAYER
  2
44
 70
0
 62
7
  6
CONTINUOUS
  0
LAYER
  2
45
 70
0
 62
7
  6
CONTINUOUS
  0
LAYER
  2
46
 70
0
 62
7
  6
CONTINUOUS
  0
LAYER
  2
47
 70
0
 62
7
  6
CONTINUOUS
  0
LAYER
  2
48
 70
0
 62
7
  6
CONTINUOUS
  0
LAYER
  2
49
 70
0
 62
7
  6
CONTINUOUS
  0
LAYER
  2
50
 70
0
 62
7
  6
CONTINUOUS
  0
LAYER
  2
51
 70
0
 62
7
  6
CONTINUOUS
  0
LAYER
  2
52
 70
0
 62
7
  6
CONTINUOUS
  0
LAYER
  2
53
 70
0
 62
7
  6
CONTINUOUS
  0
LAYER
  2
54
 70
0
 62
7
  6
CONTINUOUS
  0
LAYER
  2
55
 70
0
 62
7
  6
CONTINUOUS
  0
LAYER
  2
56
 70
0
 62
7
  6
CONTINUOUS
  0
LAYER
  2
57
 70
0
 62
7
  6
CONTINUOUS
  0
LAYER
  2
58
 70
0
 62
7
  6
CONTINUOUS
  0
LAYER
  2
59
 70
0
 62
7
  6
CONTINUOUS
  0
LAYER
  2
60
 70
0
 62
7
  6
CONTINUOUS
  0
LAYER
  2
61
 70
0
 62
7
  6
CONTINUOUS
  0
LAYER
  2
62
 70
0
 62
7
  6
CONTINUOUS
  0
LAYER
  2
63
 70
0
 62
7
  6
CONTINUOUS
  0
LAYER
  2
64
 70
0
 62
7
  6
CONTINUOUS
  0
LAYER
  2
65
 70
0
 62
7
  6
CONTINUOUS
  0
LAYER
  2
66
 70
0
 62
7
  6
CONTINUOUS
  0
LAYER
  2
67
 70
0
 62
7
  6
CONTINUOUS
  0
LAYER
  2
68
 70
0
 62
7
  6
CONTINUOUS
  0
LAYER
  2
69
 70
0
 62
7
  6
CONTINUOUS
  0
LAYER
  2
70
 70
0
 62
7
  6
CONTINUOUS
  0
LAYER
  2
71
 70
0
 62
7
  6
CONTINUOUS
  0
LAYER
  2
72
 70
0
 62
7
  6
CONTINUOUS
  0
LAYER
  2
73
 70
0
 62
7
  6
CONTINUOUS
  0
LAYER
  2
74
 70
0
 62
7
  6
CONTINUOUS
  0
LAYER
  2
75
 70
0
 62
7
  6
CONTINUOUS
  0
LAYER
  2
76
 70
0
 62
7
  6
CONTINUOUS
  0
LAYER
  2
77
 70
0
 62
7
  6
CONTINUOUS
  0
LAYER
  2
78
 70
0
 62
7
  6
CONTINUOUS
  0
LAYER
  2
79
 70
0
 62
7
  6
CONTINUOUS
  0
LAYER
  2
80
 70
0
 62
7
  6
CONTINUOUS
  0
LAYER
  2
81
 70
0
 62
7
  6
CONTINUOUS
  0
LAYER
  2
82
 70
0
 62
7
  6
CONTINUOUS
  0
LAYER
  2
83
 70
0
 62
7
  6
CONTINUOUS
  0
LAYER
  2
84
 70
0
 62
7
  6
CONTINUOUS
  0
LAYER
  2
85
 70
0
 62
7
  6
CONTINUOUS
  0
LAYER
  2
86
 70
0
 62
7
  6
CONTINUOUS
  0
LAYER
  2
87
 70
0
 62
7
  6
CONTINUOUS
  0
LAYER
  2
88
 70
0
 62
7
  6
CONTINUOUS
  0
LAYER
  2
89
 70
0
 62
7
  6
CONTINUOUS
  0
LAYER
  2
90
 70
0
 62
7
  6
CONTINUOUS
  0
LAYER
  2
91
 70
0
 62
7
  6
CONTINUOUS
  0
LAYER
  2
92
 70
0
 62
7
  6
CONTINUOUS
  0
LAYER
  2
93
 70
0
 62
7
  6
CONTINUOUS
  0
LAYER
  2
94
 70
0
 62
7
  6
CONTINUOUS
  0
LAYER
  2
95
 70
0
 62
7
  6
CONTINUOUS
  0
LAYER
  2
96
 70
0
 62
7
  6
CONTINUOUS
  0
LAYER
  2
97
 70
0
 62
7
  6
CONTINUOUS
  0
LAYER
  2
98
 70
0
 62
7
  6
CONTINUOUS
  0
LAYER
  2
99
 70
0
 62
7
  6
CONTINUOUS
  0
LAYER
  2
100
 70
0
 62
7
  6
CONTINUOUS
  0
LAYER
  2
101
 70
0
 62
7
  6
CONTINUOUS
  0
LAYER
  2
102
 70
0
 62
7
  6
CONTINUOUS
  0
LAYER
  2
103
 70
0
 62
7
  6
CONTINUOUS
  0
LAYER
  2
104
 70
0
 62
7
  6
CONTINUOUS
  0
LAYER
  2
105
 70
0
 62
7
  6
CONTINUOUS
  0
LAYER
  2
106
 70
0
 62
7
  6
CONTINUOUS
  0
LAYER
  2
107
 70
0
 62
7
  6
CONTINUOUS
  0
LAYER
  2
108
 70
0
 62
7
  6
CONTINUOUS
  0
LAYER
  2
109
 70
0
 62
7
  6
CONTINUOUS
  0
LAYER
  2
110
 70
0
 62
7
  6
CONTINUOUS
  0
LAYER
  2
111
 70
0
 62
7
  6
CONTINUOUS
  0
LAYER
  2
112
 70
0
 62
7
  6
CONTINUOUS
  0
LAYER
  2
113
 70
0
 62
7
  6
CONTINUOUS
  0
LAYER
  2
114
 70
0
 62
7
  6
CONTINUOUS
  0
LAYER
  2
115
 70
0
 62
7
  6
CONTINUOUS
  0
LAYER
  2
116
 70
0
 62
7
  6
CONTINUOUS
  0
LAYER
  2
117
 70
0
 62
7
  6
CONTINUOUS
  0
LAYER
  2
118
 70
0
 62
7
  6
CONTINUOUS
  0
LAYER
  2
119
 70
0
 62
7
  6
CONTINUOUS
  0
LAYER
  2
120
 70
0
 62
7
  6
CONTINUOUS
  0
LAYER
  2
121
 70
0
 62
7
  6
CONTINUOUS
  0
LAYER
  2
122
 70
0
 62
7
  6
CONTINUOUS
  0
LAYER
  2
123
 70
0
 62
7
  6
CONTINUOUS
  0
LAYER
  2
124
 70
0
 62
7
  6
CONTINUOUS
  0
LAYER
  2
125
 70
0
 62
7
  6
CONTINUOUS
  0
LAYER
  2
126
 70
0
 62
7
  6
CONTINUOUS
  0
LAYER
  2
127
 70
0
 62
7
  6
CONTINUOUS
  0
LAYER
  2
128
 70
0
 62
7
  6
CONTINUOUS
  0
LAYER
  2
129
 70
0
 62
7
  6
CONTINUOUS
  0
LAYER
  2
130
 70
0
 62
7
  6
CONTINUOUS
  0
LAYER
  2
131
 70
0
 62
7
  6
CONTINUOUS
  0
LAYER
  2
132
 70
0
 62
7
  6
CONTINUOUS
  0
LAYER
  2
133
 70
0
 62
7
  6
CONTINUOUS
  0
LAYER
  2
134
 70
0
 62
7
  6
CONTINUOUS
  0
LAYER
  2
135
 70
0
 62
7
  6
CONTINUOUS
  0
LAYER
  2
136
 70
0
 62
7
  6
CONTINUOUS
  0
LAYER
  2
137
 70
0
 62
7
  6
CONTINUOUS
  0
LAYER
  2
138
 70
0
 62
7
  6
CONTINUOUS
  0
LAYER
  2
139
 70
0
 62
7
  6
CONTINUOUS
  0
LAYER
  2
140
 70
0
 62
7
  6
CONTINUOUS
  0
LAYER
  2
141
 70
0
 62
7
  6
CONTINUOUS
  0
LAYER
  2
142
 70
0
 62
7
  6
CONTINUOUS
  0
LAYER
  2
143
 70
0
 62
7
  6
CONTINUOUS
  0
LAYER
  2
144
 70
0
 62
7
  6
CONTINUOUS
  0
LAYER
  2
145
 70
0
 62
7
  6
CONTINUOUS
  0
LAYER
  2
146
 70
0
 62
7
  6
CONTINUOUS
  0
LAYER
  2
147
 70
0
 62
7
  6
CONTINUOUS
  0
LAYER
  2
148
 70
0
 62
7
  6
CONTINUOUS
  0
LAYER
  2
149
 70
0
 62
7
  6
CONTINUOUS
  0
LAYER
  2
150
 70
0
 62
7
  6
CONTINUOUS
  0
LAYER
  2
151
 70
0
 62
7
  6
CONTINUOUS
  0
LAYER
  2
152
 70
0
 62
7
  6
CONTINUOUS
  0
LAYER
  2
153
 70
0
 62
7
  6
CONTINUOUS
  0
LAYER
  2
154
 70
0
 62
7
  6
CONTINUOUS
  0
LAYER
  2
155
 70
0
 62
7
  6
CONTINUOUS
  0
LAYER
  2
156
 70
0
 62
7
  6
CONTINUOUS
  0
LAYER
  2
157
 70
0
 62
7
  6
CONTINUOUS
  0
LAYER
  2
158
 70
0
 62
7
  6
CONTINUOUS
  0
LAYER
  2
159
 70
0
 62
7
  6
CONTINUOUS
  0
LAYER
  2
160
 70
0
 62
7
  6
CONTINUOUS
  0
LAYER
  2
161
 70
0
 62
7
  6
CONTINUOUS
  0
LAYER
  2
162
 70
0
 62
7
  6
CONTINUOUS
  0
LAYER
  2
163
 70
0
 62
7
  6
CONTINUOUS
  0
LAYER
  2
164
 70
0
 62
7
  6
CONTINUOUS
  0
LAYER
  2
165
 70
0
 62
7
  6
CONTINUOUS
  0
LAYER
  2
166
 70
0
 62
7
  6
CONTINUOUS
  0
LAYER
  2
167
 70
0
 62
7
  6
CONTINUOUS
  0
LAYER
  2
168
 70
0
 62
7
  6
CONTINUOUS
  0
LAYER
  2
169
 70
0
 62
7
  6
CONTINUOUS
  0
LAYER
  2
170
 70
0
 62
7
  6
CONTINUOUS
  0
LAYER
  2
171
 70
0
 62
7
  6
CONTINUOUS
  0
LAYER
  2
172
 70
0
 62
7
  6
CONTINUOUS
  0
LAYER
  2
173
 70
0
 62
7
  6
CONTINUOUS
  0
LAYER
  2
174
 70
0
 62
7
  6
CONTINUOUS
  0
LAYER
  2
175
 70
0
 62
7
  6
CONTINUOUS
  0
LAYER
  2
176
 70
0
 62
7
  6
CONTINUOUS
  0
LAYER
  2
177
 70
0
 62
7
  6
CONTINUOUS
  0
LAYER
  2
178
 70
0
 62
7
  6
CONTINUOUS
  0
LAYER
  2
179
 70
0
 62
7
  6
CONTINUOUS
  0
LAYER
  2
180
 70
0
 62
7
  6
CONTINUOUS
  0
LAYER
  2
Drafting_Hidden_Entities
 70
1
 62
7
  6
CONTINUOUS
  0
ENDTAB
  0
TABLE
  2
STYLE
 70
1
  0
STYLE
  2
STANDARD
 70
64
 40
0.0
 41
1.0
 50
0.0
 71
0
 42
1.0
  3
monotxt.shx
  4
bigfont.shx
  0
ENDTAB
  0
TABLE
  2
VIEW
 70
0
  0
ENDTAB
  0
TABLE
  2
DIMSTYLE
 70
7
  0
DIMSTYLE
  2
DSTYLE1
 70
0
  3

  4

  5

  6

  7

 40
1.0
 41
1.25E-001
 42
7.5E-002
 43
3.8E-001
 44
2.0E-001
 45
1.0E-003
 46
0.0
 47
5.0E-003
 48
5.0E-003
 71
0
 72
0
 73
1
 74
1
 75
1
 76
1
 77
0
 78
7
140
2.0E-001
141
9.0E-002
142
0.0
143
2.54E+001
144
1.0
145
0.0
146
1.0
147
7.5E-002
170
0
171
2
172
0
173
0
174
0
175
0
176
0
177
0
178
0
  0
DIMSTYLE
  2
DSTYLE2
 70
0
  3

  4

  5

  6

  7

 40
1.0
 41
1.25E-001
 42
7.5E-002
 43
3.8E-001
 44
1.25E-001
 45
1.0E-003
 46
0.0
 47
5.0E-003
 48
5.0E-003
 71
0
 72
0
 73
1
 74
1
 75
1
 76
1
 77
0
 78
7
140
1.25E-001
141
9.0E-002
142
0.0
143
2.54E+001
144
1.0
145
0.0
146
1.0
147
7.5E-002
170
0
171
2
172
0
173
0
174
0
175
0
176
0
177
0
178
0
  0
DIMSTYLE
  2
DSTYLE3
 70
0
  3

  4

  5

  6

  7

 40
1.0
 41
8.0
 42
6.25E-001
 43
3.8E-001
 44
1.25
 45
1.0E-002
 46
0.0
 47
0.0
 48
0.0
 71
1
 72
0
 73
0
 74
0
 75
0
 76
0
 77
1
 78
11
140
1.8E+001
141
9.0E-002
142
0.0
143
1.0
144
1.0
145
0.0
146
1.0
147
6.25E-001
170
0
171
2
172
0
173
0
174
0
175
0
176
0
177
0
178
0
  0
DIMSTYLE
  2
DSTYLE4
 70
0
  3

  4

  5

  6

  7

 40
1.0
 41
8.0
 42
6.25E-001
 43
3.8E-001
 44
1.25
 45
1.0E-002
 46
0.0
 47
0.0
 48
0.0
 71
1
 72
0
 73
1
 74
1
 75
0
 76
0
 77
1
 78
11
140
1.8E+001
141
9.0E-002
142
0.0
143
1.0
144
1.0
145
0.0
146
1.0
147
6.25E-001
170
0
171
2
172
1
173
0
174
0
175
0
176
0
177
0
178
0
  0
DIMSTYLE
  2
DSTYLE5
 70
0
  3

  4

  5

  6

  7

 40
1.0
 41
8.0
 42
6.25E-001
 43
3.8E-001
 44
1.25
 45
1.0E-002
 46
0.0
 47
0.0
 48
0.0
 71
0
 72
0
 73
0
 74
0
 75
0
 76
0
 77
1
 78
11
140
1.8E+001
141
9.0E-002
142
0.0
143
1.0
144
1.0
145
0.0
146
1.0
147
6.25E-001
170
0
171
2
172
0
173
0
174
0
175
0
176
0
177
0
178
0
  0
DIMSTYLE
  2
DSTYLE6
 70
0
  3

  4

  5

  6

  7

 40
1.0
 41
2.5E-001
 42
1.25E-001
 43
3.8E-001
 44
6.25E-002
 45
1.0E-003
 46
0.0
 47
3.2E-002
 48
6.2E-002
 71
1
 72
0
 73
1
 74
1
 75
0
 76
0
 77
0
 78
3
140
2.0E-001
141
9.0E-002
142
0.0
143
1.0
144
1.0
145
0.0
146
1.0
147
2.5E-001
170
1
171
2
172
0
173
0
174
0
175
0
176
0
177
0
178
0
  0
DIMSTYLE
  2
DSTYLE7
 70
0
  3

  4

  5

  6

  7

 40
1.0
 41
2.5E-001
 42
6.25E-002
 43
3.8E-001
 44
6.2E-002
 45
1.0E-003
 46
0.0
 47
3.2E-002
 48
6.2E-002
 71
1
 72
0
 73
0
 74
0
 75
0
 76
0
 77
1
 78
3
140
2.0E-001
141
9.0E-002
142
0.0
143
2.54E+001
144
1.0
145
0.0
146
1.0
147
2.5E-001
170
1
171
2
172
1
173
0
174
0
175
0
176
0
177
0
178
0
  0
ENDTAB
  0
ENDSEC
  0
SECTION
  2
BLOCKS
  0
BLOCK
  2
*AH13
  3
*AH
 10
0.0
 20
0.0
 70
65
  0
LINE
  8
1
  6
CONTINUOUS
 62
0
 10
0.0
 20
0.0
 11
1.0
 21
-1.666679E-001
  0
LINE
  8
1
  6
CONTINUOUS
 62
0
 10
1.0
 20
-1.666679E-001
 11
1.0
 21
1.66668E-001
  0
LINE
  8
1
  6
CONTINUOUS
 62
0
 10
1.0
 20
1.66668E-001
 11
0.0
 21
0.0
  0
ENDBLK
  0
BLOCK
  2
CLIPBRD_SYM1089651444_SYM
 10
0.0
 20
0.0
 70
0
  0
ARC
  8
4
  6
CONTINUOUS
 62
3
 10
0.0
 20
0.0
 40
9.2475E+002
 50
1.7584388E+002
 51
1.8754582E+002
  0
ARC
  8
4
  6
CONTINUOUS
 62
3
 10
-6.5626964E+002
 20
4.7688152E+001
 40
2.6675E+002
 50
1.3837398E+002
 51
1.7584388E+002
  0
ARC
  8
4
  6
CONTINUOUS
 62
3
 10
-6.3373036E+002
 20
4.7688152E+001
 40
2.6675E+002
 50
4.156121
 51
4.162602E+001
  0
TEXT
  8
1
  6
CONTINUOUS
 62
7
 10
-7.135452E+002
 20
5.3501762E+001
 40
2.88E+001
  1
EGU
 73
3
 11
-7.135452E+002
 21
2.4701762E+001
  0
ARC
  8
4
  6
CONTINUOUS
 62
3
 10
-1.29E+003
 20
0.0
 40
9.2475E+002
 50
3.5245418E+002
 51
3.6415612E+002
  0
ARC
  8
4
  6
CONTINUOUS
 62
3
 10
-6.45E+002
 20
1.831E+003
 40
2.044435E+003
 50
2.648205E+002
 51
2.751795E+002
  0
ARC
  8
4
  6
CONTINUOUS
 62
3
 10
-6.45E+002
 20
-7.43E+002
 40
1.028435E+003
 50
8.4314131E+001
 51
9.5685869E+001
  0
ARC
  8
4
  6
CONTINUOUS
 62
3
 10
-7.3027179E+002
 20
1.1345046E+002
 40
1.6775E+002
 50
9.5685869E+001
 51
1.3837398E+002
  0
ARC
  8
4
  6
CONTINUOUS
 62
3
 10
-5.5972821E+002
 20
1.1345046E+002
 40
1.6775E+002
 50
4.162602E+001
 51
8.4314131E+001
  0
ARC
  8
4
  6
CONTINUOUS
 62
3
 10
-8.2082965E+002
 20
-1.0873214E+002
 40
9.675E+001
 50
1.8754582E+002
 51
2.648205E+002
  0
ARC
  8
4
  6
CONTINUOUS
 62
3
 10
-4.6917035E+002
 20
-1.0873214E+002
 40
9.675E+001
 50
2.751795E+002
 51
3.5245418E+002
  0
DIMENSION
  8
1
  6
CONTINUOUS
 62
2
  2
*D1630
  3
DSTYLE3
 10
-2.8651615E+002
 20
-2.13435E+002
 11
-2.9614215E+002
 21
3.6E+001
 70
128
 13
-6.45E+002
 23
2.85435E+002
 14
-6.45E+002
 24
-2.13435E+002
 40
1.25E-001
 50
9.0E+001
  0
LINE
  8
5
  6
CONTINUOUS
 62
4
 10
-6.45E+002
 20
-2.425324E+002
 11
-6.45E+002
 21
3.263945E+002
  0
LINE
  8
5
  6
CONTINUOUS
 62
4
 10
-9.559445E+002
 20
0.0
 11
-3.340555E+002
 21
0.0
  0
DIMENSION
  8
1
  6
CONTINUOUS
 62
2
  2
*D1633
  3
DSTYLE4
 10
-4.6917035E+002
 20
-1.0873214E+002
 11
-4.5787978E+002
 21
-1.3546706E+002
 70
4
 15
-4.3153027E+002
 25
-1.9786007E+002
 40
-9.675E+001
  0
DIMENSION
  8
1
  6
CONTINUOUS
 62
2
  2
*D1634
  3
DSTYLE4
 10
-6.3373036E+002
 20
4.7688152E+001
 11
-5.4251601E+002
 21
6.820185E+001
 70
4
 15
-3.7348064E+002
 25
1.0621715E+002
 40
-2.6675E+002
  0
DIMENSION
  8
1
  6
CONTINUOUS
 62
2
  2
*D1635
  3
DSTYLE4
 10
-5.5972821E+002
 20
1.1345046E+002
 11
-5.3880228E+002
 21
1.7191373E+002
 70
4
 15
-5.0319713E+002
 25
2.7138811E+002
 40
-1.6775E+002
  0
DIMENSION
  8
1
  6
CONTINUOUS
 62
2
  2
*D1636
  3
DSTYLE5
 10
-3.2185383E+002
 20
-2.13435E+002
 11
-3.3147983E+002
 21
-1.067175E+002
 70
128
 13
-3.340555E+002
 23
0.0
 14
-6.45E+002
 24
-2.13435E+002
 40
1.25E-001
 50
9.0E+001
  0
INSERT
  2
POINTSYMBOLNEW01
  8
2
 10
-6.5626964E+002
 20
4.7688152E+001
 41
5.0
 43
5.0
 42
5.0
  0
INSERT
  2
POINTSYMBOLNEW01
  8
2
 10
-6.3373036E+002
 20
4.7688152E+001
 41
5.0
 43
5.0
 42
5.0
  0
DIMENSION
  8
1
  6
CONTINUOUS
 62
2
  2
*D1639
  3
DSTYLE5
 10
-6.45E+002
 20
7.2258365E+001
 11
-7.0289464E+002
 21
8.1884365E+001
 70
128
 13
-6.5626964E+002
 23
4.7688152E+001
 14
-6.45E+002
 24
6.229267E+001
 40
1.25E-001
 50
0.0
  0
DIMENSION
  8
1
  6
CONTINUOUS
 62
2
  2
*D1640
  3
DSTYLE5
 10
-7.7845416E+002
 20
0.0
 11
-7.8808016E+002
 21
-4.4625E+001
 70
128
 13
-6.5626964E+002
 23
4.7688152E+001
 14
-7.47816E+002
 24
0.0
 40
1.25E-001
 50
9.0E+001
  0
DIMENSION
  8
1
  6
CONTINUOUS
 62
2
  1

  2
*D1641
  3
DSTYLE5
 10
-5.5393248E+002
 20
-2.9670202E+001
 11
-6.3336779E+002
 21
-2.0044202E+001
 70
128
 13
-7.128031E+002
 23
-2.38964
 14
-5.5393248E+002
 24
4.177989
 40
1.25E-001
 50
0.0
  0
POINT
  8
1
  6
CONTINUOUS
 62
1
 10
0.0
 20
0.0
  0
ENDBLK
  0
BLOCK
  2
POINTSYMBOLNEW00
 10
0.0
 20
0.0
 70
0
  0
LINE
  8
1
  6
CONTINUOUS
 62
1
 10
-5.0E-001
 20
-5.0E-001
 11
5.0E-001
 21
5.0E-001
  0
LINE
  8
1
  6
CONTINUOUS
 62
1
 10
-5.0E-001
 20
5.0E-001
 11
5.0E-001
 21
-5.0E-001
  0
ENDBLK
  0
BLOCK
  2
POINTSYMBOLNEW01
 10
0.0
 20
0.0
 70
0
  0
LINE
  8
1
  6
CONTINUOUS
 62
1
 10
-5.0E-001
 20
-5.0E-001
 11
5.0E-001
 21
5.0E-001
  0
LINE
  8
1
  6
CONTINUOUS
 62
1
 10
-5.0E-001
 20
5.0E-001
 11
5.0E-001
 21
-5.0E-001
  0
ENDBLK
  0
BLOCK
  2
POINTSYMBOLNEW02
 10
0.0
 20
0.0
 70
0
  0
LINE
  8
1
  6
CONTINUOUS
 62
1
 10
-5.0E-001
 20
-5.0E-001
 11
5.0E-001
 21
5.0E-001
  0
LINE
  8
1
  6
CONTINUOUS
 62
1
 10
-5.0E-001
 20
5.0E-001
 11
5.0E-001
 21
-5.0E-001
  0
ENDBLK
  0
BLOCK
  2
*TX28
  3
*TX
 10
0.0
 20
0.0
 70
65
  0
TEXT
  8
126
  6
CONTINUOUS
 62
3
 10
0.0
 20
0.0
 40
8.0E-002
  1
REL - ECNBV02229 08JUL04
 41
9.5E-001
  0
TEXT
  8
126
  6
CONTINUOUS
 62
3
 10
0.0
 20
-1.2E-001
 40
8.0E-002
  1
  A - ECNBV05331 02DEC05
 41
9.5E-001
  0
ENDBLK
  0
BLOCK
  2
*TX30
  3
*TX
 10
0.0
 20
0.0
 70
65
  0
TEXT
  8
126
  6
CONTINUOUS
 62
3
 10
0.0
 20
0.0
 40
6.053E-002
  1
THIS PRINT IS THE PROPERTY OF ELKAY MANUFACTURING COMPANY
 41
1.0344828
  0
TEXT
  8
126
  6
CONTINUOUS
 62
3
 10
0.0
 20
-1.0553E-001
 40
6.053E-002
  1
AND IS LOANED SUBJECT TO RETURN UPON DEMAND AND UPON THE
 41
1.0344828
  0
TEXT
  8
126
  6
CONTINUOUS
 62
3
 10
0.0
 20
-2.1106E-001
 40
6.053E-002
  1
EXPRESS CONDITION THAT IT IS NOT TO BE USED DIRECTLY OR
 41
1.0344828
  0
TEXT
  8
126
  6
CONTINUOUS
 62
3
 10
0.0
 20
-3.1659E-001
 40
6.053E-002
  1
INDIRECTLY WITHOUT OUR PERMISSION FOR PURPOSES OTHER THAN
 41
1.0344828
  0
TEXT
  8
126
  6
CONTINUOUS
 62
3
 10
0.0
 20
-4.2212E-001
 40
6.053E-002
  1
THOSE FOR WHICH IT WAS FURNISHED.
 41
1.0344828
  0
ENDBLK
  0
BLOCK
  2
POINTSYMBOL
 10
0.0
 20
0.0
 70
0
  0
LINE
  8
1
  6
CONTINUOUS
 62
1
 10
-5.0E-001
 20
-5.0E-001
 11
5.0E-001
 21
5.0E-001
  0
LINE
  8
1
  6
CONTINUOUS
 62
1
 10
-5.0E-001
 20
5.0E-001
 11
5.0E-001
 21
-5.0E-001
  0
ENDBLK
  0
BLOCK
  2
*TX35
  3
*TX
 10
0.0
 20
0.0
 70
65
  0
TEXT
  8
1
  6
CONTINUOUS
 62
1
 10
1.96
 20
5.0E-001
 40
1.0
  1
2118
 41
9.8E-001
 72
1
 73
2
 11
0.0
 21
0.0
  0
TEXT
  8
1
  6
CONTINUOUS
 62
1
 10
2.94
 20
-1.0
 40
1.0
  1
211810
 41
9.8E-001
 72
1
 73
2
 11
0.0
 21
-1.5
  0
ENDBLK
  0
BLOCK
  2
*TX39
  3
*TX
 10
0.0
 20
0.0
 70
65
  0
TEXT
  8
126
  6
CONTINUOUS
 62
3
 10
7.0E-001
 20
0.0
 40
1.0E-001
  1
32-ECT E-FLUTE
 72
1
 11
0.0
 21
0.0
  0
TEXT
  8
126
  6
CONTINUOUS
 62
3
 10
8.0E-001
 20
-1.5E-001
 40
1.0E-001
  1
KRAFT BOTH SIDES
 72
1
 11
0.0
 21
-1.5E-001
  0
ENDBLK
  0
BLOCK
  2
*TX76
  3
*TX
 10
0.0
 20
0.0
 70
65
  0
TEXT
  8
126
  6
CONTINUOUS
 62
3
 10
0.0
 20
0.0
 40
1.25E-001
  1
NOTE:
 41
1.047619
 51
-4.1943E-006
  0
TEXT
  8
126
  6
CONTINUOUS
 62
3
 10
0.0
 20
-1.875E-001
 40
1.25E-001
  1
SAMPLES SHOULD BE CHECKED FOR
 41
1.047619
 51
-4.1943E-006
  0
TEXT
  8
126
  6
CONTINUOUS
 62
3
 10
0.0
 20
-3.75E-001
 40
1.25E-001
  1
FINAL FIT.
 41
1.047619
 51
-4.1943E-006
  0
TEXT
  8
126
  6
CONTINUOUS
 62
3
 10
0.0
 20
-5.625E-001
 40
1.25E-001
  1
DIMENSIONS ARE FOR COSTING ONLY
 41
1.047619
 51
-4.1943E-006
  0
ENDBLK
  0
BLOCK
  2
*D49
  3
*D
 10
0.0
 20
0.0
 70
65
  0
CIRCLE
  8
1
  6
CONTINUOUS
 62
3
 10
1.5075349E+001
 20
1.4016892E+001
 40
2.0E-001
  0
TEXT
  8
1
  6
CONTINUOUS
 62
3
 10
1.4975349E+001
 20
1.3916892E+001
 40
2.0E-001
  1
A
  0
ENDBLK
  0
BLOCK
  2
*D53
  3
*D
 10
0.0
 20
0.0
 70
65
  0
CIRCLE
  8
1
  6
CONTINUOUS
 62
3
 10
2.7702706E+001
 20
1.5956163
 40
1.25E-001
  0
TEXT
  8
1
  6
CONTINUOUS
 62
3
 10
2.7640206E+001
 20
1.5331163
 40
1.25E-001
  1
B
  0
ENDBLK
  0
BLOCK
  2
*D1630
  3
*D
 10
0.0
 20
0.0
 70
65
  0
LINE
  8
1
  6
CONTINUOUS
 62
2
 10
-6.44375E+002
 20
2.85435E+002
 11
-2.8526615E+002
 21
2.85435E+002
  0
LINE
  8
1
  6
CONTINUOUS
 62
2
 10
-6.44375E+002
 20
-2.13435E+002
 11
-2.8526615E+002
 21
-2.13435E+002
  0
SOLID
  8
1
  6
CONTINUOUS
 62
0
 10
-2.8651615E+002
 20
2.85435E+002
 11
-2.8784949E+002
 21
2.77435E+002
 12
-2.8518281E+002
 22
2.77435E+002
 13
-2.8518281E+002
 23
2.77435E+002
  0
SOLID
  8
1
  6
CONTINUOUS
 62
0
 10
-2.8651615E+002
 20
-2.13435E+002
 11
-2.8518281E+002
 21
-2.05435E+002
 12
-2.8784949E+002
 22
-2.05435E+002
 13
-2.8784949E+002
 23
-2.05435E+002
  0
LINE
  8
1
  6
CONTINUOUS
 62
2
 10
-2.8651615E+002
 20
2.85435E+002
 11
-2.8651615E+002
 21
3.6E+001
  0
LINE
  8
1
  6
CONTINUOUS
 62
2
 10
-2.8651615E+002
 20
-2.13435E+002
 11
-2.8651615E+002
 21
3.6E+001
  0
TEXT
  8
1
  6
CONTINUOUS
 62
2
 10
-2.8714215E+002
 20
-3.825E+001
 40
1.8E+001
  1
498.87
 50
9.0E+001
  0
TEXT
  8
1
  6
CONTINUOUS
 62
2
 10
-2.8714215E+002
 20
7.425E+001
 40
1.8E+001
  1
%%p0
 50
9.0E+001
  0
ENDBLK
  0
BLOCK
  2
*D1633
  3
*D
 10
0.0
 20
0.0
 70
65
  0
LINE
  8
1
  6
CONTINUOUS
 62
2
 10
-4.5787978E+002
 20
-1.3546706E+002
 11
-4.3153027E+002
 21
-1.9786007E+002
  0
LINE
  8
1
  6
CONTINUOUS
 62
2
 10
-4.5787978E+002
 20
-1.3546706E+002
 11
-4.6917035E+002
 21
-1.0873214E+002
  0
SOLID
  8
1
  6
CONTINUOUS
 62
0
 10
-4.3153027E+002
 20
-1.9786007E+002
 11
-4.3341433E+002
 21
-1.8997159E+002
 12
-4.3587093E+002
 22
-1.9100905E+002
 13
-4.3587093E+002
 23
-1.9100905E+002
  0
TEXT
  8
1
  6
CONTINUOUS
 62
2
 10
-5.3212978E+002
 20
-1.3484106E+002
 40
1.8E+001
  1
R96.75
  0
TEXT
  8
1
  6
CONTINUOUS
 62
2
 10
-4.1962978E+002
 20
-1.3484106E+002
 40
1.8E+001
  1
%%p0
  0
ENDBLK
  0
BLOCK
  2
*D1634
  3
*D
 10
0.0
 20
0.0
 70
65
  0
LINE
  8
1
  6
CONTINUOUS
 62
2
 10
-5.4251601E+002
 20
6.820185E+001
 11
-3.7348064E+002
 21
1.0621715E+002
  0
LINE
  8
1
  6
CONTINUOUS
 62
2
 10
-5.4251601E+002
 20
6.820185E+001
 11
-6.3373036E+002
 21
4.7688152E+001
  0
SOLID
  8
1
  6
CONTINUOUS
 62
0
 10
-3.7348064E+002
 20
1.0621715E+002
 11
-3.8157824E+002
 21
1.0576268E+002
 12
-3.8099313E+002
 22
1.0316097E+002
 13
-3.8099313E+002
 23
1.0316097E+002
  0
TEXT
  8
1
  6
CONTINUOUS
 62
2
 10
-6.2576601E+002
 20
6.882785E+001
 40
1.8E+001
  1
R266.75
  0
TEXT
  8
1
  6
CONTINUOUS
 62
2
 10
-4.9526601E+002
 20
6.882785E+001
 40
1.8E+001
  1
%%p0
  0
ENDBLK
  0
BLOCK
  2
*D1635
  3
*D
 10
0.0
 20
0.0
 70
65
  0
LINE
  8
1
  6
CONTINUOUS
 62
2
 10
-5.3880228E+002
 20
1.7191373E+002
 11
-5.0319713E+002
 21
2.7138811E+002
  0
LINE
  8
1
  6
CONTINUOUS
 62
2
 10
-5.3880228E+002
 20
1.7191373E+002
 11
-5.5972821E+002
 21
1.1345046E+002
  0
SOLID
  8
1
  6
CONTINUOUS
 62
0
 10
-5.0319713E+002
 20
2.7138811E+002
 11
-5.0714845E+002
 21
2.6430539E+002
 12
-5.0463775E+002
 22
2.6340673E+002
 13
-5.0463775E+002
 23
2.6340673E+002
  0
TEXT
  8
1
  6
CONTINUOUS
 62
2
 10
-6.2205228E+002
 20
1.7253973E+002
 40
1.8E+001
  1
R167.75
  0
TEXT
  8
1
  6
CONTINUOUS
 62
2
 10
-4.9155228E+002
 20
1.7253973E+002
 40
1.8E+001
  1
%%p0
  0
ENDBLK
  0
BLOCK
  2
*D1636
  3
*D
 10
0.0
 20
0.0
 70
65
  0
LINE
  8
1
  6
CONTINUOUS
 62
2
 10
-3.334305E+002
 20
0.0
 11
-3.2060383E+002
 21
0.0
  0
LINE
  8
1
  6
CONTINUOUS
 62
2
 10
-6.44375E+002
 20
-2.13435E+002
 11
-3.2060383E+002
 21
-2.13435E+002
  0
SOLID
  8
1
  6
CONTINUOUS
 62
0
 10
-3.2185383E+002
 20
0.0
 11
-3.2318718E+002
 21
-8.0
 12
-3.2052049E+002
 22
-8.0
 13
-3.2052049E+002
 23
-8.0
  0
SOLID
  8
1
  6
CONTINUOUS
 62
0
 10
-3.2185383E+002
 20
-2.13435E+002
 11
-3.2052049E+002
 21
-2.05435E+002
 12
-3.2318718E+002
 22
-2.05435E+002
 13
-3.2318718E+002
 23
-2.05435E+002
  0
LINE
  8
1
  6
CONTINUOUS
 62
2
 10
-3.2185383E+002
 20
0.0
 11
-3.2185383E+002
 21
-1.067175E+002
  0
LINE
  8
1
  6
CONTINUOUS
 62
2
 10
-3.2185383E+002
 20
-2.13435E+002
 11
-3.2185383E+002
 21
-1.067175E+002
  0
TEXT
  8
1
  6
CONTINUOUS
 62
2
 10
-3.2247983E+002
 20
-1.607175E+002
 40
1.8E+001
  1
213.44
 50
9.0E+001
  0
ENDBLK
  0
BLOCK
  2
*D1639
  3
*D
 10
0.0
 20
0.0
 70
65
  0
LINE
  8
1
  6
CONTINUOUS
 62
2
 10
-6.5626964E+002
 20
4.8313152E+001
 11
-6.5626964E+002
 21
7.3508365E+001
  0
LINE
  8
1
  6
CONTINUOUS
 62
2
 10
-6.45E+002
 20
6.291767E+001
 11
-6.45E+002
 21
7.3508365E+001
  0
SOLID
  8
1
  6
CONTINUOUS
 62
0
 10
-6.5626964E+002
 20
7.2258365E+001
 11
-6.6426964E+002
 21
7.3591708E+001
 12
-6.6426964E+002
 22
7.0925022E+001
 13
-6.6426964E+002
 23
7.0925022E+001
  0
SOLID
  8
1
  6
CONTINUOUS
 62
0
 10
-6.45E+002
 20
7.2258365E+001
 11
-6.37E+002
 21
7.0925022E+001
 12
-6.37E+002
 22
7.3591708E+001
 13
-6.37E+002
 23
7.3591708E+001
  0
LINE
  8
1
  6
CONTINUOUS
 62
2
 10
-6.5626964E+002
 20
7.2258365E+001
 11
-7.4796964E+002
 21
7.2258365E+001
  0
LINE
  8
1
  6
CONTINUOUS
 62
2
 10
-6.29E+002
 20
7.2258365E+001
 11
-6.5626964E+002
 21
7.2258365E+001
  0
TEXT
  8
1
  6
CONTINUOUS
 62
2
 10
-7.4789464E+002
 20
7.2884365E+001
 40
1.8E+001
  1
11.27
  0
ENDBLK
  0
BLOCK
  2
*D1640
  3
*D
 10
0.0
 20
0.0
 70
65
  0
LINE
  8
1
  6
CONTINUOUS
 62
2
 10
-6.5689464E+002
 20
4.7688152E+001
 11
-7.7970416E+002
 21
4.7688152E+001
  0
LINE
  8
1
  6
CONTINUOUS
 62
2
 10
-7.48441E+002
 20
0.0
 11
-7.7970416E+002
 21
0.0
  0
SOLID
  8
1
  6
CONTINUOUS
 62
0
 10
-7.7845416E+002
 20
4.7688152E+001
 11
-7.7712081E+002
 21
5.5688152E+001
 12
-7.797875E+002
 22
5.5688152E+001
 13
-7.797875E+002
 23
5.5688152E+001
  0
SOLID
  8
1
  6
CONTINUOUS
 62
0
 10
-7.7845416E+002
 20
0.0
 11
-7.797875E+002
 21
-8.0
 12
-7.7712081E+002
 22
-8.0
 13
-7.7712081E+002
 23
-8.0
  0
LINE
  8
1
  6
CONTINUOUS
 62
2
 10
-7.7845416E+002
 20
6.3688152E+001
 11
-7.7845416E+002
 21
0.0
  0
LINE
  8
1
  6
CONTINUOUS
 62
2
 10
-7.7845416E+002
 20
0.0
 11
-7.7845416E+002
 21
-8.97E+001
  0
TEXT
  8
1
  6
CONTINUOUS
 62
2
 10
-7.7908016E+002
 20
-8.9625E+001
 40
1.8E+001
  1
47.69
 50
9.0E+001
  0
ENDBLK
  0
BLOCK
  2
*D1641
  3
*D
 10
0.0
 20
0.0
 70
65
  0
LINE
  8
1
  6
CONTINUOUS
 62
2
 10
-7.128031E+002
 20
-3.01464
 11
-7.128031E+002
 21
-3.0920202E+001
  0
LINE
  8
1
  6
CONTINUOUS
 62
2
 10
-5.5393248E+002
 20
3.552989
 11
-5.5393248E+002
 21
-3.0920202E+001
  0
SOLID
  8
1
  6
CONTINUOUS
 62
0
 10
-7.128031E+002
 20
-2.9670202E+001
 11
-7.048031E+002
 21
-3.1003545E+001
 12
-7.048031E+002
 22
-2.8336859E+001
 13
-7.048031E+002
 23
-2.8336859E+001
  0
SOLID
  8
1
  6
CONTINUOUS
 62
0
 10
-5.5393248E+002
 20
-2.9670202E+001
 11
-5.6193248E+002
 21
-2.8336859E+001
 12
-5.6193248E+002
 22
-3.1003545E+001
 13
-5.6193248E+002
 23
-3.1003545E+001
  0
LINE
  8
1
  6
CONTINUOUS
 62
2
 10
-7.128031E+002
 20
-2.9670202E+001
 11
-6.3336779E+002
 21
-2.9670202E+001
  0
LINE
  8
1
  6
CONTINUOUS
 62
2
 10
-5.5393248E+002
 20
-2.9670202E+001
 11
-6.3336779E+002
 21
-2.9670202E+001
  0
TEXT
  8
1
  6
CONTINUOUS
 62
2
 10
-9.4836779E+002
 20
-2.9044202E+001
 40
1.8E+001
  1
%%pf%%pM+5CBCE%%pM+5CCE5%%cb0%%ci0%%cc134%%cp54;1
  0
ENDBLK
  0
BLOCK
  2
*D1705
  3
*D
 10
0.0
 20
0.0
 70
65
  0
LINE
  8
1
  6
CONTINUOUS
 62
3
 10
8.2837549
 20
1.2148836E+001
 11
8.2837549
 21
1.047594E+001
  0
LINE
  8
1
  6
CONTINUOUS
 62
3
 10
1.465921E+001
 20
1.2105465E+001
 11
1.465921E+001
 21
1.047594E+001
  0
LINE
  8
1
  6
CONTINUOUS
 62
3
 10
8.2837549
 20
1.053844E+001
 11
8.5337549
 21
1.0496774E+001
  0
LINE
  8
1
  6
CONTINUOUS
 62
3
 10
8.2837549
 20
1.053844E+001
 11
8.5337549
 21
1.0580107E+001
  0
LINE
  8
1
  6
CONTINUOUS
 62
3
 10
8.5337549
 20
1.0496774E+001
 11
8.5337549
 21
1.0580107E+001
  0
LINE
  8
1
  6
CONTINUOUS
 62
3
 10
1.465921E+001
 20
1.053844E+001
 11
1.440921E+001
 21
1.0496774E+001
  0
LINE
  8
1
  6
CONTINUOUS
 62
3
 10
1.465921E+001
 20
1.053844E+001
 11
1.440921E+001
 21
1.0580107E+001
  0
LINE
  8
1
  6
CONTINUOUS
 62
3
 10
1.440921E+001
 20
1.0496774E+001
 11
1.440921E+001
 21
1.0580107E+001
  0
LINE
  8
1
  6
CONTINUOUS
 62
3
 10
8.2837549
 20
1.053844E+001
 11
9.2964826
 21
1.053844E+001
  0
LINE
  8
1
  6
CONTINUOUS
 62
3
 10
1.465921E+001
 20
1.053844E+001
 11
1.3646483E+001
 21
1.053844E+001
  0
TEXT
  8
1
  6
CONTINUOUS
 62
3
 10
9.5464826
 20
9.9384403
 40
2.0E-001
  1
[127.00 mm]
  0
TEXT
  8
1
  6
CONTINUOUS
 62
3
 10
1.1546483E+001
 20
1.008844E+001
 40
2.0E-001
  1
+.81 mm
  0
TEXT
  8
1
  6
CONTINUOUS
 62
3
 10
1.1546483E+001
 20
9.7884403
 40
2.0E-001
  1
-1.57 mm
  0
TEXT
  8
1
  6
CONTINUOUS
 62
3
 10
1.0346483E+001
 20
1.093844E+001
 40
2.0E-001
  1
5.000
  0
TEXT
  8
1
  6
CONTINUOUS
 62
3
 10
1.1396483E+001
 20
1.108844E+001
 40
2.0E-001
  1
+0.032
 41
1.0
  0
TEXT
  8
1
  6
CONTINUOUS
 62
3
 10
1.1396483E+001
 20
1.078844E+001
 40
2.0E-001
  1
-0.062
 41
1.0
  0
ENDBLK
  0
BLOCK
  2
*D1708
  3
*D
 10
0.0
 20
0.0
 70
65
  0
LINE
  8
1
  6
CONTINUOUS
 62
3
 10
1.2200708E+001
 20
2.2135994E+001
 11
2.5448189E+001
 21
2.2135994E+001
  0
LINE
  8
1
  6
CONTINUOUS
 62
3
 10
1.2200708E+001
 20
2.4954428
 11
2.5448189E+001
 21
2.4954428
  0
LINE
  8
1
  6
CONTINUOUS
 62
3
 10
2.5385689E+001
 20
2.2135994E+001
 11
2.5344022E+001
 21
2.1885994E+001
  0
LINE
  8
1
  6
CONTINUOUS
 62
3
 10
2.5385689E+001
 20
2.2135994E+001
 11
2.5427356E+001
 21
2.1885994E+001
  0
LINE
  8
1
  6
CONTINUOUS
 62
3
 10
2.5344022E+001
 20
2.1885994E+001
 11
2.5427356E+001
 21
2.1885994E+001
  0
LINE
  8
1
  6
CONTINUOUS
 62
3
 10
2.5385689E+001
 20
2.4954428
 11
2.5344022E+001
 21
2.7454428
  0
LINE
  8
1
  6
CONTINUOUS
 62
3
 10
2.5385689E+001
 20
2.4954428
 11
2.5427356E+001
 21
2.7454428
  0
LINE
  8
1
  6
CONTINUOUS
 62
3
 10
2.5344022E+001
 20
2.7454428
 11
2.5427356E+001
 21
2.7454428
  0
LINE
  8
1
  6
CONTINUOUS
 62
3
 10
2.5385689E+001
 20
2.2135994E+001
 11
2.5385689E+001
 21
1.3315718E+001
  0
LINE
  8
1
  6
CONTINUOUS
 62
3
 10
2.5385689E+001
 20
2.4954428
 11
2.5385689E+001
 21
1.1315718E+001
  0
TEXT
  8
1
  6
CONTINUOUS
 62
3
 10
2.3460689E+001
 20
1.1715718E+001
 40
2.0E-001
  1
[498.87 mm]
  0
TEXT
  8
1
  6
CONTINUOUS
 62
3
 10
2.5460689E+001
 20
1.1865718E+001
 40
2.0E-001
  1
+.81 mm
  0
TEXT
  8
1
  6
CONTINUOUS
 62
3
 10
2.5460689E+001
 20
1.1565718E+001
 40
2.0E-001
  1
-1.57 mm
  0
TEXT
  8
1
  6
CONTINUOUS
 62
3
 10
2.4160689E+001
 20
1.2715718E+001
 40
2.0E-001
  1
19.641
 41
1.0
  0
TEXT
  8
1
  6
CONTINUOUS
 62
3
 10
2.5410689E+001
 20
1.2865718E+001
 40
2.0E-001
  1
+0.032
 41
1.0
  0
TEXT
  8
1
  6
CONTINUOUS
 62
3
 10
2.5410689E+001
 20
1.2565718E+001
 40
2.0E-001
  1
-0.062
 41
1.0
  0
ENDBLK
  0
BLOCK
  2
*D1713
  3
*D
 10
0.0
 20
0.0
 70
65
  0
LINE
  8
1
  6
CONTINUOUS
 62
3
 10
2.3089487E+001
 20
1.0773396E+001
 11
2.3089487E+001
 21
1.3862293
  0
LINE
  8
1
  6
CONTINUOUS
 62
3
 10
1.0619284
 20
1.0773396E+001
 11
1.0619284
 21
1.3862293
  0
LINE
  8
1
  6
CONTINUOUS
 62
3
 10
2.3089487E+001
 20
1.4487293
 11
2.2839487E+001
 21
1.490396
  0
LINE
  8
1
  6
CONTINUOUS
 62
3
 10
2.3089487E+001
 20
1.4487293
 11
2.2839487E+001
 21
1.4070626
  0
LINE
  8
1
  6
CONTINUOUS
 62
3
 10
2.2839487E+001
 20
1.490396
 11
2.2839487E+001
 21
1.4070626
  0
LINE
  8
1
  6
CONTINUOUS
 62
3
 10
1.0619284
 20
1.4487293
 11
1.3119284
 21
1.490396
  0
LINE
  8
1
  6
CONTINUOUS
 62
3
 10
1.0619284
 20
1.4487293
 11
1.3119284
 21
1.4070626
  0
LINE
  8
1
  6
CONTINUOUS
 62
3
 10
1.3119284
 20
1.490396
 11
1.3119284
 21
1.4070626
  0
LINE
  8
1
  6
CONTINUOUS
 62
3
 10
2.3089487E+001
 20
1.4487293
 11
1.4250708E+001
 21
1.4487293
  0
LINE
  8
1
  6
CONTINUOUS
 62
3
 10
1.0619284
 20
1.4487293
 11
9.9007079
 21
1.4487293
  0
TEXT
  8
1
  6
CONTINUOUS
 62
3
 10
1.0150708E+001
 20
8.487293E-001
 40
2.0E-001
  1
[559.50 mm]
  0
TEXT
  8
1
  6
CONTINUOUS
 62
3
 10
1.2150708E+001
 20
9.987293E-001
 40
2.0E-001
  1
+.81 mm
  0
TEXT
  8
1
  6
CONTINUOUS
 62
3
 10
1.2150708E+001
 20
6.987293E-001
 40
2.0E-001
  1
-1.57 mm
  0
TEXT
  8
1
  6
CONTINUOUS
 62
3
 10
1.0850708E+001
 20
1.8487293
 40
2.0E-001
  1
22.028
 41
1.0
  0
TEXT
  8
1
  6
CONTINUOUS
 62
3
 10
1.2100708E+001
 20
1.9987293
 40
2.0E-001
  1
+0.032
 41
1.0
  0
TEXT
  8
1
  6
CONTINUOUS
 62
3
 10
1.2100708E+001
 20
1.6987293
 40
2.0E-001
  1
-0.062
 41
1.0
  0
ENDBLK
  0
BLOCK
  2
*D1718
  3
*D
 10
0.0
 20
0.0
 70
65
  0
LINE
  8
1
  6
CONTINUOUS
 62
3
 10
1.7581714E+001
 20
1.9418332E+001
 11
1.8526255E+001
 21
2.1200026E+001
  0
LINE
  8
1
  6
CONTINUOUS
 62
3
 10
1.7581714E+001
 20
1.9418332E+001
 11
1.5432865E+001
 21
1.5364949E+001
  0
LINE
  8
1
  6
CONTINUOUS
 62
3
 10
1.8526255E+001
 20
2.1200026E+001
 11
1.8372345E+001
 21
2.0998661E+001
  0
LINE
  8
1
  6
CONTINUOUS
 62
3
 10
1.8526255E+001
 20
2.1200026E+001
 11
1.8445972E+001
 21
2.0959629E+001
  0
LINE
  8
1
  6
CONTINUOUS
 62
3
 10
1.8372345E+001
 20
2.0998661E+001
 11
1.8445972E+001
 21
2.0959629E+001
  0
TEXT
  8
1
  6
CONTINUOUS
 62
3
 10
1.6721459E+001
 20
1.8516186E+001
 40
2.0E-001
  1
[167.75]
 50
6.207028E+001
  0
TEXT
  8
1
  6
CONTINUOUS
 62
3
 10
1.7255718E+001
 20
1.9817521E+001
 40
1.5E-001
  1
+.81
 50
6.207028E+001
  0
TEXT
  8
1
  6
CONTINUOUS
 62
3
 10
1.7454511E+001
 20
1.9712134E+001
 40
1.5E-001
  1
-1.57
 50
6.207028E+001
  0
TEXT
  8
1
  6
CONTINUOUS
 62
3
 10
1.6006042E+001
 20
1.9036934E+001
 40
2.0E-001
  1
R6.604
 41
1.0
 50
6.207028E+001
  0
TEXT
  8
1
  6
CONTINUOUS
 62
3
 10
1.6470042E+001
 20
2.0205741E+001
 40
1.5E-001
  1
+0.032
 50
6.207028E+001
  0
TEXT
  8
1
  6
CONTINUOUS
 62
3
 10
1.6668835E+001
 20
2.0100354E+001
 40
1.5E-001
  1
-0.062
 50
6.207028E+001
  0
ENDBLK
  0
BLOCK
  2
*D1721
  3
*D
 10
0.0
 20
0.0
 70
65
  0
LINE
  8
1
  6
CONTINUOUS
 62
3
 10
1.9937092E+001
 20
5.6162256
 11
2.160355E+001
 21
3.8389854
  0
LINE
  8
1
  6
CONTINUOUS
 62
3
 10
1.9937092E+001
 20
5.6162256
 11
1.8998135E+001
 21
6.6176025
  0
LINE
  8
1
  6
CONTINUOUS
 62
3
 10
2.160355E+001
 20
3.8389854
 11
2.1462944E+001
 21
4.0498548
  0
LINE
  8
1
  6
CONTINUOUS
 62
3
 10
2.160355E+001
 20
3.8389854
 11
2.1402154E+001
 21
3.9928544
  0
LINE
  8
1
  6
CONTINUOUS
 62
3
 10
2.1462944E+001
 20
4.0498548
 11
2.1402154E+001
 21
3.9928544
  0
TEXT
  8
1
  6
CONTINUOUS
 62
3
 10
1.9430885E+001
 20
6.6495019
 40
2.0E-001
  1
[96.75]
 50
3.1315745E+002
  0
TEXT
  8
1
  6
CONTINUOUS
 62
3
 10
2.0351994E+001
 20
5.8681806
 40
1.5E-001
  1
+.81
 50
3.1315745E+002
  0
TEXT
  8
1
  6
CONTINUOUS
 62
3
 10
2.0187862E+001
 20
5.7142793
 40
1.5E-001
  1
-1.57
 50
3.1315745E+002
  0
TEXT
  8
1
  6
CONTINUOUS
 62
3
 10
2.0087006E+001
 20
7.2304539
 40
2.0E-001
  1
R3.809
 41
1.0
 50
3.1315745E+002
  0
TEXT
  8
1
  6
CONTINUOUS
 62
3
 10
2.1042316E+001
 20
6.4126588
 40
1.5E-001
  1
+0.032
 50
3.1315745E+002
  0
TEXT
  8
1
  6
CONTINUOUS
 62
3
 10
2.0878184E+001
 20
6.2587575
 40
1.5E-001
  1
-0.062
 50
3.1315745E+002
  0
ENDBLK
  0
ENDSEC
  0
SECTION
  2
ENTITIES
  0
TEXT
  8
126
  6
CONTINUOUS
 62
3
 10
3.2126207E+001
 20
1.4683616
 40
1.0E-001
  1
PW
  0
INSERT
  2
*TX28
  8
126
 10
3.0533571E+001
 20
9.9798146E-001
  0
INSERT
  2
*TX35
  8
1
 10
1.1632021E+001
 20
1.465921E+001
  0
INSERT
  2
*D49
  8
1
 10
0.0
 20
0.0
  0
INSERT
  2
*D53
  8
1
 10
0.0
 20
0.0
  0
INSERT
  2
*TX39
  8
126
 10
2.8739638E+001
 20
1.6110718
  0
TEXT
  8
126
  6
CONTINUOUS
 62
3
 10
2.6340416E+001
 20
6.490649E-001
 40
8.0E-002
  1
B - ECNBV07085 25MAY07
 41
9.5E-001
 50
9.0E+001
  0
LINE
  8
180
  6
CONTINUOUS
 62
6
 10
4.9646759E-001
 20
2.2490792E+001
 11
4.9646759E-001
 21
4.9079156E-001
  0
LINE
  8
180
  6
CONTINUOUS
 62
6
 10
3.4496468E+001
 20
2.2490792E+001
 11
3.4496468E+001
 21
4.9079156E-001
  0
LINE
  8
180
  6
CONTINUOUS
 62
6
 10
3.4499256E+001
 20
4.9079156E-001
 11
4.9646759E-001
 21
4.9079156E-001
  0
LINE
  8
180
  6
CONTINUOUS
 62
6
 10
3.4499256E+001
 20
2.2490792E+001
 11
4.9646759E-001
 21
2.2490792E+001
  0
INSERT
  2
*TX76
  8
126
 10
2.9567249E+001
 20
1.8701779E+001
  0
TEXT
  8
180
  6
CONTINUOUS
 62
1
 10
3.208184E+001
 20
2.3341038
 40
1.25E-001
  1
MANUFACTURING COMPANY
 41
9.0E-001
  0
TEXT
  8
126
  6
CONTINUOUS
 62
3
 10
3.3211461E+001
 20
2.254162
 40
7.5E-002
  1
BROADVIEW, ILLINOIS
 72
1
 73
2
 11
3.2498961E+001
 21
2.216662
  0
LINE
  8
126
  6
CONTINUOUS
 62
3
 10
3.0892619E+001
 20
2.3357967
 11
3.108225E+001
 21
2.3357967
  0
LINE
  8
126
  6
CONTINUOUS
 62
3
 10
3.0566193E+001
 20
2.496851
 11
3.0828501E+001
 21
2.496851
  0
LINE
  8
126
  6
CONTINUOUS
 62
3
 10
3.0532968E+001
 20
2.3084217
 11
3.0807968E+001
 21
2.3084217
  0
LINE
  8
126
  6
CONTINUOUS
 62
3
 10
3.0532968E+001
 20
2.3084217
 11
3.0566193E+001
 21
2.496851
  0
LINE
  8
126
  6
CONTINUOUS
 62
3
 10
3.0613507E+001
 20
2.469476
 11
3.0823674E+001
 21
2.469476
  0
LINE
  8
126
  6
CONTINUOUS
 62
3
 10
3.0835624E+001
 20
2.3084217
 11
3.086885E+001
 21
2.496851
  0
LINE
  8
126
  6
CONTINUOUS
 62
3
 10
3.086885E+001
 20
2.496851
 11
3.0921017E+001
 21
2.496851
  0
LINE
  8
126
  6
CONTINUOUS
 62
3
 10
3.0835624E+001
 20
2.3084217
 11
3.1077423E+001
 21
2.3084217
  0
LINE
  8
126
  6
CONTINUOUS
 62
3
 10
3.0892619E+001
 20
2.3357967
 11
3.0921017E+001
 21
2.496851
  0
LINE
  8
126
  6
CONTINUOUS
 62
3
 10
3.0604146E+001
 20
2.4163864
 11
3.0613507E+001
 21
2.469476
  0
LINE
  8
126
  6
CONTINUOUS
 62
3
 10
3.0823674E+001
 20
2.469476
 11
3.0828501E+001
 21
2.496851
  0
LINE
  8
126
  6
CONTINUOUS
 62
3
 10
3.0796771E+001
 20
2.3888864
 11
3.080162E+001
 21
2.4163864
  0
LINE
  8
126
  6
CONTINUOUS
 62
3
 10
3.2030549E+001
 20
2.496851
 11
3.1876273E+001
 21
2.3816717
  0
LINE
  8
126
  6
CONTINUOUS
 62
3
 10
3.2030549E+001
 20
2.496851
 11
3.1969328E+001
 21
2.496851
  0
LINE
  8
126
  6
CONTINUOUS
 62
3
 10
3.1969328E+001
 20
2.496851
 11
3.1855977E+001
 21
2.4122251
  0
LINE
  8
126
  6
CONTINUOUS
 62
3
 10
3.0807968E+001
 20
2.3084217
 11
3.0812795E+001
 21
2.3357967
  0
LINE
  8
126
  6
CONTINUOUS
 62
3
 10
3.0593517E+001
 20
2.3357967
 11
3.0602878E+001
 21
2.3888864
  0
LINE
  8
126
  6
CONTINUOUS
 62
3
 10
3.080162E+001
 20
2.4163864
 11
3.0604146E+001
 21
2.4163864
  0
LINE
  8
126
  6
CONTINUOUS
 62
3
 10
3.0602878E+001
 20
2.3888864
 11
3.0796771E+001
 21
2.3888864
  0
LINE
  8
126
  6
CONTINUOUS
 62
3
 10
3.1431123E+001
 20
2.496851
 11
3.1287999E+001
 21
2.4156594
  0
LINE
  8
126
  6
CONTINUOUS
 62
3
 10
3.0593517E+001
 20
2.3357967
 11
3.0812795E+001
 21
2.3357967
  0
LINE
  8
126
  6
CONTINUOUS
 62
3
 10
3.1077423E+001
 20
2.3084217
 11
3.108225E+001
 21
2.3357967
  0
LINE
  8
126
  6
CONTINUOUS
 62
3
 10
3.1356896E+001
 20
2.496851
 11
3.1431123E+001
 21
2.496851
  0
LINE
  8
126
  6
CONTINUOUS
 62
3
 10
3.1323502E+001
 20
2.3084217
 11
3.1404723E+001
 21
2.3084217
  0
LINE
  8
126
  6
CONTINUOUS
 62
3
 10
3.1163523E+001
 20
2.3450467
 11
3.1157065E+001
 21
2.3084217
  0
LINE
  8
126
  6
CONTINUOUS
 62
3
 10
3.1190291E+001
 20
2.496851
 11
3.1171773E+001
 21
2.3918345
  0
LINE
  8
126
  6
CONTINUOUS
 62
3
 10
3.1578761E+001
 20
2.496851
 11
3.1670261E+001
 21
2.496851
  0
LINE
  8
126
  6
CONTINUOUS
 62
3
 10
3.1700867E+001
 20
2.3084217
 11
3.1761886E+001
 21
2.3084217
  0
LINE
  8
126
  6
CONTINUOUS
 62
3
 10
3.1237784E+001
 20
2.3871733
 11
3.1163523E+001
 21
2.3450467
  0
LINE
  8
126
  6
CONTINUOUS
 62
3
 10
3.1356896E+001
 20
2.496851
 11
3.1171773E+001
 21
2.3918345
  0
LINE
  8
126
  6
CONTINUOUS
 62
3
 10
3.1190291E+001
 20
2.496851
 11
3.1138123E+001
 21
2.496851
  0
LINE
  8
126
  6
CONTINUOUS
 62
3
 10
3.1104898E+001
 20
2.3084217
 11
3.1138123E+001
 21
2.496851
  0
LINE
  8
126
  6
CONTINUOUS
 62
3
 10
3.1404723E+001
 20
2.3084217
 11
3.1287999E+001
 21
2.4156594
  0
LINE
  8
126
  6
CONTINUOUS
 62
3
 10
3.1323502E+001
 20
2.3084217
 11
3.1237784E+001
 21
2.3871733
  0
LINE
  8
126
  6
CONTINUOUS
 62
3
 10
3.1157065E+001
 20
2.3084217
 11
3.1104898E+001
 21
2.3084217
  0
LINE
  8
126
  6
CONTINUOUS
 62
3
 10
3.1413886E+001
 20
2.3084217
 11
3.1462552E+001
 21
2.3084217
  0
LINE
  8
126
  6
CONTINUOUS
 62
3
 10
3.1517677E+001
 20
2.3714217
 11
3.1615738E+001
 21
2.4834923
  0
LINE
  8
126
  6
CONTINUOUS
 62
3
 10
3.1670233E+001
 20
2.3714217
 11
3.1615738E+001
 21
2.4834923
  0
LINE
  8
126
  6
CONTINUOUS
 62
3
 10
3.1413886E+001
 20
2.3084217
 11
3.1578761E+001
 21
2.496851
  0
LINE
  8
126
  6
CONTINUOUS
 62
3
 10
3.1494599E+001
 20
2.3450467
 11
3.1683058E+001
 21
2.3450467
  0
LINE
  8
126
  6
CONTINUOUS
 62
3
 10
3.1761886E+001
 20
2.3084217
 11
3.1670261E+001
 21
2.496851
  0
LINE
  8
126
  6
CONTINUOUS
 62
3
 10
3.1517677E+001
 20
2.3714217
 11
3.1670233E+001
 21
2.3714217
  0
LINE
  8
126
  6
CONTINUOUS
 62
3
 10
3.1462552E+001
 20
2.3084217
 11
3.1494599E+001
 21
2.3450467
  0
LINE
  8
126
  6
CONTINUOUS
 62
3
 10
3.1700867E+001
 20
2.3084217
 11
3.1683058E+001
 21
2.3450467
  0
LINE
  8
126
  6
CONTINUOUS
 62
3
 10
3.1969328E+001
 20
2.496851
 11
3.2030549E+001
 21
2.496851
  0
LINE
  8
126
  6
CONTINUOUS
 62
3
 10
3.1807636E+001
 20
2.3084217
 11
3.1863357E+001
 21
2.3084217
  0
LINE
  8
126
  6
CONTINUOUS
 62
3
 10
3.1807636E+001
 20
2.3084217
 11
3.1818771E+001
 21
2.3715725
  0
LINE
  8
126
  6
CONTINUOUS
 62
3
 10
3.1863357E+001
 20
2.3084217
 11
3.1876273E+001
 21
2.3816717
  0
LINE
  8
126
  6
CONTINUOUS
 62
3
 10
3.1776295E+001
 20
2.496851
 11
3.1855977E+001
 21
2.4122251
  0
LINE
  8
126
  6
CONTINUOUS
 62
3
 10
3.1818771E+001
 20
2.3715725
 11
3.1700812E+001
 21
2.496851
  0
LINE
  8
126
  6
CONTINUOUS
 62
3
 10
3.1700812E+001
 20
2.496851
 11
3.1776295E+001
 21
2.496851
  0
LINE
  8
126
  6
CONTINUOUS
 62
3
 10
3.2019501E+001
 20
2.496851
 11
3.2024223E+001
 21
2.4921283
  0
LINE
  8
126
  6
CONTINUOUS
 62
3
 10
3.2008452E+001
 20
2.496851
 11
3.2017898E+001
 21
2.4874056
  0
LINE
  8
126
  6
CONTINUOUS
 62
3
 10
3.1997404E+001
 20
2.496851
 11
3.2011572E+001
 21
2.4826829
  0
LINE
  8
126
  6
CONTINUOUS
 62
3
 10
3.1986355E+001
 20
2.496851
 11
3.2005246E+001
 21
2.4779601
  0
LINE
  8
126
  6
CONTINUOUS
 62
3
 10
3.1975307E+001
 20
2.496851
 11
3.199892E+001
 21
2.4732374
  0
LINE
  8
126
  6
CONTINUOUS
 62
3
 10
3.1966425E+001
 20
2.4946836
 11
3.1992594E+001
 21
2.4685147
  0
LINE
  8
126
  6
CONTINUOUS
 62
3
 10
3.19601E+001
 20
2.4899609
 11
3.1986268E+001
 21
2.4637919
  0
LINE
  8
126
  6
CONTINUOUS
 62
3
 10
3.1953774E+001
 20
2.4852382
 11
3.1979943E+001
 21
2.4590692
  0
LINE
  8
126
  6
CONTINUOUS
 62
3
 10
3.1947448E+001
 20
2.4805155
 11
3.1973617E+001
 21
2.4543465
  0
LINE
  8
126
  6
CONTINUOUS
 62
3
 10
3.1941122E+001
 20
2.4757927
 11
3.1967291E+001
 21
2.4496238
  0
LINE
  8
126
  6
CONTINUOUS
 62
3
 10
3.1934796E+001
 20
2.47107
 11
3.1960965E+001
 21
2.444901
  0
LINE
  8
126
  6
CONTINUOUS
 62
3
 10
3.192847E+001
 20
2.4663473
 11
3.1954639E+001
 21
2.4401783
  0
LINE
  8
126
  6
CONTINUOUS
 62
3
 10
3.1922145E+001
 20
2.4616246
 11
3.1948314E+001
 21
2.4354556
  0
LINE
  8
126
  6
CONTINUOUS
 62
3
 10
3.1915819E+001
 20
2.4569018
 11
3.1941988E+001
 21
2.4307329
  0
LINE
  8
126
  6
CONTINUOUS
 62
3
 10
3.1909493E+001
 20
2.4521791
 11
3.1935662E+001
 21
2.4260101
  0
LINE
  8
126
  6
CONTINUOUS
 62
3
 10
3.1903167E+001
 20
2.4474564
 11
3.1929336E+001
 21
2.4212874
  0
LINE
  8
126
  6
CONTINUOUS
 62
3
 10
3.1896841E+001
 20
2.4427336
 11
3.192301E+001
 21
2.4165647
  0
LINE
  8
126
  6
CONTINUOUS
 62
3
 10
3.1890516E+001
 20
2.4380109
 11
3.1916685E+001
 21
2.4118419
  0
LINE
  8
126
  6
CONTINUOUS
 62
3
 10
3.188419E+001
 20
2.4332882
 11
3.1910359E+001
 21
2.4071192
  0
LINE
  8
126
  6
CONTINUOUS
 62
3
 10
3.1877864E+001
 20
2.4285655
 11
3.1904033E+001
 21
2.4023965
  0
LINE
  8
126
  6
CONTINUOUS
 62
3
 10
3.1871538E+001
 20
2.4238427
 11
3.1897707E+001
 21
2.3976738
  0
LINE
  8
126
  6
CONTINUOUS
 62
3
 10
3.1865212E+001
 20
2.41912
 11
3.1891381E+001
 21
2.392951
  0
LINE
  8
126
  6
CONTINUOUS
 62
3
 10
3.1858887E+001
 20
2.4143973
 11
3.1885055E+001
 21
2.3882283
  0
LINE
  8
126
  6
CONTINUOUS
 62
3
 10
3.1765384E+001
 20
2.496851
 11
3.187873E+001
 21
2.3835056
  0
LINE
  8
126
  6
CONTINUOUS
 62
3
 10
3.1754336E+001
 20
2.496851
 11
3.187526E+001
 21
2.3759265
  0
LINE
  8
126
  6
CONTINUOUS
 62
3
 10
3.1743287E+001
 20
2.496851
 11
3.1873604E+001
 21
2.3665341
  0
LINE
  8
126
  6
CONTINUOUS
 62
3
 10
3.1732239E+001
 20
2.496851
 11
3.1871948E+001
 21
2.3571417
  0
LINE
  8
126
  6
CONTINUOUS
 62
3
 10
3.172119E+001
 20
2.496851
 11
3.1870292E+001
 21
2.3477493
  0
LINE
  8
126
  6
CONTINUOUS
 62
3
 10
3.1710141E+001
 20
2.496851
 11
3.1868636E+001
 21
2.3383568
  0
LINE
  8
126
  6
CONTINUOUS
 62
3
 10
3.1728512E+001
 20
2.4674319
 11
3.186698E+001
 21
2.3289644
  0
LINE
  8
126
  6
CONTINUOUS
 62
3
 10
3.1817954E+001
 20
2.3669411
 11
3.1865323E+001
 21
2.319572
  0
LINE
  8
126
  6
CONTINUOUS
 62
3
 10
3.1816298E+001
 20
2.3575487
 11
3.1863667E+001
 21
2.3101796
  0
LINE
  8
126
  6
CONTINUOUS
 62
3
 10
3.1665947E+001
 20
2.496851
 11
3.1674343E+001
 21
2.4884549
  0
LINE
  8
126
  6
CONTINUOUS
 62
3
 10
3.1814642E+001
 20
2.3481563
 11
3.1854377E+001
 21
2.3084217
  0
LINE
  8
126
  6
CONTINUOUS
 62
3
 10
3.1654899E+001
 20
2.496851
 11
3.1684801E+001
 21
2.466949
  0
LINE
  8
126
  6
CONTINUOUS
 62
3
 10
3.1812986E+001
 20
2.3387639
 11
3.1843328E+001
 21
2.3084217
  0
LINE
  8
126
  6
CONTINUOUS
 62
3
 10
3.164385E+001
 20
2.496851
 11
3.1695258E+001
 21
2.445443
  0
LINE
  8
126
  6
CONTINUOUS
 62
3
 10
3.181133E+001
 20
2.3293715
 11
3.183228E+001
 21
2.3084217
  0
LINE
  8
126
  6
CONTINUOUS
 62
3
 10
3.1632802E+001
 20
2.496851
 11
3.1705716E+001
 21
2.4239371
  0
LINE
  8
126
  6
CONTINUOUS
 62
3
 10
3.1809674E+001
 20
2.3199791
 11
3.1821231E+001
 21
2.3084217
  0
LINE
  8
126
  6
CONTINUOUS
 62
3
 10
3.1621753E+001
 20
2.496851
 11
3.1716173E+001
 21
2.4024311
  0
LINE
  8
126
  6
CONTINUOUS
 62
3
 10
3.1808018E+001
 20
2.3105867
 11
3.1810182E+001
 21
2.3084217
  0
LINE
  8
126
  6
CONTINUOUS
 62
3
 10
3.1610705E+001
 20
2.496851
 11
3.172663E+001
 21
2.3809251
  0
LINE
  8
126
  6
CONTINUOUS
 62
3
 10
3.1599656E+001
 20
2.496851
 11
3.1614467E+001
 21
2.4820399
  0
LINE
  8
126
  6
CONTINUOUS
 62
3
 10
3.1618315E+001
 20
2.4781916
 11
3.1737088E+001
 21
2.3594192
  0
LINE
  8
126
  6
CONTINUOUS
 62
3
 10
3.1588607E+001
 20
2.496851
 11
3.1609311E+001
 21
2.4761474
  0
TEXT
  8
126
  6
CONTINUOUS
 62
3
 10
3.0569468E+001
 20
1.4713228
 40
9.375E-002
  1
DR.BY
 41
9.0E-001
  0
TEXT
  8
126
  6
CONTINUOUS
 62
3
 10
2.656173E+001
 20
1.8984573
 40
8.0E-002
  1
MATERIAL
  0
TEXT
  8
126
  6
CONTINUOUS
 62
3
 10
2.6545335E+001
 20
2.4148279
 40
8.0E-002
  1
FINISH
  0
TEXT
  8
126
  6
CONTINUOUS
 62
3
 10
3.1564358E+001
 20
1.4697254
 40
9.375E-002
  1
CH.BY
 41
9.0E-001
  0
TEXT
  8
126
  6
CONTINUOUS
 62
3
 10
3.0572224E+001
 20
1.2673485
 40
9.375E-002
  1
SCALE
 41
1.04
  0
TEXT
  8
1
  6
CONTINUOUS
 62
1
 10
3.257551E+001
 20
8.8368716E-001
 40
1.875E-001
  1
REV-B
 41
9.75E-001
  0
TEXT
  8
126
  6
CONTINUOUS
 62
3
 10
3.2566778E+001
 20
1.4524017
 40
9.375E-002
  1
DATE
 41
1.025
  0
LINE
  8
180
  6
CONTINUOUS
 62
6
 10
2.6496465E+001
 20
4.9079156E-001
 11
2.6496465E+001
 21
2.5532919
  0
LINE
  8
180
  6
CONTINUOUS
 62
6
 10
2.6496465E+001
 20
2.5532919
 11
3.4496468E+001
 21
2.5532919
  0
LINE
  8
180
  6
CONTINUOUS
 62
6
 10
3.0496466E+001
 20
2.5532919
 11
3.0496466E+001
 21
4.9079156E-001
  0
LINE
  8
180
  6
CONTINUOUS
 62
6
 10
3.0496466E+001
 20
8.0329156E-001
 11
3.4496468E+001
 21
8.0329156E-001
  0
LINE
  8
180
  6
CONTINUOUS
 62
6
 10
3.4496468E+001
 20
1.1157917
 11
3.0496466E+001
 21
1.1157917
  0
LINE
  8
180
  6
CONTINUOUS
 62
6
 10
3.0496466E+001
 20
1.6157917
 11
3.4496468E+001
 21
1.6157917
  0
LINE
  8
180
  6
CONTINUOUS
 62
6
 10
3.0496466E+001
 20
2.5532919
 11
3.0496466E+001
 21
2.1157917
  0
LINE
  8
180
  6
CONTINUOUS
 62
6
 10
3.0496466E+001
 20
2.1157917
 11
3.4496468E+001
 21
2.1157917
  0
LINE
  8
180
  6
CONTINUOUS
 62
6
 10
3.2496466E+001
 20
1.6157917
 11
3.2496466E+001
 21
8.0329156E-001
  0
LINE
  8
180
  6
CONTINUOUS
 62
6
 10
3.0496466E+001
 20
1.4282917
 11
3.2496466E+001
 21
1.4282917
  0
LINE
  8
180
  6
CONTINUOUS
 62
6
 10
3.1496466E+001
 20
1.4282917
 11
3.1496466E+001
 21
1.6157917
  0
LINE
  8
180
  6
CONTINUOUS
 62
6
 10
3.0496466E+001
 20
2.0532917
 11
2.6496465E+001
 21
2.0532917
  0
LINE
  8
180
  6
CONTINUOUS
 62
6
 10
3.0496466E+001
 20
1.1157917
 11
2.6496465E+001
 21
1.1157917
  0
LINE
  8
126
  6
CONTINUOUS
 62
3
 10
3.1628773E+001
 20
2.4566857
 11
3.1747545E+001
 21
2.3379132
  0
LINE
  8
126
  6
CONTINUOUS
 62
3
 10
3.15782E+001
 20
2.4962101
 11
3.1604155E+001
 21
2.4702548
  0
LINE
  8
126
  6
CONTINUOUS
 62
3
 10
3.163923E+001
 20
2.4351797
 11
3.1758003E+001
 21
2.3164073
  0
LINE
  8
126
  6
CONTINUOUS
 62
3
 10
3.1573044E+001
 20
2.4903175
 11
3.1598999E+001
 21
2.4643622
  0
LINE
  8
126
  6
CONTINUOUS
 62
3
 10
3.1649688E+001
 20
2.4136738
 11
3.175494E+001
 21
2.3084217
  0
LINE
  8
126
  6
CONTINUOUS
 62
3
 10
3.1567888E+001
 20
2.4844249
 11
3.1593843E+001
 21
2.4584697
  0
LINE
  8
126
  6
CONTINUOUS
 62
3
 10
3.1660145E+001
 20
2.3921678
 11
3.1743891E+001
 21
2.3084217
  0
LINE
  8
126
  6
CONTINUOUS
 62
3
 10
3.1562732E+001
 20
2.4785324
 11
3.1588687E+001
 21
2.4525771
  0
LINE
  8
126
  6
CONTINUOUS
 62
3
 10
3.1669843E+001
 20
2.3714217
 11
3.1732843E+001
 21
2.3084217
  0
LINE
  8
126
  6
CONTINUOUS
 62
3
 10
3.1557576E+001
 20
2.4726398
 11
3.1583531E+001
 21
2.4466845
  0
LINE
  8
126
  6
CONTINUOUS
 62
3
 10
3.1658794E+001
 20
2.3714217
 11
3.1721794E+001
 21
2.3084217
  0
LINE
  8
126
  6
CONTINUOUS
 62
3
 10
3.155242E+001
 20
2.4667472
 11
3.1578375E+001
 21
2.440792
  0
LINE
  8
126
  6
CONTINUOUS
 62
3
 10
3.1647746E+001
 20
2.3714217
 11
3.1674121E+001
 21
2.3450467
  0
LINE
  8
126
  6
CONTINUOUS
 62
3
 10
3.1691517E+001
 20
2.32765
 11
3.1710746E+001
 21
2.3084217
  0
LINE
  8
126
  6
CONTINUOUS
 62
3
 10
3.1547264E+001
 20
2.4608547
 11
3.1573219E+001
 21
2.4348994
  0
LINE
  8
126
  6
CONTINUOUS
 62
3
 10
3.1636697E+001
 20
2.3714217
 11
3.1663072E+001
 21
2.3450467
  0
LINE
  8
126
  6
CONTINUOUS
 62
3
 10
3.1542108E+001
 20
2.4549621
 11
3.1568063E+001
 21
2.4290068
  0
LINE
  8
126
  6
CONTINUOUS
 62
3
 10
3.1625649E+001
 20
2.3714217
 11
3.1652024E+001
 21
2.3450467
  0
LINE
  8
126
  6
CONTINUOUS
 62
3
 10
3.1536952E+001
 20
2.4490695
 11
3.1562907E+001
 21
2.4231143
  0
LINE
  8
126
  6
CONTINUOUS
 62
3
 10
3.16146E+001
 20
2.3714217
 11
3.1640975E+001
 21
2.3450467
  0
LINE
  8
126
  6
CONTINUOUS
 62
3
 10
3.1531796E+001
 20
2.443177
 11
3.1557751E+001
 21
2.4172217
  0
LINE
  8
126
  6
CONTINUOUS
 62
3
 10
3.1603551E+001
 20
2.3714217
 11
3.1629926E+001
 21
2.3450467
  0
LINE
  8
126
  6
CONTINUOUS
 62
3
 10
3.152664E+001
 20
2.4372844
 11
3.1552595E+001
 21
2.4113291
  0
LINE
  8
126
  6
CONTINUOUS
 62
3
 10
3.1592503E+001
 20
2.3714217
 11
3.1618878E+001
 21
2.3450467
  0
LINE
  8
126
  6
CONTINUOUS
 62
3
 10
3.1521484E+001
 20
2.4313918
 11
3.1547439E+001
 21
2.4054365
  0
LINE
  8
126
  6
CONTINUOUS
 62
3
 10
3.1581454E+001
 20
2.3714217
 11
3.1607829E+001
 21
2.3450467
  0
LINE
  8
126
  6
CONTINUOUS
 62
3
 10
3.1516328E+001
 20
2.4254993
 11
3.1542283E+001
 21
2.399544
  0
LINE
  8
126
  6
CONTINUOUS
 62
3
 10
3.1570406E+001
 20
2.3714217
 11
3.1596781E+001
 21
2.3450467
  0
LINE
  8
126
  6
CONTINUOUS
 62
3
 10
3.1511172E+001
 20
2.4196067
 11
3.1537127E+001
 21
2.3936514
  0
LINE
  8
126
  6
CONTINUOUS
 62
3
 10
3.1559357E+001
 20
2.3714217
 11
3.1585732E+001
 21
2.3450467
  0
LINE
  8
126
  6
CONTINUOUS
 62
3
 10
3.1422879E+001
 20
2.496851
 11
3.1425863E+001
 21
2.4938672
  0
LINE
  8
126
  6
CONTINUOUS
 62
3
 10
3.1506016E+001
 20
2.4137141
 11
3.1531972E+001
 21
2.3877588
  0
LINE
  8
126
  6
CONTINUOUS
 62
3
 10
3.1548309E+001
 20
2.3714217
 11
3.1574684E+001
 21
2.3450467
  0
LINE
  8
126
  6
CONTINUOUS
 62
3
 10
3.1411831E+001
 20
2.496851
 11
3.1418814E+001
 21
2.4898681
  0
LINE
  8
126
  6
CONTINUOUS
 62
3
 10
3.150086E+001
 20
2.4078216
 11
3.1526816E+001
 21
2.3818663
  0
LINE
  8
126
  6
CONTINUOUS
 62
3
 10
3.153726E+001
 20
2.3714217
 11
3.1563635E+001
 21
2.3450467
  0
LINE
  8
126
  6
CONTINUOUS
 62
3
 10
3.1400782E+001
 20
2.496851
 11
3.1411764E+001
 21
2.4858691
  0
LINE
  8
126
  6
CONTINUOUS
 62
3
 10
3.1495704E+001
 20
2.401929
 11
3.152166E+001
 21
2.3759737
  0
LINE
  8
126
  6
CONTINUOUS
 62
3
 10
3.1526212E+001
 20
2.3714217
 11
3.1552587E+001
 21
2.3450467
  0
LINE
  8
126
  6
CONTINUOUS
 62
3
 10
3.1389734E+001
 20
2.496851
 11
3.1404715E+001
 21
2.48187
  0
LINE
  8
126
  6
CONTINUOUS
 62
3
 10
3.1490548E+001
 20
2.3960364
 11
3.1541538E+001
 21
2.3450467
  0
LINE
  8
126
  6
CONTINUOUS
 62
3
 10
3.1378685E+001
 20
2.496851
 11
3.1397665E+001
 21
2.477871
  0
LINE
  8
126
  6
CONTINUOUS
 62
3
 10
3.1485392E+001
 20
2.3901439
 11
3.153049E+001
 21
2.3450467
  0
LINE
  8
126
  6
CONTINUOUS
 62
3
 10
3.1367637E+001
 20
2.496851
 11
3.1390616E+001
 21
2.4738719
  0
LINE
  8
126
  6
CONTINUOUS
 62
3
 10
3.1480236E+001
 20
2.3842513
 11
3.1519441E+001
 21
2.3450467
  0
LINE
  8
126
  6
CONTINUOUS
 62
3
 10
3.1356699E+001
 20
2.4967396
 11
3.1383566E+001
 21
2.4698729
  0
LINE
  8
126
  6
CONTINUOUS
 62
3
 10
3.147508E+001
 20
2.3783587
 11
3.1508392E+001
 21
2.3450467
  0
LINE
  8
126
  6
CONTINUOUS
 62
3
 10
3.134965E+001
 20
2.4927406
 11
3.1376517E+001
 21
2.4658738
  0
LINE
  8
126
  6
CONTINUOUS
 62
3
 10
3.1469924E+001
 20
2.3724661
 11
3.1497344E+001
 21
2.3450467
  0
LINE
  8
126
  6
CONTINUOUS
 62
3
 10
3.1342601E+001
 20
2.4887415
 11
3.1369467E+001
 21
2.4618748
  0
LINE
  8
126
  6
CONTINUOUS
 62
3
 10
3.1464768E+001
 20
2.3665736
 11
3.1490724E+001
 21
2.3406183
  0
LINE
  8
126
  6
CONTINUOUS
 62
3
 10
3.1335551E+001
 20
2.4847425
 11
3.1362418E+001
 21
2.4578757
  0
LINE
  8
126
  6
CONTINUOUS
 62
3
 10
3.1459612E+001
 20
2.360681
 11
3.1485568E+001
 21
2.3347257
  0
LINE
  8
126
  6
CONTINUOUS
 62
3
 10
3.1328502E+001
 20
2.4807434
 11
3.1355368E+001
 21
2.4538767
  0
LINE
  8
126
  6
CONTINUOUS
 62
3
 10
3.1454457E+001
 20
2.3547884
 11
3.1480412E+001
 21
2.3288332
  0
LINE
  8
126
  6
CONTINUOUS
 62
3
 10
3.1321452E+001
 20
2.4767444
 11
3.1348319E+001
 21
2.4498776
  0
LINE
  8
126
  6
CONTINUOUS
 62
3
 10
3.1449301E+001
 20
2.3488959
 11
3.1475256E+001
 21
2.3229406
  0
LINE
  8
126
  6
CONTINUOUS
 62
3
 10
3.1314403E+001
 20
2.4727453
 11
3.1341269E+001
 21
2.4458786
  0
LINE
  8
126
  6
CONTINUOUS
 62
3
 10
3.1444145E+001
 20
2.3430033
 11
3.14701E+001
 21
2.317048
  0
LINE
  8
126
  6
CONTINUOUS
 62
3
 10
3.1307353E+001
 20
2.4687463
 11
3.133422E+001
 21
2.4418795
  0
LINE
  8
126
  6
CONTINUOUS
 62
3
 10
3.1438989E+001
 20
2.3371107
 11
3.1464944E+001
 21
2.3111555
  0
LINE
  8
126
  6
CONTINUOUS
 62
3
 10
3.1300304E+001
 20
2.4647472
 11
3.132717E+001
 21
2.4378805
  0
LINE
  8
126
  6
CONTINUOUS
 62
3
 10
3.1433833E+001
 20
2.3312182
 11
3.1456629E+001
 21
2.3084217
  0
LINE
  8
126
  6
CONTINUOUS
 62
3
 10
3.1293254E+001
 20
2.4607482
 11
3.1320121E+001
 21
2.4338814
  0
LINE
  8
126
  6
CONTINUOUS
 62
3
 10
3.1428677E+001
 20
2.3253256
 11
3.1445581E+001
 21
2.3084217
  0
LINE
  8
126
  6
CONTINUOUS
 62
3
 10
3.1286205E+001
 20
2.4567491
 11
3.1313071E+001
 21
2.4298824
  0
LINE
  8
126
  6
CONTINUOUS
 62
3
 10
3.1423521E+001
 20
2.319433
 11
3.1434532E+001
 21
2.3084217
  0
LINE
  8
126
  6
CONTINUOUS
 62
3
 10
3.1279155E+001
 20
2.4527501
 11
3.1306022E+001
 21
2.4258833
  0
LINE
  8
126
  6
CONTINUOUS
 62
3
 10
3.1418365E+001
 20
2.3135405
 11
3.1423483E+001
 21
2.3084217
  0
LINE
  8
126
  6
CONTINUOUS
 62
3
 10
3.1272106E+001
 20
2.448751
 11
3.1298972E+001
 21
2.4218843
  0
LINE
  8
126
  6
CONTINUOUS
 62
3
 10
3.1265056E+001
 20
2.444752
 11
3.1291923E+001
 21
2.4178852
  0
LINE
  8
126
  6
CONTINUOUS
 62
3
 10
3.1363666E+001
 20
2.3461425
 11
3.1401386E+001
 21
2.3084217
  0
LINE
  8
126
  6
CONTINUOUS
 62
3
 10
3.1258007E+001
 20
2.4407529
 11
3.1390338E+001
 21
2.3084217
  0
LINE
  8
126
  6
CONTINUOUS
 62
3
 10
3.1250957E+001
 20
2.4367539
 11
3.1379289E+001
 21
2.3084217
  0
LINE
  8
126
  6
CONTINUOUS
 62
3
 10
3.1179811E+001
 20
2.496851
 11
3.118872E+001
 21
2.4879425
  0
LINE
  8
126
  6
CONTINUOUS
 62
3
 10
3.1243908E+001
 20
2.4327548
 11
3.1368241E+001
 21
2.3084217
  0
LINE
  8
126
  6
CONTINUOUS
 62
3
 10
3.1168763E+001
 20
2.496851
 11
3.1187064E+001
 21
2.4785501
  0
LINE
  8
126
  6
CONTINUOUS
 62
3
 10
3.1236858E+001
 20
2.4287558
 11
3.1357192E+001
 21
2.3084217
  0
LINE
  8
126
  6
CONTINUOUS
 62
3
 10
3.1157714E+001
 20
2.496851
 11
3.1185408E+001
 21
2.4691577
  0
LINE
  8
126
  6
CONTINUOUS
 62
3
 10
3.1229809E+001
 20
2.4247567
 11
3.1346144E+001
 21
2.3084217
  0
LINE
  8
126
  6
CONTINUOUS
 62
3
 10
3.1146666E+001
 20
2.496851
 11
3.1183751E+001
 21
2.4597653
  0
LINE
  8
126
  6
CONTINUOUS
 62
3
 10
3.1222759E+001
 20
2.4207577
 11
3.1335095E+001
 21
2.3084217
  0
LINE
  8
126
  6
CONTINUOUS
 62
3
 10
3.1137747E+001
 20
2.4947207
 11
3.1182095E+001
 21
2.4503729
  0
LINE
  8
126
  6
CONTINUOUS
 62
3
 10
3.121571E+001
 20
2.4167586
 11
3.1324047E+001
 21
2.3084217
  0
LINE
  8
126
  6
CONTINUOUS
 62
3
 10
3.1136091E+001
 20
2.4853283
 11
3.1180439E+001
 21
2.4409805
  0
LINE
  8
126
  6
CONTINUOUS
 62
3
 10
3.120866E+001
 20
2.4127596
 11
3.1235527E+001
 21
2.3858929
  0
LINE
  8
126
  6
CONTINUOUS
 62
3
 10
3.1134435E+001
 20
2.4759359
 11
3.1178783E+001
 21
2.4315881
  0
LINE
  8
126
  6
CONTINUOUS
 62
3
 10
3.1201611E+001
 20
2.4087605
 11
3.1228477E+001
 21
2.3818938
  0
LINE
  8
126
  6
CONTINUOUS
 62
3
 10
3.1132779E+001
 20
2.4665435
 11
3.1177127E+001
 21
2.4221957
  0
LINE
  8
126
  6
CONTINUOUS
 62
3
 10
3.1194561E+001
 20
2.4047615
 11
3.1221428E+001
 21
2.3778948
  0
LINE
  8
126
  6
CONTINUOUS
 62
3
 10
3.1131123E+001
 20
2.4571511
 11
3.1175471E+001
 21
2.4128033
  0
LINE
  8
126
  6
CONTINUOUS
 62
3
 10
3.1187512E+001
 20
2.4007624
 11
3.1214378E+001
 21
2.3738957
  0
LINE
  8
126
  6
CONTINUOUS
 62
3
 10
3.1129467E+001
 20
2.4477587
 11
3.1173815E+001
 21
2.4034109
  0
LINE
  8
126
  6
CONTINUOUS
 62
3
 10
3.1180462E+001
 20
2.3967634
 11
3.1207329E+001
 21
2.3698967
  0
LINE
  8
126
  6
CONTINUOUS
 62
3
 10
3.1127811E+001
 20
2.4383663
 11
3.1172159E+001
 21
2.3940185
  0
LINE
  8
126
  6
CONTINUOUS
 62
3
 10
3.1173413E+001
 20
2.3927644
 11
3.1200279E+001
 21
2.3658976
  0
LINE
  8
126
  6
CONTINUOUS
 62
3
 10
3.1126155E+001
 20
2.4289739
 11
3.119323E+001
 21
2.3618986
  0
LINE
  8
126
  6
CONTINUOUS
 62
3
 10
3.1124498E+001
 20
2.4195815
 11
3.118618E+001
 21
2.3578995
  0
LINE
  8
126
  6
CONTINUOUS
 62
3
 10
3.1122842E+001
 20
2.4101891
 11
3.1179131E+001
 21
2.3539005
  0
LINE
  8
126
  6
CONTINUOUS
 62
3
 10
3.1121186E+001
 20
2.4007967
 11
3.1172081E+001
 21
2.3499014
  0
LINE
  8
126
  6
CONTINUOUS
 62
3
 10
3.111953E+001
 20
2.3914042
 11
3.1165032E+001
 21
2.3459024
  0
LINE
  8
126
  6
CONTINUOUS
 62
3
 10
3.1117874E+001
 20
2.3820118
 11
3.1162222E+001
 21
2.337664
  0
LINE
  8
126
  6
CONTINUOUS
 62
3
 10
3.1116218E+001
 20
2.3726194
 11
3.1160566E+001
 21
2.3282716
  0
LINE
  8
126
  6
CONTINUOUS
 62
3
 10
3.1114562E+001
 20
2.363227
 11
3.1158909E+001
 21
2.3188792
  0
LINE
  8
126
  6
CONTINUOUS
 62
3
 10
3.1112905E+001
 20
2.3538346
 11
3.1157253E+001
 21
2.3094868
  0
LINE
  8
126
  6
CONTINUOUS
 62
3
 10
3.1111249E+001
 20
2.3444422
 11
3.114727E+001
 21
2.3084217
  0
LINE
  8
126
  6
CONTINUOUS
 62
3
 10
3.1109593E+001
 20
2.3350498
 11
3.1136221E+001
 21
2.3084217
  0
TEXT
  8
126
  6
CONTINUOUS
 62
3
 10
3.3166363E+001
 20
1.295467
 40
1.0E-001
  1
08JUL04
  0
TEXT
  8
126
  6
CONTINUOUS
 62
3
 10
3.1126207E+001
 20
1.4683616
 40
1.0E-001
  1
JFM
 41
1.0
  0
TEXT
  8
126
  6
CONTINUOUS
 62
3
 10
3.1376904E+001
 20
1.2263091
 40
1.0E-001
  1
FULL
  0
TEXT
  8
1
  6
CONTINUOUS
 62
1
 10
3.3242074E+001
 20
7.4086216E-001
 40
1.875E-001
  1
74180474
 72
1
 73
2
 11
3.2492074E+001
 21
6.4711216E-001
  0
LINE
  8
126
  6
CONTINUOUS
 62
3
 10
3.1107937E+001
 20
2.3256574
 11
3.1125173E+001
 21
2.3084217
  0
LINE
  8
126
  6
CONTINUOUS
 62
3
 10
3.1106281E+001
 20
2.316265
 11
3.1114124E+001
 21
2.3084217
  0
LINE
  8
126
  6
CONTINUOUS
 62
3
 10
3.0914646E+001
 20
2.496851
 11
3.0920062E+001
 21
2.4914351
  0
LINE
  8
126
  6
CONTINUOUS
 62
3
 10
3.1075701E+001
 20
2.3357967
 11
3.1081268E+001
 21
2.3302292
  0
LINE
  8
126
  6
CONTINUOUS
 62
3
 10
3.0903598E+001
 20
2.496851
 11
3.0918406E+001
 21
2.4820427
  0
LINE
  8
126
  6
CONTINUOUS
 62
3
 10
3.1064652E+001
 20
2.3357967
 11
3.1079612E+001
 21
2.3208368
  0
LINE
  8
126
  6
CONTINUOUS
 62
3
 10
3.0892549E+001
 20
2.496851
 11
3.091675E+001
 21
2.4726503
  0
LINE
  8
126
  6
CONTINUOUS
 62
3
 10
3.1053604E+001
 20
2.3357967
 11
3.1077956E+001
 21
2.3114444
  0
LINE
  8
126
  6
CONTINUOUS
 62
3
 10
3.0881501E+001
 20
2.496851
 11
3.0915094E+001
 21
2.4632579
  0
LINE
  8
126
  6
CONTINUOUS
 62
3
 10
3.1042555E+001
 20
2.3357967
 11
3.106993E+001
 21
2.3084217
  0
LINE
  8
126
  6
CONTINUOUS
 62
3
 10
3.0870452E+001
 20
2.496851
 11
3.0913438E+001
 21
2.4538655
  0
LINE
  8
126
  6
CONTINUOUS
 62
3
 10
3.1031507E+001
 20
2.3357967
 11
3.1058882E+001
 21
2.3084217
  0
LINE
  8
126
  6
CONTINUOUS
 62
3
 10
3.0867434E+001
 20
2.4888209
 11
3.0911782E+001
 21
2.4444731
  0
LINE
  8
126
  6
CONTINUOUS
 62
3
 10
3.1020458E+001
 20
2.3357967
 11
3.1047833E+001
 21
2.3084217
  0
LINE
  8
126
  6
CONTINUOUS
 62
3
 10
3.0865778E+001
 20
2.4794285
 11
3.0910125E+001
 21
2.4350807
  0
LINE
  8
126
  6
CONTINUOUS
 62
3
 10
3.1009409E+001
 20
2.3357967
 11
3.1036784E+001
 21
2.3084217
  0
LINE
  8
126
  6
CONTINUOUS
 62
3
 10
3.0864121E+001
 20
2.4700361
 11
3.0908469E+001
 21
2.4256883
  0
LINE
  8
126
  6
CONTINUOUS
 62
3
 10
3.0998361E+001
 20
2.3357967
 11
3.1025736E+001
 21
2.3084217
  0
LINE
  8
126
  6
CONTINUOUS
 62
3
 10
3.0826258E+001
 20
2.496851
 11
3.0828164E+001
 21
2.4949446
  0
LINE
  8
126
  6
CONTINUOUS
 62
3
 10
3.0862465E+001
 20
2.4606437
 11
3.0906813E+001
 21
2.4162959
  0
LINE
  8
126
  6
CONTINUOUS
 62
3
 10
3.0987312E+001
 20
2.3357967
 11
3.1014687E+001
 21
2.3084217
  0
LINE
  8
126
  6
CONTINUOUS
 62
3
 10
3.0815209E+001
 20
2.496851
 11
3.0826508E+001
 21
2.4855522
  0
LINE
  8
126
  6
CONTINUOUS
 62
3
 10
3.0860809E+001
 20
2.4512513
 11
3.0905157E+001
 21
2.4069035
  0
LINE
  8
126
  6
CONTINUOUS
 62
3
 10
3.0976264E+001
 20
2.3357967
 11
3.1003639E+001
 21
2.3084217
  0
LINE
  8
126
  6
CONTINUOUS
 62
3
 10
3.0804161E+001
 20
2.496851
 11
3.0824852E+001
 21
2.4761598
  0
LINE
  8
126
  6
CONTINUOUS
 62
3
 10
3.0859153E+001
 20
2.4418589
 11
3.0903501E+001
 21
2.397511
  0
LINE
  8
126
  6
CONTINUOUS
 62
3
 10
3.0965215E+001
 20
2.3357967
 11
3.099259E+001
 21
2.3084217
  0
LINE
  8
126
  6
CONTINUOUS
 62
3
 10
3.0793112E+001
 20
2.496851
 11
3.0820487E+001
 21
2.469476
  0
LINE
  8
126
  6
CONTINUOUS
 62
3
 10
3.0857497E+001
 20
2.4324665
 11
3.0901845E+001
 21
2.3881186
  0
LINE
  8
126
  6
CONTINUOUS
 62
3
 10
3.0954167E+001
 20
2.3357967
 11
3.0981542E+001
 21
2.3084217
  0
LINE
  8
126
  6
CONTINUOUS
 62
3
 10
3.0782064E+001
 20
2.496851
 11
3.0809439E+001
 21
2.469476
  0
LINE
  8
126
  6
CONTINUOUS
 62
3
 10
3.0855841E+001
 20
2.4230741
 11
3.0900189E+001
 21
2.3787262
  0
LINE
  8
126
  6
CONTINUOUS
 62
3
 10
3.0943118E+001
 20
2.3357967
 11
3.0970493E+001
 21
2.3084217
  0
LINE
  8
126
  6
CONTINUOUS
 62
3
 10
3.0771015E+001
 20
2.496851
 11
3.079839E+001
 21
2.469476
  0
LINE
  8
126
  6
CONTINUOUS
 62
3
 10
3.0854185E+001
 20
2.4136816
 11
3.0898532E+001
 21
2.3693338
  0
LINE
  8
126
  6
CONTINUOUS
 62
3
 10
3.093207E+001
 20
2.3357967
 11
3.0959445E+001
 21
2.3084217
  0
LINE
  8
126
  6
CONTINUOUS
 62
3
 10
3.0759967E+001
 20
2.496851
 11
3.0787342E+001
 21
2.469476
  0
LINE
  8
126
  6
CONTINUOUS
 62
3
 10
3.0852529E+001
 20
2.4042892
 11
3.0896876E+001
 21
2.3599414
  0
LINE
  8
126
  6
CONTINUOUS
 62
3
 10
3.0921021E+001
 20
2.3357967
 11
3.0948396E+001
 21
2.3084217
  0
LINE
  8
126
  6
CONTINUOUS
 62
3
 10
3.0748918E+001
 20
2.496851
 11
3.0776293E+001
 21
2.469476
  0
LINE
  8
126
  6
CONTINUOUS
 62
3
 10
3.0850872E+001
 20
2.3948968
 11
3.089522E+001
 21
2.350549
  0
LINE
  8
126
  6
CONTINUOUS
 62
3
 10
3.0909973E+001
 20
2.3357967
 11
3.0937348E+001
 21
2.3084217
  0
LINE
  8
126
  6
CONTINUOUS
 62
3
 10
3.073787E+001
 20
2.496851
 11
3.0765245E+001
 21
2.469476
  0
LINE
  8
126
  6
CONTINUOUS
 62
3
 10
3.0849216E+001
 20
2.3855044
 11
3.0893564E+001
 21
2.3411566
  0
LINE
  8
126
  6
CONTINUOUS
 62
3
 10
3.0898924E+001
 20
2.3357967
 11
3.0926299E+001
 21
2.3084217
  0
LINE
  8
126
  6
CONTINUOUS
 62
3
 10
3.0726821E+001
 20
2.496851
 11
3.0754196E+001
 21
2.469476
  0
LINE
  8
126
  6
CONTINUOUS
 62
3
 10
3.084756E+001
 20
2.376112
 11
3.091525E+001
 21
2.3084217
  0
LINE
  8
126
  6
CONTINUOUS
 62
3
 10
3.0715773E+001
 20
2.496851
 11
3.0743148E+001
 21
2.469476
  0
LINE
  8
126
  6
CONTINUOUS
 62
3
 10
3.0796237E+001
 20
2.4163864
 11
3.0800813E+001
 21
2.4118107
  0
LINE
  8
126
  6
CONTINUOUS
 62
3
 10
3.0845904E+001
 20
2.3667196
 11
3.0904202E+001
 21
2.3084217
  0
LINE
  8
126
  6
CONTINUOUS
 62
3
 10
3.0704724E+001
 20
2.496851
 11
3.0732099E+001
 21
2.469476
  0
LINE
  8
126
  6
CONTINUOUS
 62
3
 10
3.0785189E+001
 20
2.4163864
 11
3.0799157E+001
 21
2.4024183
  0
LINE
  8
126
  6
CONTINUOUS
 62
3
 10
3.0844248E+001
 20
2.3573272
 11
3.0893153E+001
 21
2.3084217
  0
LINE
  8
126
  6
CONTINUOUS
 62
3
 10
3.0693675E+001
 20
2.496851
 11
3.072105E+001
 21
2.469476
  0
LINE
  8
126
  6
CONTINUOUS
 62
3
 10
3.077414E+001
 20
2.4163864
 11
3.0797501E+001
 21
2.3930259
  0
LINE
  8
126
  6
CONTINUOUS
 62
3
 10
3.0842592E+001
 20
2.3479348
 11
3.0882105E+001
 21
2.3084217
  0
LINE
  8
126
  6
CONTINUOUS
 62
3
 10
3.0682627E+001
 20
2.496851
 11
3.0710002E+001
 21
2.469476
  0
LINE
  8
126
  6
CONTINUOUS
 62
3
 10
3.0763092E+001
 20
2.4163864
 11
3.0790592E+001
 21
2.3888864
  0
LINE
  8
126
  6
CONTINUOUS
 62
3
 10
3.0840936E+001
 20
2.3385424
 11
3.0871056E+001
 21
2.3084217
  0
LINE
  8
126
  6
CONTINUOUS
 62
3
 10
3.0671578E+001
 20
2.496851
 11
3.0698953E+001
 21
2.469476
  0
LINE
  8
126
  6
CONTINUOUS
 62
3
 10
3.0752043E+001
 20
2.4163864
 11
3.0779543E+001
 21
2.3888864
  0
LINE
  8
126
  6
CONTINUOUS
 62
3
 10
3.0839279E+001
 20
2.32915
 11
3.0860008E+001
 21
2.3084217
  0
LINE
  8
126
  6
CONTINUOUS
 62
3
 10
3.066053E+001
 20
2.496851
 11
3.0687905E+001
 21
2.469476
  0
LINE
  8
126
  6
CONTINUOUS
 62
3
 10
3.0740995E+001
 20
2.4163864
 11
3.0768495E+001
 21
2.3888864
  0
LINE
  8
126
  6
CONTINUOUS
 62
3
 10
3.0837623E+001
 20
2.3197576
 11
3.0848959E+001
 21
2.3084217
  0
LINE
  8
126
  6
CONTINUOUS
 62
3
 10
3.0649481E+001
 20
2.496851
 11
3.0676856E+001
 21
2.469476
  0
LINE
  8
126
  6
CONTINUOUS
 62
3
 10
3.0729946E+001
 20
2.4163864
 11
3.0757446E+001
 21
2.3888864
  0
LINE
  8
126
  6
CONTINUOUS
 62
3
 10
3.0810536E+001
 20
2.3357967
 11
3.0812456E+001
 21
2.3338758
  0
LINE
  8
126
  6
CONTINUOUS
 62
3
 10
3.0835967E+001
 20
2.3103652
 11
3.0837911E+001
 21
2.3084217
  0
LINE
  8
126
  6
CONTINUOUS
 62
3
 10
3.0638433E+001
 20
2.496851
 11
3.0665808E+001
 21
2.469476
  0
LINE
  8
126
  6
CONTINUOUS
 62
3
 10
3.0718897E+001
 20
2.4163864
 11
3.0746397E+001
 21
2.3888864
  0
LINE
  8
126
  6
CONTINUOUS
 62
3
 10
3.0799487E+001
 20
2.3357967
 11
3.08108E+001
 21
2.3244834
  0
LINE
  8
126
  6
CONTINUOUS
 62
3
 10
3.0627384E+001
 20
2.496851
 11
3.0654759E+001
 21
2.469476
  0
LINE
  8
126
  6
CONTINUOUS
 62
3
 10
3.0707849E+001
 20
2.4163864
 11
3.0735349E+001
 21
2.3888864
  0
LINE
  8
126
  6
CONTINUOUS
 62
3
 10
3.0788439E+001
 20
2.3357967
 11
3.0809144E+001
 21
2.315091
  0
LINE
  8
126
  6
CONTINUOUS
 62
3
 10
3.0616336E+001
 20
2.496851
 11
3.0643711E+001
 21
2.469476
  0
LINE
  8
126
  6
CONTINUOUS
 62
3
 10
3.06968E+001
 20
2.4163864
 11
3.07243E+001
 21
2.3888864
  0
LINE
  8
126
  6
CONTINUOUS
 62
3
 10
3.077739E+001
 20
2.3357967
 11
3.0804765E+001
 21
2.3084217
  0
LINE
  8
126
  6
CONTINUOUS
 62
3
 10
3.0605287E+001
 20
2.496851
 11
3.0632662E+001
 21
2.469476
  0
LINE
  8
126
  6
CONTINUOUS
 62
3
 10
3.0685752E+001
 20
2.4163864
 11
3.0713252E+001
 21
2.3888864
  0
LINE
  8
126
  6
CONTINUOUS
 62
3
 10
3.0766341E+001
 20
2.3357967
 11
3.0793716E+001
 21
2.3084217
  0
LINE
  8
126
  6
CONTINUOUS
 62
3
 10
3.0594239E+001
 20
2.496851
 11
3.0621614E+001
 21
2.469476
  0
LINE
  8
126
  6
CONTINUOUS
 62
3
 10
3.0674703E+001
 20
2.4163864
 11
3.0702203E+001
 21
2.3888864
  0
LINE
  8
126
  6
CONTINUOUS
 62
3
 10
3.0755293E+001
 20
2.3357967
 11
3.0782668E+001
 21
2.3084217
  0
LINE
  8
126
  6
CONTINUOUS
 62
3
 10
3.058319E+001
 20
2.496851
 11
3.0613066E+001
 21
2.4669747
  0
LINE
  8
126
  6
CONTINUOUS
 62
3
 10
3.0663655E+001
 20
2.4163864
 11
3.0691155E+001
 21
2.3888864
  0
LINE
  8
126
  6
CONTINUOUS
 62
3
 10
3.0744244E+001
 20
2.3357967
 11
3.0771619E+001
 21
2.3084217
  0
LINE
  8
126
  6
CONTINUOUS
 62
3
 10
3.0572141E+001
 20
2.496851
 11
3.061141E+001
 21
2.4575823
  0
LINE
  8
126
  6
CONTINUOUS
 62
3
 10
3.0652606E+001
 20
2.4163864
 11
3.0680106E+001
 21
2.3888864
  0
LINE
  8
126
  6
CONTINUOUS
 62
3
 10
3.0733196E+001
 20
2.3357967
 11
3.0760571E+001
 21
2.3084217
  0
LINE
  8
126
  6
CONTINUOUS
 62
3
 10
3.0565429E+001
 20
2.4925151
 11
3.0609754E+001
 21
2.4481898
  0
LINE
  8
126
  6
CONTINUOUS
 62
3
 10
3.0641558E+001
 20
2.4163864
 11
3.0669058E+001
 21
2.3888864
  0
LINE
  8
126
  6
CONTINUOUS
 62
3
 10
3.0722147E+001
 20
2.3357967
 11
3.0749522E+001
 21
2.3084217
  0
LINE
  8
126
  6
CONTINUOUS
 62
3
 10
3.0563773E+001
 20
2.4831227
 11
3.0608098E+001
 21
2.4387974
  0
LINE
  8
126
  6
CONTINUOUS
 62
3
 10
3.0630509E+001
 20
2.4163864
 11
3.0658009E+001
 21
2.3888864
  0
LINE
  8
126
  6
CONTINUOUS
 62
3
 10
3.0711099E+001
 20
2.3357967
 11
3.0738474E+001
 21
2.3084217
  0
LINE
  8
126
  6
CONTINUOUS
 62
3
 10
3.0562117E+001
 20
2.4737303
 11
3.0606442E+001
 21
2.429405
  0
LINE
  8
126
  6
CONTINUOUS
 62
3
 10
3.0619461E+001
 20
2.4163864
 11
3.0646961E+001
 21
2.3888864
  0
LINE
  8
126
  6
CONTINUOUS
 62
3
 10
3.070005E+001
 20
2.3357967
 11
3.0727425E+001
 21
2.3084217
  0
LINE
  8
126
  6
CONTINUOUS
 62
3
 10
3.056046E+001
 20
2.4643379
 11
3.0604786E+001
 21
2.4200126
  0
LINE
  8
126
  6
CONTINUOUS
 62
3
 10
3.0608412E+001
 20
2.4163864
 11
3.0635912E+001
 21
2.3888864
  0
LINE
  8
126
  6
CONTINUOUS
 62
3
 10
3.0689002E+001
 20
2.3357967
 11
3.0716377E+001
 21
2.3084217
  0
LINE
  8
126
  6
CONTINUOUS
 62
3
 10
3.0558804E+001
 20
2.4549455
 11
3.0624863E+001
 21
2.3888864
  0
LINE
  8
126
  6
CONTINUOUS
 62
3
 10
3.0677953E+001
 20
2.3357967
 11
3.0705328E+001
 21
2.3084217
  0
LINE
  8
126
  6
CONTINUOUS
 62
3
 10
3.0557148E+001
 20
2.4455531
 11
3.0613815E+001
 21
2.3888864
  0
LINE
  8
126
  6
CONTINUOUS
 62
3
 10
3.0666905E+001
 20
2.3357967
 11
3.069428E+001
 21
2.3084217
  0
LINE
  8
126
  6
CONTINUOUS
 62
3
 10
3.0555492E+001
 20
2.4361607
 11
3.0602861E+001
 21
2.3887916
  0
LINE
  8
126
  6
CONTINUOUS
 62
3
 10
3.0655856E+001
 20
2.3357967
 11
3.0683231E+001
 21
2.3084217
  0
LINE
  8
126
  6
CONTINUOUS
 62
3
 10
3.0553836E+001
 20
2.4267682
 11
3.0601205E+001
 21
2.3793992
  0
LINE
  8
126
  6
CONTINUOUS
 62
3
 10
3.0644807E+001
 20
2.3357967
 11
3.0672182E+001
 21
2.3084217
  0
LINE
  8
126
  6
CONTINUOUS
 62
3
 10
3.055218E+001
 20
2.4173758
 11
3.0599549E+001
 21
2.3700067
  0
LINE
  8
126
  6
CONTINUOUS
 62
3
 10
3.0633759E+001
 20
2.3357967
 11
3.0661134E+001
 21
2.3084217
  0
LINE
  8
126
  6
CONTINUOUS
 62
3
 10
3.0550524E+001
 20
2.4079834
 11
3.0597893E+001
 21
2.3606143
  0
LINE
  8
126
  6
CONTINUOUS
 62
3
 10
3.062271E+001
 20
2.3357967
 11
3.0650085E+001
 21
2.3084217
  0
LINE
  8
126
  6
CONTINUOUS
 62
3
 10
3.0548868E+001
 20
2.398591
 11
3.0596237E+001
 21
2.3512219
  0
LINE
  8
126
  6
CONTINUOUS
 62
3
 10
3.0611662E+001
 20
2.3357967
 11
3.0639037E+001
 21
2.3084217
  0
LINE
  8
126
  6
CONTINUOUS
 62
3
 10
3.0547211E+001
 20
2.3891986
 11
3.059458E+001
 21
2.3418295
  0
LINE
  8
126
  6
CONTINUOUS
 62
3
 10
3.0600613E+001
 20
2.3357967
 11
3.0627988E+001
 21
2.3084217
  0
LINE
  8
126
  6
CONTINUOUS
 62
3
 10
3.0545555E+001
 20
2.3798062
 11
3.061694E+001
 21
2.3084217
  0
LINE
  8
126
  6
CONTINUOUS
 62
3
 10
3.0543899E+001
 20
2.3704138
 11
3.0605891E+001
 21
2.3084217
  0
LINE
  8
126
  6
CONTINUOUS
 62
3
 10
3.0542243E+001
 20
2.3610214
 11
3.0594843E+001
 21
2.3084217
  0
LINE
  8
126
  6
CONTINUOUS
 62
3
 10
3.0540587E+001
 20
2.351629
 11
3.0583794E+001
 21
2.3084217
  0
LINE
  8
126
  6
CONTINUOUS
 62
3
 10
3.0538931E+001
 20
2.3422366
 11
3.0572746E+001
 21
2.3084217
  0
LINE
  8
126
  6
CONTINUOUS
 62
3
 10
3.0537275E+001
 20
2.3328442
 11
3.0561697E+001
 21
2.3084217
  0
LINE
  8
126
  6
CONTINUOUS
 62
3
 10
3.0535618E+001
 20
2.3234517
 11
3.0550649E+001
 21
2.3084217
  0
LINE
  8
126
  6
CONTINUOUS
 62
3
 10
3.0533962E+001
 20
2.3140593
 11
3.05396E+001
 21
2.3084217
  0
TEXT
  8
1
  6
CONTINUOUS
 62
1
 10
3.3723773E+001
 20
1.9435938
 40
1.25E-001
  1
TEMPLATE FOR EGUH2118
 72
1
 73
2
 11
3.2411273E+001
 21
1.8810938
  0
INSERT
  2
*TX30
  8
126
 10
2.659719E+001
 20
1.0074286
  0
ARC
  8
4
  6
CONTINUOUS
 62
1
 10
3.7469409E+001
 20
1.0898396E+001
 40
3.640748E+001
 50
1.7584388E+002
 51
1.8754582E+002
  0
ARC
  8
4
  6
CONTINUOUS
 62
1
 10
1.1632021E+001
 20
1.2775882E+001
 40
1.0501969E+001
 50
1.3837398E+002
 51
1.7584388E+002
  0
ARC
  8
4
  6
CONTINUOUS
 62
1
 10
1.2519394E+001
 20
1.2775882E+001
 40
1.0501969E+001
 50
4.156121
 51
4.162602E+001
  0
ARC
  8
4
  6
CONTINUOUS
 62
1
 10
-1.3317993E+001
 20
1.0898396E+001
 40
3.640748E+001
 50
3.5245418E+002
 51
3.6415612E+002
  0
ARC
  8
4
  6
CONTINUOUS
 62
1
 10
1.2075708E+001
 20
8.298501E+001
 40
8.0489567E+001
 50
2.648205E+002
 51
2.751795E+002
  0
ARC
  8
4
  6
CONTINUOUS
 62
1
 10
1.2075708E+001
 20
-1.8353573E+001
 40
4.0489567E+001
 50
8.4314131E+001
 51
9.5685869E+001
  0
ARC
  8
4
  6
CONTINUOUS
 62
1
 10
8.7185507
 20
1.5364949E+001
 40
6.6043307
 50
9.5685869E+001
 51
1.3837398E+002
  0
ARC
  8
4
  6
CONTINUOUS
 62
1
 10
1.5432865E+001
 20
1.5364949E+001
 40
6.6043307
 50
4.162602E+001
 51
8.4314131E+001
  0
ARC
  8
4
  6
CONTINUOUS
 62
1
 10
5.1532806
 20
6.6176025
 40
3.8090551
 50
1.8754582E+002
 51
2.648205E+002
  0
ARC
  8
4
  6
CONTINUOUS
 62
1
 10
1.8998135E+001
 20
6.6176025
 40
3.8090551
 50
2.751795E+002
 51
3.5245418E+002
  0
TEXT
  8
1
  6
CONTINUOUS
 62
1
 10
1.4680739E+001
 20
1.4427463E+001
 40
2.5E-001
  1
 
 72
1
 73
2
 11
1.4555739E+001
 21
1.4302463E+001
  0
DIMENSION
  8
1
  6
CONTINUOUS
 62
3
  1

  2
*D1705
  3
DSTYLE6
 10
1.465921E+001
 20
1.053844E+001
 11
1.1471483E+001
 21
1.053844E+001
 70
128
 13
8.2837549
 23
1.2273836E+001
 14
1.465921E+001
 24
1.2230465E+001
 40
1.25E-001
 50
0.0
  0
DIMENSION
  8
1
  6
CONTINUOUS
 62
3
  2
*D1708
  3
DSTYLE6
 10
2.5385689E+001
 20
2.4954428
 11
2.5385689E+001
 21
1.2315718E+001
 70
128
 13
1.2075708E+001
 23
2.2135994E+001
 14
1.2075708E+001
 24
2.4954428
 40
1.25E-001
 50
9.0E+001
  0
DIMENSION
  8
1
  6
CONTINUOUS
 62
3
  2
*D1713
  3
DSTYLE6
 10
1.0619284
 20
1.4487293
 11
1.2075708E+001
 21
1.4487293
 70
128
 13
2.3089487E+001
 23
1.0898396E+001
 14
1.0619284
 24
1.0898396E+001
 40
1.25E-001
 50
0.0
  0
DIMENSION
  8
1
  6
CONTINUOUS
 62
3
  2
*D1718
  3
DSTYLE7
 10
1.5432865E+001
 20
1.5364949E+001
 11
1.7581714E+001
 21
1.9418332E+001
 70
4
 15
1.8526255E+001
 25
2.1200026E+001
 40
-6.6043307
  0
DIMENSION
  8
1
  6
CONTINUOUS
 62
3
  2
*D1721
  3
DSTYLE7
 10
1.8998135E+001
 20
6.6176025
 11
1.9937092E+001
 21
5.6162256
 70
4
 15
2.160355E+001
 25
3.8389854
 40
-3.8090551
  0
LINE
  8
1
  6
CONTINUOUS
 62
3
 10
1.1929868E+001
 20
1.8272217E+001
 11
1.1929868E+001
 21
2.2135731E+001
  0
LINE
  8
1
  6
CONTINUOUS
 62
3
 10
1.1929868E+001
 20
2.2135731E+001
 11
1.1889102E+001
 21
2.1885583E+001
  0
LINE
  8
1
  6
CONTINUOUS
 62
3
 10
1.1929868E+001
 20
2.2135731E+001
 11
1.1972435E+001
 21
2.1885883E+001
  0
LINE
  8
1
  6
CONTINUOUS
 62
3
 10
1.1889102E+001
 20
2.1885583E+001
 11
1.1972435E+001
 21
2.1885883E+001
  0
TEXT
  8
1
  6
CONTINUOUS
 62
3
 10
1.2270071E+001
 20
2.1385887E+001
 40
2.0E-001
  1
[1028.44]
 50
2.7020637E+002
  0
TEXT
  8
1
  6
CONTINUOUS
 62
3
 10
1.2413333E+001
 20
1.9786393E+001
 40
1.5E-001
  1
+.81
 50
2.7020637E+002
  0
TEXT
  8
1
  6
CONTINUOUS
 62
3
 10
1.2188335E+001
 20
1.9785582E+001
 40
1.5E-001
  1
-1.57
 50
2.7020637E+002
  0
TEXT
  8
1
  6
CONTINUOUS
 62
3
 10
1.3146516E+001
 20
2.1264043E+001
 40
2.0E-001
  1
R40.490
 50
2.7020637E+002
  0
TEXT
  8
1
  6
CONTINUOUS
 62
3
 10
1.3289238E+001
 20
1.9814548E+001
 40
1.5E-001
  1
+0.032
 50
2.7020637E+002
  0
TEXT
  8
1
  6
CONTINUOUS
 62
3
 10
1.3064239E+001
 20
1.9813737E+001
 40
1.5E-001
  1
-0.062
 50
2.7020637E+002
  0
LINE
  8
1
  6
CONTINUOUS
 62
3
 10
8.1804796
 20
7.8547276
 11
7.9082179
 21
2.6034048
  0
LINE
  8
1
  6
CONTINUOUS
 62
3
 10
7.9082179
 20
2.6034048
 11
7.9627729
 21
2.8509121
  0
LINE
  8
1
  6
CONTINUOUS
 62
3
 10
7.9082179
 20
2.6034048
 11
7.8795513
 21
2.8552269
  0
LINE
  8
1
  6
CONTINUOUS
 62
3
 10
7.9627729
 20
2.8509121
 11
7.8795513
 21
2.8552269
  0
TEXT
  8
1
  6
CONTINUOUS
 62
3
 10
7.6892274
 20
4.8979325
 40
2.0E-001
  1
[2044.44]
 50
8.7032082E+001
  0
TEXT
  8
1
  6
CONTINUOUS
 62
3
 10
7.6347547
 20
6.5029057
 40
1.5E-001
  1
+.81
 50
8.7032082E+001
  0
TEXT
  8
1
  6
CONTINUOUS
 62
3
 10
7.8594529
 20
6.4912559
 40
1.5E-001
  1
-1.57
 50
8.7032082E+001
  0
TEXT
  8
1
  6
CONTINUOUS
 62
3
 10
6.8208745
 20
5.0681213
 40
2.0E-001
  1
R80.490
 50
8.7032082E+001
  0
TEXT
  8
1
  6
CONTINUOUS
 62
3
 10
6.7586352
 20
6.5232957
 40
1.5E-001
  1
+0.032
 50
8.7032082E+001
  0
TEXT
  8
1
  6
CONTINUOUS
 62
3
 10
6.9833334
 20
6.5116459
 40
1.5E-001
  1
-0.062
 50
8.7032082E+001
  0
LINE
  8
1
  6
CONTINUOUS
 62
3
 10
6.6313445
 20
1.1960494E+001
 11
1.0835024
 21
1.2151569E+001
  0
LINE
  8
1
  6
CONTINUOUS
 62
3
 10
1.0835024
 20
1.2151569E+001
 11
1.33192
 21
1.2101321E+001
  0
LINE
  8
1
  6
CONTINUOUS
 62
3
 10
1.0835024
 20
1.2151569E+001
 11
1.3347884
 21
1.2184605E+001
  0
LINE
  8
1
  6
CONTINUOUS
 62
3
 10
1.33192
 20
1.2101321E+001
 11
1.3347884
 21
1.2184605E+001
  0
TEXT
  8
1
  6
CONTINUOUS
 62
3
 10
3.5669669
 20
1.2403735E+001
 40
2.0E-001
  1
[924.75]
 50
3.5802745E+002
  0
TEXT
  8
1
  6
CONTINUOUS
 62
3
 10
4.9708701
 20
1.2492965E+001
 40
1.5E-001
  1
+.81
 50
3.5802745E+002
  0
TEXT
  8
1
  6
CONTINUOUS
 62
3
 10
4.9631255
 20
1.2268098E+001
 40
1.5E-001
  1
-1.57
 50
3.5802745E+002
  0
TEXT
  8
1
  6
CONTINUOUS
 62
3
 10
3.6221047
 20
1.3278356E+001
 40
2.0E-001
  1
R36.407
 50
3.5802745E+002
  0
TEXT
  8
1
  6
CONTINUOUS
 62
3
 10
5.0759783
 20
1.3365864E+001
 40
1.5E-001
  1
+0.032
 50
3.5802745E+002
  0
TEXT
  8
1
  6
CONTINUOUS
 62
3
 10
5.0682336
 20
1.3140997E+001
 40
1.5E-001
  1
-0.062
 50
3.5802745E+002
  0
LINE
  8
1
  6
CONTINUOUS
 62
3
 10
6.7506733
 20
1.521127E+001
 11
2.234708
 21
1.7464362E+001
  0
LINE
  8
1
  6
CONTINUOUS
 62
3
 10
2.234708
 20
1.7464362E+001
 11
2.4398101
 21
1.7315469E+001
  0
LINE
  8
1
  6
CONTINUOUS
 62
3
 10
2.234708
 20
1.7464362E+001
 11
2.4770132
 21
1.7390036E+001
  0
LINE
  8
1
  6
CONTINUOUS
 62
3
 10
2.4398101
 20
1.7315469E+001
 11
2.4770132
 21
1.7390036E+001
  0
TEXT
  8
1
  6
CONTINUOUS
 62
3
 10
4.0767933
 20
1.6922487E+001
 40
2.0E-001
  1
[266.75]
 50
3.3348461E+002
  0
TEXT
  8
1
  6
CONTINUOUS
 62
3
 10
5.3909188
 20
1.6420511E+001
 40
1.5E-001
  1
+.81
 50
3.3348461E+002
  0
TEXT
  8
1
  6
CONTINUOUS
 62
3
 10
5.2904702
 20
1.6219178E+001
 40
1.5E-001
  1
-1.57
 50
3.3348461E+002
  0
TEXT
  8
1
  6
CONTINUOUS
 62
3
 10
4.4902436
 20
1.7695184E+001
 40
2.0E-001
  1
R10.502
 50
3.3348461E+002
  0
TEXT
  8
1
  6
CONTINUOUS
 62
3
 10
5.8491098
 20
1.7170885E+001
 40
1.5E-001
  1
+0.032
 50
3.3348461E+002
  0
TEXT
  8
1
  6
CONTINUOUS
 62
3
 10
5.7486612
 20
1.6969552E+001
 40
1.5E-001
  1
-0.062
 50
3.3348461E+002
  0
ENDSEC
  0
EOF
