  0
SECTION
  2
HEADER
  9
$ACADVER
  1
AC1009
999
I-DEAS Drafting Master Series 7m1 Not Encoded
  9
$EXTMIN
 10
0.0
 20
0.0
  9
$EXTMAX
 10
6.8E+001
 20
2.4E+001
  9
$TEXTSIZE
 40
1.25E-001
  9
$LTSCALE
 40
1.0
  9
$CLAYER
  8
1
  9
$CECOLOR
 62
3
  9
$DIMASZ
 40
1.25E-001
  9
$DIMEXO
 40
6.25E-002
  9
$DIMDLI
 40
2.5E-001
  9
$DIMEXE
 40
1.25E-001
  9
$DIMTP
 40
5.0E-003
  9
$DIMTM
 40
-5.0E-003
  9
$DIMTXT
 40
1.25E-001
  9
$DIMLIM
 70
0
  9
$DIMTIH
 70
1
  9
$DIMTOH
 70
1
  9
$DIMSE1
 70
0
  9
$DIMSE2
 70
0
  9
$DIMTAD
 70
0
  9
$DIMASO
 70
1
  9
$DIMALT
 70
0
  9
$DIMALTD
 70
0
  9
$DIMTOFL
 70
1
  9
$DIMTIX
 70
0
  9
$DIMSAH
 70
0
  9
$DIMTFAC
 40
1.0
  9
$DIMGAP
 40
6.25E-002
  9
$LUNITS
 70
2
  9
$LUPREC
 70
3
  9
$FILLETRAD
 40
2.5E-001
  9
$AUNITS
 70
0
  9
$AUPREC
 70
1
  9
$CHAMFERA
 40
2.5E-001
  9
$CHAMFERB
 40
2.5E-001
  9
$ANGBASE
 50
0.0
  9
$ANGDIR
 70
0
  9
$PDMODE
 70
2
  9
$PDSIZE
 40
-1.0E-002
  9
$SPLINETYPE
 70
6
  0
ENDSEC
  0
SECTION
  2
TABLES
  0
TABLE
  2
LTYPE
 70
7
  0
LTYPE
  2
HIDDENNEW00
  3
_ 
 70
64
 72
65
 73
2
 40
1.875E-001
 49
1.25E-001
 49
-6.25E-002
  0
LTYPE
  2
HIDDENNEW01
  3
_ 
 70
64
 72
65
 73
2
 40
1.875E-001
 49
1.25E-001
 49
-6.25E-002
  0
LTYPE
  2
HIDDEN
  3
_ 
 70
64
 72
65
 73
2
 40
1.875E-001
 49
1.25E-001
 49
-6.25E-002
  0
LTYPE
  2
CENTERLINE
  3
_ 
 70
64
 72
65
 73
4
 40
1.25
 49
1.0
 49
-6.25E-002
 49
1.25E-001
 49
-6.25E-002
  0
LTYPE
  2
PHANTOM
  3
_ 
 70
64
 72
65
 73
6
 40
1.1875
 49
7.5E-001
 49
-6.25E-002
 49
1.25E-001
 49
-6.25E-002
 49
1.25E-001
 49
-6.25E-002
  0
LTYPE
  2
SHORT_DASH
  3
_ 
 70
64
 72
65
 73
2
 40
1.25E-001
 49
6.25E-002
 49
-6.25E-002
  0
LTYPE
  2
LONG_DASH
  3
_ 
 70
64
 72
65
 73
2
 40
3.75E-001
 49
1.875E-001
 49
-1.875E-001
  0
ENDTAB
  0
TABLE
  2
LAYER
 70
258
  0
LAYER
  2
1
 70
0
 62
7
  6
CONTINUOUS
  0
LAYER
  2
2
 70
0
 62
7
  6
CONTINUOUS
  0
LAYER
  2
3
 70
0
 62
7
  6
CONTINUOUS
  0
LAYER
  2
4
 70
0
 62
7
  6
CONTINUOUS
  0
LAYER
  2
5
 70
0
 62
7
  6
CONTINUOUS
  0
LAYER
  2
6
 70
0
 62
7
  6
CONTINUOUS
  0
LAYER
  2
7
 70
0
 62
7
  6
CONTINUOUS
  0
LAYER
  2
8
 70
0
 62
7
  6
CONTINUOUS
  0
LAYER
  2
9
 70
0
 62
7
  6
CONTINUOUS
  0
LAYER
  2
10
 70
0
 62
7
  6
CONTINUOUS
  0
LAYER
  2
11
 70
0
 62
7
  6
CONTINUOUS
  0
LAYER
  2
12
 70
0
 62
7
  6
CONTINUOUS
  0
LAYER
  2
13
 70
0
 62
7
  6
CONTINUOUS
  0
LAYER
  2
14
 70
0
 62
7
  6
CONTINUOUS
  0
LAYER
  2
15
 70
0
 62
7
  6
CONTINUOUS
  0
LAYER
  2
16
 70
0
 62
7
  6
CONTINUOUS
  0
LAYER
  2
17
 70
0
 62
7
  6
CONTINUOUS
  0
LAYER
  2
18
 70
0
 62
7
  6
CONTINUOUS
  0
LAYER
  2
19
 70
0
 62
7
  6
CONTINUOUS
  0
LAYER
  2
20
 70
0
 62
7
  6
CONTINUOUS
  0
LAYER
  2
21
 70
0
 62
7
  6
CONTINUOUS
  0
LAYER
  2
22
 70
0
 62
7
  6
CONTINUOUS
  0
LAYER
  2
23
 70
0
 62
7
  6
CONTINUOUS
  0
LAYER
  2
24
 70
0
 62
7
  6
CONTINUOUS
  0
LAYER
  2
25
 70
0
 62
7
  6
CONTINUOUS
  0
LAYER
  2
26
 70
0
 62
7
  6
CONTINUOUS
  0
LAYER
  2
27
 70
0
 62
7
  6
CONTINUOUS
  0
LAYER
  2
28
 70
0
 62
7
  6
CONTINUOUS
  0
LAYER
  2
29
 70
0
 62
7
  6
CONTINUOUS
  0
LAYER
  2
30
 70
0
 62
7
  6
CONTINUOUS
  0
LAYER
  2
31
 70
0
 62
7
  6
CONTINUOUS
  0
LAYER
  2
32
 70
0
 62
7
  6
CONTINUOUS
  0
LAYER
  2
33
 70
0
 62
7
  6
CONTINUOUS
  0
LAYER
  2
34
 70
0
 62
7
  6
CONTINUOUS
  0
LAYER
  2
35
 70
0
 62
7
  6
CONTINUOUS
  0
LAYER
  2
36
 70
0
 62
7
  6
CONTINUOUS
  0
LAYER
  2
37
 70
0
 62
7
  6
CONTINUOUS
  0
LAYER
  2
38
 70
0
 62
7
  6
CONTINUOUS
  0
LAYER
  2
39
 70
0
 62
7
  6
CONTINUOUS
  0
LAYER
  2
40
 70
0
 62
7
  6
CONTINUOUS
  0
LAYER
  2
41
 70
0
 62
7
  6
CONTINUOUS
  0
LAYER
  2
42
 70
0
 62
7
  6
CONTINUOUS
  0
LAYER
  2
43
 70
0
 62
7
  6
CONTINUOUS
  0
LAYER
  2
44
 70
0
 62
7
  6
CONTINUOUS
  0
LAYER
  2
45
 70
0
 62
7
  6
CONTINUOUS
  0
LAYER
  2
46
 70
0
 62
7
  6
CONTINUOUS
  0
LAYER
  2
47
 70
0
 62
7
  6
CONTINUOUS
  0
LAYER
  2
48
 70
0
 62
7
  6
CONTINUOUS
  0
LAYER
  2
49
 70
0
 62
7
  6
CONTINUOUS
  0
LAYER
  2
50
 70
0
 62
7
  6
CONTINUOUS
  0
LAYER
  2
51
 70
0
 62
7
  6
CONTINUOUS
  0
LAYER
  2
52
 70
0
 62
7
  6
CONTINUOUS
  0
LAYER
  2
53
 70
0
 62
7
  6
CONTINUOUS
  0
LAYER
  2
54
 70
0
 62
7
  6
CONTINUOUS
  0
LAYER
  2
55
 70
0
 62
7
  6
CONTINUOUS
  0
LAYER
  2
56
 70
0
 62
7
  6
CONTINUOUS
  0
LAYER
  2
57
 70
0
 62
7
  6
CONTINUOUS
  0
LAYER
  2
58
 70
0
 62
7
  6
CONTINUOUS
  0
LAYER
  2
59
 70
0
 62
7
  6
CONTINUOUS
  0
LAYER
  2
60
 70
0
 62
7
  6
CONTINUOUS
  0
LAYER
  2
61
 70
0
 62
7
  6
CONTINUOUS
  0
LAYER
  2
62
 70
0
 62
7
  6
CONTINUOUS
  0
LAYER
  2
63
 70
0
 62
7
  6
CONTINUOUS
  0
LAYER
  2
64
 70
0
 62
7
  6
CONTINUOUS
  0
LAYER
  2
65
 70
0
 62
7
  6
CONTINUOUS
  0
LAYER
  2
66
 70
0
 62
7
  6
CONTINUOUS
  0
LAYER
  2
67
 70
0
 62
7
  6
CONTINUOUS
  0
LAYER
  2
68
 70
0
 62
7
  6
CONTINUOUS
  0
LAYER
  2
69
 70
0
 62
7
  6
CONTINUOUS
  0
LAYER
  2
70
 70
0
 62
7
  6
CONTINUOUS
  0
LAYER
  2
71
 70
0
 62
7
  6
CONTINUOUS
  0
LAYER
  2
72
 70
0
 62
7
  6
CONTINUOUS
  0
LAYER
  2
73
 70
0
 62
7
  6
CONTINUOUS
  0
LAYER
  2
74
 70
0
 62
7
  6
CONTINUOUS
  0
LAYER
  2
75
 70
0
 62
7
  6
CONTINUOUS
  0
LAYER
  2
76
 70
0
 62
7
  6
CONTINUOUS
  0
LAYER
  2
77
 70
0
 62
7
  6
CONTINUOUS
  0
LAYER
  2
78
 70
0
 62
7
  6
CONTINUOUS
  0
LAYER
  2
79
 70
0
 62
7
  6
CONTINUOUS
  0
LAYER
  2
80
 70
0
 62
7
  6
CONTINUOUS
  0
LAYER
  2
81
 70
0
 62
7
  6
CONTINUOUS
  0
LAYER
  2
82
 70
0
 62
7
  6
CONTINUOUS
  0
LAYER
  2
83
 70
0
 62
7
  6
CONTINUOUS
  0
LAYER
  2
84
 70
0
 62
7
  6
CONTINUOUS
  0
LAYER
  2
85
 70
0
 62
7
  6
CONTINUOUS
  0
LAYER
  2
86
 70
0
 62
7
  6
CONTINUOUS
  0
LAYER
  2
87
 70
0
 62
7
  6
CONTINUOUS
  0
LAYER
  2
88
 70
0
 62
7
  6
CONTINUOUS
  0
LAYER
  2
89
 70
0
 62
7
  6
CONTINUOUS
  0
LAYER
  2
90
 70
0
 62
7
  6
CONTINUOUS
  0
LAYER
  2
91
 70
0
 62
7
  6
CONTINUOUS
  0
LAYER
  2
92
 70
0
 62
7
  6
CONTINUOUS
  0
LAYER
  2
93
 70
0
 62
7
  6
CONTINUOUS
  0
LAYER
  2
94
 70
0
 62
7
  6
CONTINUOUS
  0
LAYER
  2
95
 70
0
 62
7
  6
CONTINUOUS
  0
LAYER
  2
96
 70
0
 62
7
  6
CONTINUOUS
  0
LAYER
  2
97
 70
0
 62
7
  6
CONTINUOUS
  0
LAYER
  2
98
 70
0
 62
7
  6
CONTINUOUS
  0
LAYER
  2
99
 70
0
 62
7
  6
CONTINUOUS
  0
LAYER
  2
100
 70
0
 62
7
  6
CONTINUOUS
  0
LAYER
  2
101
 70
0
 62
7
  6
CONTINUOUS
  0
LAYER
  2
102
 70
0
 62
7
  6
CONTINUOUS
  0
LAYER
  2
103
 70
0
 62
7
  6
CONTINUOUS
  0
LAYER
  2
104
 70
0
 62
7
  6
CONTINUOUS
  0
LAYER
  2
105
 70
0
 62
7
  6
CONTINUOUS
  0
LAYER
  2
106
 70
0
 62
7
  6
CONTINUOUS
  0
LAYER
  2
107
 70
0
 62
7
  6
CONTINUOUS
  0
LAYER
  2
108
 70
0
 62
7
  6
CONTINUOUS
  0
LAYER
  2
109
 70
0
 62
7
  6
CONTINUOUS
  0
LAYER
  2
110
 70
0
 62
7
  6
CONTINUOUS
  0
LAYER
  2
111
 70
0
 62
7
  6
CONTINUOUS
  0
LAYER
  2
112
 70
0
 62
7
  6
CONTINUOUS
  0
LAYER
  2
113
 70
0
 62
7
  6
CONTINUOUS
  0
LAYER
  2
114
 70
0
 62
7
  6
CONTINUOUS
  0
LAYER
  2
115
 70
0
 62
7
  6
CONTINUOUS
  0
LAYER
  2
116
 70
0
 62
7
  6
CONTINUOUS
  0
LAYER
  2
117
 70
0
 62
7
  6
CONTINUOUS
  0
LAYER
  2
118
 70
0
 62
7
  6
CONTINUOUS
  0
LAYER
  2
119
 70
0
 62
7
  6
CONTINUOUS
  0
LAYER
  2
120
 70
0
 62
7
  6
CONTINUOUS
  0
LAYER
  2
121
 70
0
 62
7
  6
CONTINUOUS
  0
LAYER
  2
122
 70
0
 62
7
  6
CONTINUOUS
  0
LAYER
  2
123
 70
0
 62
7
  6
CONTINUOUS
  0
LAYER
  2
124
 70
0
 62
7
  6
CONTINUOUS
  0
LAYER
  2
125
 70
0
 62
7
  6
CONTINUOUS
  0
LAYER
  2
126
 70
0
 62
7
  6
CONTINUOUS
  0
LAYER
  2
127
 70
0
 62
7
  6
CONTINUOUS
  0
LAYER
  2
128
 70
0
 62
7
  6
CONTINUOUS
  0
LAYER
  2
129
 70
0
 62
7
  6
CONTINUOUS
  0
LAYER
  2
130
 70
0
 62
7
  6
CONTINUOUS
  0
LAYER
  2
131
 70
0
 62
7
  6
CONTINUOUS
  0
LAYER
  2
132
 70
0
 62
7
  6
CONTINUOUS
  0
LAYER
  2
133
 70
0
 62
7
  6
CONTINUOUS
  0
LAYER
  2
134
 70
0
 62
7
  6
CONTINUOUS
  0
LAYER
  2
135
 70
0
 62
7
  6
CONTINUOUS
  0
LAYER
  2
136
 70
0
 62
7
  6
CONTINUOUS
  0
LAYER
  2
137
 70
0
 62
7
  6
CONTINUOUS
  0
LAYER
  2
138
 70
0
 62
7
  6
CONTINUOUS
  0
LAYER
  2
139
 70
0
 62
7
  6
CONTINUOUS
  0
LAYER
  2
140
 70
0
 62
7
  6
CONTINUOUS
  0
LAYER
  2
141
 70
0
 62
7
  6
CONTINUOUS
  0
LAYER
  2
142
 70
0
 62
7
  6
CONTINUOUS
  0
LAYER
  2
143
 70
0
 62
7
  6
CONTINUOUS
  0
LAYER
  2
144
 70
0
 62
7
  6
CONTINUOUS
  0
LAYER
  2
145
 70
0
 62
7
  6
CONTINUOUS
  0
LAYER
  2
146
 70
0
 62
7
  6
CONTINUOUS
  0
LAYER
  2
147
 70
0
 62
7
  6
CONTINUOUS
  0
LAYER
  2
148
 70
0
 62
7
  6
CONTINUOUS
  0
LAYER
  2
149
 70
0
 62
7
  6
CONTINUOUS
  0
LAYER
  2
150
 70
0
 62
7
  6
CONTINUOUS
  0
LAYER
  2
151
 70
0
 62
7
  6
CONTINUOUS
  0
LAYER
  2
152
 70
0
 62
7
  6
CONTINUOUS
  0
LAYER
  2
153
 70
0
 62
7
  6
CONTINUOUS
  0
LAYER
  2
154
 70
0
 62
7
  6
CONTINUOUS
  0
LAYER
  2
155
 70
0
 62
7
  6
CONTINUOUS
  0
LAYER
  2
156
 70
0
 62
7
  6
CONTINUOUS
  0
LAYER
  2
157
 70
0
 62
7
  6
CONTINUOUS
  0
LAYER
  2
158
 70
0
 62
7
  6
CONTINUOUS
  0
LAYER
  2
159
 70
0
 62
7
  6
CONTINUOUS
  0
LAYER
  2
160
 70
0
 62
7
  6
CONTINUOUS
  0
LAYER
  2
161
 70
0
 62
7
  6
CONTINUOUS
  0
LAYER
  2
162
 70
0
 62
7
  6
CONTINUOUS
  0
LAYER
  2
163
 70
0
 62
7
  6
CONTINUOUS
  0
LAYER
  2
164
 70
0
 62
7
  6
CONTINUOUS
  0
LAYER
  2
165
 70
0
 62
7
  6
CONTINUOUS
  0
LAYER
  2
166
 70
0
 62
7
  6
CONTINUOUS
  0
LAYER
  2
167
 70
0
 62
7
  6
CONTINUOUS
  0
LAYER
  2
168
 70
0
 62
7
  6
CONTINUOUS
  0
LAYER
  2
169
 70
0
 62
7
  6
CONTINUOUS
  0
LAYER
  2
170
 70
0
 62
7
  6
CONTINUOUS
  0
LAYER
  2
171
 70
0
 62
7
  6
CONTINUOUS
  0
LAYER
  2
172
 70
0
 62
7
  6
CONTINUOUS
  0
LAYER
  2
173
 70
0
 62
7
  6
CONTINUOUS
  0
LAYER
  2
174
 70
0
 62
7
  6
CONTINUOUS
  0
LAYER
  2
175
 70
0
 62
7
  6
CONTINUOUS
  0
LAYER
  2
176
 70
0
 62
7
  6
CONTINUOUS
  0
LAYER
  2
177
 70
0
 62
7
  6
CONTINUOUS
  0
LAYER
  2
178
 70
0
 62
7
  6
CONTINUOUS
  0
LAYER
  2
179
 70
0
 62
7
  6
CONTINUOUS
  0
LAYER
  2
180
 70
0
 62
7
  6
CONTINUOUS
  0
LAYER
  2
Drafting_Hidden_Entities
 70
1
 62
7
  6
CONTINUOUS
  0
ENDTAB
  0
TABLE
  2
STYLE
 70
1
  0
STYLE
  2
STANDARD
 70
64
 40
0.0
 41
1.0
 50
0.0
 71
0
 42
1.0
  3
monotxt.shx
  4

  0
ENDTAB
  0
TABLE
  2
VIEW
 70
0
  0
ENDTAB
  0
TABLE
  2
DIMSTYLE
 70
2
  0
DIMSTYLE
  2
DSTYLE1
 70
0
  3

  4

  5

  6

  7

 40
1.0
 41
5.0E-001
 42
1.0E-001
 43
3.8E-001
 44
2.5E-001
 45
1.0E-003
 46
0.0
 47
5.0E-003
 48
5.0E-003
 71
0
 72
0
 73
1
 74
1
 75
0
 76
0
 77
0
 78
7
140
3.75E-001
141
9.0E-002
142
0.0
143
1.0
144
1.0
145
0.0
146
1.0
147
2.5E-001
170
0
171
2
172
0
173
0
174
0
175
0
176
0
177
0
178
0
  0
DIMSTYLE
  2
DSTYLE2
 70
0
  3

  4

  5

  6

  7

 40
1.0
 41
5.0E-001
 42
6.25E-002
 43
3.8E-001
 44
1.25E-001
 45
1.0E-003
 46
0.0
 47
5.0E-003
 48
5.0E-003
 71
0
 72
0
 73
1
 74
1
 75
1
 76
0
 77
0
 78
7
140
3.75E-001
141
9.0E-002
142
0.0
143
2.54E+001
144
1.0
145
0.0
146
1.0
147
6.25E-002
170
0
171
2
172
0
173
0
174
0
175
0
176
0
177
0
178
0
  0
ENDTAB
  0
ENDSEC
  0
SECTION
  2
BLOCKS
  0
BLOCK
  2
*TX27
  3
*TX
 10
0.0
 20
0.0
 70
65
  0
TEXT
  8
126
  6
CONTINUOUS
 62
3
 10
9.0E-001
 20
5.0E-002
 40
1.0E-001
  1
24 LB COATED PAPER
 72
1
 73
2
 11
0.0
 21
0.0
  0
TEXT
  8
126
  6
CONTINUOUS
 62
3
 10
2.5E-001
 20
-1.0E-001
 40
1.0E-001
  1
WHITE
 72
1
 73
2
 11
0.0
 21
-1.5E-001
  0
ENDBLK
  0
BLOCK
  2
*TX28
  3
*TX
 10
0.0
 20
0.0
 70
65
  0
TEXT
  8
1
  6
CONTINUOUS
 62
3
 10
1.5
 20
1.5E-001
 40
3.0E-001
  1
ILFGR5422L
 72
1
 73
2
 11
0.0
 21
0.0
  0
TEXT
  8
1
  6
CONTINUOUS
 62
3
 10
1.5
 20
-3.0E-001
 40
3.0E-001
  1
ILFGR5422R
 72
1
 73
2
 11
0.0
 21
-4.5E-001
  0
TEXT
  8
1
  6
CONTINUOUS
 62
3
 10
1.35
 20
-7.5E-001
 40
3.0E-001
  1
ILGR5422L
 72
1
 73
2
 11
0.0
 21
-9.0E-001
  0
TEXT
  8
1
  6
CONTINUOUS
 62
3
 10
1.35
 20
-1.2
 40
3.0E-001
  1
ILGR5422R
 72
1
 73
2
 11
0.0
 21
-1.35
  0
TEXT
  8
1
  6
CONTINUOUS
 62
3
 10
1.35
 20
-1.65
 40
3.0E-001
  1
ILR5422DD
 72
1
 73
2
 11
0.0
 21
-1.8
  0
TEXT
  8
1
  6
CONTINUOUS
 62
3
 10
1.35
 20
-2.1
 40
3.0E-001
  1
LTR542210
 72
1
 73
2
 11
0.0
 21
-2.25
  0
ENDBLK
  0
BLOCK
  2
*TX30
  3
*TX
 10
0.0
 20
0.0
 70
65
  0
TEXT
  8
126
  6
CONTINUOUS
 62
3
 10
0.0
 20
0.0
 40
6.053E-002
  1
THIS PRINT IS THE PROPERTY OF ELKAY MANUFACTURING COMPANY
 41
1.0344828
  0
TEXT
  8
126
  6
CONTINUOUS
 62
3
 10
0.0
 20
-1.0553E-001
 40
6.053E-002
  1
AND IS LOANED SUBJECT TO RETURN UPON DEMAND AND UPON THE
 41
1.0344828
  0
TEXT
  8
126
  6
CONTINUOUS
 62
3
 10
0.0
 20
-2.1106E-001
 40
6.053E-002
  1
EXPRESS CONDITION THAT IT IS NOT TO BE USED DIRECTLY OR
 41
1.0344828
  0
TEXT
  8
126
  6
CONTINUOUS
 62
3
 10
0.0
 20
-3.1659E-001
 40
6.053E-002
  1
INDIRECTLY WITHOUT OUR PERMISSION FOR PURPOSES OTHER THAN
 41
1.0344828
  0
TEXT
  8
126
  6
CONTINUOUS
 62
3
 10
0.0
 20
-4.2212E-001
 40
6.053E-002
  1
THOSE FOR WHICH IT WAS FURNISHED.
 41
1.0344828
  0
ENDBLK
  0
BLOCK
  2
*TX31
  3
*TX
 10
0.0
 20
0.0
 70
65
  0
TEXT
  8
1
  6
CONTINUOUS
 62
3
 10
3.7125
 20
1.375E-001
 40
2.75E-001
  1
VERIFY THAT THE MODEL BEING
 72
1
 73
2
 11
0.0
 21
0.0
  0
TEXT
  8
1
  6
CONTINUOUS
 62
3
 10
3.4375
 20
-2.75E-001
 40
2.75E-001
  1
INSTALLED IS LISTED ABOVE
 72
1
 73
2
 11
0.0
 21
-4.125E-001
  0
TEXT
  8
1
  6
CONTINUOUS
 62
3
 10
3.575
 20
-6.875E-001
 40
2.75E-001
  1
BEFORE USING THIS TEMPLATE
 72
1
 73
2
 11
0.0
 21
-8.25E-001
  0
TEXT
  8
1
  6
CONTINUOUS
 62
3
 10
2.75E-001
 20
-1.1
 40
2.75E-001
  1
  
 72
1
 73
2
 11
0.0
 21
-1.2375
  0
TEXT
  8
1
  6
CONTINUOUS
 62
3
 10
2.8875
 20
-1.5125
 40
2.75E-001
  1
CHECK THE TEMPLATE BY
 72
1
 73
2
 11
0.0
 21
-1.65
  0
TEXT
  8
1
  6
CONTINUOUS
 62
3
 10
2.475
 20
-1.925
 40
2.75E-001
  1
LAYING IT OVER THE
 72
1
 73
2
 11
0.0
 21
-2.0625
  0
TEXT
  8
1
  6
CONTINUOUS
 62
3
 10
3.575
 20
-2.3375
 40
2.75E-001
  1
SINK PRIOR TO INSTALLATION
 72
1
 73
2
 11
0.0
 21
-2.475
  0
TEXT
  8
1
  6
CONTINUOUS
 62
3
 10
1.375E-001
 20
-2.75
 40
2.75E-001
  1
 
 72
1
 73
2
 11
0.0
 21
-2.8875
  0
TEXT
  8
1
  6
CONTINUOUS
 62
3
 10
3.85
 20
-3.1625
 40
2.75E-001
  1
FOR QUESTIONS PLEASE CONTACT
 72
1
 73
2
 11
0.0
 21
-3.3
  0
TEXT
  8
1
  6
CONTINUOUS
 62
3
 10
3.025
 20
-3.575
 40
2.75E-001
  1
ELKAY CUSTOMER SERVICE
 72
1
 73
2
 11
0.0
 21
-3.7125
  0
ENDBLK
  0
BLOCK
  2
*D42
  3
*D
 10
0.0
 20
0.0
 70
65
  0
LINE
  8
1
  6
CONTINUOUS
 62
3
 10
5.4618735E+001
 20
1.8574359
 11
5.7990416E+001
 21
1.8574359
  0
LINE
  8
1
  6
CONTINUOUS
 62
3
 10
5.4618735E+001
 20
2.3232436E+001
 11
5.7990416E+001
 21
2.3232436E+001
  0
LINE
  8
1
  6
CONTINUOUS
 62
3
 10
5.7740416E+001
 20
1.8574359
 11
5.7823749E+001
 21
2.3574359
  0
LINE
  8
1
  6
CONTINUOUS
 62
3
 10
5.7740416E+001
 20
1.8574359
 11
5.7657083E+001
 21
2.3574359
  0
LINE
  8
1
  6
CONTINUOUS
 62
3
 10
5.7823749E+001
 20
2.3574359
 11
5.7657083E+001
 21
2.3574359
  0
LINE
  8
1
  6
CONTINUOUS
 62
3
 10
5.7740416E+001
 20
2.3232436E+001
 11
5.7823749E+001
 21
2.2732436E+001
  0
LINE
  8
1
  6
CONTINUOUS
 62
3
 10
5.7740416E+001
 20
2.3232436E+001
 11
5.7657083E+001
 21
2.2732436E+001
  0
LINE
  8
1
  6
CONTINUOUS
 62
3
 10
5.7823749E+001
 20
2.2732436E+001
 11
5.7657083E+001
 21
2.2732436E+001
  0
LINE
  8
1
  6
CONTINUOUS
 62
3
 10
5.7740416E+001
 20
1.8574359
 11
5.7740416E+001
 21
1.2107436E+001
  0
LINE
  8
1
  6
CONTINUOUS
 62
3
 10
5.7740416E+001
 20
2.3232436E+001
 11
5.7740416E+001
 21
1.2982436E+001
  0
TEXT
  8
1
  6
CONTINUOUS
 62
3
 10
5.6615416E+001
 20
1.2357436E+001
 40
3.75E-001
  1
21 3/8
  0
ENDBLK
  0
BLOCK
  2
*D457
  3
*D
 10
0.0
 20
0.0
 70
65
  0
LINE
  8
1
  6
CONTINUOUS
 62
3
 10
3.1813529
 20
2.288301E+001
 11
4.3068884
 21
2.185566E+001
  0
LINE
  8
1
  6
CONTINUOUS
 62
3
 10
3.1813529
 20
2.288301E+001
 11
3.4944669
 21
2.2484382E+001
  0
LINE
  8
1
  6
CONTINUOUS
 62
3
 10
3.1813529
 20
2.288301E+001
 11
3.6068265
 21
2.260748E+001
  0
LINE
  8
1
  6
CONTINUOUS
 62
3
 10
3.4944669
 20
2.2484382E+001
 11
3.6068265
 21
2.260748E+001
  0
LINE
  8
1
  6
CONTINUOUS
 62
3
 10
4.4318884
 20
2.185566E+001
 11
4.3068884
 21
2.185566E+001
  0
TEXT
  8
1
  6
CONTINUOUS
 62
3
 10
4.4943884
 20
2.166816E+001
 40
3.75E-001
  1
R 1 1/2
  0
ENDBLK
  0
BLOCK
  2
*D858
  3
*D
 10
0.0
 20
0.0
 70
65
  0
LINE
  8
1
  6
CONTINUOUS
 62
3
 10
5.6018735E+001
 20
3.2574359
 11
5.6018735E+001
 21
5.97877E-001
  0
LINE
  8
1
  6
CONTINUOUS
 62
3
 10
2.6437347
 20
3.2574359
 11
2.6437347
 21
5.97877E-001
  0
LINE
  8
1
  6
CONTINUOUS
 62
3
 10
5.6018735E+001
 20
8.47877E-001
 11
5.5518735E+001
 21
9.3121033E-001
  0
LINE
  8
1
  6
CONTINUOUS
 62
3
 10
5.6018735E+001
 20
8.47877E-001
 11
5.5518735E+001
 21
7.6454367E-001
  0
LINE
  8
1
  6
CONTINUOUS
 62
3
 10
5.5518735E+001
 20
9.3121033E-001
 11
5.5518735E+001
 21
7.6454367E-001
  0
LINE
  8
1
  6
CONTINUOUS
 62
3
 10
2.6437347
 20
8.47877E-001
 11
3.1437347
 21
9.3121033E-001
  0
LINE
  8
1
  6
CONTINUOUS
 62
3
 10
2.6437347
 20
8.47877E-001
 11
3.1437347
 21
7.6454367E-001
  0
LINE
  8
1
  6
CONTINUOUS
 62
3
 10
3.1437347
 20
9.3121033E-001
 11
3.1437347
 21
7.6454367E-001
  0
LINE
  8
1
  6
CONTINUOUS
 62
3
 10
5.6018735E+001
 20
8.47877E-001
 11
3.0706235E+001
 21
8.47877E-001
  0
LINE
  8
1
  6
CONTINUOUS
 62
3
 10
2.6437347
 20
8.47877E-001
 11
2.7956235E+001
 21
8.47877E-001
  0
TEXT
  8
1
  6
CONTINUOUS
 62
3
 10
2.8206235E+001
 20
6.60377E-001
 40
3.75E-001
  1
53 3/8
  0
ENDBLK
  0
ENDSEC
  0
SECTION
  2
ENTITIES
  0
DIMENSION
  8
1
  6
CONTINUOUS
 62
3
  2
*D42
  3
DSTYLE1
 10
5.7740416E+001
 20
2.3232436E+001
 11
5.7740416E+001
 21
1.2544936E+001
 70
128
 13
5.4518735E+001
 23
1.8574359
 14
5.4518735E+001
 24
2.3232436E+001
 40
1.25E-001
 50
9.0E+001
  0
TEXT
  8
126
  6
CONTINUOUS
 62
3
 10
6.3823088E+001
 20
6.798728E-001
 40
8.0E-002
  1
REL - ECNBV03397 01JUN04
  0
INSERT
  2
*TX27
  8
126
 10
6.17195E+001
 20
1.3959133
  0
POLYLINE
  8
1
  6
CONTINUOUS
 62
3
 66
1
 40
2.0E-002
 41
2.0E-002
 70
0
  0
VERTEX
  8
1
 42
0.0
 10
2.4673468E+001
 20
8.2967542
 70
0
  0
VERTEX
  8
1
 42
0.0
 10
2.9331235E+001
 20
1.0069024E+001
 70
0
  0
SEQEND
  0
POLYLINE
  8
1
  6
CONTINUOUS
 62
3
 66
1
 40
2.0E-002
 41
2.0E-002
 70
0
  0
VERTEX
  8
1
 42
0.0
 10
2.9331235E+001
 20
1.0069024E+001
 70
0
  0
VERTEX
  8
1
 42
0.0
 10
3.3989001E+001
 20
8.2967542
 70
0
  0
SEQEND
  0
TEXT
  8
1
  6
CONTINUOUS
 62
3
 10
3.1919328E+001
 20
8.792586
 40
4.0E-001
  1
**IMPORTANT**
 51
-4.1943E-006
 72
1
 73
2
 11
2.9319328E+001
 21
8.592586
  0
POLYLINE
  8
1
  6
CONTINUOUS
 62
3
 66
1
 40
2.0E-002
 41
2.0E-002
 70
0
  0
VERTEX
  8
1
 42
0.0
 10
2.4673468E+001
 20
3.3574359
 70
0
  0
VERTEX
  8
1
 42
0.0
 10
3.3989001E+001
 20
3.3574359
 70
0
  0
SEQEND
  0
POLYLINE
  8
1
  6
CONTINUOUS
 62
3
 66
1
 40
2.0E-002
 41
2.0E-002
 70
0
  0
VERTEX
  8
1
 42
0.0
 10
2.4673468E+001
 20
8.2967542
 70
0
  0
VERTEX
  8
1
 42
0.0
 10
2.4673468E+001
 20
3.3574359
 70
0
  0
SEQEND
  0
POLYLINE
  8
1
  6
CONTINUOUS
 62
3
 66
1
 40
2.0E-002
 41
2.0E-002
 70
0
  0
VERTEX
  8
1
 42
0.0
 10
3.3989001E+001
 20
3.3574359
 70
0
  0
VERTEX
  8
1
 42
0.0
 10
3.3989001E+001
 20
8.2967542
 70
0
  0
SEQEND
  0
INSERT
  2
*TX31
  8
1
 10
2.9341583E+001
 20
7.594941
  0
TEXT
  8
126
  6
CONTINUOUS
 62
3
 10
6.5417987E+001
 20
1.1594312
 40
1.0E-001
  1
JAS
  0
LINE
  8
1
  6
CONTINUOUS
 62
1
 10
5.6018735E+001
 20
3.3574359
 11
5.6018735E+001
 21
2.1732436E+001
  0
ARC
  8
1
  6
CONTINUOUS
 62
1
 10
5.4518735E+001
 20
2.1732436E+001
 40
1.5
 50
0.0
 51
9.0E+001
  0
LINE
  8
1
  6
CONTINUOUS
 62
1
 10
5.4518735E+001
 20
2.3232436E+001
 11
4.1437347
 21
2.3232436E+001
  0
ARC
  8
1
  6
CONTINUOUS
 62
1
 10
4.1437347
 20
2.1732436E+001
 40
1.5
 50
9.0E+001
 51
1.8E+002
  0
TEXT
  8
1
  6
CONTINUOUS
 62
3
 10
3.1697786E+001
 20
2.121855E+001
 40
4.0E-001
  1
TEMPLATE FOR
 72
1
 73
2
 11
2.9297786E+001
 21
2.1018551E+001
  0
INSERT
  2
*D457
  8
1
 10
0.0
 20
0.0
  0
LINE
  8
1
  6
CONTINUOUS
 62
3
 10
3.1827674E+001
 20
2.0758161E+001
 11
2.6807572E+001
 21
2.0758161E+001
  0
LINE
  8
1
  6
CONTINUOUS
 62
1
 10
4.1437347
 20
1.8574359
 11
5.4518735E+001
 21
1.8574359
  0
LINE
  8
1
  6
CONTINUOUS
 62
1
 10
2.6437347
 20
2.1732436E+001
 11
2.6437347
 21
3.3574359
  0
ARC
  8
1
  6
CONTINUOUS
 62
1
 10
4.1437347
 20
3.3574359
 40
1.5
 50
1.8E+002
 51
2.7E+002
  0
ARC
  8
1
  6
CONTINUOUS
 62
1
 10
5.4518735E+001
 20
3.3574359
 40
1.5
 50
2.7E+002
 51
3.6E+002
  0
TEXT
  8
1
  6
CONTINUOUS
 62
3
 10
3.0514171E+001
 20
2.6093054
 40
3.0E-001
  1
74180461
 72
1
 73
2
 11
2.9314171E+001
 21
2.4593054
  0
TEXT
  8
180
  6
CONTINUOUS
 62
1
 10
6.537362E+001
 20
2.0251734
 40
1.25E-001
  1
MANUFACTURING COMPANY
 41
9.0E-001
  0
TEXT
  8
126
  6
CONTINUOUS
 62
3
 10
6.6503241E+001
 20
1.9452316
 40
7.5E-002
  1
BROADVIEW, ILLINOIS
 72
1
 73
2
 11
6.5790741E+001
 21
1.9077316
  0
LINE
  8
126
  6
CONTINUOUS
 62
3
 10
6.4184399E+001
 20
2.0268663
 11
6.437403E+001
 21
2.0268663
  0
LINE
  8
126
  6
CONTINUOUS
 62
3
 10
6.3857973E+001
 20
2.1879207
 11
6.4120281E+001
 21
2.1879207
  0
LINE
  8
126
  6
CONTINUOUS
 62
3
 10
6.3824748E+001
 20
1.9994913
 11
6.4099748E+001
 21
1.9994913
  0
LINE
  8
126
  6
CONTINUOUS
 62
3
 10
6.3824748E+001
 20
1.9994913
 11
6.3857973E+001
 21
2.1879207
  0
LINE
  8
126
  6
CONTINUOUS
 62
3
 10
6.3905287E+001
 20
2.1605457
 11
6.4115454E+001
 21
2.1605457
  0
LINE
  8
126
  6
CONTINUOUS
 62
3
 10
6.4127404E+001
 20
1.9994913
 11
6.416063E+001
 21
2.1879207
  0
LINE
  8
126
  6
CONTINUOUS
 62
3
 10
6.416063E+001
 20
2.1879207
 11
6.4212797E+001
 21
2.1879207
  0
LINE
  8
126
  6
CONTINUOUS
 62
3
 10
6.4127404E+001
 20
1.9994913
 11
6.4369203E+001
 21
1.9994913
  0
LINE
  8
126
  6
CONTINUOUS
 62
3
 10
6.4184399E+001
 20
2.0268663
 11
6.4212797E+001
 21
2.1879207
  0
LINE
  8
126
  6
CONTINUOUS
 62
3
 10
6.3895926E+001
 20
2.107456
 11
6.3905287E+001
 21
2.1605457
  0
LINE
  8
126
  6
CONTINUOUS
 62
3
 10
6.4115454E+001
 20
2.1605457
 11
6.4120281E+001
 21
2.1879207
  0
LINE
  8
126
  6
CONTINUOUS
 62
3
 10
6.4088551E+001
 20
2.079956
 11
6.40934E+001
 21
2.107456
  0
LINE
  8
126
  6
CONTINUOUS
 62
3
 10
6.5322329E+001
 20
2.1879207
 11
6.5168053E+001
 21
2.0727413
  0
LINE
  8
126
  6
CONTINUOUS
 62
3
 10
6.5322329E+001
 20
2.1879207
 11
6.5261108E+001
 21
2.1879207
  0
LINE
  8
126
  6
CONTINUOUS
 62
3
 10
6.5261108E+001
 20
2.1879207
 11
6.5147757E+001
 21
2.1032948
  0
LINE
  8
126
  6
CONTINUOUS
 62
3
 10
6.4099748E+001
 20
1.9994913
 11
6.4104575E+001
 21
2.0268663
  0
LINE
  8
126
  6
CONTINUOUS
 62
3
 10
6.3885297E+001
 20
2.0268663
 11
6.3894658E+001
 21
2.079956
  0
LINE
  8
126
  6
CONTINUOUS
 62
3
 10
6.40934E+001
 20
2.107456
 11
6.3895926E+001
 21
2.107456
  0
LINE
  8
126
  6
CONTINUOUS
 62
3
 10
6.3894658E+001
 20
2.079956
 11
6.4088551E+001
 21
2.079956
  0
LINE
  8
126
  6
CONTINUOUS
 62
3
 10
6.4722903E+001
 20
2.1879207
 11
6.4579779E+001
 21
2.106729
  0
LINE
  8
126
  6
CONTINUOUS
 62
3
 10
6.3885297E+001
 20
2.0268663
 11
6.4104575E+001
 21
2.0268663
  0
LINE
  8
126
  6
CONTINUOUS
 62
3
 10
6.4369203E+001
 20
1.9994913
 11
6.437403E+001
 21
2.0268663
  0
LINE
  8
126
  6
CONTINUOUS
 62
3
 10
6.4648676E+001
 20
2.1879207
 11
6.4722903E+001
 21
2.1879207
  0
LINE
  8
126
  6
CONTINUOUS
 62
3
 10
6.4615282E+001
 20
1.9994913
 11
6.4696503E+001
 21
1.9994913
  0
LINE
  8
126
  6
CONTINUOUS
 62
3
 10
6.4455303E+001
 20
2.0361163
 11
6.4448846E+001
 21
1.9994913
  0
LINE
  8
126
  6
CONTINUOUS
 62
3
 10
6.4482071E+001
 20
2.1879207
 11
6.4463553E+001
 21
2.0829041
  0
LINE
  8
126
  6
CONTINUOUS
 62
3
 10
6.4870541E+001
 20
2.1879207
 11
6.4962041E+001
 21
2.1879207
  0
LINE
  8
126
  6
CONTINUOUS
 62
3
 10
6.4992647E+001
 20
1.9994913
 11
6.5053666E+001
 21
1.9994913
  0
LINE
  8
126
  6
CONTINUOUS
 62
3
 10
6.4529564E+001
 20
2.0782429
 11
6.4455303E+001
 21
2.0361163
  0
LINE
  8
126
  6
CONTINUOUS
 62
3
 10
6.4648676E+001
 20
2.1879207
 11
6.4463553E+001
 21
2.0829041
  0
LINE
  8
126
  6
CONTINUOUS
 62
3
 10
6.4482071E+001
 20
2.1879207
 11
6.4429903E+001
 21
2.1879207
  0
LINE
  8
126
  6
CONTINUOUS
 62
3
 10
6.4396678E+001
 20
1.9994913
 11
6.4429903E+001
 21
2.1879207
  0
LINE
  8
126
  6
CONTINUOUS
 62
3
 10
6.4696503E+001
 20
1.9994913
 11
6.4579779E+001
 21
2.106729
  0
LINE
  8
126
  6
CONTINUOUS
 62
3
 10
6.4615282E+001
 20
1.9994913
 11
6.4529564E+001
 21
2.0782429
  0
LINE
  8
126
  6
CONTINUOUS
 62
3
 10
6.4448846E+001
 20
1.9994913
 11
6.4396678E+001
 21
1.9994913
  0
LINE
  8
126
  6
CONTINUOUS
 62
3
 10
6.4705666E+001
 20
1.9994913
 11
6.4754332E+001
 21
1.9994913
  0
LINE
  8
126
  6
CONTINUOUS
 62
3
 10
6.4809457E+001
 20
2.0624913
 11
6.4907518E+001
 21
2.1745619
  0
LINE
  8
126
  6
CONTINUOUS
 62
3
 10
6.4962013E+001
 20
2.0624913
 11
6.4907518E+001
 21
2.1745619
  0
LINE
  8
126
  6
CONTINUOUS
 62
3
 10
6.4705666E+001
 20
1.9994913
 11
6.4870541E+001
 21
2.1879207
  0
LINE
  8
126
  6
CONTINUOUS
 62
3
 10
6.4786379E+001
 20
2.0361163
 11
6.4974838E+001
 21
2.0361163
  0
LINE
  8
126
  6
CONTINUOUS
 62
3
 10
6.5053666E+001
 20
1.9994913
 11
6.4962041E+001
 21
2.1879207
  0
LINE
  8
126
  6
CONTINUOUS
 62
3
 10
6.4809457E+001
 20
2.0624913
 11
6.4962013E+001
 21
2.0624913
  0
LINE
  8
126
  6
CONTINUOUS
 62
3
 10
6.4754332E+001
 20
1.9994913
 11
6.4786379E+001
 21
2.0361163
  0
LINE
  8
126
  6
CONTINUOUS
 62
3
 10
6.4992647E+001
 20
1.9994913
 11
6.4974838E+001
 21
2.0361163
  0
LINE
  8
126
  6
CONTINUOUS
 62
3
 10
6.5261108E+001
 20
2.1879207
 11
6.5322329E+001
 21
2.1879207
  0
LINE
  8
126
  6
CONTINUOUS
 62
3
 10
6.5099416E+001
 20
1.9994913
 11
6.5155137E+001
 21
1.9994913
  0
LINE
  8
126
  6
CONTINUOUS
 62
3
 10
6.5099416E+001
 20
1.9994913
 11
6.5110551E+001
 21
2.0626421
  0
LINE
  8
126
  6
CONTINUOUS
 62
3
 10
6.5155137E+001
 20
1.9994913
 11
6.5168053E+001
 21
2.0727413
  0
LINE
  8
126
  6
CONTINUOUS
 62
3
 10
6.5068075E+001
 20
2.1879207
 11
6.5147757E+001
 21
2.1032948
  0
LINE
  8
126
  6
CONTINUOUS
 62
3
 10
6.5110551E+001
 20
2.0626421
 11
6.4992592E+001
 21
2.1879207
  0
LINE
  8
126
  6
CONTINUOUS
 62
3
 10
6.4992592E+001
 20
2.1879207
 11
6.5068075E+001
 21
2.1879207
  0
LINE
  8
126
  6
CONTINUOUS
 62
3
 10
6.5311281E+001
 20
2.1879207
 11
6.5316003E+001
 21
2.1831979
  0
LINE
  8
126
  6
CONTINUOUS
 62
3
 10
6.5300232E+001
 20
2.1879207
 11
6.5309678E+001
 21
2.1784752
  0
LINE
  8
126
  6
CONTINUOUS
 62
3
 10
6.5289184E+001
 20
2.1879207
 11
6.5303352E+001
 21
2.1737525
  0
LINE
  8
126
  6
CONTINUOUS
 62
3
 10
6.5278135E+001
 20
2.1879207
 11
6.5297026E+001
 21
2.1690298
  0
LINE
  8
126
  6
CONTINUOUS
 62
3
 10
6.5267087E+001
 20
2.1879207
 11
6.52907E+001
 21
2.164307
  0
LINE
  8
126
  6
CONTINUOUS
 62
3
 10
6.5258205E+001
 20
2.1857533
 11
6.5284374E+001
 21
2.1595843
  0
LINE
  8
126
  6
CONTINUOUS
 62
3
 10
6.525188E+001
 20
2.1810306
 11
6.5278048E+001
 21
2.1548616
  0
LINE
  8
126
  6
CONTINUOUS
 62
3
 10
6.5245554E+001
 20
2.1763078
 11
6.5271723E+001
 21
2.1501389
  0
LINE
  8
126
  6
CONTINUOUS
 62
3
 10
6.5239228E+001
 20
2.1715851
 11
6.5265397E+001
 21
2.1454161
  0
LINE
  8
126
  6
CONTINUOUS
 62
3
 10
6.5232902E+001
 20
2.1668624
 11
6.5259071E+001
 21
2.1406934
  0
LINE
  8
126
  6
CONTINUOUS
 62
3
 10
6.5226576E+001
 20
2.1621396
 11
6.5252745E+001
 21
2.1359707
  0
LINE
  8
126
  6
CONTINUOUS
 62
3
 10
6.522025E+001
 20
2.1574169
 11
6.5246419E+001
 21
2.131248
  0
LINE
  8
126
  6
CONTINUOUS
 62
3
 10
6.5213925E+001
 20
2.1526942
 11
6.5240094E+001
 21
2.1265252
  0
LINE
  8
126
  6
CONTINUOUS
 62
3
 10
6.5207599E+001
 20
2.1479715
 11
6.5233768E+001
 21
2.1218025
  0
LINE
  8
126
  6
CONTINUOUS
 62
3
 10
6.5201273E+001
 20
2.1432487
 11
6.5227442E+001
 21
2.1170798
  0
LINE
  8
126
  6
CONTINUOUS
 62
3
 10
6.5194947E+001
 20
2.138526
 11
6.5221116E+001
 21
2.112357
  0
LINE
  8
126
  6
CONTINUOUS
 62
3
 10
6.5188621E+001
 20
2.1338033
 11
6.521479E+001
 21
2.1076343
  0
LINE
  8
126
  6
CONTINUOUS
 62
3
 10
6.5182296E+001
 20
2.1290806
 11
6.5208465E+001
 21
2.1029116
  0
LINE
  8
126
  6
CONTINUOUS
 62
3
 10
6.517597E+001
 20
2.1243578
 11
6.5202139E+001
 21
2.0981889
  0
LINE
  8
126
  6
CONTINUOUS
 62
3
 10
6.5169644E+001
 20
2.1196351
 11
6.5195813E+001
 21
2.0934661
  0
LINE
  8
126
  6
CONTINUOUS
 62
3
 10
6.5163318E+001
 20
2.1149124
 11
6.5189487E+001
 21
2.0887434
  0
LINE
  8
126
  6
CONTINUOUS
 62
3
 10
6.5156992E+001
 20
2.1101897
 11
6.5183161E+001
 21
2.0840207
  0
LINE
  8
126
  6
CONTINUOUS
 62
3
 10
6.5150667E+001
 20
2.1054669
 11
6.5176835E+001
 21
2.079298
  0
LINE
  8
126
  6
CONTINUOUS
 62
3
 10
6.5057164E+001
 20
2.1879207
 11
6.517051E+001
 21
2.0745752
  0
LINE
  8
126
  6
CONTINUOUS
 62
3
 10
6.5046116E+001
 20
2.1879207
 11
6.516704E+001
 21
2.0669961
  0
LINE
  8
126
  6
CONTINUOUS
 62
3
 10
6.5035067E+001
 20
2.1879207
 11
6.5165384E+001
 21
2.0576037
  0
LINE
  8
126
  6
CONTINUOUS
 62
3
 10
6.5024019E+001
 20
2.1879207
 11
6.5163728E+001
 21
2.0482113
  0
LINE
  8
126
  6
CONTINUOUS
 62
3
 10
6.501297E+001
 20
2.1879207
 11
6.5162072E+001
 21
2.0388189
  0
LINE
  8
126
  6
CONTINUOUS
 62
3
 10
6.5001921E+001
 20
2.1879207
 11
6.5160416E+001
 21
2.0294265
  0
LINE
  8
126
  6
CONTINUOUS
 62
3
 10
6.5020292E+001
 20
2.1585015
 11
6.515876E+001
 21
2.0200341
  0
LINE
  8
126
  6
CONTINUOUS
 62
3
 10
6.5109734E+001
 20
2.0580108
 11
6.5157103E+001
 21
2.0106417
  0
LINE
  8
126
  6
CONTINUOUS
 62
3
 10
6.5108078E+001
 20
2.0486183
 11
6.5155447E+001
 21
2.0012493
  0
LINE
  8
126
  6
CONTINUOUS
 62
3
 10
6.4957727E+001
 20
2.1879207
 11
6.4966123E+001
 21
2.1795246
  0
LINE
  8
126
  6
CONTINUOUS
 62
3
 10
6.5106422E+001
 20
2.0392259
 11
6.5146157E+001
 21
1.9994913
  0
LINE
  8
126
  6
CONTINUOUS
 62
3
 10
6.4946679E+001
 20
2.1879207
 11
6.4976581E+001
 21
2.1580186
  0
LINE
  8
126
  6
CONTINUOUS
 62
3
 10
6.5104766E+001
 20
2.0298335
 11
6.5135108E+001
 21
1.9994913
  0
LINE
  8
126
  6
CONTINUOUS
 62
3
 10
6.493563E+001
 20
2.1879207
 11
6.4987038E+001
 21
2.1365126
  0
LINE
  8
126
  6
CONTINUOUS
 62
3
 10
6.510311E+001
 20
2.0204411
 11
6.512406E+001
 21
1.9994913
  0
LINE
  8
126
  6
CONTINUOUS
 62
3
 10
6.4924582E+001
 20
2.1879207
 11
6.4997496E+001
 21
2.1150067
  0
LINE
  8
126
  6
CONTINUOUS
 62
3
 10
6.5101454E+001
 20
2.0110487
 11
6.5113011E+001
 21
1.9994913
  0
LINE
  8
126
  6
CONTINUOUS
 62
3
 10
6.4913533E+001
 20
2.1879207
 11
6.5007953E+001
 21
2.0935008
  0
LINE
  8
126
  6
CONTINUOUS
 62
3
 10
6.5099798E+001
 20
2.0016563
 11
6.5101962E+001
 21
1.9994913
  0
LINE
  8
126
  6
CONTINUOUS
 62
3
 10
6.4902485E+001
 20
2.1879207
 11
6.501841E+001
 21
2.0719948
  0
LINE
  8
126
  6
CONTINUOUS
 62
3
 10
6.4891436E+001
 20
2.1879207
 11
6.4906247E+001
 21
2.1731096
  0
LINE
  8
126
  6
CONTINUOUS
 62
3
 10
6.4910095E+001
 20
2.1692613
 11
6.5028868E+001
 21
2.0504888
  0
LINE
  8
126
  6
CONTINUOUS
 62
3
 10
6.4880387E+001
 20
2.1879207
 11
6.4901091E+001
 21
2.167217
  0
TEXT
  8
126
  6
CONTINUOUS
 62
3
 10
6.3861248E+001
 20
1.1623924
 40
9.375E-002
  1
DR.BY
 41
9.0E-001
  0
TEXT
  8
126
  6
CONTINUOUS
 62
3
 10
5.985351E+001
 20
1.6520269
 40
8.0E-002
  1
MATERIAL
  0
TEXT
  8
126
  6
CONTINUOUS
 62
3
 10
5.9837115E+001
 20
2.1058975
 40
8.0E-002
  1
FINISH
  0
TEXT
  8
126
  6
CONTINUOUS
 62
3
 10
6.4856138E+001
 20
1.160795
 40
9.375E-002
  1
CH.BY
 41
9.0E-001
  0
TEXT
  8
126
  6
CONTINUOUS
 62
3
 10
6.3864004E+001
 20
9.584181E-001
 40
9.375E-002
  1
SCALE
 41
1.04
  0
TEXT
  8
1
  6
CONTINUOUS
 62
1
 10
6.586729E+001
 20
5.747568E-001
 40
1.875E-001
  1
REV-REL
 51
-4.1943E-006
  0
TEXT
  8
126
  6
CONTINUOUS
 62
3
 10
6.5858558E+001
 20
1.1434713
 40
9.375E-002
  1
DATE
 41
1.025
  0
LINE
  8
180
  6
CONTINUOUS
 62
6
 10
5.9788245E+001
 20
1.818612E-001
 11
5.9788245E+001
 21
2.2443615
  0
LINE
  8
180
  6
CONTINUOUS
 62
6
 10
5.9788245E+001
 20
2.2443615
 11
6.7788248E+001
 21
2.2443615
  0
LINE
  8
180
  6
CONTINUOUS
 62
6
 10
6.3788246E+001
 20
2.2443615
 11
6.3788246E+001
 21
1.818612E-001
  0
LINE
  8
180
  6
CONTINUOUS
 62
6
 10
6.3788246E+001
 20
4.943612E-001
 11
6.7788248E+001
 21
4.943612E-001
  0
LINE
  8
180
  6
CONTINUOUS
 62
6
 10
6.7788248E+001
 20
8.068613E-001
 11
6.3788246E+001
 21
8.068613E-001
  0
LINE
  8
180
  6
CONTINUOUS
 62
6
 10
6.3788246E+001
 20
1.3068613
 11
6.7788248E+001
 21
1.3068613
  0
LINE
  8
180
  6
CONTINUOUS
 62
6
 10
6.3788246E+001
 20
2.2443615
 11
6.3788246E+001
 21
1.8068613
  0
LINE
  8
180
  6
CONTINUOUS
 62
6
 10
6.3788246E+001
 20
1.8068613
 11
6.7788248E+001
 21
1.8068613
  0
LINE
  8
180
  6
CONTINUOUS
 62
6
 10
6.5788246E+001
 20
1.3068613
 11
6.5788246E+001
 21
4.943612E-001
  0
LINE
  8
180
  6
CONTINUOUS
 62
6
 10
6.3788246E+001
 20
1.1193613
 11
6.5788246E+001
 21
1.1193613
  0
LINE
  8
180
  6
CONTINUOUS
 62
6
 10
6.4788246E+001
 20
1.1193613
 11
6.4788246E+001
 21
1.3068613
  0
LINE
  8
180
  6
CONTINUOUS
 62
6
 10
6.3788246E+001
 20
1.8068613
 11
5.9788245E+001
 21
1.8068613
  0
LINE
  8
180
  6
CONTINUOUS
 62
6
 10
6.3788246E+001
 20
8.068613E-001
 11
5.9788245E+001
 21
8.068613E-001
  0
LINE
  8
126
  6
CONTINUOUS
 62
3
 10
6.4920553E+001
 20
2.1477553
 11
6.5039325E+001
 21
2.0289829
  0
LINE
  8
126
  6
CONTINUOUS
 62
3
 10
6.486998E+001
 20
2.1872797
 11
6.4895935E+001
 21
2.1613244
  0
LINE
  8
126
  6
CONTINUOUS
 62
3
 10
6.493101E+001
 20
2.1262494
 11
6.5049783E+001
 21
2.0074769
  0
LINE
  8
126
  6
CONTINUOUS
 62
3
 10
6.4864824E+001
 20
2.1813871
 11
6.4890779E+001
 21
2.1554319
  0
LINE
  8
126
  6
CONTINUOUS
 62
3
 10
6.4941468E+001
 20
2.1047434
 11
6.504672E+001
 21
1.9994913
  0
LINE
  8
126
  6
CONTINUOUS
 62
3
 10
6.4859668E+001
 20
2.1754946
 11
6.4885623E+001
 21
2.1495393
  0
LINE
  8
126
  6
CONTINUOUS
 62
3
 10
6.4951925E+001
 20
2.0832375
 11
6.5035671E+001
 21
1.9994913
  0
LINE
  8
126
  6
CONTINUOUS
 62
3
 10
6.4854512E+001
 20
2.169602
 11
6.4880467E+001
 21
2.1436467
  0
LINE
  8
126
  6
CONTINUOUS
 62
3
 10
6.4961623E+001
 20
2.0624913
 11
6.5024623E+001
 21
1.9994913
  0
LINE
  8
126
  6
CONTINUOUS
 62
3
 10
6.4849356E+001
 20
2.1637094
 11
6.4875311E+001
 21
2.1377542
  0
LINE
  8
126
  6
CONTINUOUS
 62
3
 10
6.4950574E+001
 20
2.0624913
 11
6.5013574E+001
 21
1.9994913
  0
LINE
  8
126
  6
CONTINUOUS
 62
3
 10
6.48442E+001
 20
2.1578169
 11
6.4870155E+001
 21
2.1318616
  0
LINE
  8
126
  6
CONTINUOUS
 62
3
 10
6.4939526E+001
 20
2.0624913
 11
6.4965901E+001
 21
2.0361163
  0
LINE
  8
126
  6
CONTINUOUS
 62
3
 10
6.4983297E+001
 20
2.0187196
 11
6.5002526E+001
 21
1.9994913
  0
LINE
  8
126
  6
CONTINUOUS
 62
3
 10
6.4839044E+001
 20
2.1519243
 11
6.4864999E+001
 21
2.125969
  0
LINE
  8
126
  6
CONTINUOUS
 62
3
 10
6.4928477E+001
 20
2.0624913
 11
6.4954852E+001
 21
2.0361163
  0
LINE
  8
126
  6
CONTINUOUS
 62
3
 10
6.4833888E+001
 20
2.1460317
 11
6.4859843E+001
 21
2.1200765
  0
LINE
  8
126
  6
CONTINUOUS
 62
3
 10
6.4917429E+001
 20
2.0624913
 11
6.4943804E+001
 21
2.0361163
  0
LINE
  8
126
  6
CONTINUOUS
 62
3
 10
6.4828732E+001
 20
2.1401392
 11
6.4854687E+001
 21
2.1141839
  0
LINE
  8
126
  6
CONTINUOUS
 62
3
 10
6.490638E+001
 20
2.0624913
 11
6.4932755E+001
 21
2.0361163
  0
LINE
  8
126
  6
CONTINUOUS
 62
3
 10
6.4823576E+001
 20
2.1342466
 11
6.4849531E+001
 21
2.1082913
  0
LINE
  8
126
  6
CONTINUOUS
 62
3
 10
6.4895331E+001
 20
2.0624913
 11
6.4921706E+001
 21
2.0361163
  0
LINE
  8
126
  6
CONTINUOUS
 62
3
 10
6.481842E+001
 20
2.128354
 11
6.4844375E+001
 21
2.1023988
  0
LINE
  8
126
  6
CONTINUOUS
 62
3
 10
6.4884283E+001
 20
2.0624913
 11
6.4910658E+001
 21
2.0361163
  0
LINE
  8
126
  6
CONTINUOUS
 62
3
 10
6.4813264E+001
 20
2.1224615
 11
6.4839219E+001
 21
2.0965062
  0
LINE
  8
126
  6
CONTINUOUS
 62
3
 10
6.4873234E+001
 20
2.0624913
 11
6.4899609E+001
 21
2.0361163
  0
LINE
  8
126
  6
CONTINUOUS
 62
3
 10
6.4808108E+001
 20
2.1165689
 11
6.4834063E+001
 21
2.0906136
  0
LINE
  8
126
  6
CONTINUOUS
 62
3
 10
6.4862186E+001
 20
2.0624913
 11
6.4888561E+001
 21
2.0361163
  0
LINE
  8
126
  6
CONTINUOUS
 62
3
 10
6.4802952E+001
 20
2.1106763
 11
6.4828908E+001
 21
2.0847211
  0
LINE
  8
126
  6
CONTINUOUS
 62
3
 10
6.4851137E+001
 20
2.0624913
 11
6.4877512E+001
 21
2.0361163
  0
LINE
  8
126
  6
CONTINUOUS
 62
3
 10
6.4714659E+001
 20
2.1879207
 11
6.4717643E+001
 21
2.1849368
  0
LINE
  8
126
  6
CONTINUOUS
 62
3
 10
6.4797796E+001
 20
2.1047838
 11
6.4823752E+001
 21
2.0788285
  0
LINE
  8
126
  6
CONTINUOUS
 62
3
 10
6.4840089E+001
 20
2.0624913
 11
6.4866464E+001
 21
2.0361163
  0
LINE
  8
126
  6
CONTINUOUS
 62
3
 10
6.4703611E+001
 20
2.1879207
 11
6.4710594E+001
 21
2.1809378
  0
LINE
  8
126
  6
CONTINUOUS
 62
3
 10
6.479264E+001
 20
2.0988912
 11
6.4818596E+001
 21
2.0729359
  0
LINE
  8
126
  6
CONTINUOUS
 62
3
 10
6.482904E+001
 20
2.0624913
 11
6.4855415E+001
 21
2.0361163
  0
LINE
  8
126
  6
CONTINUOUS
 62
3
 10
6.4692562E+001
 20
2.1879207
 11
6.4703544E+001
 21
2.1769387
  0
LINE
  8
126
  6
CONTINUOUS
 62
3
 10
6.4787484E+001
 20
2.0929986
 11
6.481344E+001
 21
2.0670434
  0
LINE
  8
126
  6
CONTINUOUS
 62
3
 10
6.4817992E+001
 20
2.0624913
 11
6.4844367E+001
 21
2.0361163
  0
LINE
  8
126
  6
CONTINUOUS
 62
3
 10
6.4681514E+001
 20
2.1879207
 11
6.4696495E+001
 21
2.1729397
  0
LINE
  8
126
  6
CONTINUOUS
 62
3
 10
6.4782328E+001
 20
2.0871061
 11
6.4833318E+001
 21
2.0361163
  0
LINE
  8
126
  6
CONTINUOUS
 62
3
 10
6.4670465E+001
 20
2.1879207
 11
6.4689445E+001
 21
2.1689406
  0
LINE
  8
126
  6
CONTINUOUS
 62
3
 10
6.4777172E+001
 20
2.0812135
 11
6.482227E+001
 21
2.0361163
  0
LINE
  8
126
  6
CONTINUOUS
 62
3
 10
6.4659417E+001
 20
2.1879207
 11
6.4682396E+001
 21
2.1649416
  0
LINE
  8
126
  6
CONTINUOUS
 62
3
 10
6.4772016E+001
 20
2.0753209
 11
6.4811221E+001
 21
2.0361163
  0
LINE
  8
126
  6
CONTINUOUS
 62
3
 10
6.464848E+001
 20
2.1878092
 11
6.4675346E+001
 21
2.1609425
  0
LINE
  8
126
  6
CONTINUOUS
 62
3
 10
6.476686E+001
 20
2.0694284
 11
6.4800172E+001
 21
2.0361163
  0
LINE
  8
126
  6
CONTINUOUS
 62
3
 10
6.464143E+001
 20
2.1838102
 11
6.4668297E+001
 21
2.1569435
  0
LINE
  8
126
  6
CONTINUOUS
 62
3
 10
6.4761704E+001
 20
2.0635358
 11
6.4789124E+001
 21
2.0361163
  0
LINE
  8
126
  6
CONTINUOUS
 62
3
 10
6.4634381E+001
 20
2.1798112
 11
6.4661247E+001
 21
2.1529444
  0
LINE
  8
126
  6
CONTINUOUS
 62
3
 10
6.4756548E+001
 20
2.0576432
 11
6.4782504E+001
 21
2.0316879
  0
LINE
  8
126
  6
CONTINUOUS
 62
3
 10
6.4627331E+001
 20
2.1758121
 11
6.4654198E+001
 21
2.1489454
  0
LINE
  8
126
  6
CONTINUOUS
 62
3
 10
6.4751392E+001
 20
2.0517506
 11
6.4777348E+001
 21
2.0257954
  0
LINE
  8
126
  6
CONTINUOUS
 62
3
 10
6.4620282E+001
 20
2.1718131
 11
6.4647148E+001
 21
2.1449463
  0
LINE
  8
126
  6
CONTINUOUS
 62
3
 10
6.4746237E+001
 20
2.0458581
 11
6.4772192E+001
 21
2.0199028
  0
LINE
  8
126
  6
CONTINUOUS
 62
3
 10
6.4613232E+001
 20
2.167814
 11
6.4640099E+001
 21
2.1409473
  0
LINE
  8
126
  6
CONTINUOUS
 62
3
 10
6.4741081E+001
 20
2.0399655
 11
6.4767036E+001
 21
2.0140102
  0
LINE
  8
126
  6
CONTINUOUS
 62
3
 10
6.4606183E+001
 20
2.163815
 11
6.4633049E+001
 21
2.1369482
  0
LINE
  8
126
  6
CONTINUOUS
 62
3
 10
6.4735925E+001
 20
2.034073
 11
6.476188E+001
 21
2.0081177
  0
LINE
  8
126
  6
CONTINUOUS
 62
3
 10
6.4599133E+001
 20
2.1598159
 11
6.4626E+001
 21
2.1329492
  0
LINE
  8
126
  6
CONTINUOUS
 62
3
 10
6.4730769E+001
 20
2.0281804
 11
6.4756724E+001
 21
2.0022251
  0
LINE
  8
126
  6
CONTINUOUS
 62
3
 10
6.4592084E+001
 20
2.1558169
 11
6.461895E+001
 21
2.1289501
  0
LINE
  8
126
  6
CONTINUOUS
 62
3
 10
6.4725613E+001
 20
2.0222878
 11
6.4748409E+001
 21
1.9994913
  0
LINE
  8
126
  6
CONTINUOUS
 62
3
 10
6.4585034E+001
 20
2.1518178
 11
6.4611901E+001
 21
2.1249511
  0
LINE
  8
126
  6
CONTINUOUS
 62
3
 10
6.4720457E+001
 20
2.0163953
 11
6.4737361E+001
 21
1.9994913
  0
LINE
  8
126
  6
CONTINUOUS
 62
3
 10
6.4577985E+001
 20
2.1478188
 11
6.4604851E+001
 21
2.120952
  0
LINE
  8
126
  6
CONTINUOUS
 62
3
 10
6.4715301E+001
 20
2.0105027
 11
6.4726312E+001
 21
1.9994913
  0
LINE
  8
126
  6
CONTINUOUS
 62
3
 10
6.4570935E+001
 20
2.1438197
 11
6.4597802E+001
 21
2.116953
  0
LINE
  8
126
  6
CONTINUOUS
 62
3
 10
6.4710145E+001
 20
2.0046101
 11
6.4715263E+001
 21
1.9994913
  0
LINE
  8
126
  6
CONTINUOUS
 62
3
 10
6.4563886E+001
 20
2.1398207
 11
6.4590752E+001
 21
2.1129539
  0
LINE
  8
126
  6
CONTINUOUS
 62
3
 10
6.4556836E+001
 20
2.1358216
 11
6.4583703E+001
 21
2.1089549
  0
LINE
  8
126
  6
CONTINUOUS
 62
3
 10
6.4655446E+001
 20
2.0372121
 11
6.4693166E+001
 21
1.9994913
  0
LINE
  8
126
  6
CONTINUOUS
 62
3
 10
6.4549787E+001
 20
2.1318226
 11
6.4682118E+001
 21
1.9994913
  0
LINE
  8
126
  6
CONTINUOUS
 62
3
 10
6.4542737E+001
 20
2.1278235
 11
6.4671069E+001
 21
1.9994913
  0
LINE
  8
126
  6
CONTINUOUS
 62
3
 10
6.4471591E+001
 20
2.1879207
 11
6.44805E+001
 21
2.1790122
  0
LINE
  8
126
  6
CONTINUOUS
 62
3
 10
6.4535688E+001
 20
2.1238245
 11
6.4660021E+001
 21
1.9994913
  0
LINE
  8
126
  6
CONTINUOUS
 62
3
 10
6.4460543E+001
 20
2.1879207
 11
6.4478844E+001
 21
2.1696198
  0
LINE
  8
126
  6
CONTINUOUS
 62
3
 10
6.4528638E+001
 20
2.1198254
 11
6.4648972E+001
 21
1.9994913
  0
LINE
  8
126
  6
CONTINUOUS
 62
3
 10
6.4449494E+001
 20
2.1879207
 11
6.4477188E+001
 21
2.1602274
  0
LINE
  8
126
  6
CONTINUOUS
 62
3
 10
6.4521589E+001
 20
2.1158264
 11
6.4637924E+001
 21
1.9994913
  0
LINE
  8
126
  6
CONTINUOUS
 62
3
 10
6.4438446E+001
 20
2.1879207
 11
6.4475531E+001
 21
2.150835
  0
LINE
  8
126
  6
CONTINUOUS
 62
3
 10
6.4514539E+001
 20
2.1118273
 11
6.4626875E+001
 21
1.9994913
  0
LINE
  8
126
  6
CONTINUOUS
 62
3
 10
6.4429528E+001
 20
2.1857904
 11
6.4473875E+001
 21
2.1414426
  0
LINE
  8
126
  6
CONTINUOUS
 62
3
 10
6.450749E+001
 20
2.1078283
 11
6.4615827E+001
 21
1.9994913
  0
LINE
  8
126
  6
CONTINUOUS
 62
3
 10
6.4427871E+001
 20
2.176398
 11
6.4472219E+001
 21
2.1320502
  0
LINE
  8
126
  6
CONTINUOUS
 62
3
 10
6.450044E+001
 20
2.1038292
 11
6.4527307E+001
 21
2.0769625
  0
LINE
  8
126
  6
CONTINUOUS
 62
3
 10
6.4426215E+001
 20
2.1670056
 11
6.4470563E+001
 21
2.1226577
  0
LINE
  8
126
  6
CONTINUOUS
 62
3
 10
6.4493391E+001
 20
2.0998302
 11
6.4520257E+001
 21
2.0729635
  0
LINE
  8
126
  6
CONTINUOUS
 62
3
 10
6.4424559E+001
 20
2.1576132
 11
6.4468907E+001
 21
2.1132653
  0
LINE
  8
126
  6
CONTINUOUS
 62
3
 10
6.4486341E+001
 20
2.0958311
 11
6.4513208E+001
 21
2.0689644
  0
LINE
  8
126
  6
CONTINUOUS
 62
3
 10
6.4422903E+001
 20
2.1482208
 11
6.4467251E+001
 21
2.1038729
  0
LINE
  8
126
  6
CONTINUOUS
 62
3
 10
6.4479292E+001
 20
2.0918321
 11
6.4506158E+001
 21
2.0649654
  0
LINE
  8
126
  6
CONTINUOUS
 62
3
 10
6.4421247E+001
 20
2.1388283
 11
6.4465595E+001
 21
2.0944805
  0
LINE
  8
126
  6
CONTINUOUS
 62
3
 10
6.4472242E+001
 20
2.087833
 11
6.4499109E+001
 21
2.0609663
  0
LINE
  8
126
  6
CONTINUOUS
 62
3
 10
6.4419591E+001
 20
2.1294359
 11
6.4463939E+001
 21
2.0850881
  0
LINE
  8
126
  6
CONTINUOUS
 62
3
 10
6.4465193E+001
 20
2.083834
 11
6.4492059E+001
 21
2.0569673
  0
LINE
  8
126
  6
CONTINUOUS
 62
3
 10
6.4417935E+001
 20
2.1200435
 11
6.448501E+001
 21
2.0529682
  0
LINE
  8
126
  6
CONTINUOUS
 62
3
 10
6.4416278E+001
 20
2.1106511
 11
6.447796E+001
 21
2.0489692
  0
LINE
  8
126
  6
CONTINUOUS
 62
3
 10
6.4414622E+001
 20
2.1012587
 11
6.4470911E+001
 21
2.0449701
  0
LINE
  8
126
  6
CONTINUOUS
 62
3
 10
6.4412966E+001
 20
2.0918663
 11
6.4463861E+001
 21
2.0409711
  0
LINE
  8
126
  6
CONTINUOUS
 62
3
 10
6.441131E+001
 20
2.0824739
 11
6.4456812E+001
 21
2.036972
  0
LINE
  8
126
  6
CONTINUOUS
 62
3
 10
6.4409654E+001
 20
2.0730815
 11
6.4454002E+001
 21
2.0287337
  0
LINE
  8
126
  6
CONTINUOUS
 62
3
 10
6.4407998E+001
 20
2.0636891
 11
6.4452346E+001
 21
2.0193413
  0
LINE
  8
126
  6
CONTINUOUS
 62
3
 10
6.4406342E+001
 20
2.0542967
 11
6.4450689E+001
 21
2.0099488
  0
LINE
  8
126
  6
CONTINUOUS
 62
3
 10
6.4404685E+001
 20
2.0449043
 11
6.4449033E+001
 21
2.0005564
  0
LINE
  8
126
  6
CONTINUOUS
 62
3
 10
6.4403029E+001
 20
2.0355118
 11
6.443905E+001
 21
1.9994913
  0
LINE
  8
126
  6
CONTINUOUS
 62
3
 10
6.4401373E+001
 20
2.0261194
 11
6.4428001E+001
 21
1.9994913
  0
TEXT
  8
1
  6
CONTINUOUS
 62
1
 10
6.6863644E+001
 20
1.6216759
 40
1.25E-001
  1
TEMPLATE FOR 5422
 72
1
 73
2
 11
6.5801144E+001
 21
1.5591759
  0
TEXT
  8
126
  6
CONTINUOUS
 62
3
 10
6.7288113E+001
 20
1.1255628
 40
1.0E-001
  1
17NOV03
 72
1
 73
2
 11
6.6938114E+001
 21
1.0755628
  0
TEXT
  8
126
  6
CONTINUOUS
 62
3
 10
6.4417987E+001
 20
1.1594312
 40
1.0E-001
  1
KAB
  0
TEXT
  8
126
  6
CONTINUOUS
 62
3
 10
6.4668684E+001
 20
9.173787E-001
 40
1.0E-001
  1
FULL
  0
TEXT
  8
1
  6
CONTINUOUS
 62
1
 10
6.6533854E+001
 20
4.319318E-001
 40
1.875E-001
  1
74180461
 72
1
 73
2
 11
6.5783854E+001
 21
3.381818E-001
  0
LINE
  8
126
  6
CONTINUOUS
 62
3
 10
6.4399717E+001
 20
2.016727
 11
6.4416953E+001
 21
1.9994913
  0
LINE
  8
126
  6
CONTINUOUS
 62
3
 10
6.4398061E+001
 20
2.0073346
 11
6.4405904E+001
 21
1.9994913
  0
LINE
  8
126
  6
CONTINUOUS
 62
3
 10
6.4206426E+001
 20
2.1879207
 11
6.4211842E+001
 21
2.1825048
  0
LINE
  8
126
  6
CONTINUOUS
 62
3
 10
6.4367481E+001
 20
2.0268663
 11
6.4373048E+001
 21
2.0212988
  0
LINE
  8
126
  6
CONTINUOUS
 62
3
 10
6.4195378E+001
 20
2.1879207
 11
6.4210186E+001
 21
2.1731124
  0
LINE
  8
126
  6
CONTINUOUS
 62
3
 10
6.4356432E+001
 20
2.0268663
 11
6.4371392E+001
 21
2.0119064
  0
LINE
  8
126
  6
CONTINUOUS
 62
3
 10
6.4184329E+001
 20
2.1879207
 11
6.420853E+001
 21
2.1637199
  0
LINE
  8
126
  6
CONTINUOUS
 62
3
 10
6.4345384E+001
 20
2.0268663
 11
6.4369736E+001
 21
2.002514
  0
LINE
  8
126
  6
CONTINUOUS
 62
3
 10
6.4173281E+001
 20
2.1879207
 11
6.4206874E+001
 21
2.1543276
  0
LINE
  8
126
  6
CONTINUOUS
 62
3
 10
6.4334335E+001
 20
2.0268663
 11
6.436171E+001
 21
1.9994913
  0
LINE
  8
126
  6
CONTINUOUS
 62
3
 10
6.4162232E+001
 20
2.1879207
 11
6.4205218E+001
 21
2.1449351
  0
LINE
  8
126
  6
CONTINUOUS
 62
3
 10
6.4323287E+001
 20
2.0268663
 11
6.4350662E+001
 21
1.9994913
  0
LINE
  8
126
  6
CONTINUOUS
 62
3
 10
6.4159214E+001
 20
2.1798906
 11
6.4203562E+001
 21
2.1355427
  0
LINE
  8
126
  6
CONTINUOUS
 62
3
 10
6.4312238E+001
 20
2.0268663
 11
6.4339613E+001
 21
1.9994913
  0
LINE
  8
126
  6
CONTINUOUS
 62
3
 10
6.4157558E+001
 20
2.1704981
 11
6.4201905E+001
 21
2.1261503
  0
LINE
  8
126
  6
CONTINUOUS
 62
3
 10
6.4301189E+001
 20
2.0268663
 11
6.4328564E+001
 21
1.9994913
  0
LINE
  8
126
  6
CONTINUOUS
 62
3
 10
6.4155901E+001
 20
2.1611057
 11
6.4200249E+001
 21
2.1167579
  0
LINE
  8
126
  6
CONTINUOUS
 62
3
 10
6.4290141E+001
 20
2.0268663
 11
6.4317516E+001
 21
1.9994913
  0
LINE
  8
126
  6
CONTINUOUS
 62
3
 10
6.4118038E+001
 20
2.1879207
 11
6.4119944E+001
 21
2.1860142
  0
LINE
  8
126
  6
CONTINUOUS
 62
3
 10
6.4154245E+001
 20
2.1517133
 11
6.4198593E+001
 21
2.1073655
  0
LINE
  8
126
  6
CONTINUOUS
 62
3
 10
6.4279092E+001
 20
2.0268663
 11
6.4306467E+001
 21
1.9994913
  0
LINE
  8
126
  6
CONTINUOUS
 62
3
 10
6.4106989E+001
 20
2.1879207
 11
6.4118288E+001
 21
2.1766218
  0
LINE
  8
126
  6
CONTINUOUS
 62
3
 10
6.4152589E+001
 20
2.1423209
 11
6.4196937E+001
 21
2.0979731
  0
LINE
  8
126
  6
CONTINUOUS
 62
3
 10
6.4268044E+001
 20
2.0268663
 11
6.4295419E+001
 21
1.9994913
  0
LINE
  8
126
  6
CONTINUOUS
 62
3
 10
6.4095941E+001
 20
2.1879207
 11
6.4116632E+001
 21
2.1672294
  0
LINE
  8
126
  6
CONTINUOUS
 62
3
 10
6.4150933E+001
 20
2.1329285
 11
6.4195281E+001
 21
2.0885807
  0
LINE
  8
126
  6
CONTINUOUS
 62
3
 10
6.4256995E+001
 20
2.0268663
 11
6.428437E+001
 21
1.9994913
  0
LINE
  8
126
  6
CONTINUOUS
 62
3
 10
6.4084892E+001
 20
2.1879207
 11
6.4112267E+001
 21
2.1605457
  0
LINE
  8
126
  6
CONTINUOUS
 62
3
 10
6.4149277E+001
 20
2.1235361
 11
6.4193625E+001
 21
2.0791883
  0
LINE
  8
126
  6
CONTINUOUS
 62
3
 10
6.4245947E+001
 20
2.0268663
 11
6.4273322E+001
 21
1.9994913
  0
LINE
  8
126
  6
CONTINUOUS
 62
3
 10
6.4073844E+001
 20
2.1879207
 11
6.4101219E+001
 21
2.1605457
  0
LINE
  8
126
  6
CONTINUOUS
 62
3
 10
6.4147621E+001
 20
2.1141437
 11
6.4191969E+001
 21
2.0697959
  0
LINE
  8
126
  6
CONTINUOUS
 62
3
 10
6.4234898E+001
 20
2.0268663
 11
6.4262273E+001
 21
1.9994913
  0
LINE
  8
126
  6
CONTINUOUS
 62
3
 10
6.4062795E+001
 20
2.1879207
 11
6.409017E+001
 21
2.1605457
  0
LINE
  8
126
  6
CONTINUOUS
 62
3
 10
6.4145965E+001
 20
2.1047513
 11
6.4190313E+001
 21
2.0604035
  0
LINE
  8
126
  6
CONTINUOUS
 62
3
 10
6.422385E+001
 20
2.0268663
 11
6.4251225E+001
 21
1.9994913
  0
LINE
  8
126
  6
CONTINUOUS
 62
3
 10
6.4051747E+001
 20
2.1879207
 11
6.4079122E+001
 21
2.1605457
  0
LINE
  8
126
  6
CONTINUOUS
 62
3
 10
6.4144309E+001
 20
2.0953589
 11
6.4188656E+001
 21
2.0510111
  0
LINE
  8
126
  6
CONTINUOUS
 62
3
 10
6.4212801E+001
 20
2.0268663
 11
6.4240176E+001
 21
1.9994913
  0
LINE
  8
126
  6
CONTINUOUS
 62
3
 10
6.4040698E+001
 20
2.1879207
 11
6.4068073E+001
 21
2.1605457
  0
LINE
  8
126
  6
CONTINUOUS
 62
3
 10
6.4142652E+001
 20
2.0859665
 11
6.4187E+001
 21
2.0416187
  0
LINE
  8
126
  6
CONTINUOUS
 62
3
 10
6.4201753E+001
 20
2.0268663
 11
6.4229128E+001
 21
1.9994913
  0
LINE
  8
126
  6
CONTINUOUS
 62
3
 10
6.402965E+001
 20
2.1879207
 11
6.4057025E+001
 21
2.1605457
  0
LINE
  8
126
  6
CONTINUOUS
 62
3
 10
6.4140996E+001
 20
2.0765741
 11
6.4185344E+001
 21
2.0322262
  0
LINE
  8
126
  6
CONTINUOUS
 62
3
 10
6.4190704E+001
 20
2.0268663
 11
6.4218079E+001
 21
1.9994913
  0
LINE
  8
126
  6
CONTINUOUS
 62
3
 10
6.4018601E+001
 20
2.1879207
 11
6.4045976E+001
 21
2.1605457
  0
LINE
  8
126
  6
CONTINUOUS
 62
3
 10
6.413934E+001
 20
2.0671817
 11
6.420703E+001
 21
1.9994913
  0
LINE
  8
126
  6
CONTINUOUS
 62
3
 10
6.4007553E+001
 20
2.1879207
 11
6.4034928E+001
 21
2.1605457
  0
LINE
  8
126
  6
CONTINUOUS
 62
3
 10
6.4088017E+001
 20
2.107456
 11
6.4092593E+001
 21
2.1028804
  0
LINE
  8
126
  6
CONTINUOUS
 62
3
 10
6.4137684E+001
 20
2.0577892
 11
6.4195982E+001
 21
1.9994913
  0
LINE
  8
126
  6
CONTINUOUS
 62
3
 10
6.3996504E+001
 20
2.1879207
 11
6.4023879E+001
 21
2.1605457
  0
LINE
  8
126
  6
CONTINUOUS
 62
3
 10
6.4076969E+001
 20
2.107456
 11
6.4090937E+001
 21
2.093488
  0
LINE
  8
126
  6
CONTINUOUS
 62
3
 10
6.4136028E+001
 20
2.0483968
 11
6.4184933E+001
 21
1.9994913
  0
LINE
  8
126
  6
CONTINUOUS
 62
3
 10
6.3985455E+001
 20
2.1879207
 11
6.401283E+001
 21
2.1605457
  0
LINE
  8
126
  6
CONTINUOUS
 62
3
 10
6.406592E+001
 20
2.107456
 11
6.4089281E+001
 21
2.0840956
  0
LINE
  8
126
  6
CONTINUOUS
 62
3
 10
6.4134372E+001
 20
2.0390044
 11
6.4173885E+001
 21
1.9994913
  0
LINE
  8
126
  6
CONTINUOUS
 62
3
 10
6.3974407E+001
 20
2.1879207
 11
6.4001782E+001
 21
2.1605457
  0
LINE
  8
126
  6
CONTINUOUS
 62
3
 10
6.4054872E+001
 20
2.107456
 11
6.4082372E+001
 21
2.079956
  0
LINE
  8
126
  6
CONTINUOUS
 62
3
 10
6.4132716E+001
 20
2.029612
 11
6.4162836E+001
 21
1.9994913
  0
LINE
  8
126
  6
CONTINUOUS
 62
3
 10
6.3963358E+001
 20
2.1879207
 11
6.3990733E+001
 21
2.1605457
  0
LINE
  8
126
  6
CONTINUOUS
 62
3
 10
6.4043823E+001
 20
2.107456
 11
6.4071323E+001
 21
2.079956
  0
LINE
  8
126
  6
CONTINUOUS
 62
3
 10
6.4131059E+001
 20
2.0202196
 11
6.4151788E+001
 21
1.9994913
  0
LINE
  8
126
  6
CONTINUOUS
 62
3
 10
6.395231E+001
 20
2.1879207
 11
6.3979685E+001
 21
2.1605457
  0
LINE
  8
126
  6
CONTINUOUS
 62
3
 10
6.4032775E+001
 20
2.107456
 11
6.4060275E+001
 21
2.079956
  0
LINE
  8
126
  6
CONTINUOUS
 62
3
 10
6.4129403E+001
 20
2.0108272
 11
6.4140739E+001
 21
1.9994913
  0
LINE
  8
126
  6
CONTINUOUS
 62
3
 10
6.3941261E+001
 20
2.1879207
 11
6.3968636E+001
 21
2.1605457
  0
LINE
  8
126
  6
CONTINUOUS
 62
3
 10
6.4021726E+001
 20
2.107456
 11
6.4049226E+001
 21
2.079956
  0
LINE
  8
126
  6
CONTINUOUS
 62
3
 10
6.4102316E+001
 20
2.0268663
 11
6.4104236E+001
 21
2.0249455
  0
LINE
  8
126
  6
CONTINUOUS
 62
3
 10
6.4127747E+001
 20
2.0014348
 11
6.4129691E+001
 21
1.9994913
  0
LINE
  8
126
  6
CONTINUOUS
 62
3
 10
6.3930213E+001
 20
2.1879207
 11
6.3957588E+001
 21
2.1605457
  0
LINE
  8
126
  6
CONTINUOUS
 62
3
 10
6.4010677E+001
 20
2.107456
 11
6.4038177E+001
 21
2.079956
  0
LINE
  8
126
  6
CONTINUOUS
 62
3
 10
6.4091267E+001
 20
2.0268663
 11
6.410258E+001
 21
2.0155531
  0
LINE
  8
126
  6
CONTINUOUS
 62
3
 10
6.3919164E+001
 20
2.1879207
 11
6.3946539E+001
 21
2.1605457
  0
LINE
  8
126
  6
CONTINUOUS
 62
3
 10
6.3999629E+001
 20
2.107456
 11
6.4027129E+001
 21
2.079956
  0
LINE
  8
126
  6
CONTINUOUS
 62
3
 10
6.4080219E+001
 20
2.0268663
 11
6.4100924E+001
 21
2.0061607
  0
LINE
  8
126
  6
CONTINUOUS
 62
3
 10
6.3908116E+001
 20
2.1879207
 11
6.3935491E+001
 21
2.1605457
  0
LINE
  8
126
  6
CONTINUOUS
 62
3
 10
6.398858E+001
 20
2.107456
 11
6.401608E+001
 21
2.079956
  0
LINE
  8
126
  6
CONTINUOUS
 62
3
 10
6.406917E+001
 20
2.0268663
 11
6.4096545E+001
 21
1.9994913
  0
LINE
  8
126
  6
CONTINUOUS
 62
3
 10
6.3897067E+001
 20
2.1879207
 11
6.3924442E+001
 21
2.1605457
  0
LINE
  8
126
  6
CONTINUOUS
 62
3
 10
6.3977532E+001
 20
2.107456
 11
6.4005032E+001
 21
2.079956
  0
LINE
  8
126
  6
CONTINUOUS
 62
3
 10
6.4058121E+001
 20
2.0268663
 11
6.4085496E+001
 21
1.9994913
  0
LINE
  8
126
  6
CONTINUOUS
 62
3
 10
6.3886019E+001
 20
2.1879207
 11
6.3913394E+001
 21
2.1605457
  0
LINE
  8
126
  6
CONTINUOUS
 62
3
 10
6.3966483E+001
 20
2.107456
 11
6.3993983E+001
 21
2.079956
  0
LINE
  8
126
  6
CONTINUOUS
 62
3
 10
6.4047073E+001
 20
2.0268663
 11
6.4074448E+001
 21
1.9994913
  0
LINE
  8
126
  6
CONTINUOUS
 62
3
 10
6.387497E+001
 20
2.1879207
 11
6.3904846E+001
 21
2.1580443
  0
LINE
  8
126
  6
CONTINUOUS
 62
3
 10
6.3955435E+001
 20
2.107456
 11
6.3982935E+001
 21
2.079956
  0
LINE
  8
126
  6
CONTINUOUS
 62
3
 10
6.4036024E+001
 20
2.0268663
 11
6.4063399E+001
 21
1.9994913
  0
LINE
  8
126
  6
CONTINUOUS
 62
3
 10
6.3863922E+001
 20
2.1879207
 11
6.390319E+001
 21
2.1486519
  0
LINE
  8
126
  6
CONTINUOUS
 62
3
 10
6.3944386E+001
 20
2.107456
 11
6.3971886E+001
 21
2.079956
  0
LINE
  8
126
  6
CONTINUOUS
 62
3
 10
6.4024976E+001
 20
2.0268663
 11
6.4052351E+001
 21
1.9994913
  0
LINE
  8
126
  6
CONTINUOUS
 62
3
 10
6.3857209E+001
 20
2.1835848
 11
6.3901534E+001
 21
2.1392595
  0
LINE
  8
126
  6
CONTINUOUS
 62
3
 10
6.3933338E+001
 20
2.107456
 11
6.3960838E+001
 21
2.079956
  0
LINE
  8
126
  6
CONTINUOUS
 62
3
 10
6.4013927E+001
 20
2.0268663
 11
6.4041302E+001
 21
1.9994913
  0
LINE
  8
126
  6
CONTINUOUS
 62
3
 10
6.3855553E+001
 20
2.1741923
 11
6.3899878E+001
 21
2.1298671
  0
LINE
  8
126
  6
CONTINUOUS
 62
3
 10
6.3922289E+001
 20
2.107456
 11
6.3949789E+001
 21
2.079956
  0
LINE
  8
126
  6
CONTINUOUS
 62
3
 10
6.4002879E+001
 20
2.0268663
 11
6.4030254E+001
 21
1.9994913
  0
LINE
  8
126
  6
CONTINUOUS
 62
3
 10
6.3853897E+001
 20
2.1647999
 11
6.3898222E+001
 21
2.1204747
  0
LINE
  8
126
  6
CONTINUOUS
 62
3
 10
6.3911241E+001
 20
2.107456
 11
6.3938741E+001
 21
2.079956
  0
LINE
  8
126
  6
CONTINUOUS
 62
3
 10
6.399183E+001
 20
2.0268663
 11
6.4019205E+001
 21
1.9994913
  0
LINE
  8
126
  6
CONTINUOUS
 62
3
 10
6.385224E+001
 20
2.1554075
 11
6.3896566E+001
 21
2.1110823
  0
LINE
  8
126
  6
CONTINUOUS
 62
3
 10
6.3900192E+001
 20
2.107456
 11
6.3927692E+001
 21
2.079956
  0
LINE
  8
126
  6
CONTINUOUS
 62
3
 10
6.3980782E+001
 20
2.0268663
 11
6.4008157E+001
 21
1.9994913
  0
LINE
  8
126
  6
CONTINUOUS
 62
3
 10
6.3850584E+001
 20
2.1460151
 11
6.3916643E+001
 21
2.079956
  0
LINE
  8
126
  6
CONTINUOUS
 62
3
 10
6.3969733E+001
 20
2.0268663
 11
6.3997108E+001
 21
1.9994913
  0
LINE
  8
126
  6
CONTINUOUS
 62
3
 10
6.3848928E+001
 20
2.1366227
 11
6.3905595E+001
 21
2.079956
  0
LINE
  8
126
  6
CONTINUOUS
 62
3
 10
6.3958685E+001
 20
2.0268663
 11
6.398606E+001
 21
1.9994913
  0
LINE
  8
126
  6
CONTINUOUS
 62
3
 10
6.3847272E+001
 20
2.1272303
 11
6.3894641E+001
 21
2.0798612
  0
LINE
  8
126
  6
CONTINUOUS
 62
3
 10
6.3947636E+001
 20
2.0268663
 11
6.3975011E+001
 21
1.9994913
  0
LINE
  8
126
  6
CONTINUOUS
 62
3
 10
6.3845616E+001
 20
2.1178379
 11
6.3892985E+001
 21
2.0704688
  0
LINE
  8
126
  6
CONTINUOUS
 62
3
 10
6.3936587E+001
 20
2.0268663
 11
6.3963963E+001
 21
1.9994913
  0
LINE
  8
126
  6
CONTINUOUS
 62
3
 10
6.384396E+001
 20
2.1084455
 11
6.3891329E+001
 21
2.0610764
  0
LINE
  8
126
  6
CONTINUOUS
 62
3
 10
6.3925539E+001
 20
2.0268663
 11
6.3952914E+001
 21
1.9994913
  0
LINE
  8
126
  6
CONTINUOUS
 62
3
 10
6.3842304E+001
 20
2.0990531
 11
6.3889673E+001
 21
2.051684
  0
LINE
  8
126
  6
CONTINUOUS
 62
3
 10
6.391449E+001
 20
2.0268663
 11
6.3941865E+001
 21
1.9994913
  0
LINE
  8
126
  6
CONTINUOUS
 62
3
 10
6.3840648E+001
 20
2.0896607
 11
6.3888017E+001
 21
2.0422916
  0
LINE
  8
126
  6
CONTINUOUS
 62
3
 10
6.3903442E+001
 20
2.0268663
 11
6.3930817E+001
 21
1.9994913
  0
LINE
  8
126
  6
CONTINUOUS
 62
3
 10
6.3838991E+001
 20
2.0802683
 11
6.3886361E+001
 21
2.0328992
  0
LINE
  8
126
  6
CONTINUOUS
 62
3
 10
6.3892393E+001
 20
2.0268663
 11
6.3919768E+001
 21
1.9994913
  0
LINE
  8
126
  6
CONTINUOUS
 62
3
 10
6.3837335E+001
 20
2.0708759
 11
6.390872E+001
 21
1.9994913
  0
LINE
  8
126
  6
CONTINUOUS
 62
3
 10
6.3835679E+001
 20
2.0614834
 11
6.3897671E+001
 21
1.9994913
  0
LINE
  8
126
  6
CONTINUOUS
 62
3
 10
6.3834023E+001
 20
2.052091
 11
6.3886623E+001
 21
1.9994913
  0
LINE
  8
126
  6
CONTINUOUS
 62
3
 10
6.3832367E+001
 20
2.0426986
 11
6.3875574E+001
 21
1.9994913
  0
LINE
  8
126
  6
CONTINUOUS
 62
3
 10
6.3830711E+001
 20
2.0333062
 11
6.3864526E+001
 21
1.9994913
  0
LINE
  8
126
  6
CONTINUOUS
 62
3
 10
6.3829055E+001
 20
2.0239138
 11
6.3853477E+001
 21
1.9994913
  0
LINE
  8
126
  6
CONTINUOUS
 62
3
 10
6.3827398E+001
 20
2.0145214
 11
6.3842429E+001
 21
1.9994913
  0
LINE
  8
126
  6
CONTINUOUS
 62
3
 10
6.3825742E+001
 20
2.005129
 11
6.383138E+001
 21
1.9994913
  0
LINE
  8
1
  6
CONTINUOUS
 62
6
 10
3.150409E-001
 20
1.818612E-001
 11
6.7788248E+001
 21
1.818612E-001
  0
LINE
  8
1
  6
CONTINUOUS
 62
6
 10
6.7788248E+001
 20
1.818612E-001
 11
6.7788248E+001
 21
2.3844095E+001
  0
LINE
  8
1
  6
CONTINUOUS
 62
6
 10
6.7788248E+001
 20
2.3844095E+001
 11
3.150409E-001
 21
2.3844095E+001
  0
LINE
  8
1
  6
CONTINUOUS
 62
6
 10
3.150409E-001
 20
2.3844095E+001
 11
3.150409E-001
 21
1.818612E-001
  0
INSERT
  2
*TX28
  8
1
 10
2.9339577E+001
 20
2.0095561E+001
  0
INSERT
  2
*TX30
  8
126
 10
5.988897E+001
 20
6.984982E-001
  0
DIMENSION
  8
1
  6
CONTINUOUS
 62
3
  2
*D858
  3
DSTYLE1
 10
2.6437347
 20
8.47877E-001
 11
2.9331235E+001
 21
8.47877E-001
 70
128
 13
5.6018735E+001
 23
3.3574359
 14
2.6437347
 24
3.3574359
 40
1.25E-001
 50
0.0
  0
ENDSEC
  0
EOF
