  0
SECTION
  2
HEADER
  9
$ACADVER
  1
AC1009
999
I-DEAS Drafting Master Series 7m1 Not Encoded
  9
$EXTMIN
 10
0.0
 20
0.0
  9
$EXTMAX
 10
4.5E+001
 20
2.4E+001
  9
$TEXTSIZE
 40
1.25E-001
  9
$LTSCALE
 40
1.0
  9
$CLAYER
  8
1
  9
$CECOLOR
 62
3
  9
$DIMASZ
 40
1.25E-001
  9
$DIMEXO
 40
6.25E-002
  9
$DIMDLI
 40
2.5E-001
  9
$DIMEXE
 40
1.25E-001
  9
$DIMTP
 40
5.0E-003
  9
$DIMTM
 40
-5.0E-003
  9
$DIMTXT
 40
1.25E-001
  9
$DIMLIM
 70
0
  9
$DIMTIH
 70
1
  9
$DIMTOH
 70
1
  9
$DIMSE1
 70
0
  9
$DIMSE2
 70
0
  9
$DIMTAD
 70
0
  9
$DIMASO
 70
1
  9
$DIMALT
 70
0
  9
$DIMALTD
 70
0
  9
$DIMTOFL
 70
1
  9
$DIMTIX
 70
0
  9
$DIMSAH
 70
0
  9
$DIMTFAC
 40
1.0
  9
$DIMGAP
 40
6.25E-002
  9
$LUNITS
 70
2
  9
$LUPREC
 70
3
  9
$FILLETRAD
 40
2.5E-001
  9
$AUNITS
 70
0
  9
$AUPREC
 70
1
  9
$CHAMFERA
 40
2.5E-001
  9
$CHAMFERB
 40
2.5E-001
  9
$ANGBASE
 50
0.0
  9
$ANGDIR
 70
0
  9
$PDMODE
 70
2
  9
$PDSIZE
 40
-1.0E-002
  9
$SPLINETYPE
 70
6
  0
ENDSEC
  0
SECTION
  2
TABLES
  0
TABLE
  2
LTYPE
 70
7
  0
LTYPE
  2
HIDDENNEW00
  3
_ 
 70
64
 72
65
 73
2
 40
1.875E-001
 49
1.25E-001
 49
-6.25E-002
  0
LTYPE
  2
HIDDENNEW01
  3
_ 
 70
64
 72
65
 73
2
 40
1.875E-001
 49
1.25E-001
 49
-6.25E-002
  0
LTYPE
  2
HIDDEN
  3
_ 
 70
64
 72
65
 73
2
 40
1.875E-001
 49
1.25E-001
 49
-6.25E-002
  0
LTYPE
  2
CENTERLINE
  3
_ 
 70
64
 72
65
 73
4
 40
1.25
 49
1.0
 49
-6.25E-002
 49
1.25E-001
 49
-6.25E-002
  0
LTYPE
  2
PHANTOM
  3
_ 
 70
64
 72
65
 73
6
 40
1.1875
 49
7.5E-001
 49
-6.25E-002
 49
1.25E-001
 49
-6.25E-002
 49
1.25E-001
 49
-6.25E-002
  0
LTYPE
  2
SHORT_DASH
  3
_ 
 70
64
 72
65
 73
2
 40
1.25E-001
 49
6.25E-002
 49
-6.25E-002
  0
LTYPE
  2
LONG_DASH
  3
_ 
 70
64
 72
65
 73
2
 40
3.75E-001
 49
1.875E-001
 49
-1.875E-001
  0
ENDTAB
  0
TABLE
  2
LAYER
 70
258
  0
LAYER
  2
1
 70
0
 62
7
  6
CONTINUOUS
  0
LAYER
  2
2
 70
0
 62
7
  6
CONTINUOUS
  0
LAYER
  2
3
 70
0
 62
7
  6
CONTINUOUS
  0
LAYER
  2
4
 70
0
 62
7
  6
CONTINUOUS
  0
LAYER
  2
5
 70
0
 62
7
  6
CONTINUOUS
  0
LAYER
  2
6
 70
0
 62
7
  6
CONTINUOUS
  0
LAYER
  2
7
 70
0
 62
7
  6
CONTINUOUS
  0
LAYER
  2
8
 70
0
 62
7
  6
CONTINUOUS
  0
LAYER
  2
9
 70
0
 62
7
  6
CONTINUOUS
  0
LAYER
  2
10
 70
0
 62
7
  6
CONTINUOUS
  0
LAYER
  2
11
 70
0
 62
7
  6
CONTINUOUS
  0
LAYER
  2
12
 70
0
 62
7
  6
CONTINUOUS
  0
LAYER
  2
13
 70
0
 62
7
  6
CONTINUOUS
  0
LAYER
  2
14
 70
0
 62
7
  6
CONTINUOUS
  0
LAYER
  2
15
 70
0
 62
7
  6
CONTINUOUS
  0
LAYER
  2
16
 70
0
 62
7
  6
CONTINUOUS
  0
LAYER
  2
17
 70
0
 62
7
  6
CONTINUOUS
  0
LAYER
  2
18
 70
0
 62
7
  6
CONTINUOUS
  0
LAYER
  2
19
 70
0
 62
7
  6
CONTINUOUS
  0
LAYER
  2
20
 70
0
 62
7
  6
CONTINUOUS
  0
LAYER
  2
21
 70
0
 62
7
  6
CONTINUOUS
  0
LAYER
  2
22
 70
0
 62
7
  6
CONTINUOUS
  0
LAYER
  2
23
 70
0
 62
7
  6
CONTINUOUS
  0
LAYER
  2
24
 70
0
 62
7
  6
CONTINUOUS
  0
LAYER
  2
25
 70
0
 62
7
  6
CONTINUOUS
  0
LAYER
  2
26
 70
0
 62
7
  6
CONTINUOUS
  0
LAYER
  2
27
 70
0
 62
7
  6
CONTINUOUS
  0
LAYER
  2
28
 70
0
 62
7
  6
CONTINUOUS
  0
LAYER
  2
29
 70
0
 62
7
  6
CONTINUOUS
  0
LAYER
  2
30
 70
0
 62
7
  6
CONTINUOUS
  0
LAYER
  2
31
 70
0
 62
7
  6
CONTINUOUS
  0
LAYER
  2
32
 70
0
 62
7
  6
CONTINUOUS
  0
LAYER
  2
33
 70
0
 62
7
  6
CONTINUOUS
  0
LAYER
  2
34
 70
0
 62
7
  6
CONTINUOUS
  0
LAYER
  2
35
 70
0
 62
7
  6
CONTINUOUS
  0
LAYER
  2
36
 70
0
 62
7
  6
CONTINUOUS
  0
LAYER
  2
37
 70
0
 62
7
  6
CONTINUOUS
  0
LAYER
  2
38
 70
0
 62
7
  6
CONTINUOUS
  0
LAYER
  2
39
 70
0
 62
7
  6
CONTINUOUS
  0
LAYER
  2
40
 70
0
 62
7
  6
CONTINUOUS
  0
LAYER
  2
41
 70
0
 62
7
  6
CONTINUOUS
  0
LAYER
  2
42
 70
0
 62
7
  6
CONTINUOUS
  0
LAYER
  2
43
 70
0
 62
7
  6
CONTINUOUS
  0
LAYER
  2
44
 70
0
 62
7
  6
CONTINUOUS
  0
LAYER
  2
45
 70
0
 62
7
  6
CONTINUOUS
  0
LAYER
  2
46
 70
0
 62
7
  6
CONTINUOUS
  0
LAYER
  2
47
 70
0
 62
7
  6
CONTINUOUS
  0
LAYER
  2
48
 70
0
 62
7
  6
CONTINUOUS
  0
LAYER
  2
49
 70
0
 62
7
  6
CONTINUOUS
  0
LAYER
  2
50
 70
0
 62
7
  6
CONTINUOUS
  0
LAYER
  2
51
 70
0
 62
7
  6
CONTINUOUS
  0
LAYER
  2
52
 70
0
 62
7
  6
CONTINUOUS
  0
LAYER
  2
53
 70
0
 62
7
  6
CONTINUOUS
  0
LAYER
  2
54
 70
0
 62
7
  6
CONTINUOUS
  0
LAYER
  2
55
 70
0
 62
7
  6
CONTINUOUS
  0
LAYER
  2
56
 70
0
 62
7
  6
CONTINUOUS
  0
LAYER
  2
57
 70
0
 62
7
  6
CONTINUOUS
  0
LAYER
  2
58
 70
0
 62
7
  6
CONTINUOUS
  0
LAYER
  2
59
 70
0
 62
7
  6
CONTINUOUS
  0
LAYER
  2
60
 70
0
 62
7
  6
CONTINUOUS
  0
LAYER
  2
61
 70
0
 62
7
  6
CONTINUOUS
  0
LAYER
  2
62
 70
0
 62
7
  6
CONTINUOUS
  0
LAYER
  2
63
 70
0
 62
7
  6
CONTINUOUS
  0
LAYER
  2
64
 70
0
 62
7
  6
CONTINUOUS
  0
LAYER
  2
65
 70
0
 62
7
  6
CONTINUOUS
  0
LAYER
  2
66
 70
0
 62
7
  6
CONTINUOUS
  0
LAYER
  2
67
 70
0
 62
7
  6
CONTINUOUS
  0
LAYER
  2
68
 70
0
 62
7
  6
CONTINUOUS
  0
LAYER
  2
69
 70
0
 62
7
  6
CONTINUOUS
  0
LAYER
  2
70
 70
0
 62
7
  6
CONTINUOUS
  0
LAYER
  2
71
 70
0
 62
7
  6
CONTINUOUS
  0
LAYER
  2
72
 70
0
 62
7
  6
CONTINUOUS
  0
LAYER
  2
73
 70
0
 62
7
  6
CONTINUOUS
  0
LAYER
  2
74
 70
0
 62
7
  6
CONTINUOUS
  0
LAYER
  2
75
 70
0
 62
7
  6
CONTINUOUS
  0
LAYER
  2
76
 70
0
 62
7
  6
CONTINUOUS
  0
LAYER
  2
77
 70
0
 62
7
  6
CONTINUOUS
  0
LAYER
  2
78
 70
0
 62
7
  6
CONTINUOUS
  0
LAYER
  2
79
 70
0
 62
7
  6
CONTINUOUS
  0
LAYER
  2
80
 70
0
 62
7
  6
CONTINUOUS
  0
LAYER
  2
81
 70
0
 62
7
  6
CONTINUOUS
  0
LAYER
  2
82
 70
0
 62
7
  6
CONTINUOUS
  0
LAYER
  2
83
 70
0
 62
7
  6
CONTINUOUS
  0
LAYER
  2
84
 70
0
 62
7
  6
CONTINUOUS
  0
LAYER
  2
85
 70
0
 62
7
  6
CONTINUOUS
  0
LAYER
  2
86
 70
0
 62
7
  6
CONTINUOUS
  0
LAYER
  2
87
 70
0
 62
7
  6
CONTINUOUS
  0
LAYER
  2
88
 70
0
 62
7
  6
CONTINUOUS
  0
LAYER
  2
89
 70
0
 62
7
  6
CONTINUOUS
  0
LAYER
  2
90
 70
0
 62
7
  6
CONTINUOUS
  0
LAYER
  2
91
 70
0
 62
7
  6
CONTINUOUS
  0
LAYER
  2
92
 70
0
 62
7
  6
CONTINUOUS
  0
LAYER
  2
93
 70
0
 62
7
  6
CONTINUOUS
  0
LAYER
  2
94
 70
0
 62
7
  6
CONTINUOUS
  0
LAYER
  2
95
 70
0
 62
7
  6
CONTINUOUS
  0
LAYER
  2
96
 70
0
 62
7
  6
CONTINUOUS
  0
LAYER
  2
97
 70
0
 62
7
  6
CONTINUOUS
  0
LAYER
  2
98
 70
0
 62
7
  6
CONTINUOUS
  0
LAYER
  2
99
 70
0
 62
7
  6
CONTINUOUS
  0
LAYER
  2
100
 70
0
 62
7
  6
CONTINUOUS
  0
LAYER
  2
101
 70
0
 62
7
  6
CONTINUOUS
  0
LAYER
  2
102
 70
0
 62
7
  6
CONTINUOUS
  0
LAYER
  2
103
 70
0
 62
7
  6
CONTINUOUS
  0
LAYER
  2
104
 70
0
 62
7
  6
CONTINUOUS
  0
LAYER
  2
105
 70
0
 62
7
  6
CONTINUOUS
  0
LAYER
  2
106
 70
0
 62
7
  6
CONTINUOUS
  0
LAYER
  2
107
 70
0
 62
7
  6
CONTINUOUS
  0
LAYER
  2
108
 70
0
 62
7
  6
CONTINUOUS
  0
LAYER
  2
109
 70
0
 62
7
  6
CONTINUOUS
  0
LAYER
  2
110
 70
0
 62
7
  6
CONTINUOUS
  0
LAYER
  2
111
 70
0
 62
7
  6
CONTINUOUS
  0
LAYER
  2
112
 70
0
 62
7
  6
CONTINUOUS
  0
LAYER
  2
113
 70
0
 62
7
  6
CONTINUOUS
  0
LAYER
  2
114
 70
0
 62
7
  6
CONTINUOUS
  0
LAYER
  2
115
 70
0
 62
7
  6
CONTINUOUS
  0
LAYER
  2
116
 70
0
 62
7
  6
CONTINUOUS
  0
LAYER
  2
117
 70
0
 62
7
  6
CONTINUOUS
  0
LAYER
  2
118
 70
0
 62
7
  6
CONTINUOUS
  0
LAYER
  2
119
 70
0
 62
7
  6
CONTINUOUS
  0
LAYER
  2
120
 70
0
 62
7
  6
CONTINUOUS
  0
LAYER
  2
121
 70
0
 62
7
  6
CONTINUOUS
  0
LAYER
  2
122
 70
0
 62
7
  6
CONTINUOUS
  0
LAYER
  2
123
 70
0
 62
7
  6
CONTINUOUS
  0
LAYER
  2
124
 70
0
 62
7
  6
CONTINUOUS
  0
LAYER
  2
125
 70
0
 62
7
  6
CONTINUOUS
  0
LAYER
  2
126
 70
0
 62
7
  6
CONTINUOUS
  0
LAYER
  2
127
 70
0
 62
7
  6
CONTINUOUS
  0
LAYER
  2
128
 70
0
 62
7
  6
CONTINUOUS
  0
LAYER
  2
129
 70
0
 62
7
  6
CONTINUOUS
  0
LAYER
  2
130
 70
0
 62
7
  6
CONTINUOUS
  0
LAYER
  2
131
 70
0
 62
7
  6
CONTINUOUS
  0
LAYER
  2
132
 70
0
 62
7
  6
CONTINUOUS
  0
LAYER
  2
133
 70
0
 62
7
  6
CONTINUOUS
  0
LAYER
  2
134
 70
0
 62
7
  6
CONTINUOUS
  0
LAYER
  2
135
 70
0
 62
7
  6
CONTINUOUS
  0
LAYER
  2
136
 70
0
 62
7
  6
CONTINUOUS
  0
LAYER
  2
137
 70
0
 62
7
  6
CONTINUOUS
  0
LAYER
  2
138
 70
0
 62
7
  6
CONTINUOUS
  0
LAYER
  2
139
 70
0
 62
7
  6
CONTINUOUS
  0
LAYER
  2
140
 70
0
 62
7
  6
CONTINUOUS
  0
LAYER
  2
141
 70
0
 62
7
  6
CONTINUOUS
  0
LAYER
  2
142
 70
0
 62
7
  6
CONTINUOUS
  0
LAYER
  2
143
 70
0
 62
7
  6
CONTINUOUS
  0
LAYER
  2
144
 70
0
 62
7
  6
CONTINUOUS
  0
LAYER
  2
145
 70
0
 62
7
  6
CONTINUOUS
  0
LAYER
  2
146
 70
0
 62
7
  6
CONTINUOUS
  0
LAYER
  2
147
 70
0
 62
7
  6
CONTINUOUS
  0
LAYER
  2
148
 70
0
 62
7
  6
CONTINUOUS
  0
LAYER
  2
149
 70
0
 62
7
  6
CONTINUOUS
  0
LAYER
  2
150
 70
0
 62
7
  6
CONTINUOUS
  0
LAYER
  2
151
 70
0
 62
7
  6
CONTINUOUS
  0
LAYER
  2
152
 70
0
 62
7
  6
CONTINUOUS
  0
LAYER
  2
153
 70
0
 62
7
  6
CONTINUOUS
  0
LAYER
  2
154
 70
0
 62
7
  6
CONTINUOUS
  0
LAYER
  2
155
 70
0
 62
7
  6
CONTINUOUS
  0
LAYER
  2
156
 70
0
 62
7
  6
CONTINUOUS
  0
LAYER
  2
157
 70
0
 62
7
  6
CONTINUOUS
  0
LAYER
  2
158
 70
0
 62
7
  6
CONTINUOUS
  0
LAYER
  2
159
 70
0
 62
7
  6
CONTINUOUS
  0
LAYER
  2
160
 70
0
 62
7
  6
CONTINUOUS
  0
LAYER
  2
161
 70
0
 62
7
  6
CONTINUOUS
  0
LAYER
  2
162
 70
0
 62
7
  6
CONTINUOUS
  0
LAYER
  2
163
 70
0
 62
7
  6
CONTINUOUS
  0
LAYER
  2
164
 70
0
 62
7
  6
CONTINUOUS
  0
LAYER
  2
165
 70
0
 62
7
  6
CONTINUOUS
  0
LAYER
  2
166
 70
0
 62
7
  6
CONTINUOUS
  0
LAYER
  2
167
 70
0
 62
7
  6
CONTINUOUS
  0
LAYER
  2
168
 70
0
 62
7
  6
CONTINUOUS
  0
LAYER
  2
169
 70
0
 62
7
  6
CONTINUOUS
  0
LAYER
  2
170
 70
0
 62
7
  6
CONTINUOUS
  0
LAYER
  2
171
 70
0
 62
7
  6
CONTINUOUS
  0
LAYER
  2
172
 70
0
 62
7
  6
CONTINUOUS
  0
LAYER
  2
173
 70
0
 62
7
  6
CONTINUOUS
  0
LAYER
  2
174
 70
0
 62
7
  6
CONTINUOUS
  0
LAYER
  2
175
 70
0
 62
7
  6
CONTINUOUS
  0
LAYER
  2
176
 70
0
 62
7
  6
CONTINUOUS
  0
LAYER
  2
177
 70
0
 62
7
  6
CONTINUOUS
  0
LAYER
  2
178
 70
0
 62
7
  6
CONTINUOUS
  0
LAYER
  2
179
 70
0
 62
7
  6
CONTINUOUS
  0
LAYER
  2
180
 70
0
 62
7
  6
CONTINUOUS
  0
LAYER
  2
Drafting_Hidden_Entities
 70
1
 62
7
  6
CONTINUOUS
  0
ENDTAB
  0
TABLE
  2
STYLE
 70
1
  0
STYLE
  2
STANDARD
 70
64
 40
0.0
 41
1.0
 50
0.0
 71
0
 42
1.0
  3
monotxt.shx
  4

  0
ENDTAB
  0
TABLE
  2
VIEW
 70
0
  0
ENDTAB
  0
TABLE
  2
DIMSTYLE
 70
2
  0
DIMSTYLE
  2
DSTYLE1
 70
0
  3

  4

  5

  6

  7

 40
1.0
 41
5.0E-001
 42
6.25E-002
 43
3.8E-001
 44
1.25E-001
 45
1.0E-003
 46
0.0
 47
5.0E-003
 48
5.0E-003
 71
0
 72
0
 73
1
 74
1
 75
1
 76
0
 77
0
 78
7
140
3.75E-001
141
9.0E-002
142
0.0
143
2.54E+001
144
1.0
145
0.0
146
1.0
147
6.25E-002
170
0
171
2
172
0
173
0
174
0
175
0
176
0
177
0
178
0
  0
DIMSTYLE
  2
DSTYLE2
 70
0
  3

  4

  5

  6

  7

 40
1.0
 41
5.0E-001
 42
1.0E-001
 43
3.8E-001
 44
2.5E-001
 45
1.0E-003
 46
0.0
 47
5.0E-003
 48
5.0E-003
 71
0
 72
0
 73
1
 74
1
 75
0
 76
0
 77
0
 78
7
140
3.75E-001
141
9.0E-002
142
0.0
143
1.0
144
1.0
145
0.0
146
1.0
147
2.5E-001
170
0
171
2
172
0
173
0
174
0
175
0
176
0
177
0
178
0
  0
ENDTAB
  0
ENDSEC
  0
SECTION
  2
BLOCKS
  0
BLOCK
  2
*TX29
  3
*TX
 10
0.0
 20
0.0
 70
65
  0
TEXT
  8
126
  6
CONTINUOUS
 62
7
 10
9.0E-001
 20
5.0E-002
 40
1.0E-001
  1
24 LB COATED PAPER
 72
1
 73
2
 11
0.0
 21
0.0
  0
TEXT
  8
126
  6
CONTINUOUS
 62
7
 10
2.5E-001
 20
-1.0E-001
 40
1.0E-001
  1
WHITE
 72
1
 73
2
 11
0.0
 21
-1.5E-001
  0
ENDBLK
  0
BLOCK
  2
*TX30
  3
*TX
 10
0.0
 20
0.0
 70
65
  0
TEXT
  8
126
  6
CONTINUOUS
 62
7
 10
0.0
 20
0.0
 40
6.053E-002
  1
THIS PRINT IS THE PROPERTY OF ELKAY MANUFACTURING COMPANY
 41
1.0344828
  0
TEXT
  8
126
  6
CONTINUOUS
 62
7
 10
0.0
 20
-1.0553E-001
 40
6.053E-002
  1
AND IS LOANED SUBJECT TO RETURN UPON DEMAND AND UPON THE
 41
1.0344828
  0
TEXT
  8
126
  6
CONTINUOUS
 62
7
 10
0.0
 20
-2.1106E-001
 40
6.053E-002
  1
EXPRESS CONDITION THAT IT IS NOT TO BE USED DIRECTLY OR
 41
1.0344828
  0
TEXT
  8
126
  6
CONTINUOUS
 62
7
 10
0.0
 20
-3.1659E-001
 40
6.053E-002
  1
INDIRECTLY WITHOUT OUR PERMISSION FOR PURPOSES OTHER THAN
 41
1.0344828
  0
TEXT
  8
126
  6
CONTINUOUS
 62
7
 10
0.0
 20
-4.2212E-001
 40
6.053E-002
  1
THOSE FOR WHICH IT WAS FURNISHED.
 41
1.0344828
  0
ENDBLK
  0
BLOCK
  2
*TX32
  3
*TX
 10
0.0
 20
0.0
 70
65
  0
TEXT
  8
1
  6
CONTINUOUS
 62
7
 10
3.7125
 20
1.375E-001
 40
2.75E-001
  1
VERIFY THAT THE MODEL BEING
 72
1
 73
2
 11
0.0
 21
0.0
  0
TEXT
  8
1
  6
CONTINUOUS
 62
7
 10
3.4375
 20
-2.75E-001
 40
2.75E-001
  1
INSTALLED IS LISTED ABOVE
 72
1
 73
2
 11
0.0
 21
-4.125E-001
  0
TEXT
  8
1
  6
CONTINUOUS
 62
7
 10
3.575
 20
-6.875E-001
 40
2.75E-001
  1
BEFORE USING THIS TEMPLATE
 72
1
 73
2
 11
0.0
 21
-8.25E-001
  0
TEXT
  8
1
  6
CONTINUOUS
 62
7
 10
2.75E-001
 20
-1.1
 40
2.75E-001
  1
  
 72
1
 73
2
 11
0.0
 21
-1.2375
  0
TEXT
  8
1
  6
CONTINUOUS
 62
7
 10
2.8875
 20
-1.5125
 40
2.75E-001
  1
CHECK THE TEMPLATE BY
 72
1
 73
2
 11
0.0
 21
-1.65
  0
TEXT
  8
1
  6
CONTINUOUS
 62
7
 10
2.475
 20
-1.925
 40
2.75E-001
  1
LAYING IT OVER THE
 72
1
 73
2
 11
0.0
 21
-2.0625
  0
TEXT
  8
1
  6
CONTINUOUS
 62
7
 10
3.575
 20
-2.3375
 40
2.75E-001
  1
SINK PRIOR TO INSTALLATION
 72
1
 73
2
 11
0.0
 21
-2.475
  0
TEXT
  8
1
  6
CONTINUOUS
 62
7
 10
1.375E-001
 20
-2.75
 40
2.75E-001
  1
 
 72
1
 73
2
 11
0.0
 21
-2.8875
  0
TEXT
  8
1
  6
CONTINUOUS
 62
7
 10
3.85
 20
-3.1625
 40
2.75E-001
  1
FOR QUESTIONS PLEASE CONTACT
 72
1
 73
2
 11
0.0
 21
-3.3
  0
TEXT
  8
1
  6
CONTINUOUS
 62
7
 10
3.025
 20
-3.575
 40
2.75E-001
  1
ELKAY CUSTOMER SERVICE
 72
1
 73
2
 11
0.0
 21
-3.7125
  0
ENDBLK
  0
BLOCK
  2
*TX34
  3
*TX
 10
0.0
 20
0.0
 70
65
  0
TEXT
  8
1
  6
CONTINUOUS
 62
7
 10
9.0E-001
 20
1.5E-001
 40
3.0E-001
  1
CR3122
 72
1
 73
2
 11
0.0
 21
0.0
  0
TEXT
  8
1
  6
CONTINUOUS
 62
7
 10
1.35
 20
-3.0E-001
 40
3.0E-001
  1
DLR312210
 72
1
 73
2
 11
0.0
 21
-4.5E-001
  0
TEXT
  8
1
  6
CONTINUOUS
 62
7
 10
1.35
 20
-7.5E-001
 40
3.0E-001
  1
DLR312212
 72
1
 73
2
 11
0.0
 21
-9.0E-001
  0
TEXT
  8
1
  6
CONTINUOUS
 62
7
 10
9.0E-001
 20
-1.2
 40
3.0E-001
  1
LR3122
 72
1
 73
2
 11
0.0
 21
-1.35
  0
TEXT
  8
1
  6
CONTINUOUS
 62
7
 10
1.05
 20
-1.65
 40
3.0E-001
  1
LRQ3122
 72
1
 73
2
 11
0.0
 21
-1.8
  0
TEXT
  8
1
  6
CONTINUOUS
 62
7
 10
1.5
 20
-2.1
 40
3.0E-001
  1
LRAD312255
 72
1
 73
2
 11
0.0
 21
-2.25
  0
TEXT
  8
1
  6
CONTINUOUS
 62
7
 10
1.5
 20
-2.55
 40
3.0E-001
  1
LRAD312260
 72
1
 73
2
 11
0.0
 21
-2.7
  0
TEXT
  8
1
  6
CONTINUOUS
 62
7
 10
1.5
 20
-3.0
 40
3.0E-001
  1
LRAD312265
 72
1
 73
2
 11
0.0
 21
-3.15
  0
TEXT
  8
1
  6
CONTINUOUS
 62
7
 10
1.65
 20
-3.45
 40
3.0E-001
  1
LRADQ312255
 72
1
 73
2
 11
0.0
 21
-3.6
  0
TEXT
  8
1
  6
CONTINUOUS
 62
7
 10
1.65
 20
-3.9
 40
3.0E-001
  1
LRADQ312260
 72
1
 73
2
 11
0.0
 21
-4.05
  0
TEXT
  8
1
  6
CONTINUOUS
 62
7
 10
1.65
 20
-4.35
 40
3.0E-001
  1
LRADQ312265
 72
1
 73
2
 11
0.0
 21
-4.5
  0
TEXT
  8
1
  6
CONTINUOUS
 62
7
 10
1.5
 20
-4.8
 40
3.0E-001
  1
MDLR312212
 72
1
 73
2
 11
0.0
 21
-4.95
  0
TEXT
  8
1
  6
CONTINUOUS
 62
7
 10
1.05
 20
-5.25
 40
3.0E-001
  1
PSR3122
 72
1
 73
2
 11
0.0
 21
-5.4
  0
ENDBLK
  0
BLOCK
  2
*D91
  3
*D
 10
0.0
 20
0.0
 70
65
  0
LINE
  8
1
  6
CONTINUOUS
 62
7
 10
2.7472812
 20
2.2789896E+001
 11
3.8728167
 21
2.1762546E+001
  0
LINE
  8
1
  6
CONTINUOUS
 62
7
 10
2.7472812
 20
2.2789896E+001
 11
3.0603952
 21
2.2391269E+001
  0
LINE
  8
1
  6
CONTINUOUS
 62
7
 10
2.7472812
 20
2.2789896E+001
 11
3.1727548
 21
2.2514367E+001
  0
LINE
  8
1
  6
CONTINUOUS
 62
7
 10
3.0603952
 20
2.2391269E+001
 11
3.1727548
 21
2.2514367E+001
  0
LINE
  8
1
  6
CONTINUOUS
 62
7
 10
3.9978167
 20
2.1762546E+001
 11
3.8728167
 21
2.1762546E+001
  0
TEXT
  8
1
  6
CONTINUOUS
 62
7
 10
4.0603167
 20
2.1575046E+001
 40
3.75E-001
  1
R 1 1/2
  0
ENDBLK
  0
BLOCK
  2
*D125
  3
*D
 10
0.0
 20
0.0
 70
65
  0
LINE
  8
1
  6
CONTINUOUS
 62
7
 10
3.2584663E+001
 20
3.164322
 11
3.2584663E+001
 21
5.604605E-001
  0
LINE
  8
1
  6
CONTINUOUS
 62
7
 10
2.209663
 20
3.164322
 11
2.209663
 21
5.604605E-001
  0
LINE
  8
1
  6
CONTINUOUS
 62
7
 10
3.2584663E+001
 20
8.104605E-001
 11
3.2084663E+001
 21
8.9379383E-001
  0
LINE
  8
1
  6
CONTINUOUS
 62
7
 10
3.2584663E+001
 20
8.104605E-001
 11
3.2084663E+001
 21
7.2712717E-001
  0
LINE
  8
1
  6
CONTINUOUS
 62
7
 10
3.2084663E+001
 20
8.9379383E-001
 11
3.2084663E+001
 21
7.2712717E-001
  0
LINE
  8
1
  6
CONTINUOUS
 62
7
 10
2.209663
 20
8.104605E-001
 11
2.709663
 21
8.9379383E-001
  0
LINE
  8
1
  6
CONTINUOUS
 62
7
 10
2.209663
 20
8.104605E-001
 11
2.709663
 21
7.2712717E-001
  0
LINE
  8
1
  6
CONTINUOUS
 62
7
 10
2.709663
 20
8.9379383E-001
 11
2.709663
 21
7.2712717E-001
  0
LINE
  8
1
  6
CONTINUOUS
 62
7
 10
3.2584663E+001
 20
8.104605E-001
 11
1.8772163E+001
 21
8.104605E-001
  0
LINE
  8
1
  6
CONTINUOUS
 62
7
 10
2.209663
 20
8.104605E-001
 11
1.6022163E+001
 21
8.104605E-001
  0
TEXT
  8
1
  6
CONTINUOUS
 62
7
 10
1.6272163E+001
 20
6.229605E-001
 40
3.75E-001
  1
30 3/8
  0
ENDBLK
  0
BLOCK
  2
*D126
  3
*D
 10
0.0
 20
0.0
 70
65
  0
LINE
  8
1
  6
CONTINUOUS
 62
7
 10
3.1184663E+001
 20
2.3139322E+001
 11
3.4532905E+001
 21
2.3139322E+001
  0
LINE
  8
1
  6
CONTINUOUS
 62
7
 10
3.1184663E+001
 20
1.764322
 11
3.4532905E+001
 21
1.764322
  0
LINE
  8
1
  6
CONTINUOUS
 62
7
 10
3.4282905E+001
 20
2.3139322E+001
 11
3.4199571E+001
 21
2.2639322E+001
  0
LINE
  8
1
  6
CONTINUOUS
 62
7
 10
3.4282905E+001
 20
2.3139322E+001
 11
3.4366238E+001
 21
2.2639322E+001
  0
LINE
  8
1
  6
CONTINUOUS
 62
7
 10
3.4199571E+001
 20
2.2639322E+001
 11
3.4366238E+001
 21
2.2639322E+001
  0
LINE
  8
1
  6
CONTINUOUS
 62
7
 10
3.4282905E+001
 20
1.764322
 11
3.4199571E+001
 21
2.264322
  0
LINE
  8
1
  6
CONTINUOUS
 62
7
 10
3.4282905E+001
 20
1.764322
 11
3.4366238E+001
 21
2.264322
  0
LINE
  8
1
  6
CONTINUOUS
 62
7
 10
3.4199571E+001
 20
2.264322
 11
3.4366238E+001
 21
2.264322
  0
LINE
  8
1
  6
CONTINUOUS
 62
7
 10
3.4282905E+001
 20
2.3139322E+001
 11
3.4282905E+001
 21
1.2889322E+001
  0
LINE
  8
1
  6
CONTINUOUS
 62
7
 10
3.4282905E+001
 20
1.764322
 11
3.4282905E+001
 21
1.2014322E+001
  0
TEXT
  8
1
  6
CONTINUOUS
 62
7
 10
3.3157905E+001
 20
1.2264322E+001
 40
3.75E-001
  1
21 3/8
  0
ENDBLK
  0
ENDSEC
  0
SECTION
  2
ENTITIES
  0
TEXT
  8
126
  6
CONTINUOUS
 62
7
 10
4.0912488E+001
 20
6.66181E-001
 40
8.0E-002
  1
REL - ECNBV03397 01JUN04
  0
INSERT
  2
*TX29
  8
126
 10
3.8887502E+001
 20
1.3892095
  0
TEXT
  8
1
  6
CONTINUOUS
 62
7
 10
1.8586409E+001
 20
2.663232
 40
3.0E-001
  1
74180445
 72
1
 73
2
 11
1.7386409E+001
 21
2.513232
  0
LINE
  8
1
  6
CONTINUOUS
 62
7
 10
3.2584663E+001
 20
3.264322
 11
3.2584663E+001
 21
2.1639322E+001
  0
ARC
  8
1
  6
CONTINUOUS
 62
7
 10
3.1084663E+001
 20
2.1639322E+001
 40
1.5
 50
0.0
 51
9.0E+001
  0
LINE
  8
1
  6
CONTINUOUS
 62
7
 10
3.1084663E+001
 20
2.3139322E+001
 11
3.709663
 21
2.3139322E+001
  0
ARC
  8
1
  6
CONTINUOUS
 62
7
 10
3.709663
 20
2.1639322E+001
 40
1.5
 50
9.0E+001
 51
1.8E+002
  0
TEXT
  8
1
  6
CONTINUOUS
 62
7
 10
1.9763714E+001
 20
2.114593E+001
 40
4.0E-001
  1
TEMPLATE FOR
 72
1
 73
2
 11
1.7363714E+001
 21
2.094593E+001
  0
INSERT
  2
*D91
  8
1
 10
0.0
 20
0.0
  0
LINE
  8
1
  6
CONTINUOUS
 62
7
 10
1.9897267E+001
 20
2.0668334E+001
 11
1.4850407E+001
 21
2.0668334E+001
  0
LINE
  8
1
  6
CONTINUOUS
 62
7
 10
3.709663
 20
1.764322
 11
3.1084663E+001
 21
1.764322
  0
LINE
  8
1
  6
CONTINUOUS
 62
7
 10
2.209663
 20
2.1639322E+001
 11
2.209663
 21
3.264322
  0
ARC
  8
1
  6
CONTINUOUS
 62
7
 10
3.709663
 20
3.264322
 40
1.5
 50
1.8E+002
 51
2.7E+002
  0
ARC
  8
1
  6
CONTINUOUS
 62
7
 10
3.1084663E+001
 20
3.264322
 40
1.5
 50
2.7E+002
 51
3.6E+002
  0
POLYLINE
  8
1
  6
CONTINUOUS
 62
7
 66
1
 40
2.0E-002
 41
2.0E-002
 70
0
  0
VERTEX
  8
1
 42
0.0
 10
1.2739396E+001
 20
3.264322
 70
0
  0
VERTEX
  8
1
 42
0.0
 10
2.205493E+001
 20
3.264322
 70
0
  0
SEQEND
  0
POLYLINE
  8
1
  6
CONTINUOUS
 62
7
 66
1
 40
2.0E-002
 41
2.0E-002
 70
0
  0
VERTEX
  8
1
 42
0.0
 10
1.2739396E+001
 20
8.2036403
 70
0
  0
VERTEX
  8
1
 42
0.0
 10
1.2739396E+001
 20
3.264322
 70
0
  0
SEQEND
  0
POLYLINE
  8
1
  6
CONTINUOUS
 62
7
 66
1
 40
2.0E-002
 41
2.0E-002
 70
0
  0
VERTEX
  8
1
 42
0.0
 10
1.2739396E+001
 20
8.2036403
 70
0
  0
VERTEX
  8
1
 42
0.0
 10
1.7397163E+001
 20
9.9759104
 70
0
  0
SEQEND
  0
POLYLINE
  8
1
  6
CONTINUOUS
 62
7
 66
1
 40
2.0E-002
 41
2.0E-002
 70
0
  0
VERTEX
  8
1
 42
0.0
 10
1.7397163E+001
 20
9.9759104
 70
0
  0
VERTEX
  8
1
 42
0.0
 10
2.205493E+001
 20
8.2036403
 70
0
  0
SEQEND
  0
POLYLINE
  8
1
  6
CONTINUOUS
 62
7
 66
1
 40
2.0E-002
 41
2.0E-002
 70
0
  0
VERTEX
  8
1
 42
0.0
 10
2.205493E+001
 20
3.264322
 70
0
  0
VERTEX
  8
1
 42
0.0
 10
2.205493E+001
 20
8.2036403
 70
0
  0
SEQEND
  0
TEXT
  8
1
  6
CONTINUOUS
 62
7
 10
1.9985256E+001
 20
8.6994721
 40
4.0E-001
  1
**IMPORTANT**
 51
-4.1943E-006
 72
1
 73
2
 11
1.7385256E+001
 21
8.4994721
  0
TEXT
  8
126
  6
CONTINUOUS
 62
7
 10
4.2507387E+001
 20
1.1457394
 40
1.0E-001
  1
JAS
  0
INSERT
  2
*TX34
  8
1
 10
1.7330488E+001
 20
2.0023661E+001
  0
INSERT
  2
*TX32
  8
1
 10
1.7407511E+001
 20
7.5018271
  0
DIMENSION
  8
1
  6
CONTINUOUS
 62
7
  2
*D125
  3
DSTYLE2
 10
2.209663
 20
8.104605E-001
 11
1.7397163E+001
 21
8.104605E-001
 70
128
 13
3.2584663E+001
 23
3.264322
 14
2.209663
 24
3.264322
 40
1.25E-001
 50
0.0
  0
DIMENSION
  8
1
  6
CONTINUOUS
 62
7
  2
*D126
  3
DSTYLE2
 10
3.4282905E+001
 20
1.764322
 11
3.4282905E+001
 21
1.2451822E+001
 70
128
 13
3.1084663E+001
 23
2.3139322E+001
 14
3.1084663E+001
 24
1.764322
 40
1.25E-001
 50
9.0E+001
  0
TEXT
  8
180
  6
CONTINUOUS
 62
7
 10
4.2463019E+001
 20
2.0114816
 40
1.25E-001
  1
MANUFACTURING COMPANY
 41
9.0E-001
  0
TEXT
  8
126
  6
CONTINUOUS
 62
7
 10
4.359264E+001
 20
1.9315398
 40
7.5E-002
  1
BROADVIEW, ILLINOIS
 72
1
 73
2
 11
4.288014E+001
 21
1.8940398
  0
LINE
  8
126
  6
CONTINUOUS
 62
7
 10
4.1273799E+001
 20
2.0131745
 11
4.146343E+001
 21
2.0131745
  0
LINE
  8
126
  6
CONTINUOUS
 62
7
 10
4.0947373E+001
 20
2.1742289
 11
4.120968E+001
 21
2.1742289
  0
LINE
  8
126
  6
CONTINUOUS
 62
7
 10
4.0914148E+001
 20
1.9857995
 11
4.1189148E+001
 21
1.9857995
  0
LINE
  8
126
  6
CONTINUOUS
 62
7
 10
4.0914148E+001
 20
1.9857995
 11
4.0947373E+001
 21
2.1742289
  0
LINE
  8
126
  6
CONTINUOUS
 62
7
 10
4.0994687E+001
 20
2.1468539
 11
4.1204853E+001
 21
2.1468539
  0
LINE
  8
126
  6
CONTINUOUS
 62
7
 10
4.1216804E+001
 20
1.9857995
 11
4.1250029E+001
 21
2.1742289
  0
LINE
  8
126
  6
CONTINUOUS
 62
7
 10
4.1250029E+001
 20
2.1742289
 11
4.1302197E+001
 21
2.1742289
  0
LINE
  8
126
  6
CONTINUOUS
 62
7
 10
4.1216804E+001
 20
1.9857995
 11
4.1458603E+001
 21
1.9857995
  0
LINE
  8
126
  6
CONTINUOUS
 62
7
 10
4.1273799E+001
 20
2.0131745
 11
4.1302197E+001
 21
2.1742289
  0
LINE
  8
126
  6
CONTINUOUS
 62
7
 10
4.0985326E+001
 20
2.0937642
 11
4.0994687E+001
 21
2.1468539
  0
LINE
  8
126
  6
CONTINUOUS
 62
7
 10
4.1204853E+001
 20
2.1468539
 11
4.120968E+001
 21
2.1742289
  0
LINE
  8
126
  6
CONTINUOUS
 62
7
 10
4.117795E+001
 20
2.0662642
 11
4.1182799E+001
 21
2.0937642
  0
LINE
  8
126
  6
CONTINUOUS
 62
7
 10
4.2411729E+001
 20
2.1742289
 11
4.2257453E+001
 21
2.0590495
  0
LINE
  8
126
  6
CONTINUOUS
 62
7
 10
4.2411729E+001
 20
2.1742289
 11
4.2350508E+001
 21
2.1742289
  0
LINE
  8
126
  6
CONTINUOUS
 62
7
 10
4.2350508E+001
 20
2.1742289
 11
4.2237157E+001
 21
2.089603
  0
LINE
  8
126
  6
CONTINUOUS
 62
7
 10
4.1189148E+001
 20
1.9857995
 11
4.1193975E+001
 21
2.0131745
  0
LINE
  8
126
  6
CONTINUOUS
 62
7
 10
4.0974696E+001
 20
2.0131745
 11
4.0984058E+001
 21
2.0662642
  0
LINE
  8
126
  6
CONTINUOUS
 62
7
 10
4.1182799E+001
 20
2.0937642
 11
4.0985326E+001
 21
2.0937642
  0
LINE
  8
126
  6
CONTINUOUS
 62
7
 10
4.0984058E+001
 20
2.0662642
 11
4.117795E+001
 21
2.0662642
  0
LINE
  8
126
  6
CONTINUOUS
 62
7
 10
4.1812303E+001
 20
2.1742289
 11
4.1669179E+001
 21
2.0930372
  0
LINE
  8
126
  6
CONTINUOUS
 62
7
 10
4.0974696E+001
 20
2.0131745
 11
4.1193975E+001
 21
2.0131745
  0
LINE
  8
126
  6
CONTINUOUS
 62
7
 10
4.1458603E+001
 20
1.9857995
 11
4.146343E+001
 21
2.0131745
  0
LINE
  8
126
  6
CONTINUOUS
 62
7
 10
4.1738076E+001
 20
2.1742289
 11
4.1812303E+001
 21
2.1742289
  0
LINE
  8
126
  6
CONTINUOUS
 62
7
 10
4.1704682E+001
 20
1.9857995
 11
4.1785903E+001
 21
1.9857995
  0
LINE
  8
126
  6
CONTINUOUS
 62
7
 10
4.1544703E+001
 20
2.0224245
 11
4.1538245E+001
 21
1.9857995
  0
LINE
  8
126
  6
CONTINUOUS
 62
7
 10
4.157147E+001
 20
2.1742289
 11
4.1552953E+001
 21
2.0692123
  0
LINE
  8
126
  6
CONTINUOUS
 62
7
 10
4.195994E+001
 20
2.1742289
 11
4.205144E+001
 21
2.1742289
  0
LINE
  8
126
  6
CONTINUOUS
 62
7
 10
4.2082047E+001
 20
1.9857995
 11
4.2143065E+001
 21
1.9857995
  0
LINE
  8
126
  6
CONTINUOUS
 62
7
 10
4.1618964E+001
 20
2.0645511
 11
4.1544703E+001
 21
2.0224245
  0
LINE
  8
126
  6
CONTINUOUS
 62
7
 10
4.1738076E+001
 20
2.1742289
 11
4.1552953E+001
 21
2.0692123
  0
LINE
  8
126
  6
CONTINUOUS
 62
7
 10
4.157147E+001
 20
2.1742289
 11
4.1519303E+001
 21
2.1742289
  0
LINE
  8
126
  6
CONTINUOUS
 62
7
 10
4.1486078E+001
 20
1.9857995
 11
4.1519303E+001
 21
2.1742289
  0
LINE
  8
126
  6
CONTINUOUS
 62
7
 10
4.1785903E+001
 20
1.9857995
 11
4.1669179E+001
 21
2.0930372
  0
LINE
  8
126
  6
CONTINUOUS
 62
7
 10
4.1704682E+001
 20
1.9857995
 11
4.1618964E+001
 21
2.0645511
  0
LINE
  8
126
  6
CONTINUOUS
 62
7
 10
4.1538245E+001
 20
1.9857995
 11
4.1486078E+001
 21
1.9857995
  0
LINE
  8
126
  6
CONTINUOUS
 62
7
 10
4.1795065E+001
 20
1.9857995
 11
4.1843732E+001
 21
1.9857995
  0
LINE
  8
126
  6
CONTINUOUS
 62
7
 10
4.1898856E+001
 20
2.0487995
 11
4.1996918E+001
 21
2.1608701
  0
LINE
  8
126
  6
CONTINUOUS
 62
7
 10
4.2051413E+001
 20
2.0487995
 11
4.1996918E+001
 21
2.1608701
  0
LINE
  8
126
  6
CONTINUOUS
 62
7
 10
4.1795065E+001
 20
1.9857995
 11
4.195994E+001
 21
2.1742289
  0
LINE
  8
126
  6
CONTINUOUS
 62
7
 10
4.1875778E+001
 20
2.0224245
 11
4.2064238E+001
 21
2.0224245
  0
LINE
  8
126
  6
CONTINUOUS
 62
7
 10
4.2143065E+001
 20
1.9857995
 11
4.205144E+001
 21
2.1742289
  0
LINE
  8
126
  6
CONTINUOUS
 62
7
 10
4.1898856E+001
 20
2.0487995
 11
4.2051413E+001
 21
2.0487995
  0
LINE
  8
126
  6
CONTINUOUS
 62
7
 10
4.1843732E+001
 20
1.9857995
 11
4.1875778E+001
 21
2.0224245
  0
LINE
  8
126
  6
CONTINUOUS
 62
7
 10
4.2082047E+001
 20
1.9857995
 11
4.2064238E+001
 21
2.0224245
  0
LINE
  8
126
  6
CONTINUOUS
 62
7
 10
4.2350508E+001
 20
2.1742289
 11
4.2411729E+001
 21
2.1742289
  0
LINE
  8
126
  6
CONTINUOUS
 62
7
 10
4.2188815E+001
 20
1.9857995
 11
4.2244537E+001
 21
1.9857995
  0
LINE
  8
126
  6
CONTINUOUS
 62
7
 10
4.2188815E+001
 20
1.9857995
 11
4.2199951E+001
 21
2.0489503
  0
LINE
  8
126
  6
CONTINUOUS
 62
7
 10
4.2244537E+001
 20
1.9857995
 11
4.2257453E+001
 21
2.0590495
  0
LINE
  8
126
  6
CONTINUOUS
 62
7
 10
4.2157475E+001
 20
2.1742289
 11
4.2237157E+001
 21
2.089603
  0
LINE
  8
126
  6
CONTINUOUS
 62
7
 10
4.2199951E+001
 20
2.0489503
 11
4.2081991E+001
 21
2.1742289
  0
LINE
  8
126
  6
CONTINUOUS
 62
7
 10
4.2081991E+001
 20
2.1742289
 11
4.2157475E+001
 21
2.1742289
  0
LINE
  8
126
  6
CONTINUOUS
 62
7
 10
4.240068E+001
 20
2.1742289
 11
4.2405403E+001
 21
2.1695062
  0
LINE
  8
126
  6
CONTINUOUS
 62
7
 10
4.2389632E+001
 20
2.1742289
 11
4.2399077E+001
 21
2.1647834
  0
LINE
  8
126
  6
CONTINUOUS
 62
7
 10
4.2378583E+001
 20
2.1742289
 11
4.2392752E+001
 21
2.1600607
  0
LINE
  8
126
  6
CONTINUOUS
 62
7
 10
4.2367535E+001
 20
2.1742289
 11
4.2386426E+001
 21
2.155338
  0
LINE
  8
126
  6
CONTINUOUS
 62
7
 10
4.2356486E+001
 20
2.1742289
 11
4.23801E+001
 21
2.1506152
  0
LINE
  8
126
  6
CONTINUOUS
 62
7
 10
4.2347605E+001
 20
2.1720615
 11
4.2373774E+001
 21
2.1458925
  0
LINE
  8
126
  6
CONTINUOUS
 62
7
 10
4.2341279E+001
 20
2.1673388
 11
4.2367448E+001
 21
2.1411698
  0
LINE
  8
126
  6
CONTINUOUS
 62
7
 10
4.2334953E+001
 20
2.162616
 11
4.2361122E+001
 21
2.1364471
  0
LINE
  8
126
  6
CONTINUOUS
 62
7
 10
4.2328628E+001
 20
2.1578933
 11
4.2354797E+001
 21
2.1317243
  0
LINE
  8
126
  6
CONTINUOUS
 62
7
 10
4.2322302E+001
 20
2.1531706
 11
4.2348471E+001
 21
2.1270016
  0
LINE
  8
126
  6
CONTINUOUS
 62
7
 10
4.2315976E+001
 20
2.1484479
 11
4.2342145E+001
 21
2.1222789
  0
LINE
  8
126
  6
CONTINUOUS
 62
7
 10
4.230965E+001
 20
2.1437251
 11
4.2335819E+001
 21
2.1175562
  0
LINE
  8
126
  6
CONTINUOUS
 62
7
 10
4.2303324E+001
 20
2.1390024
 11
4.2329493E+001
 21
2.1128334
  0
LINE
  8
126
  6
CONTINUOUS
 62
7
 10
4.2296999E+001
 20
2.1342797
 11
4.2323167E+001
 21
2.1081107
  0
LINE
  8
126
  6
CONTINUOUS
 62
7
 10
4.2290673E+001
 20
2.1295569
 11
4.2316842E+001
 21
2.103388
  0
LINE
  8
126
  6
CONTINUOUS
 62
7
 10
4.2284347E+001
 20
2.1248342
 11
4.2310516E+001
 21
2.0986652
  0
LINE
  8
126
  6
CONTINUOUS
 62
7
 10
4.2278021E+001
 20
2.1201115
 11
4.230419E+001
 21
2.0939425
  0
LINE
  8
126
  6
CONTINUOUS
 62
7
 10
4.2271695E+001
 20
2.1153888
 11
4.2297864E+001
 21
2.0892198
  0
LINE
  8
126
  6
CONTINUOUS
 62
7
 10
4.2265369E+001
 20
2.110666
 11
4.2291538E+001
 21
2.0844971
  0
LINE
  8
126
  6
CONTINUOUS
 62
7
 10
4.2259044E+001
 20
2.1059433
 11
4.2285213E+001
 21
2.0797743
  0
LINE
  8
126
  6
CONTINUOUS
 62
7
 10
4.2252718E+001
 20
2.1012206
 11
4.2278887E+001
 21
2.0750516
  0
LINE
  8
126
  6
CONTINUOUS
 62
7
 10
4.2246392E+001
 20
2.0964979
 11
4.2272561E+001
 21
2.0703289
  0
LINE
  8
126
  6
CONTINUOUS
 62
7
 10
4.2240066E+001
 20
2.0917751
 11
4.2266235E+001
 21
2.0656061
  0
LINE
  8
126
  6
CONTINUOUS
 62
7
 10
4.2146564E+001
 20
2.1742289
 11
4.2259909E+001
 21
2.0608834
  0
LINE
  8
126
  6
CONTINUOUS
 62
7
 10
4.2135515E+001
 20
2.1742289
 11
4.225644E+001
 21
2.0533043
  0
LINE
  8
126
  6
CONTINUOUS
 62
7
 10
4.2124467E+001
 20
2.1742289
 11
4.2254784E+001
 21
2.0439119
  0
LINE
  8
126
  6
CONTINUOUS
 62
7
 10
4.2113418E+001
 20
2.1742289
 11
4.2253128E+001
 21
2.0345195
  0
LINE
  8
126
  6
CONTINUOUS
 62
7
 10
4.210237E+001
 20
2.1742289
 11
4.2251472E+001
 21
2.0251271
  0
LINE
  8
126
  6
CONTINUOUS
 62
7
 10
4.2091321E+001
 20
2.1742289
 11
4.2249815E+001
 21
2.0157347
  0
LINE
  8
126
  6
CONTINUOUS
 62
7
 10
4.2109692E+001
 20
2.1448097
 11
4.2248159E+001
 21
2.0063423
  0
LINE
  8
126
  6
CONTINUOUS
 62
7
 10
4.2199134E+001
 20
2.044319
 11
4.2246503E+001
 21
1.9969499
  0
LINE
  8
126
  6
CONTINUOUS
 62
7
 10
4.2197478E+001
 20
2.0349265
 11
4.2244847E+001
 21
1.9875575
  0
LINE
  8
126
  6
CONTINUOUS
 62
7
 10
4.2047127E+001
 20
2.1742289
 11
4.2055523E+001
 21
2.1658328
  0
LINE
  8
126
  6
CONTINUOUS
 62
7
 10
4.2195822E+001
 20
2.0255341
 11
4.2235556E+001
 21
1.9857995
  0
LINE
  8
126
  6
CONTINUOUS
 62
7
 10
4.2036078E+001
 20
2.1742289
 11
4.2065981E+001
 21
2.1443268
  0
LINE
  8
126
  6
CONTINUOUS
 62
7
 10
4.2194166E+001
 20
2.0161417
 11
4.2224508E+001
 21
1.9857995
  0
LINE
  8
126
  6
CONTINUOUS
 62
7
 10
4.202503E+001
 20
2.1742289
 11
4.2076438E+001
 21
2.1228209
  0
LINE
  8
126
  6
CONTINUOUS
 62
7
 10
4.2192509E+001
 20
2.0067493
 11
4.2213459E+001
 21
1.9857995
  0
LINE
  8
126
  6
CONTINUOUS
 62
7
 10
4.2013981E+001
 20
2.1742289
 11
4.2086895E+001
 21
2.1013149
  0
LINE
  8
126
  6
CONTINUOUS
 62
7
 10
4.2190853E+001
 20
1.9973569
 11
4.2202411E+001
 21
1.9857995
  0
LINE
  8
126
  6
CONTINUOUS
 62
7
 10
4.2002933E+001
 20
2.1742289
 11
4.2097353E+001
 21
2.0798089
  0
LINE
  8
126
  6
CONTINUOUS
 62
7
 10
4.2189197E+001
 20
1.9879645
 11
4.2191362E+001
 21
1.9857995
  0
LINE
  8
126
  6
CONTINUOUS
 62
7
 10
4.1991884E+001
 20
2.1742289
 11
4.210781E+001
 21
2.058303
  0
LINE
  8
126
  6
CONTINUOUS
 62
7
 10
4.1980836E+001
 20
2.1742289
 11
4.1995647E+001
 21
2.1594178
  0
LINE
  8
126
  6
CONTINUOUS
 62
7
 10
4.1999495E+001
 20
2.1555695
 11
4.2118268E+001
 21
2.036797
  0
LINE
  8
126
  6
CONTINUOUS
 62
7
 10
4.1969787E+001
 20
2.1742289
 11
4.1990491E+001
 21
2.1535252
  0
TEXT
  8
126
  6
CONTINUOUS
 62
7
 10
4.0950647E+001
 20
1.1487006
 40
9.375E-002
  1
DR.BY
 41
9.0E-001
  0
TEXT
  8
126
  6
CONTINUOUS
 62
7
 10
3.6942909E+001
 20
1.6383351
 40
8.0E-002
  1
MATERIAL
  0
TEXT
  8
126
  6
CONTINUOUS
 62
7
 10
3.6926515E+001
 20
2.0922057
 40
8.0E-002
  1
FINISH
  0
TEXT
  8
126
  6
CONTINUOUS
 62
7
 10
4.1945538E+001
 20
1.1471032
 40
9.375E-002
  1
CH.BY
 41
9.0E-001
  0
TEXT
  8
126
  6
CONTINUOUS
 62
7
 10
4.0953403E+001
 20
9.447263E-001
 40
9.375E-002
  1
SCALE
 41
1.04
  0
TEXT
  8
1
  6
CONTINUOUS
 62
7
 10
4.295669E+001
 20
5.61065E-001
 40
1.875E-001
  1
REV-REL
 51
-4.1943E-006
  0
TEXT
  8
126
  6
CONTINUOUS
 62
7
 10
4.2947958E+001
 20
1.1297795
 40
9.375E-002
  1
DATE
 41
1.025
  0
LINE
  8
180
  6
CONTINUOUS
 62
7
 10
3.6877645E+001
 20
1.681694E-001
 11
3.6877645E+001
 21
2.2306697
  0
LINE
  8
180
  6
CONTINUOUS
 62
7
 10
3.6877645E+001
 20
2.2306697
 11
4.4877647E+001
 21
2.2306697
  0
LINE
  8
180
  6
CONTINUOUS
 62
7
 10
4.0877645E+001
 20
2.2306697
 11
4.0877645E+001
 21
1.681694E-001
  0
LINE
  8
180
  6
CONTINUOUS
 62
7
 10
4.0877645E+001
 20
4.806694E-001
 11
4.4877647E+001
 21
4.806694E-001
  0
LINE
  8
180
  6
CONTINUOUS
 62
7
 10
4.4877647E+001
 20
7.931695E-001
 11
4.0877645E+001
 21
7.931695E-001
  0
LINE
  8
180
  6
CONTINUOUS
 62
7
 10
4.0877645E+001
 20
1.2931695
 11
4.4877647E+001
 21
1.2931695
  0
LINE
  8
180
  6
CONTINUOUS
 62
7
 10
4.0877645E+001
 20
2.2306697
 11
4.0877645E+001
 21
1.7931695
  0
LINE
  8
180
  6
CONTINUOUS
 62
7
 10
4.0877645E+001
 20
1.7931695
 11
4.4877647E+001
 21
1.7931695
  0
LINE
  8
180
  6
CONTINUOUS
 62
7
 10
4.2877645E+001
 20
1.2931695
 11
4.2877645E+001
 21
4.806694E-001
  0
LINE
  8
180
  6
CONTINUOUS
 62
7
 10
4.0877645E+001
 20
1.1056695
 11
4.2877645E+001
 21
1.1056695
  0
LINE
  8
180
  6
CONTINUOUS
 62
7
 10
4.1877645E+001
 20
1.1056695
 11
4.1877645E+001
 21
1.2931695
  0
LINE
  8
180
  6
CONTINUOUS
 62
7
 10
4.0877645E+001
 20
1.7931695
 11
3.6877645E+001
 21
1.7931695
  0
LINE
  8
180
  6
CONTINUOUS
 62
7
 10
4.0877645E+001
 20
7.931695E-001
 11
3.6877645E+001
 21
7.931695E-001
  0
LINE
  8
126
  6
CONTINUOUS
 62
7
 10
4.2009953E+001
 20
2.1340635
 11
4.2128725E+001
 21
2.0152911
  0
LINE
  8
126
  6
CONTINUOUS
 62
7
 10
4.195938E+001
 20
2.1735879
 11
4.1985335E+001
 21
2.1476326
  0
LINE
  8
126
  6
CONTINUOUS
 62
7
 10
4.202041E+001
 20
2.1125576
 11
4.2139182E+001
 21
1.9937851
  0
LINE
  8
126
  6
CONTINUOUS
 62
7
 10
4.1954224E+001
 20
2.1676953
 11
4.1980179E+001
 21
2.1417401
  0
LINE
  8
126
  6
CONTINUOUS
 62
7
 10
4.2030867E+001
 20
2.0910516
 11
4.2136119E+001
 21
1.9857995
  0
LINE
  8
126
  6
CONTINUOUS
 62
7
 10
4.1949068E+001
 20
2.1618028
 11
4.1975023E+001
 21
2.1358475
  0
LINE
  8
126
  6
CONTINUOUS
 62
7
 10
4.2041325E+001
 20
2.0695457
 11
4.2125071E+001
 21
1.9857995
  0
LINE
  8
126
  6
CONTINUOUS
 62
7
 10
4.1943912E+001
 20
2.1559102
 11
4.1969867E+001
 21
2.1299549
  0
LINE
  8
126
  6
CONTINUOUS
 62
7
 10
4.2051022E+001
 20
2.0487995
 11
4.2114022E+001
 21
1.9857995
  0
LINE
  8
126
  6
CONTINUOUS
 62
7
 10
4.1938756E+001
 20
2.1500176
 11
4.1964711E+001
 21
2.1240624
  0
LINE
  8
126
  6
CONTINUOUS
 62
7
 10
4.2039974E+001
 20
2.0487995
 11
4.2102974E+001
 21
1.9857995
  0
LINE
  8
126
  6
CONTINUOUS
 62
7
 10
4.19336E+001
 20
2.1441251
 11
4.1959555E+001
 21
2.1181698
  0
LINE
  8
126
  6
CONTINUOUS
 62
7
 10
4.2028925E+001
 20
2.0487995
 11
4.20553E+001
 21
2.0224245
  0
LINE
  8
126
  6
CONTINUOUS
 62
7
 10
4.2072697E+001
 20
2.0050278
 11
4.2091925E+001
 21
1.9857995
  0
LINE
  8
126
  6
CONTINUOUS
 62
7
 10
4.1928444E+001
 20
2.1382325
 11
4.1954399E+001
 21
2.1122772
  0
LINE
  8
126
  6
CONTINUOUS
 62
7
 10
4.2017877E+001
 20
2.0487995
 11
4.2044252E+001
 21
2.0224245
  0
LINE
  8
126
  6
CONTINUOUS
 62
7
 10
4.1923288E+001
 20
2.1323399
 11
4.1949243E+001
 21
2.1063847
  0
LINE
  8
126
  6
CONTINUOUS
 62
7
 10
4.2006828E+001
 20
2.0487995
 11
4.2033203E+001
 21
2.0224245
  0
LINE
  8
126
  6
CONTINUOUS
 62
7
 10
4.1918132E+001
 20
2.1264474
 11
4.1944087E+001
 21
2.1004921
  0
LINE
  8
126
  6
CONTINUOUS
 62
7
 10
4.199578E+001
 20
2.0487995
 11
4.2022155E+001
 21
2.0224245
  0
LINE
  8
126
  6
CONTINUOUS
 62
7
 10
4.1912976E+001
 20
2.1205548
 11
4.1938931E+001
 21
2.0945995
  0
LINE
  8
126
  6
CONTINUOUS
 62
7
 10
4.1984731E+001
 20
2.0487995
 11
4.2011106E+001
 21
2.0224245
  0
LINE
  8
126
  6
CONTINUOUS
 62
7
 10
4.190782E+001
 20
2.1146622
 11
4.1933775E+001
 21
2.088707
  0
LINE
  8
126
  6
CONTINUOUS
 62
7
 10
4.1973683E+001
 20
2.0487995
 11
4.2000058E+001
 21
2.0224245
  0
LINE
  8
126
  6
CONTINUOUS
 62
7
 10
4.1902664E+001
 20
2.1087697
 11
4.1928619E+001
 21
2.0828144
  0
LINE
  8
126
  6
CONTINUOUS
 62
7
 10
4.1962634E+001
 20
2.0487995
 11
4.1989009E+001
 21
2.0224245
  0
LINE
  8
126
  6
CONTINUOUS
 62
7
 10
4.1897508E+001
 20
2.1028771
 11
4.1923463E+001
 21
2.0769218
  0
LINE
  8
126
  6
CONTINUOUS
 62
7
 10
4.1951585E+001
 20
2.0487995
 11
4.197796E+001
 21
2.0224245
  0
LINE
  8
126
  6
CONTINUOUS
 62
7
 10
4.1892352E+001
 20
2.0969845
 11
4.1918307E+001
 21
2.0710293
  0
LINE
  8
126
  6
CONTINUOUS
 62
7
 10
4.1940537E+001
 20
2.0487995
 11
4.1966912E+001
 21
2.0224245
  0
LINE
  8
126
  6
CONTINUOUS
 62
7
 10
4.1804059E+001
 20
2.1742289
 11
4.1807043E+001
 21
2.171245
  0
LINE
  8
126
  6
CONTINUOUS
 62
7
 10
4.1887196E+001
 20
2.091092
 11
4.1913151E+001
 21
2.0651367
  0
LINE
  8
126
  6
CONTINUOUS
 62
7
 10
4.1929488E+001
 20
2.0487995
 11
4.1955863E+001
 21
2.0224245
  0
LINE
  8
126
  6
CONTINUOUS
 62
7
 10
4.179301E+001
 20
2.1742289
 11
4.1799993E+001
 21
2.167246
  0
LINE
  8
126
  6
CONTINUOUS
 62
7
 10
4.188204E+001
 20
2.0851994
 11
4.1907995E+001
 21
2.0592441
  0
LINE
  8
126
  6
CONTINUOUS
 62
7
 10
4.191844E+001
 20
2.0487995
 11
4.1944815E+001
 21
2.0224245
  0
LINE
  8
126
  6
CONTINUOUS
 62
7
 10
4.1781962E+001
 20
2.1742289
 11
4.1792944E+001
 21
2.1632469
  0
LINE
  8
126
  6
CONTINUOUS
 62
7
 10
4.1876884E+001
 20
2.0793068
 11
4.1902839E+001
 21
2.0533515
  0
LINE
  8
126
  6
CONTINUOUS
 62
7
 10
4.1907391E+001
 20
2.0487995
 11
4.1933766E+001
 21
2.0224245
  0
LINE
  8
126
  6
CONTINUOUS
 62
7
 10
4.1770913E+001
 20
2.1742289
 11
4.1785894E+001
 21
2.1592479
  0
LINE
  8
126
  6
CONTINUOUS
 62
7
 10
4.1871728E+001
 20
2.0734143
 11
4.1922718E+001
 21
2.0224245
  0
LINE
  8
126
  6
CONTINUOUS
 62
7
 10
4.1759865E+001
 20
2.1742289
 11
4.1778845E+001
 21
2.1552488
  0
LINE
  8
126
  6
CONTINUOUS
 62
7
 10
4.1866572E+001
 20
2.0675217
 11
4.1911669E+001
 21
2.0224245
  0
LINE
  8
126
  6
CONTINUOUS
 62
7
 10
4.1748816E+001
 20
2.1742289
 11
4.1771795E+001
 21
2.1512498
  0
LINE
  8
126
  6
CONTINUOUS
 62
7
 10
4.1861416E+001
 20
2.0616291
 11
4.1900621E+001
 21
2.0224245
  0
LINE
  8
126
  6
CONTINUOUS
 62
7
 10
4.1737879E+001
 20
2.1741174
 11
4.1764746E+001
 21
2.1472507
  0
LINE
  8
126
  6
CONTINUOUS
 62
7
 10
4.185626E+001
 20
2.0557366
 11
4.1889572E+001
 21
2.0224245
  0
LINE
  8
126
  6
CONTINUOUS
 62
7
 10
4.173083E+001
 20
2.1701184
 11
4.1757696E+001
 21
2.1432517
  0
LINE
  8
126
  6
CONTINUOUS
 62
7
 10
4.1851104E+001
 20
2.049844
 11
4.1878524E+001
 21
2.0224245
  0
LINE
  8
126
  6
CONTINUOUS
 62
7
 10
4.172378E+001
 20
2.1661194
 11
4.1750647E+001
 21
2.1392526
  0
LINE
  8
126
  6
CONTINUOUS
 62
7
 10
4.1845948E+001
 20
2.0439514
 11
4.1871903E+001
 21
2.0179962
  0
LINE
  8
126
  6
CONTINUOUS
 62
7
 10
4.1716731E+001
 20
2.1621203
 11
4.1743597E+001
 21
2.1352536
  0
LINE
  8
126
  6
CONTINUOUS
 62
7
 10
4.1840792E+001
 20
2.0380589
 11
4.1866747E+001
 21
2.0121036
  0
LINE
  8
126
  6
CONTINUOUS
 62
7
 10
4.1709681E+001
 20
2.1581213
 11
4.1736548E+001
 21
2.1312545
  0
LINE
  8
126
  6
CONTINUOUS
 62
7
 10
4.1835636E+001
 20
2.0321663
 11
4.1861591E+001
 21
2.006211
  0
LINE
  8
126
  6
CONTINUOUS
 62
7
 10
4.1702632E+001
 20
2.1541222
 11
4.1729498E+001
 21
2.1272555
  0
LINE
  8
126
  6
CONTINUOUS
 62
7
 10
4.183048E+001
 20
2.0262737
 11
4.1856435E+001
 21
2.0003184
  0
LINE
  8
126
  6
CONTINUOUS
 62
7
 10
4.1695582E+001
 20
2.1501232
 11
4.1722449E+001
 21
2.1232564
  0
LINE
  8
126
  6
CONTINUOUS
 62
7
 10
4.1825324E+001
 20
2.0203812
 11
4.185128E+001
 21
1.9944259
  0
LINE
  8
126
  6
CONTINUOUS
 62
7
 10
4.1688533E+001
 20
2.1461241
 11
4.1715399E+001
 21
2.1192574
  0
LINE
  8
126
  6
CONTINUOUS
 62
7
 10
4.1820168E+001
 20
2.0144886
 11
4.1846124E+001
 21
1.9885333
  0
LINE
  8
126
  6
CONTINUOUS
 62
7
 10
4.1681483E+001
 20
2.1421251
 11
4.170835E+001
 21
2.1152583
  0
LINE
  8
126
  6
CONTINUOUS
 62
7
 10
4.1815012E+001
 20
2.008596
 11
4.1837809E+001
 21
1.9857995
  0
LINE
  8
126
  6
CONTINUOUS
 62
7
 10
4.1674434E+001
 20
2.138126
 11
4.17013E+001
 21
2.1112593
  0
LINE
  8
126
  6
CONTINUOUS
 62
7
 10
4.1809856E+001
 20
2.0027034
 11
4.182676E+001
 21
1.9857995
  0
LINE
  8
126
  6
CONTINUOUS
 62
7
 10
4.1667384E+001
 20
2.134127
 11
4.1694251E+001
 21
2.1072602
  0
LINE
  8
126
  6
CONTINUOUS
 62
7
 10
4.18047E+001
 20
1.9968109
 11
4.1815712E+001
 21
1.9857995
  0
LINE
  8
126
  6
CONTINUOUS
 62
7
 10
4.1660335E+001
 20
2.1301279
 11
4.1687202E+001
 21
2.1032612
  0
LINE
  8
126
  6
CONTINUOUS
 62
7
 10
4.1799544E+001
 20
1.9909183
 11
4.1804663E+001
 21
1.9857995
  0
LINE
  8
126
  6
CONTINUOUS
 62
7
 10
4.1653285E+001
 20
2.1261289
 11
4.1680152E+001
 21
2.0992621
  0
LINE
  8
126
  6
CONTINUOUS
 62
7
 10
4.1646236E+001
 20
2.1221298
 11
4.1673102E+001
 21
2.0952631
  0
LINE
  8
126
  6
CONTINUOUS
 62
7
 10
4.1744845E+001
 20
2.0235203
 11
4.1782566E+001
 21
1.9857995
  0
LINE
  8
126
  6
CONTINUOUS
 62
7
 10
4.1639186E+001
 20
2.1181308
 11
4.1771518E+001
 21
1.9857995
  0
LINE
  8
126
  6
CONTINUOUS
 62
7
 10
4.1632137E+001
 20
2.1141317
 11
4.1760469E+001
 21
1.9857995
  0
LINE
  8
126
  6
CONTINUOUS
 62
7
 10
4.1560991E+001
 20
2.1742289
 11
4.15699E+001
 21
2.1653204
  0
LINE
  8
126
  6
CONTINUOUS
 62
7
 10
4.1625087E+001
 20
2.1101327
 11
4.174942E+001
 21
1.9857995
  0
LINE
  8
126
  6
CONTINUOUS
 62
7
 10
4.1549943E+001
 20
2.1742289
 11
4.1568243E+001
 21
2.155928
  0
LINE
  8
126
  6
CONTINUOUS
 62
7
 10
4.1618038E+001
 20
2.1061336
 11
4.1738372E+001
 21
1.9857995
  0
LINE
  8
126
  6
CONTINUOUS
 62
7
 10
4.1538894E+001
 20
2.1742289
 11
4.1566587E+001
 21
2.1465356
  0
LINE
  8
126
  6
CONTINUOUS
 62
7
 10
4.1610988E+001
 20
2.1021346
 11
4.1727323E+001
 21
1.9857995
  0
LINE
  8
126
  6
CONTINUOUS
 62
7
 10
4.1527845E+001
 20
2.1742289
 11
4.1564931E+001
 21
2.1371432
  0
LINE
  8
126
  6
CONTINUOUS
 62
7
 10
4.1603939E+001
 20
2.0981355
 11
4.1716275E+001
 21
1.9857995
  0
LINE
  8
126
  6
CONTINUOUS
 62
7
 10
4.1518927E+001
 20
2.1720986
 11
4.1563275E+001
 21
2.1277508
  0
LINE
  8
126
  6
CONTINUOUS
 62
7
 10
4.1596889E+001
 20
2.0941365
 11
4.1705226E+001
 21
1.9857995
  0
LINE
  8
126
  6
CONTINUOUS
 62
7
 10
4.1517271E+001
 20
2.1627062
 11
4.1561619E+001
 21
2.1183583
  0
LINE
  8
126
  6
CONTINUOUS
 62
7
 10
4.158984E+001
 20
2.0901374
 11
4.1616707E+001
 21
2.0632707
  0
LINE
  8
126
  6
CONTINUOUS
 62
7
 10
4.1515615E+001
 20
2.1533138
 11
4.1559963E+001
 21
2.1089659
  0
LINE
  8
126
  6
CONTINUOUS
 62
7
 10
4.158279E+001
 20
2.0861384
 11
4.1609657E+001
 21
2.0592717
  0
LINE
  8
126
  6
CONTINUOUS
 62
7
 10
4.1513959E+001
 20
2.1439214
 11
4.1558307E+001
 21
2.0995735
  0
LINE
  8
126
  6
CONTINUOUS
 62
7
 10
4.1575741E+001
 20
2.0821393
 11
4.1602608E+001
 21
2.0552726
  0
LINE
  8
126
  6
CONTINUOUS
 62
7
 10
4.1512303E+001
 20
2.134529
 11
4.155665E+001
 21
2.0901811
  0
LINE
  8
126
  6
CONTINUOUS
 62
7
 10
4.1568691E+001
 20
2.0781403
 11
4.1595558E+001
 21
2.0512736
  0
LINE
  8
126
  6
CONTINUOUS
 62
7
 10
4.1510647E+001
 20
2.1251365
 11
4.1554994E+001
 21
2.0807887
  0
LINE
  8
126
  6
CONTINUOUS
 62
7
 10
4.1561642E+001
 20
2.0741412
 11
4.1588509E+001
 21
2.0472745
  0
LINE
  8
126
  6
CONTINUOUS
 62
7
 10
4.150899E+001
 20
2.1157441
 11
4.1553338E+001
 21
2.0713963
  0
LINE
  8
126
  6
CONTINUOUS
 62
7
 10
4.1554592E+001
 20
2.0701422
 11
4.1581459E+001
 21
2.0432755
  0
LINE
  8
126
  6
CONTINUOUS
 62
7
 10
4.1507334E+001
 20
2.1063517
 11
4.157441E+001
 21
2.0392764
  0
LINE
  8
126
  6
CONTINUOUS
 62
7
 10
4.1505678E+001
 20
2.0969593
 11
4.156736E+001
 21
2.0352774
  0
LINE
  8
126
  6
CONTINUOUS
 62
7
 10
4.1504022E+001
 20
2.0875669
 11
4.1560311E+001
 21
2.0312783
  0
LINE
  8
126
  6
CONTINUOUS
 62
7
 10
4.1502366E+001
 20
2.0781745
 11
4.1553261E+001
 21
2.0272793
  0
LINE
  8
126
  6
CONTINUOUS
 62
7
 10
4.150071E+001
 20
2.0687821
 11
4.1546212E+001
 21
2.0232802
  0
LINE
  8
126
  6
CONTINUOUS
 62
7
 10
4.1499054E+001
 20
2.0593897
 11
4.1543401E+001
 21
2.0150419
  0
LINE
  8
126
  6
CONTINUOUS
 62
7
 10
4.1497397E+001
 20
2.0499973
 11
4.1541745E+001
 21
2.0056494
  0
LINE
  8
126
  6
CONTINUOUS
 62
7
 10
4.1495741E+001
 20
2.0406049
 11
4.1540089E+001
 21
1.996257
  0
LINE
  8
126
  6
CONTINUOUS
 62
7
 10
4.1494085E+001
 20
2.0312124
 11
4.1538433E+001
 21
1.9868646
  0
LINE
  8
126
  6
CONTINUOUS
 62
7
 10
4.1492429E+001
 20
2.0218201
 11
4.152845E+001
 21
1.9857995
  0
LINE
  8
126
  6
CONTINUOUS
 62
7
 10
4.1490773E+001
 20
2.0124276
 11
4.1517401E+001
 21
1.9857995
  0
TEXT
  8
1
  6
CONTINUOUS
 62
7
 10
4.3953044E+001
 20
1.6079841
 40
1.25E-001
  1
TEMPLATE FOR 3122
 72
1
 73
2
 11
4.2890544E+001
 21
1.5454841
  0
TEXT
  8
126
  6
CONTINUOUS
 62
7
 10
4.4377513E+001
 20
1.111871
 40
1.0E-001
  1
17NOV03
 72
1
 73
2
 11
4.4027513E+001
 21
1.061871
  0
TEXT
  8
126
  6
CONTINUOUS
 62
7
 10
4.1507387E+001
 20
1.1457394
 40
1.0E-001
  1
KAB
  0
TEXT
  8
126
  6
CONTINUOUS
 62
7
 10
4.1758084E+001
 20
9.036869E-001
 40
1.0E-001
  1
FULL
  0
TEXT
  8
1
  6
CONTINUOUS
 62
7
 10
4.3623254E+001
 20
4.1824E-001
 40
1.875E-001
  1
74180445
 72
1
 73
2
 11
4.2873254E+001
 21
3.2449E-001
  0
LINE
  8
126
  6
CONTINUOUS
 62
7
 10
4.1489117E+001
 20
2.0030352
 11
4.1506352E+001
 21
1.9857995
  0
LINE
  8
126
  6
CONTINUOUS
 62
7
 10
4.1487461E+001
 20
1.9936428
 11
4.1495304E+001
 21
1.9857995
  0
LINE
  8
126
  6
CONTINUOUS
 62
7
 10
4.1295826E+001
 20
2.1742289
 11
4.1301242E+001
 21
2.168813
  0
LINE
  8
126
  6
CONTINUOUS
 62
7
 10
4.145688E+001
 20
2.0131745
 11
4.1462448E+001
 21
2.007607
  0
LINE
  8
126
  6
CONTINUOUS
 62
7
 10
4.1284778E+001
 20
2.1742289
 11
4.1299586E+001
 21
2.1594206
  0
LINE
  8
126
  6
CONTINUOUS
 62
7
 10
4.1445832E+001
 20
2.0131745
 11
4.1460792E+001
 21
1.9982146
  0
LINE
  8
126
  6
CONTINUOUS
 62
7
 10
4.1273729E+001
 20
2.1742289
 11
4.129793E+001
 21
2.1500281
  0
LINE
  8
126
  6
CONTINUOUS
 62
7
 10
4.1434783E+001
 20
2.0131745
 11
4.1459136E+001
 21
1.9888222
  0
LINE
  8
126
  6
CONTINUOUS
 62
7
 10
4.126268E+001
 20
2.1742289
 11
4.1296274E+001
 21
2.1406357
  0
LINE
  8
126
  6
CONTINUOUS
 62
7
 10
4.1423735E+001
 20
2.0131745
 11
4.145111E+001
 21
1.9857995
  0
LINE
  8
126
  6
CONTINUOUS
 62
7
 10
4.1251632E+001
 20
2.1742289
 11
4.1294617E+001
 21
2.1312433
  0
LINE
  8
126
  6
CONTINUOUS
 62
7
 10
4.1412686E+001
 20
2.0131745
 11
4.1440061E+001
 21
1.9857995
  0
LINE
  8
126
  6
CONTINUOUS
 62
7
 10
4.1248613E+001
 20
2.1661988
 11
4.1292961E+001
 21
2.1218509
  0
LINE
  8
126
  6
CONTINUOUS
 62
7
 10
4.1401638E+001
 20
2.0131745
 11
4.1429013E+001
 21
1.9857995
  0
LINE
  8
126
  6
CONTINUOUS
 62
7
 10
4.1246957E+001
 20
2.1568064
 11
4.1291305E+001
 21
2.1124585
  0
LINE
  8
126
  6
CONTINUOUS
 62
7
 10
4.1390589E+001
 20
2.0131745
 11
4.1417964E+001
 21
1.9857995
  0
LINE
  8
126
  6
CONTINUOUS
 62
7
 10
4.1245301E+001
 20
2.1474139
 11
4.1289649E+001
 21
2.1030661
  0
LINE
  8
126
  6
CONTINUOUS
 62
7
 10
4.1379541E+001
 20
2.0131745
 11
4.1406916E+001
 21
1.9857995
  0
LINE
  8
126
  6
CONTINUOUS
 62
7
 10
4.1207438E+001
 20
2.1742289
 11
4.1209344E+001
 21
2.1723224
  0
LINE
  8
126
  6
CONTINUOUS
 62
7
 10
4.1243645E+001
 20
2.1380215
 11
4.1287993E+001
 21
2.0936737
  0
LINE
  8
126
  6
CONTINUOUS
 62
7
 10
4.1368492E+001
 20
2.0131745
 11
4.1395867E+001
 21
1.9857995
  0
LINE
  8
126
  6
CONTINUOUS
 62
7
 10
4.1196389E+001
 20
2.1742289
 11
4.1207688E+001
 21
2.16293
  0
LINE
  8
126
  6
CONTINUOUS
 62
7
 10
4.1241989E+001
 20
2.1286291
 11
4.1286337E+001
 21
2.0842813
  0
LINE
  8
126
  6
CONTINUOUS
 62
7
 10
4.1357444E+001
 20
2.0131745
 11
4.1384819E+001
 21
1.9857995
  0
LINE
  8
126
  6
CONTINUOUS
 62
7
 10
4.1185341E+001
 20
2.1742289
 11
4.1206032E+001
 21
2.1535376
  0
LINE
  8
126
  6
CONTINUOUS
 62
7
 10
4.1240333E+001
 20
2.1192367
 11
4.1284681E+001
 21
2.0748889
  0
LINE
  8
126
  6
CONTINUOUS
 62
7
 10
4.1346395E+001
 20
2.0131745
 11
4.137377E+001
 21
1.9857995
  0
LINE
  8
126
  6
CONTINUOUS
 62
7
 10
4.1174292E+001
 20
2.1742289
 11
4.1201667E+001
 21
2.1468539
  0
LINE
  8
126
  6
CONTINUOUS
 62
7
 10
4.1238677E+001
 20
2.1098443
 11
4.1283024E+001
 21
2.0654965
  0
LINE
  8
126
  6
CONTINUOUS
 62
7
 10
4.1335346E+001
 20
2.0131745
 11
4.1362721E+001
 21
1.9857995
  0
LINE
  8
126
  6
CONTINUOUS
 62
7
 10
4.1163244E+001
 20
2.1742289
 11
4.1190619E+001
 21
2.1468539
  0
LINE
  8
126
  6
CONTINUOUS
 62
7
 10
4.1237021E+001
 20
2.1004519
 11
4.1281368E+001
 21
2.0561041
  0
LINE
  8
126
  6
CONTINUOUS
 62
7
 10
4.1324298E+001
 20
2.0131745
 11
4.1351673E+001
 21
1.9857995
  0
LINE
  8
126
  6
CONTINUOUS
 62
7
 10
4.1152195E+001
 20
2.1742289
 11
4.117957E+001
 21
2.1468539
  0
LINE
  8
126
  6
CONTINUOUS
 62
7
 10
4.1235364E+001
 20
2.0910595
 11
4.1279712E+001
 21
2.0467117
  0
LINE
  8
126
  6
CONTINUOUS
 62
7
 10
4.1313249E+001
 20
2.0131745
 11
4.1340624E+001
 21
1.9857995
  0
LINE
  8
126
  6
CONTINUOUS
 62
7
 10
4.1141146E+001
 20
2.1742289
 11
4.1168521E+001
 21
2.1468539
  0
LINE
  8
126
  6
CONTINUOUS
 62
7
 10
4.1233708E+001
 20
2.0816671
 11
4.1278056E+001
 21
2.0373192
  0
LINE
  8
126
  6
CONTINUOUS
 62
7
 10
4.1302201E+001
 20
2.0131745
 11
4.1329576E+001
 21
1.9857995
  0
LINE
  8
126
  6
CONTINUOUS
 62
7
 10
4.1130098E+001
 20
2.1742289
 11
4.1157473E+001
 21
2.1468539
  0
LINE
  8
126
  6
CONTINUOUS
 62
7
 10
4.1232052E+001
 20
2.0722747
 11
4.12764E+001
 21
2.0279269
  0
LINE
  8
126
  6
CONTINUOUS
 62
7
 10
4.1291152E+001
 20
2.0131745
 11
4.1318527E+001
 21
1.9857995
  0
LINE
  8
126
  6
CONTINUOUS
 62
7
 10
4.1119049E+001
 20
2.1742289
 11
4.1146424E+001
 21
2.1468539
  0
LINE
  8
126
  6
CONTINUOUS
 62
7
 10
4.1230396E+001
 20
2.0628823
 11
4.1274744E+001
 21
2.0185344
  0
LINE
  8
126
  6
CONTINUOUS
 62
7
 10
4.1280104E+001
 20
2.0131745
 11
4.1307479E+001
 21
1.9857995
  0
LINE
  8
126
  6
CONTINUOUS
 62
7
 10
4.1108001E+001
 20
2.1742289
 11
4.1135376E+001
 21
2.1468539
  0
LINE
  8
126
  6
CONTINUOUS
 62
7
 10
4.122874E+001
 20
2.0534899
 11
4.129643E+001
 21
1.9857995
  0
LINE
  8
126
  6
CONTINUOUS
 62
7
 10
4.1096952E+001
 20
2.1742289
 11
4.1124327E+001
 21
2.1468539
  0
LINE
  8
126
  6
CONTINUOUS
 62
7
 10
4.1177417E+001
 20
2.0937642
 11
4.1181993E+001
 21
2.0891886
  0
LINE
  8
126
  6
CONTINUOUS
 62
7
 10
4.1227084E+001
 20
2.0440975
 11
4.1285382E+001
 21
1.9857995
  0
LINE
  8
126
  6
CONTINUOUS
 62
7
 10
4.1085904E+001
 20
2.1742289
 11
4.1113279E+001
 21
2.1468539
  0
LINE
  8
126
  6
CONTINUOUS
 62
7
 10
4.1166368E+001
 20
2.0937642
 11
4.1180336E+001
 21
2.0797962
  0
LINE
  8
126
  6
CONTINUOUS
 62
7
 10
4.1225428E+001
 20
2.034705
 11
4.1274333E+001
 21
1.9857995
  0
LINE
  8
126
  6
CONTINUOUS
 62
7
 10
4.1074855E+001
 20
2.1742289
 11
4.110223E+001
 21
2.1468539
  0
LINE
  8
126
  6
CONTINUOUS
 62
7
 10
4.115532E+001
 20
2.0937642
 11
4.117868E+001
 21
2.0704038
  0
LINE
  8
126
  6
CONTINUOUS
 62
7
 10
4.1223771E+001
 20
2.0253126
 11
4.1263285E+001
 21
1.9857995
  0
LINE
  8
126
  6
CONTINUOUS
 62
7
 10
4.1063807E+001
 20
2.1742289
 11
4.1091182E+001
 21
2.1468539
  0
LINE
  8
126
  6
CONTINUOUS
 62
7
 10
4.1144271E+001
 20
2.0937642
 11
4.1171771E+001
 21
2.0662642
  0
LINE
  8
126
  6
CONTINUOUS
 62
7
 10
4.1222115E+001
 20
2.0159202
 11
4.1252236E+001
 21
1.9857995
  0
LINE
  8
126
  6
CONTINUOUS
 62
7
 10
4.1052758E+001
 20
2.1742289
 11
4.1080133E+001
 21
2.1468539
  0
LINE
  8
126
  6
CONTINUOUS
 62
7
 10
4.1133223E+001
 20
2.0937642
 11
4.1160723E+001
 21
2.0662642
  0
LINE
  8
126
  6
CONTINUOUS
 62
7
 10
4.1220459E+001
 20
2.0065278
 11
4.1241187E+001
 21
1.9857995
  0
LINE
  8
126
  6
CONTINUOUS
 62
7
 10
4.104171E+001
 20
2.1742289
 11
4.1069085E+001
 21
2.1468539
  0
LINE
  8
126
  6
CONTINUOUS
 62
7
 10
4.1122174E+001
 20
2.0937642
 11
4.1149674E+001
 21
2.0662642
  0
LINE
  8
126
  6
CONTINUOUS
 62
7
 10
4.1218803E+001
 20
1.9971354
 11
4.1230139E+001
 21
1.9857995
  0
LINE
  8
126
  6
CONTINUOUS
 62
7
 10
4.1030661E+001
 20
2.1742289
 11
4.1058036E+001
 21
2.1468539
  0
LINE
  8
126
  6
CONTINUOUS
 62
7
 10
4.1111126E+001
 20
2.0937642
 11
4.1138626E+001
 21
2.0662642
  0
LINE
  8
126
  6
CONTINUOUS
 62
7
 10
4.1191715E+001
 20
2.0131745
 11
4.1193636E+001
 21
2.0112537
  0
LINE
  8
126
  6
CONTINUOUS
 62
7
 10
4.1217147E+001
 20
1.987743
 11
4.121909E+001
 21
1.9857995
  0
LINE
  8
126
  6
CONTINUOUS
 62
7
 10
4.1019612E+001
 20
2.1742289
 11
4.1046987E+001
 21
2.1468539
  0
LINE
  8
126
  6
CONTINUOUS
 62
7
 10
4.1100077E+001
 20
2.0937642
 11
4.1127577E+001
 21
2.0662642
  0
LINE
  8
126
  6
CONTINUOUS
 62
7
 10
4.1180667E+001
 20
2.0131745
 11
4.119198E+001
 21
2.0018613
  0
LINE
  8
126
  6
CONTINUOUS
 62
7
 10
4.1008564E+001
 20
2.1742289
 11
4.1035939E+001
 21
2.1468539
  0
LINE
  8
126
  6
CONTINUOUS
 62
7
 10
4.1089029E+001
 20
2.0937642
 11
4.1116529E+001
 21
2.0662642
  0
LINE
  8
126
  6
CONTINUOUS
 62
7
 10
4.1169618E+001
 20
2.0131745
 11
4.1190324E+001
 21
1.9924689
  0
LINE
  8
126
  6
CONTINUOUS
 62
7
 10
4.0997515E+001
 20
2.1742289
 11
4.102489E+001
 21
2.1468539
  0
LINE
  8
126
  6
CONTINUOUS
 62
7
 10
4.107798E+001
 20
2.0937642
 11
4.110548E+001
 21
2.0662642
  0
LINE
  8
126
  6
CONTINUOUS
 62
7
 10
4.115857E+001
 20
2.0131745
 11
4.1185945E+001
 21
1.9857995
  0
LINE
  8
126
  6
CONTINUOUS
 62
7
 10
4.0986467E+001
 20
2.1742289
 11
4.1013842E+001
 21
2.1468539
  0
LINE
  8
126
  6
CONTINUOUS
 62
7
 10
4.1066932E+001
 20
2.0937642
 11
4.1094432E+001
 21
2.0662642
  0
LINE
  8
126
  6
CONTINUOUS
 62
7
 10
4.1147521E+001
 20
2.0131745
 11
4.1174896E+001
 21
1.9857995
  0
LINE
  8
126
  6
CONTINUOUS
 62
7
 10
4.0975418E+001
 20
2.1742289
 11
4.1002793E+001
 21
2.1468539
  0
LINE
  8
126
  6
CONTINUOUS
 62
7
 10
4.1055883E+001
 20
2.0937642
 11
4.1083383E+001
 21
2.0662642
  0
LINE
  8
126
  6
CONTINUOUS
 62
7
 10
4.1136473E+001
 20
2.0131745
 11
4.1163848E+001
 21
1.9857995
  0
LINE
  8
126
  6
CONTINUOUS
 62
7
 10
4.096437E+001
 20
2.1742289
 11
4.0994246E+001
 21
2.1443525
  0
LINE
  8
126
  6
CONTINUOUS
 62
7
 10
4.1044834E+001
 20
2.0937642
 11
4.1072334E+001
 21
2.0662642
  0
LINE
  8
126
  6
CONTINUOUS
 62
7
 10
4.1125424E+001
 20
2.0131745
 11
4.1152799E+001
 21
1.9857995
  0
LINE
  8
126
  6
CONTINUOUS
 62
7
 10
4.0953321E+001
 20
2.1742289
 11
4.099259E+001
 21
2.1349601
  0
LINE
  8
126
  6
CONTINUOUS
 62
7
 10
4.1033786E+001
 20
2.0937642
 11
4.1061286E+001
 21
2.0662642
  0
LINE
  8
126
  6
CONTINUOUS
 62
7
 10
4.1114376E+001
 20
2.0131745
 11
4.1141751E+001
 21
1.9857995
  0
LINE
  8
126
  6
CONTINUOUS
 62
7
 10
4.0946609E+001
 20
2.1698929
 11
4.0990934E+001
 21
2.1255677
  0
LINE
  8
126
  6
CONTINUOUS
 62
7
 10
4.1022737E+001
 20
2.0937642
 11
4.1050237E+001
 21
2.0662642
  0
LINE
  8
126
  6
CONTINUOUS
 62
7
 10
4.1103327E+001
 20
2.0131745
 11
4.1130702E+001
 21
1.9857995
  0
LINE
  8
126
  6
CONTINUOUS
 62
7
 10
4.0944952E+001
 20
2.1605005
 11
4.0989278E+001
 21
2.1161753
  0
LINE
  8
126
  6
CONTINUOUS
 62
7
 10
4.1011689E+001
 20
2.0937642
 11
4.1039189E+001
 21
2.0662642
  0
LINE
  8
126
  6
CONTINUOUS
 62
7
 10
4.1092278E+001
 20
2.0131745
 11
4.1119653E+001
 21
1.9857995
  0
LINE
  8
126
  6
CONTINUOUS
 62
7
 10
4.0943296E+001
 20
2.1511081
 11
4.0987622E+001
 21
2.1067829
  0
LINE
  8
126
  6
CONTINUOUS
 62
7
 10
4.100064E+001
 20
2.0937642
 11
4.102814E+001
 21
2.0662642
  0
LINE
  8
126
  6
CONTINUOUS
 62
7
 10
4.108123E+001
 20
2.0131745
 11
4.1108605E+001
 21
1.9857995
  0
LINE
  8
126
  6
CONTINUOUS
 62
7
 10
4.094164E+001
 20
2.1417157
 11
4.0985965E+001
 21
2.0973905
  0
LINE
  8
126
  6
CONTINUOUS
 62
7
 10
4.0989592E+001
 20
2.0937642
 11
4.1017092E+001
 21
2.0662642
  0
LINE
  8
126
  6
CONTINUOUS
 62
7
 10
4.1070181E+001
 20
2.0131745
 11
4.1097556E+001
 21
1.9857995
  0
LINE
  8
126
  6
CONTINUOUS
 62
7
 10
4.0939984E+001
 20
2.1323233
 11
4.1006043E+001
 21
2.0662642
  0
LINE
  8
126
  6
CONTINUOUS
 62
7
 10
4.1059133E+001
 20
2.0131745
 11
4.1086508E+001
 21
1.9857995
  0
LINE
  8
126
  6
CONTINUOUS
 62
7
 10
4.0938328E+001
 20
2.1229309
 11
4.0994995E+001
 21
2.0662642
  0
LINE
  8
126
  6
CONTINUOUS
 62
7
 10
4.1048084E+001
 20
2.0131745
 11
4.1075459E+001
 21
1.9857995
  0
LINE
  8
126
  6
CONTINUOUS
 62
7
 10
4.0936672E+001
 20
2.1135385
 11
4.0984041E+001
 21
2.0661694
  0
LINE
  8
126
  6
CONTINUOUS
 62
7
 10
4.1037036E+001
 20
2.0131745
 11
4.1064411E+001
 21
1.9857995
  0
LINE
  8
126
  6
CONTINUOUS
 62
7
 10
4.0935016E+001
 20
2.1041461
 11
4.0982385E+001
 21
2.056777
  0
LINE
  8
126
  6
CONTINUOUS
 62
7
 10
4.1025987E+001
 20
2.0131745
 11
4.1053362E+001
 21
1.9857995
  0
LINE
  8
126
  6
CONTINUOUS
 62
7
 10
4.0933359E+001
 20
2.0947537
 11
4.0980729E+001
 21
2.0473846
  0
LINE
  8
126
  6
CONTINUOUS
 62
7
 10
4.1014939E+001
 20
2.0131745
 11
4.1042314E+001
 21
1.9857995
  0
LINE
  8
126
  6
CONTINUOUS
 62
7
 10
4.0931703E+001
 20
2.0853613
 11
4.0979072E+001
 21
2.0379922
  0
LINE
  8
126
  6
CONTINUOUS
 62
7
 10
4.100389E+001
 20
2.0131745
 11
4.1031265E+001
 21
1.9857995
  0
LINE
  8
126
  6
CONTINUOUS
 62
7
 10
4.0930047E+001
 20
2.0759689
 11
4.0977416E+001
 21
2.0285998
  0
LINE
  8
126
  6
CONTINUOUS
 62
7
 10
4.0992842E+001
 20
2.0131745
 11
4.1020217E+001
 21
1.9857995
  0
LINE
  8
126
  6
CONTINUOUS
 62
7
 10
4.0928391E+001
 20
2.0665764
 11
4.097576E+001
 21
2.0192074
  0
LINE
  8
126
  6
CONTINUOUS
 62
7
 10
4.0981793E+001
 20
2.0131745
 11
4.1009168E+001
 21
1.9857995
  0
LINE
  8
126
  6
CONTINUOUS
 62
7
 10
4.0926735E+001
 20
2.0571841
 11
4.0998119E+001
 21
1.9857995
  0
LINE
  8
126
  6
CONTINUOUS
 62
7
 10
4.0925079E+001
 20
2.0477916
 11
4.0987071E+001
 21
1.9857995
  0
LINE
  8
126
  6
CONTINUOUS
 62
7
 10
4.0923423E+001
 20
2.0383992
 11
4.0976022E+001
 21
1.9857995
  0
LINE
  8
126
  6
CONTINUOUS
 62
7
 10
4.0921767E+001
 20
2.0290068
 11
4.0964974E+001
 21
1.9857995
  0
LINE
  8
126
  6
CONTINUOUS
 62
7
 10
4.092011E+001
 20
2.0196144
 11
4.0953925E+001
 21
1.9857995
  0
LINE
  8
126
  6
CONTINUOUS
 62
7
 10
4.0918454E+001
 20
2.010222
 11
4.0942877E+001
 21
1.9857995
  0
LINE
  8
126
  6
CONTINUOUS
 62
7
 10
4.0916798E+001
 20
2.0008296
 11
4.0931828E+001
 21
1.9857995
  0
LINE
  8
126
  6
CONTINUOUS
 62
7
 10
4.0915142E+001
 20
1.9914372
 11
4.092078E+001
 21
1.9857995
  0
LINE
  8
1
  6
CONTINUOUS
 62
7
 10
2.472415E-001
 20
1.681694E-001
 11
4.4877647E+001
 21
1.681694E-001
  0
LINE
  8
1
  6
CONTINUOUS
 62
7
 10
4.4877647E+001
 20
1.681694E-001
 11
4.4877647E+001
 21
2.3830403E+001
  0
LINE
  8
1
  6
CONTINUOUS
 62
7
 10
4.4877647E+001
 20
2.3830403E+001
 11
2.472415E-001
 21
2.3830403E+001
  0
LINE
  8
1
  6
CONTINUOUS
 62
7
 10
2.472415E-001
 20
2.3830403E+001
 11
2.472415E-001
 21
1.681694E-001
  0
INSERT
  2
*TX30
  8
126
 10
3.697837E+001
 20
6.848064E-001
  0
ENDSEC
  0
EOF
