  0
SECTION
  2
HEADER
  9
$ACADVER
  1
AC1015
  9
$ACADMAINTVER
 70
    20
  9
$DWGCODEPAGE
  3
ANSI_1252
  9
$INSBASE
 10
0.0
 20
0.0
 30
0.0
  9
$EXTMIN
 10
1.624356003975421
 20
0.8327437954775618
 30
-0.0000000000112498
  9
$EXTMAX
 10
37.84177616717139
 20
23.59368595436809
 30
0.0000000000002956
  9
$LIMMIN
 10
0.0
 20
0.0
  9
$LIMMAX
 10
12.0
 20
9.0
  9
$ORTHOMODE
 70
     1
  9
$REGENMODE
 70
     1
  9
$FILLMODE
 70
     1
  9
$QTEXTMODE
 70
     0
  9
$MIRRTEXT
 70
     0
  9
$LTSCALE
 40
1.0
  9
$ATTMODE
 70
     1
  9
$TEXTSIZE
 40
1.0
  9
$TRACEWID
 40
0.05
  9
$TEXTSTYLE
  7
STANDARD
  9
$CLAYER
  8
1
  9
$CELTYPE
  6
Continuous
  9
$CECOLOR
 62
     3
  9
$CELTSCALE
 40
1.0
  9
$DISPSILH
 70
     0
  9
$DIMSCALE
 40
1.0
  9
$DIMASZ
 40
0.125
  9
$DIMEXO
 40
0.0625
  9
$DIMDLI
 40
0.25
  9
$DIMRND
 40
0.0
  9
$DIMDLE
 40
0.0
  9
$DIMEXE
 40
0.125
  9
$DIMTP
 40
0.005
  9
$DIMTM
 40
-0.005
  9
$DIMTXT
 40
0.125
  9
$DIMCEN
 40
0.09
  9
$DIMTSZ
 40
0.0
  9
$DIMTOL
 70
     0
  9
$DIMLIM
 70
     0
  9
$DIMTIH
 70
     1
  9
$DIMTOH
 70
     1
  9
$DIMSE1
 70
     0
  9
$DIMSE2
 70
     0
  9
$DIMTAD
 70
     0
  9
$DIMZIN
 70
     0
  9
$DIMBLK
  1

  9
$DIMASO
 70
     1
  9
$DIMSHO
 70
     1
  9
$DIMPOST
  1

  9
$DIMAPOST
  1

  9
$DIMALT
 70
     0
  9
$DIMALTD
 70
     0
  9
$DIMALTF
 40
25.4
  9
$DIMLFAC
 40
1.0
  9
$DIMTOFL
 70
     1
  9
$DIMTVP
 40
0.0
  9
$DIMTIX
 70
     0
  9
$DIMSOXD
 70
     0
  9
$DIMSAH
 70
     0
  9
$DIMBLK1
  1

  9
$DIMBLK2
  1

  9
$DIMSTYLE
  2
Standard
  9
$DIMCLRD
 70
     0
  9
$DIMCLRE
 70
     0
  9
$DIMCLRT
 70
     0
  9
$DIMTFAC
 40
1.0
  9
$DIMGAP
 40
0.0625
  9
$DIMJUST
 70
     0
  9
$DIMSD1
 70
     0
  9
$DIMSD2
 70
     0
  9
$DIMTOLJ
 70
     1
  9
$DIMTZIN
 70
     0
  9
$DIMALTZ
 70
     0
  9
$DIMALTTZ
 70
     0
  9
$DIMUPT
 70
     0
  9
$DIMDEC
 70
     4
  9
$DIMTDEC
 70
     4
  9
$DIMALTU
 70
     2
  9
$DIMALTTD
 70
     2
  9
$DIMTXSTY
  7
STANDARD
  9
$DIMAUNIT
 70
     0
  9
$DIMADEC
 70
     0
  9
$DIMALTRND
 40
0.0
  9
$DIMAZIN
 70
     0
  9
$DIMDSEP
 70
    46
  9
$DIMATFIT
 70
     3
  9
$DIMFRAC
 70
     0
  9
$DIMLDRBLK
  1

  9
$DIMLUNIT
 70
     2
  9
$DIMLWD
 70
    -2
  9
$DIMLWE
 70
    -2
  9
$DIMTMOVE
 70
     0
  9
$LUNITS
 70
     2
  9
$LUPREC
 70
     3
  9
$SKETCHINC
 40
0.1
  9
$FILLETRAD
 40
0.25
  9
$AUNITS
 70
     0
  9
$AUPREC
 70
     1
  9
$MENU
  1
.
  9
$ELEVATION
 40
0.0
  9
$PELEVATION
 40
0.0
  9
$THICKNESS
 40
0.0
  9
$LIMCHECK
 70
     0
  9
$CHAMFERA
 40
0.25
  9
$CHAMFERB
 40
0.25
  9
$CHAMFERC
 40
0.0
  9
$CHAMFERD
 40
0.0
  9
$SKPOLY
 70
     0
  9
$TDCREATE
 40
2456160.667396447
  9
$TDUCREATE
 40
2456160.875729780
  9
$TDUPDATE
 40
2456160.683826863
  9
$TDUUPDATE
 40
2456160.892160197
  9
$TDINDWG
 40
0.0160800231
  9
$TDUSRTIMER
 40
0.0160799537
  9
$USRTIMER
 70
     1
  9
$ANGBASE
 50
0.0
  9
$ANGDIR
 70
     0
  9
$PDMODE
 70
     2
  9
$PDSIZE
 40
-0.01
  9
$PLINEWID
 40
0.0
  9
$SPLFRAME
 70
     0
  9
$SPLINETYPE
 70
     6
  9
$SPLINESEGS
 70
     8
  9
$HANDSEED
  5
75A
  9
$SURFTAB1
 70
     6
  9
$SURFTAB2
 70
     6
  9
$SURFTYPE
 70
     6
  9
$SURFU
 70
     6
  9
$SURFV
 70
     6
  9
$UCSBASE
  2

  9
$UCSNAME
  2

  9
$UCSORG
 10
0.0
 20
0.0
 30
0.0
  9
$UCSXDIR
 10
1.0
 20
0.0
 30
0.0
  9
$UCSYDIR
 10
0.0
 20
1.0
 30
0.0
  9
$UCSORTHOREF
  2

  9
$UCSORTHOVIEW
 70
     0
  9
$UCSORGTOP
 10
0.0
 20
0.0
 30
0.0
  9
$UCSORGBOTTOM
 10
0.0
 20
0.0
 30
0.0
  9
$UCSORGLEFT
 10
0.0
 20
0.0
 30
0.0
  9
$UCSORGRIGHT
 10
0.0
 20
0.0
 30
0.0
  9
$UCSORGFRONT
 10
0.0
 20
0.0
 30
0.0
  9
$UCSORGBACK
 10
0.0
 20
0.0
 30
0.0
  9
$PUCSBASE
  2

  9
$PUCSNAME
  2

  9
$PUCSORG
 10
0.0
 20
0.0
 30
0.0
  9
$PUCSXDIR
 10
1.0
 20
0.0
 30
0.0
  9
$PUCSYDIR
 10
0.0
 20
1.0
 30
0.0
  9
$PUCSORTHOREF
  2

  9
$PUCSORTHOVIEW
 70
     0
  9
$PUCSORGTOP
 10
0.0
 20
0.0
 30
0.0
  9
$PUCSORGBOTTOM
 10
0.0
 20
0.0
 30
0.0
  9
$PUCSORGLEFT
 10
0.0
 20
0.0
 30
0.0
  9
$PUCSORGRIGHT
 10
0.0
 20
0.0
 30
0.0
  9
$PUCSORGFRONT
 10
0.0
 20
0.0
 30
0.0
  9
$PUCSORGBACK
 10
0.0
 20
0.0
 30
0.0
  9
$USERI1
 70
     0
  9
$USERI2
 70
     0
  9
$USERI3
 70
     0
  9
$USERI4
 70
     0
  9
$USERI5
 70
     0
  9
$USERR1
 40
0.0
  9
$USERR2
 40
0.0
  9
$USERR3
 40
0.0
  9
$USERR4
 40
0.0
  9
$USERR5
 40
0.0
  9
$WORLDVIEW
 70
     1
  9
$SHADEDGE
 70
     3
  9
$SHADEDIF
 70
    70
  9
$TILEMODE
 70
     1
  9
$MAXACTVP
 70
    64
  9
$PINSBASE
 10
0.0
 20
0.0
 30
0.0
  9
$PLIMCHECK
 70
     0
  9
$PEXTMIN
 10
1.000000000000000E+20
 20
1.000000000000000E+20
 30
1.000000000000000E+20
  9
$PEXTMAX
 10
-1.000000000000000E+20
 20
-1.000000000000000E+20
 30
-1.000000000000000E+20
  9
$PLIMMIN
 10
0.0
 20
0.0
  9
$PLIMMAX
 10
12.0
 20
9.0
  9
$UNITMODE
 70
     0
  9
$VISRETAIN
 70
     1
  9
$PLINEGEN
 70
     0
  9
$PSLTSCALE
 70
     1
  9
$TREEDEPTH
 70
  3020
  9
$CMLSTYLE
  2
Standard
  9
$CMLJUST
 70
     0
  9
$CMLSCALE
 40
1.0
  9
$PROXYGRAPHICS
 70
     1
  9
$MEASUREMENT
 70
     0
  9
$CELWEIGHT
370
    -1
  9
$ENDCAPS
280
     0
  9
$JOINSTYLE
280
     0
  9
$LWDISPLAY
290
     0
  9
$INSUNITS
 70
     0
  9
$HYPERLINKBASE
  1

  9
$STYLESHEET
  1
monochrome.ctb
  9
$XEDIT
290
     1
  9
$CEPSNTYPE
380
     0
  9
$PSTYLEMODE
290
     1
  9
$FINGERPRINTGUID
  2
{1C1000E4-34BE-407C-BCC6-06FA1FAA1CAC}
  9
$VERSIONGUID
  2
{549EF780-9881-4853-9008-7D70D05E34B8}
  9
$EXTNAMES
290
     1
  9
$PSVPSCALE
 40
0.0
  9
$OLESTARTUP
290
     0
  0
ENDSEC
  0
SECTION
  2
CLASSES
  0
CLASS
  1
ACDBDICTIONARYWDFLT
  2
AcDbDictionaryWithDefault
  3
ObjectDBX Classes
 90
        0
280
     0
281
     0
  0
CLASS
  1
MATERIAL
  2
AcDbMaterial
  3
ObjectDBX Classes
 90
     1153
280
     0
281
     0
  0
CLASS
  1
VISUALSTYLE
  2
AcDbVisualStyle
  3
ObjectDBX Classes
 90
     4095
280
     0
281
     0
  0
CLASS
  1
SCALE
  2
AcDbScale
  3
ObjectDBX Classes
 90
     1153
280
     0
281
     0
  0
CLASS
  1
TABLESTYLE
  2
AcDbTableStyle
  3
ObjectDBX Classes
 90
     4095
280
     0
281
     0
  0
CLASS
  1
MLEADERSTYLE
  2
AcDbMLeaderStyle
  3
ACDB_MLEADERSTYLE_CLASS
 90
     4095
280
     0
281
     0
  0
CLASS
  1
ACME_DOCUMENT
  2
AcMeDbDoc
  3
AcMeServices
 90
     1024
280
     0
281
     0
  0
CLASS
  1
ACMESCOPE
  2
AcMeScope
  3
AcMeServices
 90
     1024
280
     0
281
     0
  0
CLASS
  1
ACMECOMMANDHISTORY
  2
AcMeCommandHistory
  3
AcMeServices
 90
     1024
280
     0
281
     0
  0
CLASS
  1
ACIMSYSVARMAN
  2
AcImSysVarManager
  3
AcMeServices
 90
     1024
280
     0
281
     0
  0
CLASS
  1
ACIMINTSYSVAR
  2
AcImIntSysVar
  3
AcMeServices
 90
     1024
280
     0
281
     0
  0
CLASS
  1
ACMEDRAWINGMAN
  2
AcMeDrawingMan
  3
AcMeServices
 90
     1024
280
     0
281
     0
  0
CLASS
  1
ACMEVIEW
  2
AcMeView
  3
AcMeServices
 90
     1024
280
     0
281
     0
  0
CLASS
  1
ACDBENTITYCACHE
  2
AcMeEntityCache
  3
AcMeServices
 90
     1024
280
     0
281
     0
  0
CLASS
  1
ACMESTATEMGR
  2
AcMeStateMgr
  3
AcMeServices
 90
     1024
280
     0
281
     0
  0
CLASS
  1
ACGREFMASTER
  2
AcGrefMaster
  3
AcAttribServices
 90
     1024
280
     0
281
     0
  0
CLASS
  1
AM_DRAWING_MGR
  2
AcDmDwgMgr
  3
AcMechDwgViewMgmt
 90
     1024
280
     0
281
     0
  0
CLASS
  1
AM_DWG_DOCUMENT
  2
AcDmDwgDocument
  3
AcMechDwgViewMgmt
 90
     1024
280
     0
281
     0
  0
CLASS
  1
AM_DWG_SHEET
  2
AcDmSheet
  3
AcMechDwgViewMgmt
 90
     1024
280
     0
281
     0
  0
CLASS
  1
AM_VIEWDIMPARMAP
  2
AcDmViewDimParMap
  3
AcMechDwgViewMgmt
 90
     1024
280
     0
281
     0
  0
CLASS
  1
AMDTINTERNALREACTOR
  2
AmdtInternalReactor
  3
AcMeServices
 90
     1024
280
     0
281
     0
  0
CLASS
  1
ACIMREALSYSVAR
  2
AcImRealSysVar
  3
AcMeServices
 90
     1024
280
     0
281
     0
  0
CLASS
  1
AM_DWGMGR_NAME
  2
AcDmDwgMgrName
  3
AcMechDwgViewMgmt
 90
     1024
280
     0
281
     0
  0
CLASS
  1
ACME_DATABASE
  2
AcMeDbDatabase
  3
AcMeServices
 90
     1024
280
     0
281
     0
  0
CLASS
  1
ACRFINSADJUSTERMGR
  2
AcRfInsAdjusterMgr
  3
AcMeServices
 90
     1024
280
     0
281
     0
  0
CLASS
  1
ACGREFACADMASTER
  2
AcGrefacadMaster
  3
AcGrefServices
 90
     1024
280
     0
281
     0
  0
CLASS
  1
AMDTMENUSTATEMGR
  2
AmdtMenuStateMgr
  3
McadcomServices
 90
     1024
280
     0
281
     0
  0
CLASS
  1
AMDTMCOMMENUSTATE
  2
AmdtMcomMenuState
  3
McadcomServices
 90
     1024
280
     0
281
     0
  0
CLASS
  1
AMIMASTER
  2
AmiMaster
  3
AmiServices
 90
     1024
280
     0
281
     0
  0
CLASS
  1
AMGSETTINGSOBJ
  2
AmgSettingsObj
  3
"AcadM|Product Description: AutoCAD Mechanical|Company: Autodesk, Inc."
 90
     1024
280
     0
281
     0
  0
CLASS
  1
MAPIAMMOUDLE
  2
MApiAmModule
  3
MApiAmServices
 90
     1024
280
     0
281
     0
  0
CLASS
  1
ACIMSTRSYSVAR
  2
AcImStrSysVar
  3
AcMeServices
 90
     1024
280
     0
281
     0
  0
CLASS
  1
AMDTADMENUSTATE
  2
AmdtAdMenuState
  3
DesignerServices
 90
     1024
280
     0
281
     0
  0
CLASS
  1
ADAPPL
  2
AcAdAppl
  3
DesignerServices
 90
     1024
280
     0
281
     0
  0
CLASS
  1
DEPMGR
  2
AcAdDepMgr
  3
DesignerServices
 90
     1024
280
     0
281
     0
  0
CLASS
  1
PARAMMGR
  2
AcAdParamMgr
  3
DesignerServices
 90
     1024
280
     0
281
     0
  0
CLASS
  1
PARAMSCOPE
  2
AcAdParamScope
  3
DesignerServices
 90
     1024
280
     0
281
     0
  0
CLASS
  1
NAMEDAPPL
  2
AcAdNamedAppl
  3
DesignerServices
 90
     1024
280
     0
281
     0
  0
CLASS
  1
AMDTDMMENUSTATE
  2
AmdtDmMenuState
  3
AcMechDwgViewMgmt
 90
     1024
280
     0
281
     0
  0
CLASS
  1
AMDTAMMENUSTATE
  2
AmdtAmMenuState
  3
DesignerAssemblies
 90
     1024
280
     0
281
     0
  0
CLASS
  1
ACAMPROJECT
  2
AcAmProject
  3
DesignerAssemblies
 90
     1024
280
     0
281
     0
  0
CLASS
  1
ACAMGRCOMPDEF
  2
AcAmGrCompDef
  3
DesignerAssemblies
 90
     1024
280
     0
281
     0
  0
CLASS
  1
ACAMCOMPDEF
  2
AcAmCompDef
  3
DesignerAssemblies
 90
     1024
280
     0
281
     0
  0
CLASS
  1
ACAMCOMPDEFMGR
  2
AcAmCompDefMgr
  3
DesignerAssemblies
 90
     1024
280
     0
281
     0
  0
CLASS
  1
AMCONTEXTMGR
  2
AcAmContextMgr
  3
DesignerAssemblies
 90
     1024
280
     0
281
     0
  0
CLASS
  1
ACAMCONTEXTMODELER
  2
AcAmContextModeler
  3
DesignerAssemblies
 90
     1024
280
     0
281
     0
  0
CLASS
  1
ACMDATADICTIONARY
  2
AcmDataDictionary
  3
"AcmSymBB|Product Description: AutoCAD Mechanical|Company: Autodesk, Inc."
 90
     1024
280
     0
281
     0
  0
CLASS
  1
CATALOGSTATE
  2
AcAmCatalogState
  3
DesignerAssemblies
 90
     1024
280
     0
281
     0
  0
CLASS
  1
ACAMGRCOMPDEFSET
  2
AcAmGrCompDefSet
  3
DesignerAssemblies
 90
     1024
280
     0
281
     0
  0
CLASS
  1
AMDTBROWSERDBTAB
  2
AmdtBrowserDbTab
  3
McadcomServices
 90
     1024
280
     0
281
     0
  0
CLASS
  1
CBROWSERAPPOBJECT
  2
CBrowserAppObject
  3
McadcomServices
 90
     1024
280
     0
281
     0
  0
CLASS
  1
DM_PLACEHOLDER
  2
AcDmSelsetPlaceholder
  3
AcMechDwgViewMgmt
 90
     1024
280
     0
281
     0
  0
CLASS
  1
ACMSTANDARDANSI
  2
AcmStandardANSI
  3
"Amdt_StdImp|Product Description: AutoCAD Mechanical|Company: Autodesk, Inc."
 90
     1024
280
     0
281
     0
  0
CLASS
  1
ACMSURFSTANDARDANSI
  2
AcmSurfTextStdANSI
  3
"Amdt_StdImp|Product Description: AutoCAD Mechanical|Company: Autodesk, Inc."
 90
     1024
280
     0
281
     0
  0
CLASS
  1
ACMFCFSTANDARDANSI
  2
AcmFCFStdANSI
  3
"Amdt_StdImp|Product Description: AutoCAD Mechanical|Company: Autodesk, Inc."
 90
     1024
280
     0
281
     0
  0
CLASS
  1
ACMWELDSTANDARDANSI
  2
AcmWeldingStdANSI
  3
"Amdt_StdImp|Product Description: AutoCAD Mechanical|Company: Autodesk, Inc."
 90
     1024
280
     0
281
     0
  0
CLASS
  1
ACMIDSTANDARDANSI
  2
AcmIdStdANSI
  3
"Amdt_StdImp|Product Description: AutoCAD Mechanical|Company: Autodesk, Inc."
 90
     1024
280
     0
281
     0
  0
CLASS
  1
ACMDATUMSTANDARDANSI
  2
AcmDatumStdANSI
  3
"Amdt_StdImp|Product Description: AutoCAD Mechanical|Company: Autodesk, Inc."
 90
     1024
280
     0
281
     0
  0
CLASS
  1
ACMBOMSTANDARDANSI
  2
AcmBOMStdANSI
  3
"Amdt_StdImp|Product Description: AutoCAD Mechanical|Company: Autodesk, Inc."
 90
     1024
280
     0
281
     0
  0
CLASS
  1
ACMDETAILSTANDARDANSI
  2
AmdtDetailSymStdANSI
  3
"Amdt_StdImp|Product Description: AutoCAD Mechanical|Company: Autodesk, Inc."
 90
     1024
280
     0
281
     0
  0
CLASS
  1
ACMSECTIONSTANDARDANSI
  2
AmdtSectionSymStdANSI
  3
"Amdt_StdImp|Product Description: AutoCAD Mechanical|Company: Autodesk, Inc."
 90
     1024
280
     0
281
     0
  0
CLASS
  1
ACMCENTERLINESTANDARDANSI
  2
AmdtCenterLineStdANSI
  3
"Amdt_StdImp|Product Description: AutoCAD Mechanical|Company: Autodesk, Inc."
 90
     1024
280
     0
281
     0
  0
CLASS
  1
ACMTHREADLINESTANDARDANSI
  2
AmdtThreadLineStdANSI
  3
"Amdt_StdImp|Product Description: AutoCAD Mechanical|Company: Autodesk, Inc."
 90
     1024
280
     0
281
     0
  0
CLASS
  1
ACMNOTESTANDARDANSI
  2
AmdtNoteStdANSI
  3
"Amdt_StdImp|Product Description: AutoCAD Mechanical|Company: Autodesk, Inc."
 90
     1024
280
     0
281
     0
  0
CLASS
  1
ACMTAPERSTANDARDANSI
  2
AcmTaperStdANSI
  3
"Amdt_StdImp|Product Description: AutoCAD Mechanical|Company: Autodesk, Inc."
 90
     1024
280
     0
281
     0
  0
CLASS
  1
ACMANOOTATIONVIEWSTANDARDANSI
  2
AmdtAnViewStdANSI
  3
"Amdt_StdImp|Product Description: AutoCAD Mechanical|Company: Autodesk, Inc."
 90
     1024
280
     0
281
     0
  0
CLASS
  1
ACAMGLAYSTD
  2
AcAmgLayStd
  3
"AmgLay|Product Description: AutoCAD Mechanical|Company: Autodesk, Inc."
 90
     1024
280
     0
281
     0
  0
CLASS
  1
ACAMGDIMSTD
  2
AcAmgDimStd
  3
"AmgDim|Product Description: AutoCAD Mechanical|Company: Autodesk, Inc."
 90
     1024
280
     0
281
     0
  0
CLASS
  1
AMGOBJPROPCFG
  2
AmgObjPropCfg
  3
"AmgLay|Product Description: AutoCAD Mechanical|Company: Autodesk, Inc."
 90
     1025
280
     0
281
     0
  0
CLASS
  1
ACAMGHOLECHARTSTDANSI
  2
AcAmgHoleChartStdANSI
  3
AmgDim|Product Description: AutoCAD Mechanical|Company: Autodesk, Inc.
 90
     1024
280
     0
281
     0
  0
CLASS
  1
ACAMGTITLESTD
  2
AcAmgTitleStd
  3
"AmgTitle|Product Description: AutoCAD Mechanical|Company: Autodesk, Inc."
 90
     4095
280
     0
281
     0
  0
CLASS
  1
AMDTNOTETEMPLATEDB
  2
AmdtNoteTemplateDB
  3
AcmSymBB|Product Description: AutoCAD Mechanical|Company: Autodesk, Inc.
 90
     1024
280
     0
281
     0
  0
CLASS
  1
ACAMGFILTERDAT
  2
AcAmgFilterDat
  3
"AcadM|Product Description: AutoCAD Mechanical|Company: Autodesk, Inc."
 90
    33792
280
     0
281
     0
  0
CLASS
  1
SORTENTSTABLE
  2
AcDbSortentsTable
  3
ObjectDBX Classes
 90
        0
280
     0
281
     0
  0
CLASS
  1
DICTIONARYVAR
  2
AcDbDictionaryVar
  3
ObjectDBX Classes
 90
        0
280
     0
281
     0
  0
CLASS
  1
CELLSTYLEMAP
  2
AcDbCellStyleMap
  3
ObjectDBX Classes
 90
     1152
280
     0
281
     0
  0
CLASS
  1
PLOTSETTINGS
  2
AcDbPlotSettings
  3
ObjectDBX Classes
 90
        0
280
     0
281
     0
  0
CLASS
  1
ACDBPLACEHOLDER
  2
AcDbPlaceHolder
  3
ObjectDBX Classes
 90
        0
280
     0
281
     0
  0
CLASS
  1
LAYOUT
  2
AcDbLayout
  3
ObjectDBX Classes
 90
        0
280
     0
281
     0
  0
ENDSEC
  0
SECTION
  2
TABLES
  0
TABLE
  2
VPORT
  5
8
330
0
100
AcDbSymbolTable
 70
     1
  0
VPORT
  5
13A
330
8
100
AcDbSymbolTableRecord
100
AcDbViewportTableRecord
  2
*Active
 70
     0
 10
0.0
 20
0.0
 11
1.0
 21
1.0
 12
19.7330660855734
 22
12.21321487492282
 13
0.0
 23
0.0
 14
1.0
 24
1.0
 15
0.0
 25
0.0
 16
0.0
 26
0.0
 36
1.0
 17
0.0
 27
0.0
 37
0.0
 40
22.93424882507497
 41
2.029224904701397
 42
50.0
 43
0.0
 44
0.0
 50
0.0
 51
0.0
 71
     0
 72
   100
 73
     1
 74
     1
 75
     0
 76
     0
 77
     0
 78
     0
281
     0
 65
     0
110
0.0
120
0.0
130
0.0
111
1.0
121
0.0
131
0.0
112
0.0
122
1.0
132
0.0
 79
     0
146
0.0
  0
ENDTAB
  0
TABLE
  2
LTYPE
  5
5
330
0
100
AcDbSymbolTable
 70
    22
  0
LTYPE
  5
65
330
5
100
AcDbSymbolTableRecord
100
AcDbLinetypeTableRecord
  2
ByBlock
 70
     0
  3

 72
    65
 73
     0
 40
0.0
  0
LTYPE
  5
66
330
5
100
AcDbSymbolTableRecord
100
AcDbLinetypeTableRecord
  2
ByLayer
 70
     0
  3

 72
    65
 73
     0
 40
0.0
  0
LTYPE
  5
67
330
5
100
AcDbSymbolTableRecord
100
AcDbLinetypeTableRecord
  2
Continuous
 70
     0
  3
Solid line
 72
    65
 73
     0
 40
0.0
  0
LTYPE
  5
7B
330
5
100
AcDbSymbolTableRecord
100
AcDbLinetypeTableRecord
  2
HIDDENNEW00
 70
     0
  3
_ 
 72
    65
 73
     2
 40
0.1875
 49
0.125
 74
     0
 49
-0.0625
 74
     0
  0
LTYPE
  5
7C
330
5
100
AcDbSymbolTableRecord
100
AcDbLinetypeTableRecord
  2
HIDDENNEW01
 70
     0
  3
_ 
 72
    65
 73
     2
 40
0.1875
 49
0.125
 74
     0
 49
-0.0625
 74
     0
  0
LTYPE
  5
7D
330
5
100
AcDbSymbolTableRecord
100
AcDbLinetypeTableRecord
  2
HIDDEN
 70
     0
  3
_ 
 72
    65
 73
     2
 40
0.1875
 49
0.125
 74
     0
 49
-0.0625
 74
     0
  0
LTYPE
  5
7E
330
5
100
AcDbSymbolTableRecord
100
AcDbLinetypeTableRecord
  2
CENTERLINE
 70
     0
  3
_ 
 72
    65
 73
     4
 40
1.25
 49
1.0
 74
     0
 49
-0.0625
 74
     0
 49
0.125
 74
     0
 49
-0.0625
 74
     0
  0
LTYPE
  5
7F
330
5
100
AcDbSymbolTableRecord
100
AcDbLinetypeTableRecord
  2
PHANTOM
 70
     0
  3
_ 
 72
    65
 73
     6
 40
1.1875
 49
0.75
 74
     0
 49
-0.0625
 74
     0
 49
0.125
 74
     0
 49
-0.0625
 74
     0
 49
0.125
 74
     0
 49
-0.0625
 74
     0
  0
LTYPE
  5
80
330
5
100
AcDbSymbolTableRecord
100
AcDbLinetypeTableRecord
  2
SHORT_DASH
 70
     0
  3
_ 
 72
    65
 73
     2
 40
0.125
 49
0.0625
 74
     0
 49
-0.0625
 74
     0
  0
LTYPE
  5
81
330
5
100
AcDbSymbolTableRecord
100
AcDbLinetypeTableRecord
  2
LONG_DASH
 70
     0
  3
_ 
 72
    65
 73
     2
 40
0.375
 49
0.1875
 74
     0
 49
-0.1875
 74
     0
  0
LTYPE
  5
36E
330
5
100
AcDbSymbolTableRecord
100
AcDbLinetypeTableRecord
  2
PHANTOM2
 70
     0
  3
Phantom (.5x) ___ _ _ ___ _ _ ___ _ _ ___ _ _
 72
    65
 73
     6
 40
1.25
 49
0.625
 74
     0
 49
-0.125
 74
     0
 49
0.125
 74
     0
 49
-0.125
 74
     0
 49
0.125
 74
     0
 49
-0.125
 74
     0
  0
LTYPE
  5
36F
330
5
100
AcDbSymbolTableRecord
100
AcDbLinetypeTableRecord
  2
CENTER
 70
     0
  3
Center ____ _ ____ _ ____ _ ____ _ ____ _ ____
 72
    65
 73
     4
 40
2.0
 49
1.25
 74
     0
 49
-0.25
 74
     0
 49
0.25
 74
     0
 49
-0.25
 74
     0
  0
LTYPE
  5
3B8
330
5
100
AcDbSymbolTableRecord
100
AcDbLinetypeTableRecord
  2
AM_ISO02W050
 70
     0
  3
__ __ __ __ __ __ __ __ __ __ __ __ __ __ __
 72
    65
 73
     2
 40
7.5
 49
6.0
 74
     0
 49
-1.5
 74
     0
  0
LTYPE
  5
3B9
330
5
100
AcDbSymbolTableRecord
100
AcDbLinetypeTableRecord
  2
AM_ISO08W050
 70
     0
  3
____ . ____ . ____ . ____ . ____ . ____ . ____
 72
    65
 73
     4
 40
18.0
 49
12.0
 74
     0
 49
-1.5
 74
     0
 49
3.0
 74
     0
 49
-1.5
 74
     0
  0
LTYPE
  5
3BA
330
5
100
AcDbSymbolTableRecord
100
AcDbLinetypeTableRecord
  2
AM_ISO09W050
 70
     0
  3
_____ . . _____ . . _____ . . ____ .. ____
 72
    65
 73
     6
 40
22.5
 49
12.0
 74
     0
 49
-1.5
 74
     0
 49
3.0
 74
     0
 49
-1.5
 74
     0
 49
3.0
 74
     0
 49
-1.5
 74
     0
  0
LTYPE
  5
3BB
330
5
100
AcDbSymbolTableRecord
100
AcDbLinetypeTableRecord
  2
Amconstr
 70
     0
  3
_______________________
 72
    65
 73
     2
 40
9999.0
 49
9999.0
 74
     0
 49
0.0
 74
     0
  0
LTYPE
  5
3BC
330
5
100
AcDbSymbolTableRecord
100
AcDbLinetypeTableRecord
  2
AM_ISO08W050x2
 70
     0
  3
__ . __ . __ . __ . __ . __
 72
    65
 73
     4
 40
9.0
 49
6.0
 74
     0
 49
-0.75
 74
     0
 49
1.5
 74
     0
 49
-0.75
 74
     0
  0
LTYPE
  5
3BD
330
5
100
AcDbSymbolTableRecord
100
AcDbLinetypeTableRecord
  2
AM_ISO02W050x2
 70
     0
  3
 _ _ _ _ _ _ _ _ _ _ _ _
 72
    65
 73
     2
 40
3.75
 49
3.0
 74
     0
 49
-0.75
 74
     0
  0
LTYPE
  5
3C0
330
5
100
AcDbSymbolTableRecord
100
AcDbLinetypeTableRecord
  2
Amzigzag
 70
     0
  3
/\/-/\/-/\/-/\/-/\/-/\/
 72
    65
 73
     2
 40
11.0001
 49
0.0001
 74
     4
 75
   136
340
3BF
 46
0.04
 50
0.0
 44
0.0
 45
0.0
 49
-11.0
 74
     0
  0
LTYPE
  5
3C1
330
5
100
AcDbSymbolTableRecord
100
AcDbLinetypeTableRecord
  2
CENTER2
 70
     0
  3
Center (.5x) ___ _ ___ _ ___ _ ___ _ ___ _ ___
 72
    65
 73
     4
 40
1.125
 49
0.75
 74
     0
 49
-0.125
 74
     0
 49
0.125
 74
     0
 49
-0.125
 74
     0
  0
LTYPE
  5
3C2
330
5
100
AcDbSymbolTableRecord
100
AcDbLinetypeTableRecord
  2
HIDDEN2
 70
     0
  3
Hidden (.5x) _ _ _ _ _ _ _ _ _ _ _ _ _ _ _ _ _
 72
    65
 73
     2
 40
0.1875
 49
0.125
 74
     0
 49
-0.0625
 74
     0
  0
LTYPE
  5
3C3
330
5
100
AcDbSymbolTableRecord
100
AcDbLinetypeTableRecord
  2
Amzigzag2
 70
     0
  3
/\/-/\/-/\/-/\/-/\/-/\/
 72
    65
 73
     2
 40
0.4401
 49
0.0001
 74
     4
 75
   136
340
3BF
 46
0.0016
 50
0.0
 44
0.0
 45
0.0
 49
-0.4400000000000002
 74
     0
  0
LTYPE
  5
3D1
330
5
100
AcDbSymbolTableRecord
100
AcDbLinetypeTableRecord
  2
ACANSTGB
 70
     0
  3
__ . . __ . .
 72
    65
 73
     6
 40
0.35433070866
 49
0.15748031496
 74
     0
 49
-0.03937007874
 74
     0
 49
0.03937007874
 74
     0
 49
-0.03937007874
 74
     0
 49
0.03937007874
 74
     0
 49
-0.03937007874
 74
     0
  0
LTYPE
  5
3D2
330
5
100
AcDbSymbolTableRecord
100
AcDbLinetypeTableRecord
  2
ACANSTGL
 70
     0
  3
_ _ _ _ _
 72
    65
 73
     2
 40
0.11811023622
 49
0.07874015748
 74
     0
 49
-0.03937007874
 74
     0
  0
ENDTAB
  0
TABLE
  2
LAYER
  5
2
330
0
100
AcDbSymbolTable
 70
   182
  0
LAYER
  5
5F
102
{ACAD_XDICTIONARY
360
409
102
}
330
2
100
AcDbSymbolTableRecord
100
AcDbLayerTableRecord
  2
0
 70
     0
 62
     7
  6
Continuous
370
    -3
390
F
  0
LAYER
  5
7A
102
{ACAD_XDICTIONARY
360
40B
102
}
330
2
100
AcDbSymbolTableRecord
100
AcDbLayerTableRecord
  2
1
 70
     0
 62
     7
  6
Continuous
370
    -3
390
F
  0
LAYER
  5
82
102
{ACAD_XDICTIONARY
360
40D
102
}
330
2
100
AcDbSymbolTableRecord
100
AcDbLayerTableRecord
  2
2
 70
     0
 62
     7
  6
Continuous
370
    -3
390
F
  0
LAYER
  5
83
102
{ACAD_XDICTIONARY
360
40F
102
}
330
2
100
AcDbSymbolTableRecord
100
AcDbLayerTableRecord
  2
3
 70
     0
 62
     7
  6
Continuous
370
    -3
390
F
  0
LAYER
  5
84
102
{ACAD_XDICTIONARY
360
411
102
}
330
2
100
AcDbSymbolTableRecord
100
AcDbLayerTableRecord
  2
4
 70
     0
 62
     7
  6
Continuous
370
    -3
390
F
  0
LAYER
  5
85
102
{ACAD_XDICTIONARY
360
413
102
}
330
2
100
AcDbSymbolTableRecord
100
AcDbLayerTableRecord
  2
5
 70
     0
 62
     7
  6
Continuous
370
    -3
390
F
  0
LAYER
  5
86
102
{ACAD_XDICTIONARY
360
415
102
}
330
2
100
AcDbSymbolTableRecord
100
AcDbLayerTableRecord
  2
6
 70
     0
 62
     7
  6
Continuous
370
    -3
390
F
  0
LAYER
  5
87
102
{ACAD_XDICTIONARY
360
417
102
}
330
2
100
AcDbSymbolTableRecord
100
AcDbLayerTableRecord
  2
7
 70
     0
 62
     7
  6
Continuous
370
    -3
390
F
  0
LAYER
  5
88
102
{ACAD_XDICTIONARY
360
419
102
}
330
2
100
AcDbSymbolTableRecord
100
AcDbLayerTableRecord
  2
8
 70
     0
 62
     7
  6
Continuous
370
    -3
390
F
  0
LAYER
  5
89
102
{ACAD_XDICTIONARY
360
41B
102
}
330
2
100
AcDbSymbolTableRecord
100
AcDbLayerTableRecord
  2
9
 70
     0
 62
     7
  6
Continuous
370
    -3
390
F
  0
LAYER
  5
8A
102
{ACAD_XDICTIONARY
360
41D
102
}
330
2
100
AcDbSymbolTableRecord
100
AcDbLayerTableRecord
  2
10
 70
     0
 62
     7
  6
Continuous
370
    -3
390
F
  0
LAYER
  5
8B
102
{ACAD_XDICTIONARY
360
41F
102
}
330
2
100
AcDbSymbolTableRecord
100
AcDbLayerTableRecord
  2
11
 70
     0
 62
     7
  6
Continuous
370
    -3
390
F
  0
LAYER
  5
8C
102
{ACAD_XDICTIONARY
360
421
102
}
330
2
100
AcDbSymbolTableRecord
100
AcDbLayerTableRecord
  2
12
 70
     0
 62
     7
  6
Continuous
370
    -3
390
F
  0
LAYER
  5
8D
102
{ACAD_XDICTIONARY
360
423
102
}
330
2
100
AcDbSymbolTableRecord
100
AcDbLayerTableRecord
  2
13
 70
     0
 62
     7
  6
Continuous
370
    -3
390
F
  0
LAYER
  5
8E
102
{ACAD_XDICTIONARY
360
425
102
}
330
2
100
AcDbSymbolTableRecord
100
AcDbLayerTableRecord
  2
14
 70
     0
 62
     7
  6
Continuous
370
    -3
390
F
  0
LAYER
  5
8F
102
{ACAD_XDICTIONARY
360
427
102
}
330
2
100
AcDbSymbolTableRecord
100
AcDbLayerTableRecord
  2
15
 70
     0
 62
     7
  6
Continuous
370
    -3
390
F
  0
LAYER
  5
90
102
{ACAD_XDICTIONARY
360
429
102
}
330
2
100
AcDbSymbolTableRecord
100
AcDbLayerTableRecord
  2
16
 70
     0
 62
     7
  6
Continuous
370
    -3
390
F
  0
LAYER
  5
91
102
{ACAD_XDICTIONARY
360
42B
102
}
330
2
100
AcDbSymbolTableRecord
100
AcDbLayerTableRecord
  2
17
 70
     0
 62
     7
  6
Continuous
370
    -3
390
F
  0
LAYER
  5
92
102
{ACAD_XDICTIONARY
360
42D
102
}
330
2
100
AcDbSymbolTableRecord
100
AcDbLayerTableRecord
  2
18
 70
     0
 62
     7
  6
Continuous
370
    -3
390
F
  0
LAYER
  5
93
102
{ACAD_XDICTIONARY
360
42F
102
}
330
2
100
AcDbSymbolTableRecord
100
AcDbLayerTableRecord
  2
19
 70
     0
 62
     7
  6
Continuous
370
    -3
390
F
  0
LAYER
  5
94
102
{ACAD_XDICTIONARY
360
431
102
}
330
2
100
AcDbSymbolTableRecord
100
AcDbLayerTableRecord
  2
20
 70
     0
 62
     7
  6
Continuous
370
    -3
390
F
  0
LAYER
  5
95
102
{ACAD_XDICTIONARY
360
433
102
}
330
2
100
AcDbSymbolTableRecord
100
AcDbLayerTableRecord
  2
21
 70
     0
 62
     7
  6
Continuous
370
    -3
390
F
  0
LAYER
  5
96
102
{ACAD_XDICTIONARY
360
435
102
}
330
2
100
AcDbSymbolTableRecord
100
AcDbLayerTableRecord
  2
22
 70
     0
 62
     7
  6
Continuous
370
    -3
390
F
  0
LAYER
  5
97
102
{ACAD_XDICTIONARY
360
437
102
}
330
2
100
AcDbSymbolTableRecord
100
AcDbLayerTableRecord
  2
23
 70
     0
 62
     7
  6
Continuous
370
    -3
390
F
  0
LAYER
  5
98
102
{ACAD_XDICTIONARY
360
439
102
}
330
2
100
AcDbSymbolTableRecord
100
AcDbLayerTableRecord
  2
24
 70
     0
 62
     7
  6
Continuous
370
    -3
390
F
  0
LAYER
  5
99
102
{ACAD_XDICTIONARY
360
43B
102
}
330
2
100
AcDbSymbolTableRecord
100
AcDbLayerTableRecord
  2
25
 70
     0
 62
     7
  6
Continuous
370
    -3
390
F
  0
LAYER
  5
9A
102
{ACAD_XDICTIONARY
360
43D
102
}
330
2
100
AcDbSymbolTableRecord
100
AcDbLayerTableRecord
  2
26
 70
     0
 62
     7
  6
Continuous
370
    -3
390
F
  0
LAYER
  5
9B
102
{ACAD_XDICTIONARY
360
43F
102
}
330
2
100
AcDbSymbolTableRecord
100
AcDbLayerTableRecord
  2
27
 70
     0
 62
     7
  6
Continuous
370
    -3
390
F
  0
LAYER
  5
9C
102
{ACAD_XDICTIONARY
360
441
102
}
330
2
100
AcDbSymbolTableRecord
100
AcDbLayerTableRecord
  2
28
 70
     0
 62
     7
  6
Continuous
370
    -3
390
F
  0
LAYER
  5
9D
102
{ACAD_XDICTIONARY
360
443
102
}
330
2
100
AcDbSymbolTableRecord
100
AcDbLayerTableRecord
  2
29
 70
     0
 62
     7
  6
Continuous
370
    -3
390
F
  0
LAYER
  5
9E
102
{ACAD_XDICTIONARY
360
445
102
}
330
2
100
AcDbSymbolTableRecord
100
AcDbLayerTableRecord
  2
30
 70
     0
 62
     7
  6
Continuous
370
    -3
390
F
  0
LAYER
  5
9F
102
{ACAD_XDICTIONARY
360
447
102
}
330
2
100
AcDbSymbolTableRecord
100
AcDbLayerTableRecord
  2
31
 70
     0
 62
     7
  6
Continuous
370
    -3
390
F
  0
LAYER
  5
A0
102
{ACAD_XDICTIONARY
360
449
102
}
330
2
100
AcDbSymbolTableRecord
100
AcDbLayerTableRecord
  2
32
 70
     0
 62
     7
  6
Continuous
370
    -3
390
F
  0
LAYER
  5
A1
102
{ACAD_XDICTIONARY
360
44B
102
}
330
2
100
AcDbSymbolTableRecord
100
AcDbLayerTableRecord
  2
33
 70
     0
 62
     7
  6
Continuous
370
    -3
390
F
  0
LAYER
  5
A2
102
{ACAD_XDICTIONARY
360
44D
102
}
330
2
100
AcDbSymbolTableRecord
100
AcDbLayerTableRecord
  2
34
 70
     0
 62
     7
  6
Continuous
370
    -3
390
F
  0
LAYER
  5
A3
102
{ACAD_XDICTIONARY
360
44F
102
}
330
2
100
AcDbSymbolTableRecord
100
AcDbLayerTableRecord
  2
35
 70
     0
 62
     7
  6
Continuous
370
    -3
390
F
  0
LAYER
  5
A4
102
{ACAD_XDICTIONARY
360
451
102
}
330
2
100
AcDbSymbolTableRecord
100
AcDbLayerTableRecord
  2
36
 70
     0
 62
     7
  6
Continuous
370
    -3
390
F
  0
LAYER
  5
A5
102
{ACAD_XDICTIONARY
360
453
102
}
330
2
100
AcDbSymbolTableRecord
100
AcDbLayerTableRecord
  2
37
 70
     0
 62
     7
  6
Continuous
370
    -3
390
F
  0
LAYER
  5
A6
102
{ACAD_XDICTIONARY
360
455
102
}
330
2
100
AcDbSymbolTableRecord
100
AcDbLayerTableRecord
  2
38
 70
     0
 62
     7
  6
Continuous
370
    -3
390
F
  0
LAYER
  5
A7
102
{ACAD_XDICTIONARY
360
457
102
}
330
2
100
AcDbSymbolTableRecord
100
AcDbLayerTableRecord
  2
39
 70
     0
 62
     7
  6
Continuous
370
    -3
390
F
  0
LAYER
  5
A8
102
{ACAD_XDICTIONARY
360
459
102
}
330
2
100
AcDbSymbolTableRecord
100
AcDbLayerTableRecord
  2
40
 70
     0
 62
     7
  6
Continuous
370
    -3
390
F
  0
LAYER
  5
A9
102
{ACAD_XDICTIONARY
360
45B
102
}
330
2
100
AcDbSymbolTableRecord
100
AcDbLayerTableRecord
  2
41
 70
     0
 62
     7
  6
Continuous
370
    -3
390
F
  0
LAYER
  5
AA
102
{ACAD_XDICTIONARY
360
45D
102
}
330
2
100
AcDbSymbolTableRecord
100
AcDbLayerTableRecord
  2
42
 70
     0
 62
     7
  6
Continuous
370
    -3
390
F
  0
LAYER
  5
AB
102
{ACAD_XDICTIONARY
360
45F
102
}
330
2
100
AcDbSymbolTableRecord
100
AcDbLayerTableRecord
  2
43
 70
     0
 62
     7
  6
Continuous
370
    -3
390
F
  0
LAYER
  5
AC
102
{ACAD_XDICTIONARY
360
461
102
}
330
2
100
AcDbSymbolTableRecord
100
AcDbLayerTableRecord
  2
44
 70
     0
 62
     7
  6
Continuous
370
    -3
390
F
  0
LAYER
  5
AD
102
{ACAD_XDICTIONARY
360
463
102
}
330
2
100
AcDbSymbolTableRecord
100
AcDbLayerTableRecord
  2
45
 70
     0
 62
     7
  6
Continuous
370
    -3
390
F
  0
LAYER
  5
AE
102
{ACAD_XDICTIONARY
360
465
102
}
330
2
100
AcDbSymbolTableRecord
100
AcDbLayerTableRecord
  2
46
 70
     0
 62
     7
  6
Continuous
370
    -3
390
F
  0
LAYER
  5
AF
102
{ACAD_XDICTIONARY
360
467
102
}
330
2
100
AcDbSymbolTableRecord
100
AcDbLayerTableRecord
  2
47
 70
     0
 62
     7
  6
Continuous
370
    -3
390
F
  0
LAYER
  5
B0
102
{ACAD_XDICTIONARY
360
469
102
}
330
2
100
AcDbSymbolTableRecord
100
AcDbLayerTableRecord
  2
48
 70
     0
 62
     7
  6
Continuous
370
    -3
390
F
  0
LAYER
  5
B1
102
{ACAD_XDICTIONARY
360
46B
102
}
330
2
100
AcDbSymbolTableRecord
100
AcDbLayerTableRecord
  2
49
 70
     0
 62
     7
  6
Continuous
370
    -3
390
F
  0
LAYER
  5
B2
102
{ACAD_XDICTIONARY
360
46D
102
}
330
2
100
AcDbSymbolTableRecord
100
AcDbLayerTableRecord
  2
50
 70
     0
 62
     7
  6
Continuous
370
    -3
390
F
  0
LAYER
  5
B3
102
{ACAD_XDICTIONARY
360
46F
102
}
330
2
100
AcDbSymbolTableRecord
100
AcDbLayerTableRecord
  2
51
 70
     0
 62
     7
  6
Continuous
370
    -3
390
F
  0
LAYER
  5
B4
102
{ACAD_XDICTIONARY
360
471
102
}
330
2
100
AcDbSymbolTableRecord
100
AcDbLayerTableRecord
  2
52
 70
     0
 62
     7
  6
Continuous
370
    -3
390
F
  0
LAYER
  5
B5
102
{ACAD_XDICTIONARY
360
473
102
}
330
2
100
AcDbSymbolTableRecord
100
AcDbLayerTableRecord
  2
53
 70
     0
 62
     7
  6
Continuous
370
    -3
390
F
  0
LAYER
  5
B6
102
{ACAD_XDICTIONARY
360
475
102
}
330
2
100
AcDbSymbolTableRecord
100
AcDbLayerTableRecord
  2
54
 70
     0
 62
     7
  6
Continuous
370
    -3
390
F
  0
LAYER
  5
B7
102
{ACAD_XDICTIONARY
360
477
102
}
330
2
100
AcDbSymbolTableRecord
100
AcDbLayerTableRecord
  2
55
 70
     0
 62
     7
  6
Continuous
370
    -3
390
F
  0
LAYER
  5
B8
102
{ACAD_XDICTIONARY
360
479
102
}
330
2
100
AcDbSymbolTableRecord
100
AcDbLayerTableRecord
  2
56
 70
     0
 62
     7
  6
Continuous
370
    -3
390
F
  0
LAYER
  5
B9
102
{ACAD_XDICTIONARY
360
47B
102
}
330
2
100
AcDbSymbolTableRecord
100
AcDbLayerTableRecord
  2
57
 70
     0
 62
     7
  6
Continuous
370
    -3
390
F
  0
LAYER
  5
BA
102
{ACAD_XDICTIONARY
360
47D
102
}
330
2
100
AcDbSymbolTableRecord
100
AcDbLayerTableRecord
  2
58
 70
     0
 62
     7
  6
Continuous
370
    -3
390
F
  0
LAYER
  5
BB
102
{ACAD_XDICTIONARY
360
47F
102
}
330
2
100
AcDbSymbolTableRecord
100
AcDbLayerTableRecord
  2
59
 70
     0
 62
     7
  6
Continuous
370
    -3
390
F
  0
LAYER
  5
BC
102
{ACAD_XDICTIONARY
360
481
102
}
330
2
100
AcDbSymbolTableRecord
100
AcDbLayerTableRecord
  2
60
 70
     0
 62
     7
  6
Continuous
370
    -3
390
F
  0
LAYER
  5
BD
102
{ACAD_XDICTIONARY
360
483
102
}
330
2
100
AcDbSymbolTableRecord
100
AcDbLayerTableRecord
  2
61
 70
     0
 62
     7
  6
Continuous
370
    -3
390
F
  0
LAYER
  5
BE
102
{ACAD_XDICTIONARY
360
485
102
}
330
2
100
AcDbSymbolTableRecord
100
AcDbLayerTableRecord
  2
62
 70
     0
 62
     7
  6
Continuous
370
    -3
390
F
  0
LAYER
  5
BF
102
{ACAD_XDICTIONARY
360
487
102
}
330
2
100
AcDbSymbolTableRecord
100
AcDbLayerTableRecord
  2
63
 70
     0
 62
     7
  6
Continuous
370
    -3
390
F
  0
LAYER
  5
C0
102
{ACAD_XDICTIONARY
360
489
102
}
330
2
100
AcDbSymbolTableRecord
100
AcDbLayerTableRecord
  2
64
 70
     0
 62
     7
  6
Continuous
370
    -3
390
F
  0
LAYER
  5
C1
102
{ACAD_XDICTIONARY
360
48B
102
}
330
2
100
AcDbSymbolTableRecord
100
AcDbLayerTableRecord
  2
65
 70
     0
 62
     7
  6
Continuous
370
    -3
390
F
  0
LAYER
  5
C2
102
{ACAD_XDICTIONARY
360
48D
102
}
330
2
100
AcDbSymbolTableRecord
100
AcDbLayerTableRecord
  2
66
 70
     0
 62
     7
  6
Continuous
370
    -3
390
F
  0
LAYER
  5
C3
102
{ACAD_XDICTIONARY
360
48F
102
}
330
2
100
AcDbSymbolTableRecord
100
AcDbLayerTableRecord
  2
67
 70
     0
 62
     7
  6
Continuous
370
    -3
390
F
  0
LAYER
  5
C4
102
{ACAD_XDICTIONARY
360
491
102
}
330
2
100
AcDbSymbolTableRecord
100
AcDbLayerTableRecord
  2
68
 70
     0
 62
     7
  6
Continuous
370
    -3
390
F
  0
LAYER
  5
C5
102
{ACAD_XDICTIONARY
360
493
102
}
330
2
100
AcDbSymbolTableRecord
100
AcDbLayerTableRecord
  2
69
 70
     0
 62
     7
  6
Continuous
370
    -3
390
F
  0
LAYER
  5
C6
102
{ACAD_XDICTIONARY
360
495
102
}
330
2
100
AcDbSymbolTableRecord
100
AcDbLayerTableRecord
  2
70
 70
     0
 62
     7
  6
Continuous
370
    -3
390
F
  0
LAYER
  5
C7
102
{ACAD_XDICTIONARY
360
497
102
}
330
2
100
AcDbSymbolTableRecord
100
AcDbLayerTableRecord
  2
71
 70
     0
 62
     7
  6
Continuous
370
    -3
390
F
  0
LAYER
  5
C8
102
{ACAD_XDICTIONARY
360
499
102
}
330
2
100
AcDbSymbolTableRecord
100
AcDbLayerTableRecord
  2
72
 70
     0
 62
     7
  6
Continuous
370
    -3
390
F
  0
LAYER
  5
C9
102
{ACAD_XDICTIONARY
360
49B
102
}
330
2
100
AcDbSymbolTableRecord
100
AcDbLayerTableRecord
  2
73
 70
     0
 62
     7
  6
Continuous
370
    -3
390
F
  0
LAYER
  5
CA
102
{ACAD_XDICTIONARY
360
49D
102
}
330
2
100
AcDbSymbolTableRecord
100
AcDbLayerTableRecord
  2
74
 70
     0
 62
     7
  6
Continuous
370
    -3
390
F
  0
LAYER
  5
CB
102
{ACAD_XDICTIONARY
360
49F
102
}
330
2
100
AcDbSymbolTableRecord
100
AcDbLayerTableRecord
  2
75
 70
     0
 62
     7
  6
Continuous
370
    -3
390
F
  0
LAYER
  5
CC
102
{ACAD_XDICTIONARY
360
4A1
102
}
330
2
100
AcDbSymbolTableRecord
100
AcDbLayerTableRecord
  2
76
 70
     0
 62
     7
  6
Continuous
370
    -3
390
F
  0
LAYER
  5
CD
102
{ACAD_XDICTIONARY
360
4A3
102
}
330
2
100
AcDbSymbolTableRecord
100
AcDbLayerTableRecord
  2
77
 70
     0
 62
     7
  6
Continuous
370
    -3
390
F
  0
LAYER
  5
CE
102
{ACAD_XDICTIONARY
360
4A5
102
}
330
2
100
AcDbSymbolTableRecord
100
AcDbLayerTableRecord
  2
78
 70
     0
 62
     7
  6
Continuous
370
    -3
390
F
  0
LAYER
  5
CF
102
{ACAD_XDICTIONARY
360
4A7
102
}
330
2
100
AcDbSymbolTableRecord
100
AcDbLayerTableRecord
  2
79
 70
     0
 62
     7
  6
Continuous
370
    -3
390
F
  0
LAYER
  5
D0
102
{ACAD_XDICTIONARY
360
4A9
102
}
330
2
100
AcDbSymbolTableRecord
100
AcDbLayerTableRecord
  2
80
 70
     0
 62
     7
  6
Continuous
370
    -3
390
F
  0
LAYER
  5
D1
102
{ACAD_XDICTIONARY
360
4AB
102
}
330
2
100
AcDbSymbolTableRecord
100
AcDbLayerTableRecord
  2
81
 70
     0
 62
     7
  6
Continuous
370
    -3
390
F
  0
LAYER
  5
D2
102
{ACAD_XDICTIONARY
360
4AD
102
}
330
2
100
AcDbSymbolTableRecord
100
AcDbLayerTableRecord
  2
82
 70
     0
 62
     7
  6
Continuous
370
    -3
390
F
  0
LAYER
  5
D3
102
{ACAD_XDICTIONARY
360
4AF
102
}
330
2
100
AcDbSymbolTableRecord
100
AcDbLayerTableRecord
  2
83
 70
     0
 62
     7
  6
Continuous
370
    -3
390
F
  0
LAYER
  5
D4
102
{ACAD_XDICTIONARY
360
4B1
102
}
330
2
100
AcDbSymbolTableRecord
100
AcDbLayerTableRecord
  2
84
 70
     0
 62
     7
  6
Continuous
370
    -3
390
F
  0
LAYER
  5
D5
102
{ACAD_XDICTIONARY
360
4B3
102
}
330
2
100
AcDbSymbolTableRecord
100
AcDbLayerTableRecord
  2
85
 70
     0
 62
     7
  6
Continuous
370
    -3
390
F
  0
LAYER
  5
D6
102
{ACAD_XDICTIONARY
360
4B5
102
}
330
2
100
AcDbSymbolTableRecord
100
AcDbLayerTableRecord
  2
86
 70
     0
 62
     7
  6
Continuous
370
    -3
390
F
  0
LAYER
  5
D7
102
{ACAD_XDICTIONARY
360
4B7
102
}
330
2
100
AcDbSymbolTableRecord
100
AcDbLayerTableRecord
  2
87
 70
     0
 62
     7
  6
Continuous
370
    -3
390
F
  0
LAYER
  5
D8
102
{ACAD_XDICTIONARY
360
4B9
102
}
330
2
100
AcDbSymbolTableRecord
100
AcDbLayerTableRecord
  2
88
 70
     0
 62
     7
  6
Continuous
370
    -3
390
F
  0
LAYER
  5
D9
102
{ACAD_XDICTIONARY
360
4BB
102
}
330
2
100
AcDbSymbolTableRecord
100
AcDbLayerTableRecord
  2
89
 70
     0
 62
     7
  6
Continuous
370
    -3
390
F
  0
LAYER
  5
DA
102
{ACAD_XDICTIONARY
360
4BD
102
}
330
2
100
AcDbSymbolTableRecord
100
AcDbLayerTableRecord
  2
90
 70
     0
 62
     7
  6
Continuous
370
    -3
390
F
  0
LAYER
  5
DB
102
{ACAD_XDICTIONARY
360
4BF
102
}
330
2
100
AcDbSymbolTableRecord
100
AcDbLayerTableRecord
  2
91
 70
     0
 62
     7
  6
Continuous
370
    -3
390
F
  0
LAYER
  5
DC
102
{ACAD_XDICTIONARY
360
4C1
102
}
330
2
100
AcDbSymbolTableRecord
100
AcDbLayerTableRecord
  2
92
 70
     0
 62
     7
  6
Continuous
370
    -3
390
F
  0
LAYER
  5
DD
102
{ACAD_XDICTIONARY
360
4C3
102
}
330
2
100
AcDbSymbolTableRecord
100
AcDbLayerTableRecord
  2
93
 70
     0
 62
     7
  6
Continuous
370
    -3
390
F
  0
LAYER
  5
DE
102
{ACAD_XDICTIONARY
360
4C5
102
}
330
2
100
AcDbSymbolTableRecord
100
AcDbLayerTableRecord
  2
94
 70
     0
 62
     7
  6
Continuous
370
    -3
390
F
  0
LAYER
  5
DF
102
{ACAD_XDICTIONARY
360
4C7
102
}
330
2
100
AcDbSymbolTableRecord
100
AcDbLayerTableRecord
  2
95
 70
     0
 62
     7
  6
Continuous
370
    -3
390
F
  0
LAYER
  5
E0
102
{ACAD_XDICTIONARY
360
4C9
102
}
330
2
100
AcDbSymbolTableRecord
100
AcDbLayerTableRecord
  2
96
 70
     0
 62
     7
  6
Continuous
370
    -3
390
F
  0
LAYER
  5
E1
102
{ACAD_XDICTIONARY
360
4CB
102
}
330
2
100
AcDbSymbolTableRecord
100
AcDbLayerTableRecord
  2
97
 70
     0
 62
     7
  6
Continuous
370
    -3
390
F
  0
LAYER
  5
E2
102
{ACAD_XDICTIONARY
360
4CD
102
}
330
2
100
AcDbSymbolTableRecord
100
AcDbLayerTableRecord
  2
98
 70
     0
 62
     7
  6
Continuous
370
    -3
390
F
  0
LAYER
  5
E3
102
{ACAD_XDICTIONARY
360
4CF
102
}
330
2
100
AcDbSymbolTableRecord
100
AcDbLayerTableRecord
  2
99
 70
     0
 62
     7
  6
Continuous
370
    -3
390
F
  0
LAYER
  5
E4
102
{ACAD_XDICTIONARY
360
4D1
102
}
330
2
100
AcDbSymbolTableRecord
100
AcDbLayerTableRecord
  2
100
 70
     0
 62
     7
  6
Continuous
370
    -3
390
F
  0
LAYER
  5
E5
102
{ACAD_XDICTIONARY
360
4D3
102
}
330
2
100
AcDbSymbolTableRecord
100
AcDbLayerTableRecord
  2
101
 70
     0
 62
     7
  6
Continuous
370
    -3
390
F
  0
LAYER
  5
E6
102
{ACAD_XDICTIONARY
360
4D5
102
}
330
2
100
AcDbSymbolTableRecord
100
AcDbLayerTableRecord
  2
102
 70
     0
 62
     7
  6
Continuous
370
    -3
390
F
  0
LAYER
  5
E7
102
{ACAD_XDICTIONARY
360
4D7
102
}
330
2
100
AcDbSymbolTableRecord
100
AcDbLayerTableRecord
  2
103
 70
     0
 62
     7
  6
Continuous
370
    -3
390
F
  0
LAYER
  5
E8
102
{ACAD_XDICTIONARY
360
4D9
102
}
330
2
100
AcDbSymbolTableRecord
100
AcDbLayerTableRecord
  2
104
 70
     0
 62
     7
  6
Continuous
370
    -3
390
F
  0
LAYER
  5
E9
102
{ACAD_XDICTIONARY
360
4DB
102
}
330
2
100
AcDbSymbolTableRecord
100
AcDbLayerTableRecord
  2
105
 70
     0
 62
     7
  6
Continuous
370
    -3
390
F
  0
LAYER
  5
EA
102
{ACAD_XDICTIONARY
360
4DD
102
}
330
2
100
AcDbSymbolTableRecord
100
AcDbLayerTableRecord
  2
106
 70
     0
 62
     7
  6
Continuous
370
    -3
390
F
  0
LAYER
  5
EB
102
{ACAD_XDICTIONARY
360
4DF
102
}
330
2
100
AcDbSymbolTableRecord
100
AcDbLayerTableRecord
  2
107
 70
     0
 62
     7
  6
Continuous
370
    -3
390
F
  0
LAYER
  5
EC
102
{ACAD_XDICTIONARY
360
4E1
102
}
330
2
100
AcDbSymbolTableRecord
100
AcDbLayerTableRecord
  2
108
 70
     0
 62
     7
  6
Continuous
370
    -3
390
F
  0
LAYER
  5
ED
102
{ACAD_XDICTIONARY
360
4E3
102
}
330
2
100
AcDbSymbolTableRecord
100
AcDbLayerTableRecord
  2
109
 70
     0
 62
     7
  6
Continuous
370
    -3
390
F
  0
LAYER
  5
EE
102
{ACAD_XDICTIONARY
360
4E5
102
}
330
2
100
AcDbSymbolTableRecord
100
AcDbLayerTableRecord
  2
110
 70
     0
 62
     7
  6
Continuous
370
    -3
390
F
  0
LAYER
  5
EF
102
{ACAD_XDICTIONARY
360
4E7
102
}
330
2
100
AcDbSymbolTableRecord
100
AcDbLayerTableRecord
  2
111
 70
     0
 62
     7
  6
Continuous
370
    -3
390
F
  0
LAYER
  5
F0
102
{ACAD_XDICTIONARY
360
4E9
102
}
330
2
100
AcDbSymbolTableRecord
100
AcDbLayerTableRecord
  2
112
 70
     0
 62
     7
  6
Continuous
370
    -3
390
F
  0
LAYER
  5
F1
102
{ACAD_XDICTIONARY
360
4EB
102
}
330
2
100
AcDbSymbolTableRecord
100
AcDbLayerTableRecord
  2
113
 70
     0
 62
     7
  6
Continuous
370
    -3
390
F
  0
LAYER
  5
F2
102
{ACAD_XDICTIONARY
360
4ED
102
}
330
2
100
AcDbSymbolTableRecord
100
AcDbLayerTableRecord
  2
114
 70
     0
 62
     7
  6
Continuous
370
    -3
390
F
  0
LAYER
  5
F3
102
{ACAD_XDICTIONARY
360
4EF
102
}
330
2
100
AcDbSymbolTableRecord
100
AcDbLayerTableRecord
  2
115
 70
     0
 62
     7
  6
Continuous
370
    -3
390
F
  0
LAYER
  5
F4
102
{ACAD_XDICTIONARY
360
4F1
102
}
330
2
100
AcDbSymbolTableRecord
100
AcDbLayerTableRecord
  2
116
 70
     0
 62
     7
  6
Continuous
370
    -3
390
F
  0
LAYER
  5
F5
102
{ACAD_XDICTIONARY
360
4F3
102
}
330
2
100
AcDbSymbolTableRecord
100
AcDbLayerTableRecord
  2
117
 70
     0
 62
     7
  6
Continuous
370
    -3
390
F
  0
LAYER
  5
F6
102
{ACAD_XDICTIONARY
360
4F5
102
}
330
2
100
AcDbSymbolTableRecord
100
AcDbLayerTableRecord
  2
118
 70
     0
 62
     7
  6
Continuous
370
    -3
390
F
  0
LAYER
  5
F7
102
{ACAD_XDICTIONARY
360
4F7
102
}
330
2
100
AcDbSymbolTableRecord
100
AcDbLayerTableRecord
  2
119
 70
     0
 62
     7
  6
Continuous
370
    -3
390
F
  0
LAYER
  5
F8
102
{ACAD_XDICTIONARY
360
4F9
102
}
330
2
100
AcDbSymbolTableRecord
100
AcDbLayerTableRecord
  2
120
 70
     0
 62
     7
  6
Continuous
370
    -3
390
F
  0
LAYER
  5
F9
102
{ACAD_XDICTIONARY
360
4FB
102
}
330
2
100
AcDbSymbolTableRecord
100
AcDbLayerTableRecord
  2
121
 70
     0
 62
     7
  6
Continuous
370
    -3
390
F
  0
LAYER
  5
FA
102
{ACAD_XDICTIONARY
360
4FD
102
}
330
2
100
AcDbSymbolTableRecord
100
AcDbLayerTableRecord
  2
122
 70
     0
 62
     7
  6
Continuous
370
    -3
390
F
  0
LAYER
  5
FB
102
{ACAD_XDICTIONARY
360
4FF
102
}
330
2
100
AcDbSymbolTableRecord
100
AcDbLayerTableRecord
  2
123
 70
     0
 62
     7
  6
Continuous
370
    -3
390
F
  0
LAYER
  5
FC
102
{ACAD_XDICTIONARY
360
501
102
}
330
2
100
AcDbSymbolTableRecord
100
AcDbLayerTableRecord
  2
124
 70
     0
 62
     7
  6
Continuous
370
    -3
390
F
  0
LAYER
  5
FD
102
{ACAD_XDICTIONARY
360
503
102
}
330
2
100
AcDbSymbolTableRecord
100
AcDbLayerTableRecord
  2
125
 70
     0
 62
     7
  6
Continuous
370
    -3
390
F
  0
LAYER
  5
FE
102
{ACAD_XDICTIONARY
360
505
102
}
330
2
100
AcDbSymbolTableRecord
100
AcDbLayerTableRecord
  2
126
 70
     0
 62
     7
  6
Continuous
370
    -3
390
F
  0
LAYER
  5
FF
102
{ACAD_XDICTIONARY
360
507
102
}
330
2
100
AcDbSymbolTableRecord
100
AcDbLayerTableRecord
  2
127
 70
     0
 62
     7
  6
Continuous
370
    -3
390
F
  0
LAYER
  5
100
102
{ACAD_XDICTIONARY
360
509
102
}
330
2
100
AcDbSymbolTableRecord
100
AcDbLayerTableRecord
  2
128
 70
     0
 62
     7
  6
Continuous
370
    -3
390
F
  0
LAYER
  5
101
102
{ACAD_XDICTIONARY
360
50B
102
}
330
2
100
AcDbSymbolTableRecord
100
AcDbLayerTableRecord
  2
129
 70
     0
 62
     7
  6
Continuous
370
    -3
390
F
  0
LAYER
  5
102
102
{ACAD_XDICTIONARY
360
50D
102
}
330
2
100
AcDbSymbolTableRecord
100
AcDbLayerTableRecord
  2
130
 70
     0
 62
     7
  6
Continuous
370
    -3
390
F
  0
LAYER
  5
103
102
{ACAD_XDICTIONARY
360
50F
102
}
330
2
100
AcDbSymbolTableRecord
100
AcDbLayerTableRecord
  2
131
 70
     0
 62
     7
  6
Continuous
370
    -3
390
F
  0
LAYER
  5
104
102
{ACAD_XDICTIONARY
360
511
102
}
330
2
100
AcDbSymbolTableRecord
100
AcDbLayerTableRecord
  2
132
 70
     0
 62
     7
  6
Continuous
370
    -3
390
F
  0
LAYER
  5
105
102
{ACAD_XDICTIONARY
360
513
102
}
330
2
100
AcDbSymbolTableRecord
100
AcDbLayerTableRecord
  2
133
 70
     0
 62
     7
  6
Continuous
370
    -3
390
F
  0
LAYER
  5
106
102
{ACAD_XDICTIONARY
360
515
102
}
330
2
100
AcDbSymbolTableRecord
100
AcDbLayerTableRecord
  2
134
 70
     0
 62
     7
  6
Continuous
370
    -3
390
F
  0
LAYER
  5
107
102
{ACAD_XDICTIONARY
360
517
102
}
330
2
100
AcDbSymbolTableRecord
100
AcDbLayerTableRecord
  2
135
 70
     0
 62
     7
  6
Continuous
370
    -3
390
F
  0
LAYER
  5
108
102
{ACAD_XDICTIONARY
360
519
102
}
330
2
100
AcDbSymbolTableRecord
100
AcDbLayerTableRecord
  2
136
 70
     0
 62
     7
  6
Continuous
370
    -3
390
F
  0
LAYER
  5
109
102
{ACAD_XDICTIONARY
360
51B
102
}
330
2
100
AcDbSymbolTableRecord
100
AcDbLayerTableRecord
  2
137
 70
     0
 62
     7
  6
Continuous
370
    -3
390
F
  0
LAYER
  5
10A
102
{ACAD_XDICTIONARY
360
51D
102
}
330
2
100
AcDbSymbolTableRecord
100
AcDbLayerTableRecord
  2
138
 70
     0
 62
     7
  6
Continuous
370
    -3
390
F
  0
LAYER
  5
10B
102
{ACAD_XDICTIONARY
360
51F
102
}
330
2
100
AcDbSymbolTableRecord
100
AcDbLayerTableRecord
  2
139
 70
     0
 62
     7
  6
Continuous
370
    -3
390
F
  0
LAYER
  5
10C
102
{ACAD_XDICTIONARY
360
521
102
}
330
2
100
AcDbSymbolTableRecord
100
AcDbLayerTableRecord
  2
140
 70
     0
 62
     7
  6
Continuous
370
    -3
390
F
  0
LAYER
  5
10D
102
{ACAD_XDICTIONARY
360
523
102
}
330
2
100
AcDbSymbolTableRecord
100
AcDbLayerTableRecord
  2
141
 70
     0
 62
     7
  6
Continuous
370
    -3
390
F
  0
LAYER
  5
10E
102
{ACAD_XDICTIONARY
360
525
102
}
330
2
100
AcDbSymbolTableRecord
100
AcDbLayerTableRecord
  2
142
 70
     0
 62
     7
  6
Continuous
370
    -3
390
F
  0
LAYER
  5
10F
102
{ACAD_XDICTIONARY
360
527
102
}
330
2
100
AcDbSymbolTableRecord
100
AcDbLayerTableRecord
  2
143
 70
     0
 62
     7
  6
Continuous
370
    -3
390
F
  0
LAYER
  5
110
102
{ACAD_XDICTIONARY
360
529
102
}
330
2
100
AcDbSymbolTableRecord
100
AcDbLayerTableRecord
  2
144
 70
     0
 62
     7
  6
Continuous
370
    -3
390
F
  0
LAYER
  5
111
102
{ACAD_XDICTIONARY
360
52B
102
}
330
2
100
AcDbSymbolTableRecord
100
AcDbLayerTableRecord
  2
145
 70
     0
 62
     7
  6
Continuous
370
    -3
390
F
  0
LAYER
  5
112
102
{ACAD_XDICTIONARY
360
52D
102
}
330
2
100
AcDbSymbolTableRecord
100
AcDbLayerTableRecord
  2
146
 70
     0
 62
     7
  6
Continuous
370
    -3
390
F
  0
LAYER
  5
113
102
{ACAD_XDICTIONARY
360
52F
102
}
330
2
100
AcDbSymbolTableRecord
100
AcDbLayerTableRecord
  2
147
 70
     0
 62
     7
  6
Continuous
370
    -3
390
F
  0
LAYER
  5
114
102
{ACAD_XDICTIONARY
360
531
102
}
330
2
100
AcDbSymbolTableRecord
100
AcDbLayerTableRecord
  2
148
 70
     0
 62
     7
  6
Continuous
370
    -3
390
F
  0
LAYER
  5
115
102
{ACAD_XDICTIONARY
360
533
102
}
330
2
100
AcDbSymbolTableRecord
100
AcDbLayerTableRecord
  2
149
 70
     0
 62
     7
  6
Continuous
370
    -3
390
F
  0
LAYER
  5
116
102
{ACAD_XDICTIONARY
360
535
102
}
330
2
100
AcDbSymbolTableRecord
100
AcDbLayerTableRecord
  2
150
 70
     0
 62
     7
  6
Continuous
370
    -3
390
F
  0
LAYER
  5
117
102
{ACAD_XDICTIONARY
360
537
102
}
330
2
100
AcDbSymbolTableRecord
100
AcDbLayerTableRecord
  2
151
 70
     0
 62
     7
  6
Continuous
370
    -3
390
F
  0
LAYER
  5
118
102
{ACAD_XDICTIONARY
360
539
102
}
330
2
100
AcDbSymbolTableRecord
100
AcDbLayerTableRecord
  2
152
 70
     0
 62
     7
  6
Continuous
370
    -3
390
F
  0
LAYER
  5
119
102
{ACAD_XDICTIONARY
360
53B
102
}
330
2
100
AcDbSymbolTableRecord
100
AcDbLayerTableRecord
  2
153
 70
     0
 62
     7
  6
Continuous
370
    -3
390
F
  0
LAYER
  5
11A
102
{ACAD_XDICTIONARY
360
53D
102
}
330
2
100
AcDbSymbolTableRecord
100
AcDbLayerTableRecord
  2
154
 70
     0
 62
     7
  6
Continuous
370
    -3
390
F
  0
LAYER
  5
11B
102
{ACAD_XDICTIONARY
360
53F
102
}
330
2
100
AcDbSymbolTableRecord
100
AcDbLayerTableRecord
  2
155
 70
     0
 62
     7
  6
Continuous
370
    -3
390
F
  0
LAYER
  5
11C
102
{ACAD_XDICTIONARY
360
541
102
}
330
2
100
AcDbSymbolTableRecord
100
AcDbLayerTableRecord
  2
156
 70
     0
 62
     7
  6
Continuous
370
    -3
390
F
  0
LAYER
  5
11D
102
{ACAD_XDICTIONARY
360
543
102
}
330
2
100
AcDbSymbolTableRecord
100
AcDbLayerTableRecord
  2
157
 70
     0
 62
     7
  6
Continuous
370
    -3
390
F
  0
LAYER
  5
11E
102
{ACAD_XDICTIONARY
360
545
102
}
330
2
100
AcDbSymbolTableRecord
100
AcDbLayerTableRecord
  2
158
 70
     0
 62
     7
  6
Continuous
370
    -3
390
F
  0
LAYER
  5
11F
102
{ACAD_XDICTIONARY
360
547
102
}
330
2
100
AcDbSymbolTableRecord
100
AcDbLayerTableRecord
  2
159
 70
     0
 62
     7
  6
Continuous
370
    -3
390
F
  0
LAYER
  5
120
102
{ACAD_XDICTIONARY
360
549
102
}
330
2
100
AcDbSymbolTableRecord
100
AcDbLayerTableRecord
  2
160
 70
     0
 62
     7
  6
Continuous
370
    -3
390
F
  0
LAYER
  5
121
102
{ACAD_XDICTIONARY
360
54B
102
}
330
2
100
AcDbSymbolTableRecord
100
AcDbLayerTableRecord
  2
161
 70
     0
 62
     7
  6
Continuous
370
    -3
390
F
  0
LAYER
  5
122
102
{ACAD_XDICTIONARY
360
54D
102
}
330
2
100
AcDbSymbolTableRecord
100
AcDbLayerTableRecord
  2
162
 70
     0
 62
     7
  6
Continuous
370
    -3
390
F
  0
LAYER
  5
123
102
{ACAD_XDICTIONARY
360
54F
102
}
330
2
100
AcDbSymbolTableRecord
100
AcDbLayerTableRecord
  2
163
 70
     0
 62
     7
  6
Continuous
370
    -3
390
F
  0
LAYER
  5
124
102
{ACAD_XDICTIONARY
360
551
102
}
330
2
100
AcDbSymbolTableRecord
100
AcDbLayerTableRecord
  2
164
 70
     0
 62
     7
  6
Continuous
370
    -3
390
F
  0
LAYER
  5
125
102
{ACAD_XDICTIONARY
360
553
102
}
330
2
100
AcDbSymbolTableRecord
100
AcDbLayerTableRecord
  2
165
 70
     0
 62
     7
  6
Continuous
370
    -3
390
F
  0
LAYER
  5
126
102
{ACAD_XDICTIONARY
360
555
102
}
330
2
100
AcDbSymbolTableRecord
100
AcDbLayerTableRecord
  2
166
 70
     0
 62
     7
  6
Continuous
370
    -3
390
F
  0
LAYER
  5
127
102
{ACAD_XDICTIONARY
360
557
102
}
330
2
100
AcDbSymbolTableRecord
100
AcDbLayerTableRecord
  2
167
 70
     0
 62
     7
  6
Continuous
370
    -3
390
F
  0
LAYER
  5
128
102
{ACAD_XDICTIONARY
360
559
102
}
330
2
100
AcDbSymbolTableRecord
100
AcDbLayerTableRecord
  2
168
 70
     0
 62
     7
  6
Continuous
370
    -3
390
F
  0
LAYER
  5
129
102
{ACAD_XDICTIONARY
360
55B
102
}
330
2
100
AcDbSymbolTableRecord
100
AcDbLayerTableRecord
  2
169
 70
     0
 62
     7
  6
Continuous
370
    -3
390
F
  0
LAYER
  5
12A
102
{ACAD_XDICTIONARY
360
55D
102
}
330
2
100
AcDbSymbolTableRecord
100
AcDbLayerTableRecord
  2
170
 70
     0
 62
     7
  6
Continuous
370
    -3
390
F
  0
LAYER
  5
12B
102
{ACAD_XDICTIONARY
360
55F
102
}
330
2
100
AcDbSymbolTableRecord
100
AcDbLayerTableRecord
  2
171
 70
     0
 62
     7
  6
Continuous
370
    -3
390
F
  0
LAYER
  5
12C
102
{ACAD_XDICTIONARY
360
561
102
}
330
2
100
AcDbSymbolTableRecord
100
AcDbLayerTableRecord
  2
172
 70
     0
 62
     7
  6
Continuous
370
    -3
390
F
  0
LAYER
  5
12D
102
{ACAD_XDICTIONARY
360
563
102
}
330
2
100
AcDbSymbolTableRecord
100
AcDbLayerTableRecord
  2
173
 70
     0
 62
     7
  6
Continuous
370
    -3
390
F
  0
LAYER
  5
12E
102
{ACAD_XDICTIONARY
360
565
102
}
330
2
100
AcDbSymbolTableRecord
100
AcDbLayerTableRecord
  2
174
 70
     0
 62
     7
  6
Continuous
370
    -3
390
F
  0
LAYER
  5
12F
102
{ACAD_XDICTIONARY
360
567
102
}
330
2
100
AcDbSymbolTableRecord
100
AcDbLayerTableRecord
  2
175
 70
     0
 62
     7
  6
Continuous
370
    -3
390
F
  0
LAYER
  5
130
102
{ACAD_XDICTIONARY
360
569
102
}
330
2
100
AcDbSymbolTableRecord
100
AcDbLayerTableRecord
  2
176
 70
     0
 62
     7
  6
Continuous
370
    -3
390
F
  0
LAYER
  5
131
102
{ACAD_XDICTIONARY
360
56B
102
}
330
2
100
AcDbSymbolTableRecord
100
AcDbLayerTableRecord
  2
177
 70
     0
 62
     7
  6
Continuous
370
    -3
390
F
  0
LAYER
  5
132
102
{ACAD_XDICTIONARY
360
56D
102
}
330
2
100
AcDbSymbolTableRecord
100
AcDbLayerTableRecord
  2
178
 70
     0
 62
     7
  6
Continuous
370
    -3
390
F
  0
LAYER
  5
133
102
{ACAD_XDICTIONARY
360
56F
102
}
330
2
100
AcDbSymbolTableRecord
100
AcDbLayerTableRecord
  2
179
 70
     0
 62
     7
  6
Continuous
370
    -3
390
F
  0
LAYER
  5
134
102
{ACAD_XDICTIONARY
360
571
102
}
330
2
100
AcDbSymbolTableRecord
100
AcDbLayerTableRecord
  2
180
 70
     0
 62
     7
  6
Continuous
370
    -3
390
F
  0
LAYER
  5
135
102
{ACAD_XDICTIONARY
360
573
102
}
330
2
100
AcDbSymbolTableRecord
100
AcDbLayerTableRecord
  2
DRAFTING_HIDDEN_ENTITIES
 70
     1
 62
     7
  6
Continuous
370
    -3
390
F
  0
ENDTAB
  0
TABLE
  2
STYLE
  5
3
330
0
100
AcDbSymbolTable
 70
     6
  0
STYLE
  5
60
330
3
100
AcDbSymbolTableRecord
100
AcDbTextStyleTableRecord
  2
STANDARD
 70
     0
 40
0.0
 41
1.0
 50
0.0
 71
     0
 42
1.0
  3
monotxt.shx
  4

  0
STYLE
  5
64
330
3
100
AcDbSymbolTableRecord
100
AcDbTextStyleTableRecord
  2
Annotative
 70
     0
 40
0.0
 41
1.0
 50
0.0
 71
     0
 42
0.2
  3
txt
  4

1001
AcadAnnotative
1000
AnnotativeData
1002
{
1070
     1
1070
     1
1002
}
  0
STYLE
  5
3BF
330
3
100
AcDbSymbolTableRecord
100
AcDbTextStyleTableRecord
  2

 70
     1
 40
0.0
 41
1.0
 50
0.0
 71
     0
 42
0.125
  3
genltshp.shx
  4

  0
STYLE
  5
3CF
330
3
100
AcDbSymbolTableRecord
100
AcDbTextStyleTableRecord
  2
ACANSTS
 70
     0
 40
1.0
 41
1.0
 50
0.0
 71
     0
 42
0.125
  3
romans.shx
  4

  0
STYLE
  5
3D0
330
3
100
AcDbSymbolTableRecord
100
AcDbTextStyleTableRecord
  2
ACANSGDT
 70
     0
 40
0.0
 41
1.0
 50
0.0
 71
     0
 42
0.125
  3
amgdt.shx
  4

  0
ENDTAB
  0
TABLE
  2
VIEW
  5
6
330
0
100
AcDbSymbolTable
 70
     0
  0
ENDTAB
  0
TABLE
  2
UCS
  5
7
330
0
100
AcDbSymbolTable
 70
     0
  0
ENDTAB
  0
TABLE
  2
APPID
  5
9
330
0
100
AcDbSymbolTable
 70
    18
  0
APPID
  5
61
330
9
100
AcDbSymbolTableRecord
100
AcDbRegAppTableRecord
  2
ACAD
 70
     0
  0
APPID
  5
68
330
9
100
AcDbSymbolTableRecord
100
AcDbRegAppTableRecord
  2
AcadAnnotative
 70
     0
  0
APPID
  5
343
330
9
100
AcDbSymbolTableRecord
100
AcDbRegAppTableRecord
  2
MCAD_NO_VIS
 70
     0
  0
APPID
  5
344
330
9
100
AcDbSymbolTableRecord
100
AcDbRegAppTableRecord
  2
ACAD_TEMP_GRAPHIC
 70
     0
  0
APPID
  5
371
330
9
100
AcDbSymbolTableRecord
100
AcDbRegAppTableRecord
  2
AD_DRAW
 70
     0
  0
APPID
  5
374
330
9
100
AcDbSymbolTableRecord
100
AcDbRegAppTableRecord
  2
ACATTRIBSERVICES
 70
     0
  0
APPID
  5
398
330
9
100
AcDbSymbolTableRecord
100
AcDbRegAppTableRecord
  2
DESIGNERASSEMBLIES
 70
     0
  0
APPID
  5
39E
330
9
100
AcDbSymbolTableRecord
100
AcDbRegAppTableRecord
  2
ACADM_DIM_EDIT
 70
     0
  0
APPID
  5
39F
330
9
100
AcDbSymbolTableRecord
100
AcDbRegAppTableRecord
  2
AMDT_DM_ADJ
 70
     0
  0
APPID
  5
3B5
330
9
100
AcDbSymbolTableRecord
100
AcDbRegAppTableRecord
  2
ACAD_DSTYLE_DIMJAG
 70
     0
  0
APPID
  5
3B6
330
9
100
AcDbSymbolTableRecord
100
AcDbRegAppTableRecord
  2
ACAD_DSTYLE_DIMBREAK
 70
     0
  0
APPID
  5
3F5
330
9
100
AcDbSymbolTableRecord
100
AcDbRegAppTableRecord
  2
ACAD_EXEMPT_FROM_CAD_STANDARDS
 70
     0
  0
APPID
  5
5B6
330
9
100
AcDbSymbolTableRecord
100
AcDbRegAppTableRecord
  2
ACAD_PSEXT
 70
     0
  0
APPID
  5
69A
330
9
100
AcDbSymbolTableRecord
100
AcDbRegAppTableRecord
  2
ACAD_MLEADERVER
 70
     0
  0
APPID
  5
69E
330
9
100
AcDbSymbolTableRecord
100
AcDbRegAppTableRecord
  2
ACAD_DSTYLE_DIMARC_LENGTH_SYMBOL
 70
     0
  0
APPID
  5
69F
330
9
100
AcDbSymbolTableRecord
100
AcDbRegAppTableRecord
  2
ACAD_DSTYLE_DIM_LINETYPE
 70
     0
  0
APPID
  5
6A0
330
9
100
AcDbSymbolTableRecord
100
AcDbRegAppTableRecord
  2
ACAD_DSTYLE_DIM_EXT1_LINETYPE
 70
     0
  0
APPID
  5
6A1
330
9
100
AcDbSymbolTableRecord
100
AcDbRegAppTableRecord
  2
ACAD_DSTYLE_DIM_EXT2_LINETYPE
 70
     0
  0
ENDTAB
  0
TABLE
  2
DIMSTYLE
  5
A
330
0
100
AcDbSymbolTable
 70
    11
100
AcDbDimStyleTable
 71
     1
340
62
  0
DIMSTYLE
105
62
330
A
100
AcDbSymbolTableRecord
100
AcDbDimStyleTableRecord
  2
Standard
 70
     0
340
60
  0
DIMSTYLE
105
63
330
A
100
AcDbSymbolTableRecord
100
AcDbDimStyleTableRecord
  2
Annotative
 70
     0
340
60
1001
AcadAnnotative
1000
AnnotativeData
1002
{
1070
     1
1070
     1
1002
}
  0
DIMSTYLE
105
136
102
{ACAD_REACTORS
330
1AD
330
1D3
102
}
330
A
100
AcDbSymbolTableRecord
100
AcDbDimStyleTableRecord
  2
DSTYLE1
 70
     0
 41
0.5
 42
0.1
 44
0.25
 45
0.001
 47
0.005
 48
0.005
 78
     7
140
0.375
143
1.0
147
0.25
271
     3
272
     3
274
     0
279
     2
340
60
  0
DIMSTYLE
105
137
330
A
100
AcDbSymbolTableRecord
100
AcDbDimStyleTableRecord
  2
DSTYLE2
 70
     0
 41
0.5
 44
0.125
 45
0.001
 47
0.005
 48
0.005
 75
     1
 78
     7
140
0.375
147
0.0625
271
     3
272
     3
274
     0
279
     2
340
60
  0
DIMSTYLE
105
3B4
102
{ACAD_REACTORS
330
703
102
}
330
A
100
AcDbSymbolTableRecord
100
AcDbDimStyleTableRecord
  2
AM_ANSI
 70
     0
  4
mm
 41
0.12
 42
0.05
 43
0.5
 44
0.1
 47
0.1
 48
0.1
 78
     7
 79
     2
140
0.12
141
0.0
146
0.71
147
0.06
176
   256
177
   256
178
     2
274
     4
284
     7
340
60
371
    -1
372
    -1
1001
ACAD_DSTYLE_DIMJAG
1070
   388
1040
1.5
1001
ACAD_DSTYLE_DIMBREAK
1070
   391
1040
0.125
1001
ACAD_DSTYLE_DIMARC_LENGTH_SYMBOL
1070
   379
1070
     1
1001
ACAD_DSTYLE_DIM_LINETYPE
1070
   380
1005
65
1001
ACAD_DSTYLE_DIM_EXT1_LINETYPE
1070
   381
1005
65
1001
ACAD_DSTYLE_DIM_EXT2_LINETYPE
1070
   382
1005
65
  0
DIMSTYLE
105
3C4
330
A
100
AcDbSymbolTableRecord
100
AcDbDimStyleTableRecord
  2
AM_ANSI$3
 70
     0
  4
mm
 41
0.12
 42
0.05
 43
0.5
 44
0.1
 47
0.1
 48
0.1
 78
     7
 79
     2
140
0.12
141
0.0
146
0.71
147
0.06
176
   256
177
   256
178
     2
274
     4
284
     7
288
     1
289
     0
340
60
371
    -1
372
    -1
1001
ACAD_DSTYLE_DIMBREAK
1070
   391
1040
0.125
1001
ACAD_DSTYLE_DIMJAG
1070
   388
1040
1.5
1001
ACAD_DSTYLE_DIMARC_LENGTH_SYMBOL
1070
   379
1070
     1
1001
ACAD_DSTYLE_DIM_LINETYPE
1070
   380
1005
65
1001
ACAD_DSTYLE_DIM_EXT1_LINETYPE
1070
   381
1005
65
1001
ACAD_DSTYLE_DIM_EXT2_LINETYPE
1070
   382
1005
65
  0
DIMSTYLE
105
3C5
330
A
100
AcDbSymbolTableRecord
100
AcDbDimStyleTableRecord
  2
AM_ANSI$4
 70
     0
  4
mm
 41
0.12
 42
0.05
 43
0.5
 44
0.1
 47
0.1
 48
0.1
 78
     7
 79
     2
140
0.12
141
0.0
146
0.71
147
0.06
176
   256
177
   256
178
     2
274
     4
284
     7
288
     1
289
     0
340
60
371
    -1
372
    -1
1001
ACAD_DSTYLE_DIMBREAK
1070
   391
1040
0.125
1001
ACAD_DSTYLE_DIMJAG
1070
   388
1040
1.5
1001
ACAD_DSTYLE_DIMARC_LENGTH_SYMBOL
1070
   379
1070
     1
1001
ACAD_DSTYLE_DIM_LINETYPE
1070
   380
1005
65
1001
ACAD_DSTYLE_DIM_EXT1_LINETYPE
1070
   381
1005
65
1001
ACAD_DSTYLE_DIM_EXT2_LINETYPE
1070
   382
1005
65
  0
DIMSTYLE
105
3C6
330
A
100
AcDbSymbolTableRecord
100
AcDbDimStyleTableRecord
  2
AM_ANSI$7
 70
     0
  4
mm
 41
0.12
 42
0.05
 43
0.5
 44
0.1
 47
0.1
 48
0.1
 78
     7
 79
     2
140
0.12
141
0.0
146
0.71
147
0.06
176
   256
177
   256
178
     2
274
     4
284
     7
340
60
371
    -1
372
    -1
1001
ACAD_DSTYLE_DIMBREAK
1070
   391
1040
0.125
1001
ACAD_DSTYLE_DIMJAG
1070
   388
1040
1.5
1001
ACAD_DSTYLE_DIMARC_LENGTH_SYMBOL
1070
   379
1070
     1
1001
ACAD_DSTYLE_DIM_LINETYPE
1070
   380
1005
65
1001
ACAD_DSTYLE_DIM_EXT1_LINETYPE
1070
   381
1005
65
1001
ACAD_DSTYLE_DIM_EXT2_LINETYPE
1070
   382
1005
65
  0
DIMSTYLE
105
3C7
330
A
100
AcDbSymbolTableRecord
100
AcDbDimStyleTableRecord
  2
AM_ANSI$SF
 70
     0
  4
mm
 41
0.12
 42
0.05
 43
0.5
 44
0.1
 47
0.1
 48
0.1
 75
     1
 76
     1
 78
     7
 79
     2
140
0.12
141
0.0
146
0.71
147
0.06
176
   256
177
   256
178
     2
274
     4
284
     7
340
60
371
    -1
372
    -1
1001
ACAD_DSTYLE_DIMBREAK
1070
   391
1040
0.125
1001
ACAD_DSTYLE_DIMJAG
1070
   388
1040
1.5
1001
ACAD_DSTYLE_DIMARC_LENGTH_SYMBOL
1070
   379
1070
     1
1001
ACAD_DSTYLE_DIM_LINETYPE
1070
   380
1005
65
1001
ACAD_DSTYLE_DIM_EXT1_LINETYPE
1070
   381
1005
65
1001
ACAD_DSTYLE_DIM_EXT2_LINETYPE
1070
   382
1005
65
  0
DIMSTYLE
105
3CC
330
A
100
AcDbSymbolTableRecord
100
AcDbDimStyleTableRecord
  2
AM_ANSI$SH
 70
     0
  4
mm
 41
0.12
 42
0.05
 43
0.5
 44
0.1
 47
0.1
 48
0.1
 75
     1
 76
     1
 78
     7
 79
     2
140
0.12
141
0.0
146
0.71
147
0.06
173
     1
176
   256
177
   256
178
     2
274
     4
284
     7
340
60
343
3C8
371
    -1
372
    -1
1001
ACAD_DSTYLE_DIMBREAK
1070
   391
1040
0.125
1001
ACAD_DSTYLE_DIMJAG
1070
   388
1040
1.5
1001
ACAD_DSTYLE_DIMARC_LENGTH_SYMBOL
1070
   379
1070
     1
1001
ACAD_DSTYLE_DIM_LINETYPE
1070
   380
1005
65
1001
ACAD_DSTYLE_DIM_EXT1_LINETYPE
1070
   381
1005
65
1001
ACAD_DSTYLE_DIM_EXT2_LINETYPE
1070
   382
1005
65
  0
ENDTAB
  0
TABLE
  2
BLOCK_RECORD
  5
1
330
0
100
AcDbSymbolTable
 70
    12
  0
BLOCK_RECORD
  5
76
102
{ACAD_XDICTIONARY
360
3F0
102
}
330
1
100
AcDbSymbolTableRecord
100
AcDbBlockTableRecord
  2
*Model_Space
340
79
  0
BLOCK_RECORD
  5
72
330
1
100
AcDbSymbolTableRecord
100
AcDbBlockTableRecord
  2
*Paper_Space
340
75
  0
BLOCK_RECORD
  5
13B
330
1
100
AcDbSymbolTableRecord
100
AcDbBlockTableRecord
  2
*U0
340
0
102
{BLKREFS
331
1AF
102
}
  0
BLOCK_RECORD
  5
140
102
{ACAD_XDICTIONARY
360
406
102
}
330
1
100
AcDbSymbolTableRecord
100
AcDbBlockTableRecord
  2
*U1
340
0
102
{BLKREFS
331
33F
102
}
  0
BLOCK_RECORD
  5
152
330
1
100
AcDbSymbolTableRecord
100
AcDbBlockTableRecord
  2
*U2
340
0
102
{BLKREFS
331
340
102
}
  0
BLOCK_RECORD
  5
15A
330
1
100
AcDbSymbolTableRecord
100
AcDbBlockTableRecord
  2
*U3
340
0
102
{BLKREFS
331
1C7
102
}
  0
BLOCK_RECORD
  5
16C
330
1
100
AcDbSymbolTableRecord
100
AcDbBlockTableRecord
  2
*U4
340
0
102
{BLKREFS
331
1C9
102
}
  0
BLOCK_RECORD
  5
17B
330
1
100
AcDbSymbolTableRecord
100
AcDbBlockTableRecord
  2
*U5
340
0
102
{BLKREFS
331
1C8
102
}
  0
BLOCK_RECORD
  5
188
330
1
100
AcDbSymbolTableRecord
100
AcDbBlockTableRecord
  2
*D6
340
0
  0
BLOCK_RECORD
  5
196
330
1
100
AcDbSymbolTableRecord
100
AcDbBlockTableRecord
  2
*D7
340
0
  0
BLOCK_RECORD
  5
1A4
330
1
100
AcDbSymbolTableRecord
100
AcDbBlockTableRecord
  2
*D8
340
0
102
{BLKREFS
331
1D4
102
}
  0
BLOCK_RECORD
  5
3C8
330
1
100
AcDbSymbolTableRecord
100
AcDbBlockTableRecord
  2
GENAXEH
340
0
  0
ENDTAB
  0
ENDSEC
  0
SECTION
  2
BLOCKS
  0
BLOCK
  5
77
330
76
100
AcDbEntity
  8
0
100
AcDbBlockBegin
  2
*Model_Space
 70
     0
 10
0.0
 20
0.0
 30
0.0
  3
*Model_Space
  1

  0
ENDBLK
  5
78
330
76
100
AcDbEntity
  8
0
100
AcDbBlockEnd
  0
BLOCK
  5
73
330
72
100
AcDbEntity
 67
     1
  8
0
100
AcDbBlockBegin
  2
*Paper_Space
 70
     0
 10
0.0
 20
0.0
 30
0.0
  3
*Paper_Space
  1

  0
ENDBLK
  5
74
330
72
100
AcDbEntity
 67
     1
  8
0
100
AcDbBlockEnd
  0
BLOCK
  5
13C
330
13B
100
AcDbEntity
  8
0
100
AcDbBlockBegin
  2
*U0
 70
     1
 10
0.0
 20
0.0
 30
0.0
  3
*U0
  1

  0
TEXT
  5
13D
330
13B
100
AcDbEntity
  8
126
  6
Continuous
 62
     3
100
AcDbText
 10
-0.8833333333333335
 20
-0.05
 30
0.0
 40
0.1
  1
24 LB COATED PAPER
 72
     1
 11
0.0
 21
0.0
 31
0.0
100
AcDbText
 73
     2
  0
TEXT
  5
13E
330
13B
100
AcDbEntity
  8
126
  6
Continuous
 62
     3
100
AcDbText
 10
-0.2333333333333333
 20
-0.2
 30
0.0
 40
0.1
  1
WHITE
 72
     1
 11
0.0
 21
-0.15
 31
0.0
100
AcDbText
 73
     2
  0
ENDBLK
  5
13F
330
13B
100
AcDbEntity
  8
0
100
AcDbBlockEnd
  0
BLOCK
  5
141
330
140
100
AcDbEntity
  8
0
100
AcDbBlockBegin
  2
*U1
 70
     1
 10
0.0
 20
0.0
 30
0.0
  3
*U1
  1

  0
TEXT
  5
142
330
140
100
AcDbEntity
  8
1
  6
Continuous
 62
     3
100
AcDbText
 10
0.0
 20
0.0
 30
0.0
 40
0.3
  1
CR2521
100
AcDbText
  0
TEXT
  5
143
330
140
100
AcDbEntity
  8
1
  6
Continuous
 62
     3
100
AcDbText
 10
0.0
 20
-0.4499999999999993
 30
0.0
 40
0.3
  1
D12521
100
AcDbText
  0
TEXT
  5
144
330
140
100
AcDbEntity
  8
1
  6
Continuous
 62
     3
100
AcDbText
 10
0.0
 20
-0.8999999999999984
 30
0.0
 40
0.3
  1
DW5012521
100
AcDbText
  0
TEXT
  5
145
330
140
100
AcDbEntity
  8
1
  6
Continuous
 62
     3
100
AcDbText
 10
0.0
 20
-1.35
 30
0.0
 40
0.3
  1
D612521
100
AcDbText
  0
TEXT
  5
146
330
140
100
AcDbEntity
  8
1
  6
Continuous
 62
     3
100
AcDbText
 10
0.0
 20
-1.8
 30
0.0
 40
0.3
  1
DLR252110
100
AcDbText
  0
TEXT
  5
147
330
140
100
AcDbEntity
  8
1
  6
Continuous
 62
     3
100
AcDbText
 10
0.0
 20
-2.25
 30
0.0
 40
0.3
  1
GE12521L
100
AcDbText
  0
TEXT
  5
148
330
140
100
AcDbEntity
  8
1
  6
Continuous
 62
     3
100
AcDbText
 10
0.0
 20
-2.699999999999998
 30
0.0
 40
0.3
  1
GE12521R
100
AcDbText
  0
TEXT
  5
149
330
140
100
AcDbEntity
  8
1
  6
Continuous
 62
     3
100
AcDbText
 10
0.0
 20
-3.149999999999998
 30
0.0
 40
0.3
  1
GECR2521
100
AcDbText
  0
TEXT
  5
14A
330
140
100
AcDbEntity
  8
1
  6
Continuous
 62
     3
100
AcDbText
 10
0.0
 20
-3.6
 30
0.0
 40
0.3
  1
GECR2521L
100
AcDbText
  0
TEXT
  5
14B
330
140
100
AcDbEntity
  8
1
  6
Continuous
 62
     3
100
AcDbText
 10
0.0
 20
-4.049999999999999
 30
0.0
 40
0.3
  1
GECR2521R
100
AcDbText
  0
TEXT
  5
14C
330
140
100
AcDbEntity
  8
1
  6
Continuous
 62
     3
100
AcDbText
 10
0.0
 20
-4.5
 30
0.0
 40
0.3
  1
GPF95
100
AcDbText
  0
TEXT
  5
14D
330
140
100
AcDbEntity
  8
1
  6
Continuous
 62
     3
100
AcDbText
 10
0.0
 20
-4.949999999999998
 30
0.0
 40
0.3
  1
GPF96
100
AcDbText
  0
TEXT
  5
14E
330
140
100
AcDbEntity
  8
1
  6
Continuous
 62
     3
100
AcDbText
 10
0.0
 20
-5.4
 30
0.0
 40
0.3
  1
K12521
100
AcDbText
  0
TEXT
  5
14F
330
140
100
AcDbEntity
  8
1
  6
Continuous
 62
     3
100
AcDbText
 10
0.0
 20
-5.849999999999998
 30
0.0
 40
0.3
  1
KW5012521
100
AcDbText
  0
TEXT
  5
150
330
140
100
AcDbEntity
  8
1
  6
Continuous
 62
     3
100
AcDbText
 10
0.0
 20
-6.299999999999999
 30
0.0
 40
0.3
  1
LR2521
100
AcDbText
  0
ENDBLK
  5
151
330
140
100
AcDbEntity
  8
0
100
AcDbBlockEnd
  0
BLOCK
  5
153
330
152
100
AcDbEntity
  8
0
100
AcDbBlockBegin
  2
*U2
 70
     1
 10
0.0
 20
0.0
 30
0.0
  3
*U2
  1

  0
TEXT
  5
154
330
152
100
AcDbEntity
  8
126
  6
Continuous
 62
     3
100
AcDbText
 10
0.0
 20
0.0
 30
0.0
 40
0.06053
  1
THIS PRINT IS THE PROPERTY OF ELKAY MANUFACTURING COMPANY
 41
1.0344828
100
AcDbText
  0
TEXT
  5
155
330
152
100
AcDbEntity
  8
126
  6
Continuous
 62
     3
100
AcDbText
 10
0.0
 20
-0.10553
 30
0.0
 40
0.06053
  1
AND IS LOANED SUBJECT TO RETURN UPON DEMAND AND UPON THE
 41
1.0344828
100
AcDbText
  0
TEXT
  5
156
330
152
100
AcDbEntity
  8
126
  6
Continuous
 62
     3
100
AcDbText
 10
0.0
 20
-0.21106
 30
0.0
 40
0.06053
  1
EXPRESS CONDITION THAT IT IS NOT TO BE USED DIRECTLY OR
 41
1.0344828
100
AcDbText
  0
TEXT
  5
157
330
152
100
AcDbEntity
  8
126
  6
Continuous
 62
     3
100
AcDbText
 10
0.0
 20
-0.31659
 30
0.0
 40
0.06053
  1
INDIRECTLY WITHOUT OUR PERMISSION FOR PURPOSES OTHER THAN
 41
1.0344828
100
AcDbText
  0
TEXT
  5
158
330
152
100
AcDbEntity
  8
126
  6
Continuous
 62
     3
100
AcDbText
 10
0.0
 20
-0.42212
 30
0.0
 40
0.06053
  1
THOSE FOR WHICH IT WAS FURNISHED.
 41
1.0344828
100
AcDbText
  0
ENDBLK
  5
159
330
152
100
AcDbEntity
  8
0
100
AcDbBlockEnd
  0
BLOCK
  5
15B
330
15A
100
AcDbEntity
  8
0
100
AcDbBlockBegin
  2
*U3
 70
     1
 10
0.0
 20
0.0
 30
0.0
  3
*U3
  1

  0
TEXT
  5
15C
330
15A
100
AcDbEntity
  8
1
  6
Continuous
 62
     3
100
AcDbText
 10
0.0
 20
0.0
 30
0.0
 40
0.3
  1
LRAD252140
100
AcDbText
  0
TEXT
  5
15D
330
15A
100
AcDbEntity
  8
1
  6
Continuous
 62
     3
100
AcDbText
 10
0.0
 20
-0.45
 30
0.0
 40
0.3
  1
LRAD252155
100
AcDbText
  0
TEXT
  5
15E
330
15A
100
AcDbEntity
  8
1
  6
Continuous
 62
     3
100
AcDbText
 10
0.0
 20
-0.9
 30
0.0
 40
0.3
  1
LRAD252155L
100
AcDbText
  0
TEXT
  5
15F
330
15A
100
AcDbEntity
  8
1
  6
Continuous
 62
     3
100
AcDbText
 10
0.0
 20
-1.35
 30
0.0
 40
0.3
  1
LRAD252155R
100
AcDbText
  0
TEXT
  5
160
330
15A
100
AcDbEntity
  8
1
  6
Continuous
 62
     3
100
AcDbText
 10
0.0
 20
-1.8
 30
0.0
 40
0.3
  1
LRAD252160
100
AcDbText
  0
TEXT
  5
161
330
15A
100
AcDbEntity
  8
1
  6
Continuous
 62
     3
100
AcDbText
 10
0.0
 20
-2.25
 30
0.0
 40
0.3
  1
LRAD252160L
100
AcDbText
  0
TEXT
  5
162
330
15A
100
AcDbEntity
  8
1
  6
Continuous
 62
     3
100
AcDbText
 10
0.0
 20
-2.7
 30
0.0
 40
0.3
  1
LRAD252160R
100
AcDbText
  0
TEXT
  5
163
330
15A
100
AcDbEntity
  8
1
  6
Continuous
 62
     3
100
AcDbText
 10
0.0
 20
-3.149999999999999
 30
0.0
 40
0.3
  1
LRAD252165
100
AcDbText
  0
TEXT
  5
164
330
15A
100
AcDbEntity
  8
1
  6
Continuous
 62
     3
100
AcDbText
 10
0.0
 20
-3.6
 30
0.0
 40
0.3
  1
LRAD252165L
100
AcDbText
  0
TEXT
  5
165
330
15A
100
AcDbEntity
  8
1
  6
Continuous
 62
     3
100
AcDbText
 10
0.0
 20
-4.049999999999998
 30
0.0
 40
0.3
  1
LRAD252165R
100
AcDbText
  0
TEXT
  5
166
330
15A
100
AcDbEntity
  8
1
  6
Continuous
 62
     3
100
AcDbText
 10
0.0
 20
-4.5
 30
0.0
 40
0.3
  1
LRADQ252140
100
AcDbText
  0
TEXT
  5
167
330
15A
100
AcDbEntity
  8
1
  6
Continuous
 62
     3
100
AcDbText
 10
0.0
 20
-4.95
 30
0.0
 40
0.3
  1
LRADQ252155
100
AcDbText
  0
TEXT
  5
168
330
15A
100
AcDbEntity
  8
1
  6
Continuous
 62
     3
100
AcDbText
 10
0.0
 20
-5.4
 30
0.0
 40
0.3
  1
LRADQ252155L
100
AcDbText
  0
TEXT
  5
169
330
15A
100
AcDbEntity
  8
1
  6
Continuous
 62
     3
100
AcDbText
 10
0.0
 20
-5.849999999999998
 30
0.0
 40
0.3
  1
LRADQ252155R
100
AcDbText
  0
TEXT
  5
16A
330
15A
100
AcDbEntity
  8
1
  6
Continuous
 62
     3
100
AcDbText
 10
0.0
 20
-6.299999999999998
 30
0.0
 40
0.3
  1
LRADQ252160
100
AcDbText
  0
ENDBLK
  5
16B
330
15A
100
AcDbEntity
  8
0
100
AcDbBlockEnd
  0
BLOCK
  5
16D
330
16C
100
AcDbEntity
  8
0
100
AcDbBlockBegin
  2
*U4
 70
     1
 10
0.0
 20
0.0
 30
0.0
  3
*U4
  1

  0
TEXT
  5
16E
330
16C
100
AcDbEntity
  8
1
  6
Continuous
 62
     3
100
AcDbText
 10
0.0
 20
0.0
 30
0.0
 40
0.3
  1
LRADQ252160L
100
AcDbText
  0
TEXT
  5
16F
330
16C
100
AcDbEntity
  8
1
  6
Continuous
 62
     3
100
AcDbText
 10
0.0
 20
-0.45
 30
0.0
 40
0.3
  1
LRADQ252160R
100
AcDbText
  0
TEXT
  5
170
330
16C
100
AcDbEntity
  8
1
  6
Continuous
 62
     3
100
AcDbText
 10
0.0
 20
-0.9
 30
0.0
 40
0.3
  1
LRADQ252165
100
AcDbText
  0
TEXT
  5
171
330
16C
100
AcDbEntity
  8
1
  6
Continuous
 62
     3
100
AcDbText
 10
0.0
 20
-1.35
 30
0.0
 40
0.3
  1
LRADQ252165L
100
AcDbText
  0
TEXT
  5
172
330
16C
100
AcDbEntity
  8
1
  6
Continuous
 62
     3
100
AcDbText
 10
0.0
 20
-1.8
 30
0.0
 40
0.3
  1
LRADQ252165R
100
AcDbText
  0
TEXT
  5
173
330
16C
100
AcDbEntity
  8
1
  6
Continuous
 62
     3
100
AcDbText
 10
0.0
 20
-2.25
 30
0.0
 40
0.3
  1
LRQ2521
100
AcDbText
  0
TEXT
  5
174
330
16C
100
AcDbEntity
  8
1
  6
Continuous
 62
     3
100
AcDbText
 10
0.0
 20
-2.7
 30
0.0
 40
0.3
  1
MLR2521
100
AcDbText
  0
TEXT
  5
175
330
16C
100
AcDbEntity
  8
1
  6
Continuous
 62
     3
100
AcDbText
 10
0.0
 20
-3.149999999999999
 30
0.0
 40
0.3
  1
MLRAD252155
100
AcDbText
  0
TEXT
  5
176
330
16C
100
AcDbEntity
  8
1
  6
Continuous
 62
     3
100
AcDbText
 10
0.0
 20
-3.6
 30
0.0
 40
0.3
  1
PSR2521
100
AcDbText
  0
TEXT
  5
177
330
16C
100
AcDbEntity
  8
1
  6
Continuous
 62
     3
100
AcDbText
 10
0.0
 20
-4.049999999999998
 30
0.0
 40
0.3
  1
PSRQ2521
100
AcDbText
  0
TEXT
  5
178
330
16C
100
AcDbEntity
  8
1
  6
Continuous
 62
     3
100
AcDbText
 10
0.0
 20
-4.5
 30
0.0
 40
0.3
  1
NS12521
100
AcDbText
  0
TEXT
  5
179
330
16C
100
AcDbEntity
  8
1
  6
Continuous
 62
     3
100
AcDbText
 10
0.0
 20
-4.95
 30
0.0
 40
0.3
  1
SDB2521
100
AcDbText
  0
ENDBLK
  5
17A
330
16C
100
AcDbEntity
  8
0
100
AcDbBlockEnd
  0
BLOCK
  5
17C
330
17B
100
AcDbEntity
  8
0
100
AcDbBlockBegin
  2
*U5
 70
     1
 10
0.0
 20
0.0
 30
0.0
  3
*U5
  1

  0
TEXT
  5
17D
330
17B
100
AcDbEntity
  8
1
  6
Continuous
 62
     3
100
AcDbText
 10
-3.666666666666669
 20
-0.1375
 30
0.0
 40
0.275
  1
VERIFY THAT THE MODEL BEING
 72
     1
 11
0.0
 21
0.0
 31
0.0
100
AcDbText
 73
     2
  0
TEXT
  5
17E
330
17B
100
AcDbEntity
  8
1
  6
Continuous
 62
     3
100
AcDbText
 10
-3.414583333333335
 20
-0.55
 30
0.0
 40
0.275
  1
INSTALLED IS LISTED ABOVE
 72
     1
 11
0.0
 21
-0.4125
 31
0.0
100
AcDbText
 73
     2
  0
TEXT
  5
17F
330
17B
100
AcDbEntity
  8
1
  6
Continuous
 62
     3
100
AcDbText
 10
-3.529166666666669
 20
-0.9625
 30
0.0
 40
0.275
  1
BEFORE USING THIS TEMPLATE
 72
     1
 11
0.0
 21
-0.825
 31
0.0
100
AcDbText
 73
     2
  0
TEXT
  5
180
330
17B
100
AcDbEntity
  8
1
  6
Continuous
 62
     3
100
AcDbText
 10
-0.275
 20
-1.375
 30
0.0
 40
0.275
  1
  
 72
     1
 11
0.0
 21
-1.2375
 31
0.0
100
AcDbText
 73
     2
  0
TEXT
  5
181
330
17B
100
AcDbEntity
  8
1
  6
Continuous
 62
     3
100
AcDbText
 10
-2.841666666666668
 20
-1.787499999999998
 30
0.0
 40
0.275
  1
CHECK THE TEMPLATE BY
 72
     1
 11
0.0
 21
-1.649999999999999
 31
0.0
100
AcDbText
 73
     2
  0
TEXT
  5
182
330
17B
100
AcDbEntity
  8
1
  6
Continuous
 62
     3
100
AcDbText
 10
-2.429166666666667
 20
-2.2
 30
0.0
 40
0.275
  1
LAYING IT OVER THE
 72
     1
 11
0.0
 21
-2.0625
 31
0.0
100
AcDbText
 73
     2
  0
TEXT
  5
183
330
17B
100
AcDbEntity
  8
1
  6
Continuous
 62
     3
100
AcDbText
 10
-3.529166666666669
 20
-2.6125
 30
0.0
 40
0.275
  1
SINK PRIOR TO INSTALLATION
 72
     1
 11
0.0
 21
-2.475
 31
0.0
100
AcDbText
 73
     2
  0
TEXT
  5
184
330
17B
100
AcDbEntity
  8
1
  6
Continuous
 62
     3
100
AcDbText
 10
-0.1375
 20
-3.025
 30
0.0
 40
0.275
  1
 
 72
     1
 11
0.0
 21
-2.8875
 31
0.0
100
AcDbText
 73
     2
  0
TEXT
  5
185
330
17B
100
AcDbEntity
  8
1
  6
Continuous
 62
     3
100
AcDbText
 10
-3.804166666666669
 20
-3.437499999999999
 30
0.0
 40
0.275
  1
FOR QUESTIONS PLEASE CONTACT
 72
     1
 11
0.0
 21
-3.299999999999998
 31
0.0
100
AcDbText
 73
     2
  0
TEXT
  5
186
330
17B
100
AcDbEntity
  8
1
  6
Continuous
 62
     3
100
AcDbText
 10
-2.979166666666669
 20
-3.849999999999999
 30
0.0
 40
0.275
  1
ELKAY CUSTOMER SERVICE
 72
     1
 11
0.0
 21
-3.712499999999999
 31
0.0
100
AcDbText
 73
     2
  0
ENDBLK
  5
187
330
17B
100
AcDbEntity
  8
0
100
AcDbBlockEnd
  0
BLOCK
  5
189
330
188
100
AcDbEntity
  8
0
100
AcDbBlockBegin
  2
*D6
 70
     1
 10
0.0
 20
0.0
 30
0.0
  3
*D6
  1

  0
LINE
  5
18A
330
188
100
AcDbEntity
  8
1
  6
Continuous
 62
     3
100
AcDbLine
 10
25.6084
 20
2.480039899999999
 30
0.0
 11
29.232427
 21
2.480039899999999
 31
0.0
  0
LINE
  5
18B
330
188
100
AcDbEntity
  8
1
  6
Continuous
 62
     3
100
AcDbLine
 10
25.6084
 20
23.10504
 30
0.0
 11
29.232427
 21
23.10504
 31
0.0
  0
LINE
  5
18C
330
188
100
AcDbEntity
  8
1
  6
Continuous
 62
     3
100
AcDbLine
 10
28.982427
 20
2.480039899999999
 30
0.0
 11
29.06576
 21
2.980039899999998
 31
0.0
  0
LINE
  5
18D
330
188
100
AcDbEntity
  8
1
  6
Continuous
 62
     3
100
AcDbLine
 10
28.982427
 20
2.480039899999999
 30
0.0
 11
28.899094
 21
2.980039899999998
 31
0.0
  0
LINE
  5
18E
330
188
100
AcDbEntity
  8
1
  6
Continuous
 62
     3
100
AcDbLine
 10
29.06576
 20
2.980039899999998
 30
0.0
 11
28.899094
 21
2.980039899999998
 31
0.0
  0
LINE
  5
18F
330
188
100
AcDbEntity
  8
1
  6
Continuous
 62
     3
100
AcDbLine
 10
28.982427
 20
23.10504
 30
0.0
 11
29.06576
 21
22.60504
 31
0.0
  0
LINE
  5
190
330
188
100
AcDbEntity
  8
1
  6
Continuous
 62
     3
100
AcDbLine
 10
28.982427
 20
23.10504
 30
0.0
 11
28.899094
 21
22.60504
 31
0.0
  0
LINE
  5
191
330
188
100
AcDbEntity
  8
1
  6
Continuous
 62
     3
100
AcDbLine
 10
29.06576
 20
22.60504
 30
0.0
 11
28.899094
 21
22.60504
 31
0.0
  0
LINE
  5
192
330
188
100
AcDbEntity
  8
1
  6
Continuous
 62
     3
100
AcDbLine
 10
28.982427
 20
2.480039899999999
 30
0.0
 11
28.982427
 21
12.35504
 31
0.0
  0
LINE
  5
193
330
188
100
AcDbEntity
  8
1
  6
Continuous
 62
     3
100
AcDbLine
 10
28.982427
 20
23.10504
 30
0.0
 11
28.982427
 21
13.23004
 31
0.0
  0
TEXT
  5
194
330
188
100
AcDbEntity
  8
1
  6
Continuous
 62
     3
100
AcDbText
 10
27.857427
 20
12.60504
 30
0.0
 40
0.375
  1
20 5/8
100
AcDbText
  0
ENDBLK
  5
195
330
188
100
AcDbEntity
  8
0
100
AcDbBlockEnd
  0
BLOCK
  5
197
330
196
100
AcDbEntity
  8
0
100
AcDbBlockBegin
  2
*D7
 70
     1
 10
0.0
 20
0.0
 30
0.0
  3
*D7
  1

  0
LINE
  5
198
330
196
100
AcDbEntity
  8
1
  6
Continuous
 62
     3
100
AcDbLine
 10
27.0084
 20
3.880039899999998
 30
0.0
 11
27.0084
 21
1.1115905
 31
0.0
  0
LINE
  5
199
330
196
100
AcDbEntity
  8
1
  6
Continuous
 62
     3
100
AcDbLine
 10
2.6333999
 20
3.880039899999998
 30
0.0
 11
2.6333999
 21
1.1115905
 31
0.0
  0
LINE
  5
19A
330
196
100
AcDbEntity
  8
1
  6
Continuous
 62
     3
100
AcDbLine
 10
27.0084
 20
1.3615905
 30
0.0
 11
26.5084
 21
1.4449238
 31
0.0
  0
LINE
  5
19B
330
196
100
AcDbEntity
  8
1
  6
Continuous
 62
     3
100
AcDbLine
 10
27.0084
 20
1.3615905
 30
0.0
 11
26.5084
 21
1.2782572
 31
0.0
  0
LINE
  5
19C
330
196
100
AcDbEntity
  8
1
  6
Continuous
 62
     3
100
AcDbLine
 10
26.5084
 20
1.4449238
 30
0.0
 11
26.5084
 21
1.2782572
 31
0.0
  0
LINE
  5
19D
330
196
100
AcDbEntity
  8
1
  6
Continuous
 62
     3
100
AcDbLine
 10
2.6333999
 20
1.3615905
 30
0.0
 11
3.1333999
 21
1.4449238
 31
0.0
  0
LINE
  5
19E
330
196
100
AcDbEntity
  8
1
  6
Continuous
 62
     3
100
AcDbLine
 10
2.6333999
 20
1.3615905
 30
0.0
 11
3.1333999
 21
1.2782572
 31
0.0
  0
LINE
  5
19F
330
196
100
AcDbEntity
  8
1
  6
Continuous
 62
     3
100
AcDbLine
 10
3.1333999
 20
1.4449238
 30
0.0
 11
3.1333999
 21
1.2782572
 31
0.0
  0
LINE
  5
1A0
330
196
100
AcDbEntity
  8
1
  6
Continuous
 62
     3
100
AcDbLine
 10
27.0084
 20
1.3615905
 30
0.0
 11
16.1959
 21
1.3615905
 31
0.0
  0
LINE
  5
1A1
330
196
100
AcDbEntity
  8
1
  6
Continuous
 62
     3
100
AcDbLine
 10
2.6333999
 20
1.3615905
 30
0.0
 11
13.4459
 21
1.3615905
 31
0.0
  0
TEXT
  5
1A2
330
196
100
AcDbEntity
  8
1
  6
Continuous
 62
     3
100
AcDbText
 10
13.6959
 20
1.1740905
 30
0.0
 40
0.375
  1
24 3/8
100
AcDbText
  0
ENDBLK
  5
1A3
330
196
100
AcDbEntity
  8
0
100
AcDbBlockEnd
  0
BLOCK
  5
1A5
330
1A4
100
AcDbEntity
  8
0
100
AcDbBlockBegin
  2
*D8
 70
     1
 10
0.0
 20
0.0
 30
0.0
  3
*D8
  1

  0
LINE
  5
1A6
330
1A4
100
AcDbEntity
  8
1
  6
Continuous
 62
     3
100
AcDbLine
 10
3.171018099999998
 20
22.755614
 30
0.0
 11
4.296553599999998
 21
21.728264
 31
0.0
  0
LINE
  5
1A7
330
1A4
100
AcDbEntity
  8
1
  6
Continuous
 62
     3
100
AcDbLine
 10
3.171018099999998
 20
22.755614
 30
0.0
 11
3.4841321
 21
22.356986
 31
0.0
  0
LINE
  5
1A8
330
1A4
100
AcDbEntity
  8
1
  6
Continuous
 62
     3
100
AcDbLine
 10
3.171018099999998
 20
22.755614
 30
0.0
 11
3.5964917
 21
22.480084
 31
0.0
  0
LINE
  5
1A9
330
1A4
100
AcDbEntity
  8
1
  6
Continuous
 62
     3
100
AcDbLine
 10
3.4841321
 20
22.356986
 30
0.0
 11
3.5964917
 21
22.480084
 31
0.0
  0
LINE
  5
1AA
330
1A4
100
AcDbEntity
  8
1
  6
Continuous
 62
     3
100
AcDbLine
 10
4.421553599999998
 20
21.728264
 30
0.0
 11
4.296553599999998
 21
21.728264
 31
0.0
  0
TEXT
  5
1AB
330
1A4
100
AcDbEntity
  8
1
  6
Continuous
 62
     3
100
AcDbText
 10
4.484053599999998
 20
21.54076400000001
 30
0.0
 40
0.375
  1
R 1 1/2
100
AcDbText
  0
ENDBLK
  5
1AC
330
1A4
100
AcDbEntity
  8
0
100
AcDbBlockEnd
  0
BLOCK
  5
3CA
330
3C8
100
AcDbEntity
  8
0
 62
     3
100
AcDbBlockBegin
  2
GENAXEH
 70
     0
 10
0.0
 20
0.0
 30
0.0
  3
GENAXEH
  1

  0
LINE
  5
3C9
330
3C8
100
AcDbEntity
  8
0
100
AcDbLine
 10
-1.0
 20
0.0
 30
0.0
 11
1.0
 21
0.0
 31
0.0
  0
ENDBLK
  5
3CB
330
3C8
100
AcDbEntity
  8
0
 62
     3
100
AcDbBlockEnd
  0
ENDSEC
  0
SECTION
  2
ENTITIES
  0
DIMENSION
  5
1AD
330
76
100
AcDbEntity
  8
1
  6
Continuous
 62
     3
100
AcDbDimension
  2
*D6
 10
28.982427
 20
23.10504
 30
0.0
 11
28.982427
 21
12.79254
 31
0.0
 70
   128
 71
     5
 42
-1.0
  3
DSTYLE1
100
AcDbAlignedDimension
 13
25.5084
 23
2.480039899999999
 33
0.0
 14
25.5084
 24
23.10504
 34
0.0
 50
90.0
100
AcDbRotatedDimension
  0
TEXT
  5
1AE
330
76
100
AcDbEntity
  8
126
  6
Continuous
 62
     3
100
AcDbText
 10
33.87604671606285
 20
1.330930949284914
 30
0.0
 40
0.08
  1
REL - ECNBV03397 01JUN04
100
AcDbText
  0
INSERT
  5
1AF
330
76
100
AcDbEntity
  8
126
100
AcDbBlockReference
  2
*U0
 10
31.77245771606286
 20
2.046971449284915
 30
0.0
  0
POLYLINE
  5
1B0
330
76
100
AcDbEntity
  8
1
  6
Continuous
 62
     3
100
AcDb2dPolyline
 66
     1
 10
0.0
 20
0.0
 30
0.0
 40
0.02
 41
0.02
  0
VERTEX
  5
1B1
330
1B0
100
AcDbEntity
  8
1
 62
     3
100
AcDbVertex
100
AcDb2dVertex
 10
10.163133
 20
3.980039899999998
 30
0.0
  0
VERTEX
  5
1B2
330
1B0
100
AcDbEntity
  8
1
 62
     3
100
AcDbVertex
100
AcDb2dVertex
 10
19.478667
 20
3.980039899999998
 30
0.0
  0
SEQEND
  5
1B3
330
1B0
100
AcDbEntity
  8
1
 62
     3
  0
POLYLINE
  5
1B4
330
76
100
AcDbEntity
  8
1
  6
Continuous
 62
     3
100
AcDb2dPolyline
 66
     1
 10
0.0
 20
0.0
 30
0.0
 40
0.02
 41
0.02
  0
VERTEX
  5
1B5
330
1B4
100
AcDbEntity
  8
1
 62
     3
100
AcDbVertex
100
AcDb2dVertex
 10
10.163133
 20
8.919358199999997
 30
0.0
  0
VERTEX
  5
1B6
330
1B4
100
AcDbEntity
  8
1
 62
     3
100
AcDbVertex
100
AcDb2dVertex
 10
10.163133
 20
3.980039899999998
 30
0.0
  0
SEQEND
  5
1B7
330
1B4
100
AcDbEntity
  8
1
 62
     3
  0
POLYLINE
  5
1B8
330
76
100
AcDbEntity
  8
1
  6
Continuous
 62
     3
100
AcDb2dPolyline
 66
     1
 10
0.0
 20
0.0
 30
0.0
 40
0.02
 41
0.02
  0
VERTEX
  5
1B9
330
1B8
100
AcDbEntity
  8
1
 62
     3
100
AcDbVertex
100
AcDb2dVertex
 10
10.163133
 20
8.919358199999997
 30
0.0
  0
VERTEX
  5
1BA
330
1B8
100
AcDbEntity
  8
1
 62
     3
100
AcDbVertex
100
AcDb2dVertex
 10
14.8209
 20
10.691628
 30
0.0
  0
SEQEND
  5
1BB
330
1B8
100
AcDbEntity
  8
1
 62
     3
  0
POLYLINE
  5
1BC
330
76
100
AcDbEntity
  8
1
  6
Continuous
 62
     3
100
AcDb2dPolyline
 66
     1
 10
0.0
 20
0.0
 30
0.0
 40
0.02
 41
0.02
  0
VERTEX
  5
1BD
330
1BC
100
AcDbEntity
  8
1
 62
     3
100
AcDbVertex
100
AcDb2dVertex
 10
14.8209
 20
10.691628
 30
0.0
  0
VERTEX
  5
1BE
330
1BC
100
AcDbEntity
  8
1
 62
     3
100
AcDbVertex
100
AcDb2dVertex
 10
19.478667
 20
8.919358199999997
 30
0.0
  0
SEQEND
  5
1BF
330
1BC
100
AcDbEntity
  8
1
 62
     3
  0
POLYLINE
  5
1C0
330
76
100
AcDbEntity
  8
1
  6
Continuous
 62
     3
100
AcDb2dPolyline
 66
     1
 10
0.0
 20
0.0
 30
0.0
 40
0.02
 41
0.02
  0
VERTEX
  5
1C1
330
1C0
100
AcDbEntity
  8
1
 62
     3
100
AcDbVertex
100
AcDb2dVertex
 10
19.478667
 20
3.980039899999998
 30
0.0
  0
VERTEX
  5
1C2
330
1C0
100
AcDbEntity
  8
1
 62
     3
100
AcDbVertex
100
AcDb2dVertex
 10
19.478667
 20
8.919358199999997
 30
0.0
  0
SEQEND
  5
1C3
330
1C0
100
AcDbEntity
  8
1
 62
     3
  0
TEXT
  5
1C4
330
76
100
AcDbEntity
  8
1
  6
Continuous
 62
     3
100
AcDbText
 10
13.660146
 20
3.078949899999998
 30
0.0
 40
0.3
  1
74180436
 72
     1
 11
14.810146
 21
3.228949899999998
 31
0.0
100
AcDbText
 73
     2
  0
TEXT
  5
1C5
330
76
100
AcDbEntity
  8
126
  6
Continuous
 62
     3
100
AcDbText
 10
35.47094571606285
 20
1.810489349284914
 30
0.0
 40
0.1
  1
JAS
100
AcDbText
  0
TEXT
  5
1C6
330
76
100
AcDbEntity
  8
1
  6
Continuous
 62
     3
100
AcDbText
 10
12.27565966666666
 20
9.01519
 30
0.0
 40
0.4
  1
**IMPORTANT**
 51
359.9999958057
 72
     1
 11
14.808993
 21
9.215189999999999
 31
0.0
100
AcDbText
 73
     2
  0
INSERT
  5
1C7
330
76
100
AcDbEntity
  8
1
100
AcDbBlockReference
  2
*U3
 10
13.144653
 20
19.815788
 30
0.0
  0
INSERT
  5
1C8
330
76
100
AcDbEntity
  8
1
100
AcDbBlockReference
  2
*U5
 10
14.831248
 20
8.217544999999999
 30
0.0
  0
INSERT
  5
1C9
330
76
100
AcDbEntity
  8
1
100
AcDbBlockReference
  2
*U4
 10
18.113726
 20
19.815788
 30
0.0
  0
TEXT
  5
1D2
330
76
100
AcDbEntity
  8
1
  6
Continuous
 62
     3
100
AcDbText
 10
12.46409366666666
 20
20.688966
 30
0.0
 40
0.4
  1
TEMPLATE FOR
 72
     1
 11
14.797427
 21
20.888966
 31
0.0
100
AcDbText
 73
     2
  0
DIMENSION
  5
1D3
330
76
100
AcDbEntity
  8
1
  6
Continuous
 62
     3
100
AcDbDimension
  2
*D7
 10
2.6333999
 20
1.3615905
 30
0.0
 11
14.8209
 21
1.3615905
 31
0.0
 70
   128
 71
     5
 42
-1.0
  3
DSTYLE1
100
AcDbAlignedDimension
 13
27.0084
 23
3.980039899999998
 33
0.0
 14
2.6333999
 24
3.980039899999998
 34
0.0
100
AcDbRotatedDimension
  0
INSERT
  5
1D4
330
76
100
AcDbEntity
  8
1
100
AcDbBlockReference
  2
*D8
 10
0.0
 20
0.0
 30
0.0
  0
LINE
  5
1D5
330
76
100
AcDbEntity
  8
1
  6
Continuous
 62
     3
100
AcDbLine
 10
17.247916
 20
20.622368
 30
0.0
 11
12.338936
 21
20.622368
 31
0.0
  0
TEXT
  5
1D6
330
76
100
AcDbEntity
  8
180
  6
Continuous
 62
     1
100
AcDbText
 10
35.42657771606285
 20
2.676231549284914
 30
0.0
 40
0.125
  1
MANUFACTURING COMPANY
 41
0.9
100
AcDbText
  0
TEXT
  5
1D7
330
76
100
AcDbEntity
  8
126
  6
Continuous
 62
     3
100
AcDbText
 10
35.14369871606285
 20
2.521289749284914
 30
0.0
 40
0.075
  1
BROADVIEW, ILLINOIS
 72
     1
 11
35.84369871606285
 21
2.558789749284914
 31
0.0
100
AcDbText
 73
     2
  0
LINE
  5
1D8
330
76
100
AcDbEntity
  8
126
  6
Continuous
 62
     3
100
AcDbLine
 10
34.23735771606285
 20
2.677924449284915
 30
0.0
 11
34.42698871606285
 21
2.677924449284915
 31
0.0
  0
LINE
  5
1D9
330
76
100
AcDbEntity
  8
126
  6
Continuous
 62
     3
100
AcDbLine
 10
33.91093171606285
 20
2.838978849284913
 30
0.0
 11
34.17323871606285
 21
2.838978849284913
 31
0.0
  0
LINE
  5
1DA
330
76
100
AcDbEntity
  8
126
  6
Continuous
 62
     3
100
AcDbLine
 10
33.87770671606285
 20
2.650549449284913
 30
0.0
 11
34.15270671606285
 21
2.650549449284913
 31
0.0
  0
LINE
  5
1DB
330
76
100
AcDbEntity
  8
126
  6
Continuous
 62
     3
100
AcDbLine
 10
33.87770671606285
 20
2.650549449284913
 30
0.0
 11
33.91093171606285
 21
2.838978849284913
 31
0.0
  0
LINE
  5
1DC
330
76
100
AcDbEntity
  8
126
  6
Continuous
 62
     3
100
AcDbLine
 10
33.95824571606285
 20
2.811603849284914
 30
0.0
 11
34.16841171606285
 21
2.811603849284914
 31
0.0
  0
LINE
  5
1DD
330
76
100
AcDbEntity
  8
126
  6
Continuous
 62
     3
100
AcDbLine
 10
34.18036271606285
 20
2.650549449284913
 30
0.0
 11
34.21358771606286
 21
2.838978849284913
 31
0.0
  0
LINE
  5
1DE
330
76
100
AcDbEntity
  8
126
  6
Continuous
 62
     3
100
AcDbLine
 10
34.21358771606286
 20
2.838978849284913
 30
0.0
 11
34.26575571606285
 21
2.838978849284913
 31
0.0
  0
LINE
  5
1DF
330
76
100
AcDbEntity
  8
126
  6
Continuous
 62
     3
100
AcDbLine
 10
34.18036271606285
 20
2.650549449284913
 30
0.0
 11
34.42216171606285
 21
2.650549449284913
 31
0.0
  0
LINE
  5
1E0
330
76
100
AcDbEntity
  8
126
  6
Continuous
 62
     3
100
AcDbLine
 10
34.23735771606285
 20
2.677924449284915
 30
0.0
 11
34.26575571606285
 21
2.838978849284913
 31
0.0
  0
LINE
  5
1E1
330
76
100
AcDbEntity
  8
126
  6
Continuous
 62
     3
100
AcDbLine
 10
33.94888471606285
 20
2.758514149284915
 30
0.0
 11
33.95824571606285
 21
2.811603849284914
 31
0.0
  0
LINE
  5
1E2
330
76
100
AcDbEntity
  8
126
  6
Continuous
 62
     3
100
AcDbLine
 10
34.16841171606285
 20
2.811603849284914
 30
0.0
 11
34.17323871606285
 21
2.838978849284913
 31
0.0
  0
LINE
  5
1E3
330
76
100
AcDbEntity
  8
126
  6
Continuous
 62
     3
100
AcDbLine
 10
34.14150871606285
 20
2.731014149284915
 30
0.0
 11
34.14635771606285
 21
2.758514149284915
 31
0.0
  0
LINE
  5
1E4
330
76
100
AcDbEntity
  8
126
  6
Continuous
 62
     3
100
AcDbLine
 10
35.37528771606285
 20
2.838978849284913
 30
0.0
 11
35.22101171606286
 21
2.723799449284914
 31
0.0
  0
LINE
  5
1E5
330
76
100
AcDbEntity
  8
126
  6
Continuous
 62
     3
100
AcDbLine
 10
35.37528771606285
 20
2.838978849284913
 30
0.0
 11
35.31406671606286
 21
2.838978849284913
 31
0.0
  0
LINE
  5
1E6
330
76
100
AcDbEntity
  8
126
  6
Continuous
 62
     3
100
AcDbLine
 10
35.31406671606286
 20
2.838978849284913
 30
0.0
 11
35.20071571606286
 21
2.754352949284915
 31
0.0
  0
LINE
  5
1E7
330
76
100
AcDbEntity
  8
126
  6
Continuous
 62
     3
100
AcDbLine
 10
34.15270671606285
 20
2.650549449284913
 30
0.0
 11
34.15753371606285
 21
2.677924449284915
 31
0.0
  0
LINE
  5
1E8
330
76
100
AcDbEntity
  8
126
  6
Continuous
 62
     3
100
AcDbLine
 10
33.93825471606285
 20
2.677924449284915
 30
0.0
 11
33.94761671606286
 21
2.731014149284915
 31
0.0
  0
LINE
  5
1E9
330
76
100
AcDbEntity
  8
126
  6
Continuous
 62
     3
100
AcDbLine
 10
34.14635771606285
 20
2.758514149284915
 30
0.0
 11
33.94888471606285
 21
2.758514149284915
 31
0.0
  0
LINE
  5
1EA
330
76
100
AcDbEntity
  8
126
  6
Continuous
 62
     3
100
AcDbLine
 10
33.94761671606286
 20
2.731014149284915
 30
0.0
 11
34.14150871606285
 21
2.731014149284915
 31
0.0
  0
LINE
  5
1EB
330
76
100
AcDbEntity
  8
126
  6
Continuous
 62
     3
100
AcDbLine
 10
34.77586171606285
 20
2.838978849284913
 30
0.0
 11
34.63273771606285
 21
2.757787149284915
 31
0.0
  0
LINE
  5
1EC
330
76
100
AcDbEntity
  8
126
  6
Continuous
 62
     3
100
AcDbLine
 10
33.93825471606285
 20
2.677924449284915
 30
0.0
 11
34.15753371606285
 21
2.677924449284915
 31
0.0
  0
LINE
  5
1ED
330
76
100
AcDbEntity
  8
126
  6
Continuous
 62
     3
100
AcDbLine
 10
34.42216171606285
 20
2.650549449284913
 30
0.0
 11
34.42698871606285
 21
2.677924449284915
 31
0.0
  0
LINE
  5
1EE
330
76
100
AcDbEntity
  8
126
  6
Continuous
 62
     3
100
AcDbLine
 10
34.70163471606285
 20
2.838978849284913
 30
0.0
 11
34.77586171606285
 21
2.838978849284913
 31
0.0
  0
LINE
  5
1EF
330
76
100
AcDbEntity
  8
126
  6
Continuous
 62
     3
100
AcDbLine
 10
34.66824071606286
 20
2.650549449284913
 30
0.0
 11
34.74946171606286
 21
2.650549449284913
 31
0.0
  0
LINE
  5
1F0
330
76
100
AcDbEntity
  8
126
  6
Continuous
 62
     3
100
AcDbLine
 10
34.50826171606286
 20
2.687174449284914
 30
0.0
 11
34.50180371606285
 21
2.650549449284913
 31
0.0
  0
LINE
  5
1F1
330
76
100
AcDbEntity
  8
126
  6
Continuous
 62
     3
100
AcDbLine
 10
34.53502871606286
 20
2.838978849284913
 30
0.0
 11
34.51651171606285
 21
2.733962249284914
 31
0.0
  0
LINE
  5
1F2
330
76
100
AcDbEntity
  8
126
  6
Continuous
 62
     3
100
AcDbLine
 10
34.92349871606285
 20
2.838978849284913
 30
0.0
 11
35.01499871606285
 21
2.838978849284913
 31
0.0
  0
LINE
  5
1F3
330
76
100
AcDbEntity
  8
126
  6
Continuous
 62
     3
100
AcDbLine
 10
35.04560571606285
 20
2.650549449284913
 30
0.0
 11
35.10662371606285
 21
2.650549449284913
 31
0.0
  0
LINE
  5
1F4
330
76
100
AcDbEntity
  8
126
  6
Continuous
 62
     3
100
AcDbLine
 10
34.58252271606286
 20
2.729301049284914
 30
0.0
 11
34.50826171606286
 21
2.687174449284914
 31
0.0
  0
LINE
  5
1F5
330
76
100
AcDbEntity
  8
126
  6
Continuous
 62
     3
100
AcDbLine
 10
34.70163471606285
 20
2.838978849284913
 30
0.0
 11
34.51651171606285
 21
2.733962249284914
 31
0.0
  0
LINE
  5
1F6
330
76
100
AcDbEntity
  8
126
  6
Continuous
 62
     3
100
AcDbLine
 10
34.53502871606286
 20
2.838978849284913
 30
0.0
 11
34.48286171606285
 21
2.838978849284913
 31
0.0
  0
LINE
  5
1F7
330
76
100
AcDbEntity
  8
126
  6
Continuous
 62
     3
100
AcDbLine
 10
34.44963671606285
 20
2.650549449284913
 30
0.0
 11
34.48286171606285
 21
2.838978849284913
 31
0.0
  0
LINE
  5
1F8
330
76
100
AcDbEntity
  8
126
  6
Continuous
 62
     3
100
AcDbLine
 10
34.74946171606286
 20
2.650549449284913
 30
0.0
 11
34.63273771606285
 21
2.757787149284915
 31
0.0
  0
LINE
  5
1F9
330
76
100
AcDbEntity
  8
126
  6
Continuous
 62
     3
100
AcDbLine
 10
34.66824071606286
 20
2.650549449284913
 30
0.0
 11
34.58252271606286
 21
2.729301049284914
 31
0.0
  0
LINE
  5
1FA
330
76
100
AcDbEntity
  8
126
  6
Continuous
 62
     3
100
AcDbLine
 10
34.50180371606285
 20
2.650549449284913
 30
0.0
 11
34.44963671606285
 21
2.650549449284913
 31
0.0
  0
LINE
  5
1FB
330
76
100
AcDbEntity
  8
126
  6
Continuous
 62
     3
100
AcDbLine
 10
34.75862371606285
 20
2.650549449284913
 30
0.0
 11
34.80729071606285
 21
2.650549449284913
 31
0.0
  0
LINE
  5
1FC
330
76
100
AcDbEntity
  8
126
  6
Continuous
 62
     3
100
AcDbLine
 10
34.86241471606285
 20
2.713549449284915
 30
0.0
 11
34.96047671606285
 21
2.825620049284913
 31
0.0
  0
LINE
  5
1FD
330
76
100
AcDbEntity
  8
126
  6
Continuous
 62
     3
100
AcDbLine
 10
35.01497171606285
 20
2.713549449284915
 30
0.0
 11
34.96047671606285
 21
2.825620049284913
 31
0.0
  0
LINE
  5
1FE
330
76
100
AcDbEntity
  8
126
  6
Continuous
 62
     3
100
AcDbLine
 10
34.75862371606285
 20
2.650549449284913
 30
0.0
 11
34.92349871606285
 21
2.838978849284913
 31
0.0
  0
LINE
  5
1FF
330
76
100
AcDbEntity
  8
126
  6
Continuous
 62
     3
100
AcDbLine
 10
34.83933671606286
 20
2.687174449284914
 30
0.0
 11
35.02779671606286
 21
2.687174449284914
 31
0.0
  0
LINE
  5
200
330
76
100
AcDbEntity
  8
126
  6
Continuous
 62
     3
100
AcDbLine
 10
35.10662371606285
 20
2.650549449284913
 30
0.0
 11
35.01499871606285
 21
2.838978849284913
 31
0.0
  0
LINE
  5
201
330
76
100
AcDbEntity
  8
126
  6
Continuous
 62
     3
100
AcDbLine
 10
34.86241471606285
 20
2.713549449284915
 30
0.0
 11
35.01497171606285
 21
2.713549449284915
 31
0.0
  0
LINE
  5
202
330
76
100
AcDbEntity
  8
126
  6
Continuous
 62
     3
100
AcDbLine
 10
34.80729071606285
 20
2.650549449284913
 30
0.0
 11
34.83933671606286
 21
2.687174449284914
 31
0.0
  0
LINE
  5
203
330
76
100
AcDbEntity
  8
126
  6
Continuous
 62
     3
100
AcDbLine
 10
35.04560571606285
 20
2.650549449284913
 30
0.0
 11
35.02779671606286
 21
2.687174449284914
 31
0.0
  0
LINE
  5
204
330
76
100
AcDbEntity
  8
126
  6
Continuous
 62
     3
100
AcDbLine
 10
35.31406671606286
 20
2.838978849284913
 30
0.0
 11
35.37528771606285
 21
2.838978849284913
 31
0.0
  0
LINE
  5
205
330
76
100
AcDbEntity
  8
126
  6
Continuous
 62
     3
100
AcDbLine
 10
35.15237371606286
 20
2.650549449284913
 30
0.0
 11
35.20809571606285
 21
2.650549449284913
 31
0.0
  0
LINE
  5
206
330
76
100
AcDbEntity
  8
126
  6
Continuous
 62
     3
100
AcDbLine
 10
35.15237371606286
 20
2.650549449284913
 30
0.0
 11
35.16350971606285
 21
2.713700249284915
 31
0.0
  0
LINE
  5
207
330
76
100
AcDbEntity
  8
126
  6
Continuous
 62
     3
100
AcDbLine
 10
35.20809571606285
 20
2.650549449284913
 30
0.0
 11
35.22101171606286
 21
2.723799449284914
 31
0.0
  0
LINE
  5
208
330
76
100
AcDbEntity
  8
126
  6
Continuous
 62
     3
100
AcDbLine
 10
35.12103371606285
 20
2.838978849284913
 30
0.0
 11
35.20071571606286
 21
2.754352949284915
 31
0.0
  0
LINE
  5
209
330
76
100
AcDbEntity
  8
126
  6
Continuous
 62
     3
100
AcDbLine
 10
35.16350971606285
 20
2.713700249284915
 30
0.0
 11
35.04554971606285
 21
2.838978849284913
 31
0.0
  0
LINE
  5
20A
330
76
100
AcDbEntity
  8
126
  6
Continuous
 62
     3
100
AcDbLine
 10
35.04554971606285
 20
2.838978849284913
 30
0.0
 11
35.12103371606285
 21
2.838978849284913
 31
0.0
  0
LINE
  5
20B
330
76
100
AcDbEntity
  8
126
  6
Continuous
 62
     3
100
AcDbLine
 10
35.36423871606285
 20
2.838978849284913
 30
0.0
 11
35.36896171606285
 21
2.834256149284913
 31
0.0
  0
LINE
  5
20C
330
76
100
AcDbEntity
  8
126
  6
Continuous
 62
     3
100
AcDbLine
 10
35.35319071606285
 20
2.838978849284913
 30
0.0
 11
35.36263571606286
 21
2.829533349284913
 31
0.0
  0
LINE
  5
20D
330
76
100
AcDbEntity
  8
126
  6
Continuous
 62
     3
100
AcDbLine
 10
35.34214171606285
 20
2.838978849284913
 30
0.0
 11
35.35631071606285
 21
2.824810649284913
 31
0.0
  0
LINE
  5
20E
330
76
100
AcDbEntity
  8
126
  6
Continuous
 62
     3
100
AcDbLine
 10
35.33109371606285
 20
2.838978849284913
 30
0.0
 11
35.34998471606285
 21
2.820087949284913
 31
0.0
  0
LINE
  5
20F
330
76
100
AcDbEntity
  8
126
  6
Continuous
 62
     3
100
AcDbLine
 10
35.32004471606285
 20
2.838978849284913
 30
0.0
 11
35.34365871606285
 21
2.815365149284913
 31
0.0
  0
LINE
  5
210
330
76
100
AcDbEntity
  8
126
  6
Continuous
 62
     3
100
AcDbLine
 10
35.31116371606285
 20
2.836811449284913
 30
0.0
 11
35.33733271606286
 21
2.810642449284915
 31
0.0
  0
LINE
  5
211
330
76
100
AcDbEntity
  8
126
  6
Continuous
 62
     3
100
AcDbLine
 10
35.30483771606285
 20
2.832088749284913
 30
0.0
 11
35.33100671606285
 21
2.805919749284914
 31
0.0
  0
LINE
  5
212
330
76
100
AcDbEntity
  8
126
  6
Continuous
 62
     3
100
AcDbLine
 10
35.29851171606285
 20
2.827365949284915
 30
0.0
 11
35.32468071606285
 21
2.801197049284914
 31
0.0
  0
LINE
  5
213
330
76
100
AcDbEntity
  8
126
  6
Continuous
 62
     3
100
AcDbLine
 10
35.29218671606285
 20
2.822643249284913
 30
0.0
 11
35.31835571606285
 21
2.796474249284913
 31
0.0
  0
LINE
  5
214
330
76
100
AcDbEntity
  8
126
  6
Continuous
 62
     3
100
AcDbLine
 10
35.28586071606285
 20
2.817920549284913
 30
0.0
 11
35.31202971606286
 21
2.791751549284914
 31
0.0
  0
LINE
  5
215
330
76
100
AcDbEntity
  8
126
  6
Continuous
 62
     3
100
AcDbLine
 10
35.27953471606285
 20
2.813197849284915
 30
0.0
 11
35.30570371606284
 21
2.787028849284914
 31
0.0
  0
LINE
  5
216
330
76
100
AcDbEntity
  8
126
  6
Continuous
 62
     3
100
AcDbLine
 10
35.27320871606285
 20
2.808475049284913
 30
0.0
 11
35.29937771606285
 21
2.782306049284914
 31
0.0
  0
LINE
  5
217
330
76
100
AcDbEntity
  8
126
  6
Continuous
 62
     3
100
AcDbLine
 10
35.26688271606285
 20
2.803752349284914
 30
0.0
 11
35.29305171606285
 21
2.777583349284914
 31
0.0
  0
LINE
  5
218
330
76
100
AcDbEntity
  8
126
  6
Continuous
 62
     3
100
AcDbLine
 10
35.26055771606285
 20
2.799029649284914
 30
0.0
 11
35.28672571606286
 21
2.772860649284913
 31
0.0
  0
LINE
  5
219
330
76
100
AcDbEntity
  8
126
  6
Continuous
 62
     3
100
AcDbLine
 10
35.25423171606286
 20
2.794306849284914
 30
0.0
 11
35.28040071606285
 21
2.768137949284914
 31
0.0
  0
LINE
  5
21A
330
76
100
AcDbEntity
  8
126
  6
Continuous
 62
     3
100
AcDbLine
 10
35.24790571606285
 20
2.789584149284915
 30
0.0
 11
35.27407471606285
 21
2.763415149284915
 31
0.0
  0
LINE
  5
21B
330
76
100
AcDbEntity
  8
126
  6
Continuous
 62
     3
100
AcDbLine
 10
35.24157971606284
 20
2.784861449284913
 30
0.0
 11
35.26774871606285
 21
2.758692449284914
 31
0.0
  0
LINE
  5
21C
330
76
100
AcDbEntity
  8
126
  6
Continuous
 62
     3
100
AcDbLine
 10
35.23525371606285
 20
2.780138749284914
 30
0.0
 11
35.26142271606286
 21
2.753969749284914
 31
0.0
  0
LINE
  5
21D
330
76
100
AcDbEntity
  8
126
  6
Continuous
 62
     3
100
AcDbLine
 10
35.22892771606285
 20
2.775415949284913
 30
0.0
 11
35.25509671606285
 21
2.749247049284913
 31
0.0
  0
LINE
  5
21E
330
76
100
AcDbEntity
  8
126
  6
Continuous
 62
     3
100
AcDbLine
 10
35.22260271606285
 20
2.770693249284914
 30
0.0
 11
35.24877171606285
 21
2.744524249284914
 31
0.0
  0
LINE
  5
21F
330
76
100
AcDbEntity
  8
126
  6
Continuous
 62
     3
100
AcDbLine
 10
35.21627671606285
 20
2.765970549284914
 30
0.0
 11
35.24244571606285
 21
2.739801549284913
 31
0.0
  0
LINE
  5
220
330
76
100
AcDbEntity
  8
126
  6
Continuous
 62
     3
100
AcDbLine
 10
35.20995071606285
 20
2.761247749284914
 30
0.0
 11
35.23611971606285
 21
2.735078849284914
 31
0.0
  0
LINE
  5
221
330
76
100
AcDbEntity
  8
126
  6
Continuous
 62
     3
100
AcDbLine
 10
35.20362471606285
 20
2.756525049284915
 30
0.0
 11
35.22979371606285
 21
2.730356149284914
 31
0.0
  0
LINE
  5
222
330
76
100
AcDbEntity
  8
126
  6
Continuous
 62
     3
100
AcDbLine
 10
35.11012271606285
 20
2.838978849284913
 30
0.0
 11
35.22346771606285
 21
2.725633349284914
 31
0.0
  0
LINE
  5
223
330
76
100
AcDbEntity
  8
126
  6
Continuous
 62
     3
100
AcDbLine
 10
35.09907371606285
 20
2.838978849284913
 30
0.0
 11
35.21999871606285
 21
2.718054249284914
 31
0.0
  0
LINE
  5
224
330
76
100
AcDbEntity
  8
126
  6
Continuous
 62
     3
100
AcDbLine
 10
35.08802571606285
 20
2.838978849284913
 30
0.0
 11
35.21834271606285
 21
2.708661849284915
 31
0.0
  0
LINE
  5
225
330
76
100
AcDbEntity
  8
126
  6
Continuous
 62
     3
100
AcDbLine
 10
35.07697671606285
 20
2.838978849284913
 30
0.0
 11
35.21668671606285
 21
2.699269449284915
 31
0.0
  0
LINE
  5
226
330
76
100
AcDbEntity
  8
126
  6
Continuous
 62
     3
100
AcDbLine
 10
35.06592871606285
 20
2.838978849284913
 30
0.0
 11
35.21503071606285
 21
2.689877049284914
 31
0.0
  0
LINE
  5
227
330
76
100
AcDbEntity
  8
126
  6
Continuous
 62
     3
100
AcDbLine
 10
35.05487971606285
 20
2.838978849284913
 30
0.0
 11
35.21337371606286
 21
2.680484649284914
 31
0.0
  0
LINE
  5
228
330
76
100
AcDbEntity
  8
126
  6
Continuous
 62
     3
100
AcDbLine
 10
35.07325071606285
 20
2.809559649284915
 30
0.0
 11
35.21171771606285
 21
2.671092249284914
 31
0.0
  0
LINE
  5
229
330
76
100
AcDbEntity
  8
126
  6
Continuous
 62
     3
100
AcDbLine
 10
35.16269271606285
 20
2.709068949284914
 30
0.0
 11
35.21006171606285
 21
2.661699849284913
 31
0.0
  0
LINE
  5
22A
330
76
100
AcDbEntity
  8
126
  6
Continuous
 62
     3
100
AcDbLine
 10
35.16103671606285
 20
2.699676549284915
 30
0.0
 11
35.20840571606285
 21
2.652307449284914
 31
0.0
  0
LINE
  5
22B
330
76
100
AcDbEntity
  8
126
  6
Continuous
 62
     3
100
AcDbLine
 10
35.01068571606285
 20
2.838978849284913
 30
0.0
 11
35.01908171606285
 21
2.830582749284913
 31
0.0
  0
LINE
  5
22C
330
76
100
AcDbEntity
  8
126
  6
Continuous
 62
     3
100
AcDbLine
 10
35.15938071606285
 20
2.690284049284914
 30
0.0
 11
35.19911471606285
 21
2.650549449284913
 31
0.0
  0
LINE
  5
22D
330
76
100
AcDbEntity
  8
126
  6
Continuous
 62
     3
100
AcDbLine
 10
34.99963671606284
 20
2.838978849284913
 30
0.0
 11
35.02953971606285
 21
2.809076749284914
 31
0.0
  0
LINE
  5
22E
330
76
100
AcDbEntity
  8
126
  6
Continuous
 62
     3
100
AcDbLine
 10
35.15772471606285
 20
2.680891649284914
 30
0.0
 11
35.18806671606285
 21
2.650549449284913
 31
0.0
  0
LINE
  5
22F
330
76
100
AcDbEntity
  8
126
  6
Continuous
 62
     3
100
AcDbLine
 10
34.98858871606285
 20
2.838978849284913
 30
0.0
 11
35.03999671606286
 21
2.787570749284914
 31
0.0
  0
LINE
  5
230
330
76
100
AcDbEntity
  8
126
  6
Continuous
 62
     3
100
AcDbLine
 10
35.15606771606285
 20
2.671499249284914
 30
0.0
 11
35.17701771606285
 21
2.650549449284913
 31
0.0
  0
LINE
  5
231
330
76
100
AcDbEntity
  8
126
  6
Continuous
 62
     3
100
AcDbLine
 10
34.97753971606285
 20
2.838978849284913
 30
0.0
 11
35.05045371606286
 21
2.766064849284914
 31
0.0
  0
LINE
  5
232
330
76
100
AcDbEntity
  8
126
  6
Continuous
 62
     3
100
AcDbLine
 10
35.15441171606286
 20
2.662106849284914
 30
0.0
 11
35.16596971606285
 21
2.650549449284913
 31
0.0
  0
LINE
  5
233
330
76
100
AcDbEntity
  8
126
  6
Continuous
 62
     3
100
AcDbLine
 10
34.96649171606285
 20
2.838978849284913
 30
0.0
 11
35.06091171606286
 21
2.744558949284915
 31
0.0
  0
LINE
  5
234
330
76
100
AcDbEntity
  8
126
  6
Continuous
 62
     3
100
AcDbLine
 10
35.15275571606285
 20
2.652714449284914
 30
0.0
 11
35.15492071606285
 21
2.650549449284913
 31
0.0
  0
LINE
  5
235
330
76
100
AcDbEntity
  8
126
  6
Continuous
 62
     3
100
AcDbLine
 10
34.95544271606285
 20
2.838978849284913
 30
0.0
 11
35.07136871606285
 21
2.723052949284914
 31
0.0
  0
LINE
  5
236
330
76
100
AcDbEntity
  8
126
  6
Continuous
 62
     3
100
AcDbLine
 10
34.94439471606285
 20
2.838978849284913
 30
0.0
 11
34.95920571606286
 21
2.824167749284913
 31
0.0
  0
LINE
  5
237
330
76
100
AcDbEntity
  8
126
  6
Continuous
 62
     3
100
AcDbLine
 10
34.96305371606285
 20
2.820319449284913
 30
0.0
 11
35.08182671606285
 21
2.701546949284914
 31
0.0
  0
LINE
  5
238
330
76
100
AcDbEntity
  8
126
  6
Continuous
 62
     3
100
AcDbLine
 10
34.93334571606285
 20
2.838978849284913
 30
0.0
 11
34.95404971606285
 21
2.818275149284913
 31
0.0
  0
TEXT
  5
239
330
76
100
AcDbEntity
  8
126
  6
Continuous
 62
     3
100
AcDbText
 10
33.91420571606285
 20
1.813450549284914
 30
0.0
 40
0.09375
  1
DR.BY
 41
0.9
100
AcDbText
  0
TEXT
  5
23A
330
76
100
AcDbEntity
  8
126
  6
Continuous
 62
     3
100
AcDbText
 10
29.90646771606285
 20
2.303085049284915
 30
0.0
 40
0.08
  1
MATERIAL
100
AcDbText
  0
TEXT
  5
23B
330
76
100
AcDbEntity
  8
126
  6
Continuous
 62
     3
100
AcDbText
 10
29.89007371606285
 20
2.756955649284915
 30
0.0
 40
0.08
  1
FINISH
100
AcDbText
  0
TEXT
  5
23C
330
76
100
AcDbEntity
  8
126
  6
Continuous
 62
     3
100
AcDbText
 10
34.90909671606285
 20
1.811853149284914
 30
0.0
 40
0.09375
  1
CH.BY
 41
0.9
100
AcDbText
  0
TEXT
  5
23D
330
76
100
AcDbEntity
  8
126
  6
Continuous
 62
     3
100
AcDbText
 10
33.91696171606285
 20
1.609476249284914
 30
0.0
 40
0.09375
  1
SCALE
 41
1.04
100
AcDbText
  0
TEXT
  5
23E
330
76
100
AcDbEntity
  8
1
  6
Continuous
 62
     1
100
AcDbText
 10
35.92024871606285
 20
1.225814949284914
 30
0.0
 40
0.1875
  1
REV-B
 51
359.9999958057
100
AcDbText
  0
TEXT
  5
23F
330
76
100
AcDbEntity
  8
126
  6
Continuous
 62
     3
100
AcDbText
 10
35.91151671606285
 20
1.794529449284914
 30
0.0
 40
0.09375
  1
DATE
 41
1.024999999999999
100
AcDbText
  0
LINE
  5
240
330
76
100
AcDbEntity
  8
180
  6
Continuous
 62
     6
100
AcDbLine
 10
29.84120271606285
 20
0.8329193492849148
 30
0.0
 11
29.84120271606285
 21
2.895419649284915
 31
0.0
  0
LINE
  5
241
330
76
100
AcDbEntity
  8
180
  6
Continuous
 62
     6
100
AcDbLine
 10
29.84120271606285
 20
2.895419649284915
 30
0.0
 11
37.84120571606286
 21
2.895419649284915
 31
0.0
  0
LINE
  5
242
330
76
100
AcDbEntity
  8
180
  6
Continuous
 62
     6
100
AcDbLine
 10
33.84120371606285
 20
2.895419649284915
 30
0.0
 11
33.84120371606285
 21
0.8329193492849148
 31
0.0
  0
LINE
  5
243
330
76
100
AcDbEntity
  8
180
  6
Continuous
 62
     6
100
AcDbLine
 10
33.84120371606285
 20
1.145419349284914
 30
0.0
 11
37.84120571606286
 21
1.145419349284914
 31
0.0
  0
LINE
  5
244
330
76
100
AcDbEntity
  8
180
  6
Continuous
 62
     6
100
AcDbLine
 10
37.84120571606286
 20
1.457919449284915
 30
0.0
 11
33.84120371606285
 21
1.457919449284915
 31
0.0
  0
LINE
  5
245
330
76
100
AcDbEntity
  8
180
  6
Continuous
 62
     6
100
AcDbLine
 10
33.84120371606285
 20
1.957919449284914
 30
0.0
 11
37.84120571606286
 21
1.957919449284914
 31
0.0
  0
LINE
  5
246
330
76
100
AcDbEntity
  8
180
  6
Continuous
 62
     6
100
AcDbLine
 10
33.84120371606285
 20
2.895419649284915
 30
0.0
 11
33.84120371606285
 21
2.457919449284915
 31
0.0
  0
LINE
  5
247
330
76
100
AcDbEntity
  8
180
  6
Continuous
 62
     6
100
AcDbLine
 10
33.84120371606285
 20
2.457919449284915
 30
0.0
 11
37.84120571606286
 21
2.457919449284915
 31
0.0
  0
LINE
  5
248
330
76
100
AcDbEntity
  8
180
  6
Continuous
 62
     6
100
AcDbLine
 10
35.84120371606285
 20
1.957919449284914
 30
0.0
 11
35.84120371606285
 21
1.145419349284914
 31
0.0
  0
LINE
  5
249
330
76
100
AcDbEntity
  8
180
  6
Continuous
 62
     6
100
AcDbLine
 10
33.84120371606285
 20
1.770419449284914
 30
0.0
 11
35.84120371606285
 21
1.770419449284914
 31
0.0
  0
LINE
  5
24A
330
76
100
AcDbEntity
  8
180
  6
Continuous
 62
     6
100
AcDbLine
 10
34.84120371606285
 20
1.770419449284914
 30
0.0
 11
34.84120371606285
 21
1.957919449284914
 31
0.0
  0
LINE
  5
24B
330
76
100
AcDbEntity
  8
180
  6
Continuous
 62
     6
100
AcDbLine
 10
33.84120371606285
 20
2.457919449284915
 30
0.0
 11
29.84120271606285
 21
2.457919449284915
 31
0.0
  0
LINE
  5
24C
330
76
100
AcDbEntity
  8
180
  6
Continuous
 62
     6
100
AcDbLine
 10
33.84120371606285
 20
1.457919449284915
 30
0.0
 11
29.84120271606285
 21
1.457919449284915
 31
0.0
  0
LINE
  5
24D
330
76
100
AcDbEntity
  8
126
  6
Continuous
 62
     3
100
AcDbLine
 10
34.97351171606285
 20
2.798813449284915
 30
0.0
 11
35.09228371606285
 21
2.680041049284914
 31
0.0
  0
LINE
  5
24E
330
76
100
AcDbEntity
  8
126
  6
Continuous
 62
     3
100
AcDbLine
 10
34.92293871606285
 20
2.838337849284913
 30
0.0
 11
34.94889371606285
 21
2.812382549284915
 31
0.0
  0
LINE
  5
24F
330
76
100
AcDbEntity
  8
126
  6
Continuous
 62
     3
100
AcDbLine
 10
34.98396871606285
 20
2.777307549284915
 30
0.0
 11
35.10274071606286
 21
2.658535049284914
 31
0.0
  0
LINE
  5
250
330
76
100
AcDbEntity
  8
126
  6
Continuous
 62
     3
100
AcDbLine
 10
34.91778271606285
 20
2.832445349284913
 30
0.0
 11
34.94373771606285
 21
2.806490049284914
 31
0.0
  0
LINE
  5
251
330
76
100
AcDbEntity
  8
126
  6
Continuous
 62
     3
100
AcDbLine
 10
34.99442571606285
 20
2.755801549284913
 30
0.0
 11
35.09967771606285
 21
2.650549449284913
 31
0.0
  0
LINE
  5
252
330
76
100
AcDbEntity
  8
126
  6
Continuous
 62
     3
100
AcDbLine
 10
34.91262671606286
 20
2.826552749284913
 30
0.0
 11
34.93858171606285
 21
2.800597449284913
 31
0.0
  0
LINE
  5
253
330
76
100
AcDbEntity
  8
126
  6
Continuous
 62
     3
100
AcDbLine
 10
35.00488371606285
 20
2.734295649284914
 30
0.0
 11
35.08862971606286
 21
2.650549449284913
 31
0.0
  0
LINE
  5
254
330
76
100
AcDbEntity
  8
126
  6
Continuous
 62
     3
100
AcDbLine
 10
34.90747071606286
 20
2.820660149284913
 30
0.0
 11
34.93342571606285
 21
2.794704849284914
 31
0.0
  0
LINE
  5
255
330
76
100
AcDbEntity
  8
126
  6
Continuous
 62
     3
100
AcDbLine
 10
35.01458071606285
 20
2.713549449284915
 30
0.0
 11
35.07758071606285
 21
2.650549449284913
 31
0.0
  0
LINE
  5
256
330
76
100
AcDbEntity
  8
126
  6
Continuous
 62
     3
100
AcDbLine
 10
34.90231471606286
 20
2.814767549284915
 30
0.0
 11
34.92826971606285
 21
2.788812349284913
 31
0.0
  0
LINE
  5
257
330
76
100
AcDbEntity
  8
126
  6
Continuous
 62
     3
100
AcDbLine
 10
35.00353271606285
 20
2.713549449284915
 30
0.0
 11
35.06653271606285
 21
2.650549449284913
 31
0.0
  0
LINE
  5
258
330
76
100
AcDbEntity
  8
126
  6
Continuous
 62
     3
100
AcDbLine
 10
34.89715871606286
 20
2.808875049284914
 30
0.0
 11
34.92311371606285
 21
2.782919749284914
 31
0.0
  0
LINE
  5
259
330
76
100
AcDbEntity
  8
126
  6
Continuous
 62
     3
100
AcDbLine
 10
34.99248371606285
 20
2.713549449284915
 30
0.0
 11
35.01885871606285
 21
2.687174449284914
 31
0.0
  0
LINE
  5
25A
330
76
100
AcDbEntity
  8
126
  6
Continuous
 62
     3
100
AcDbLine
 10
35.03625571606285
 20
2.669777749284913
 30
0.0
 11
35.05548371606285
 21
2.650549449284913
 31
0.0
  0
LINE
  5
25B
330
76
100
AcDbEntity
  8
126
  6
Continuous
 62
     3
100
AcDbLine
 10
34.89200271606286
 20
2.802982449284914
 30
0.0
 11
34.91795771606285
 21
2.777027149284915
 31
0.0
  0
LINE
  5
25C
330
76
100
AcDbEntity
  8
126
  6
Continuous
 62
     3
100
AcDbLine
 10
34.98143571606285
 20
2.713549449284915
 30
0.0
 11
35.00781071606285
 21
2.687174449284914
 31
0.0
  0
LINE
  5
25D
330
76
100
AcDbEntity
  8
126
  6
Continuous
 62
     3
100
AcDbLine
 10
34.88684671606285
 20
2.797089849284914
 30
0.0
 11
34.91280171606285
 21
2.771134649284915
 31
0.0
  0
LINE
  5
25E
330
76
100
AcDbEntity
  8
126
  6
Continuous
 62
     3
100
AcDbLine
 10
34.97038671606285
 20
2.713549449284915
 30
0.0
 11
34.99676171606285
 21
2.687174449284914
 31
0.0
  0
LINE
  5
25F
330
76
100
AcDbEntity
  8
126
  6
Continuous
 62
     3
100
AcDbLine
 10
34.88169071606285
 20
2.791197349284914
 30
0.0
 11
34.90764571606285
 21
2.765242049284915
 31
0.0
  0
LINE
  5
260
330
76
100
AcDbEntity
  8
126
  6
Continuous
 62
     3
100
AcDbLine
 10
34.95933871606285
 20
2.713549449284915
 30
0.0
 11
34.98571371606285
 21
2.687174449284914
 31
0.0
  0
LINE
  5
261
330
76
100
AcDbEntity
  8
126
  6
Continuous
 62
     3
100
AcDbLine
 10
34.87653471606285
 20
2.785304749284914
 30
0.0
 11
34.90248971606285
 21
2.759349449284913
 31
0.0
  0
LINE
  5
262
330
76
100
AcDbEntity
  8
126
  6
Continuous
 62
     3
100
AcDbLine
 10
34.94828971606285
 20
2.713549449284915
 30
0.0
 11
34.97466471606286
 21
2.687174449284914
 31
0.0
  0
LINE
  5
263
330
76
100
AcDbEntity
  8
126
  6
Continuous
 62
     3
100
AcDbLine
 10
34.87137871606285
 20
2.779412149284913
 30
0.0
 11
34.89733371606285
 21
2.753456949284915
 31
0.0
  0
LINE
  5
264
330
76
100
AcDbEntity
  8
126
  6
Continuous
 62
     3
100
AcDbLine
 10
34.93724171606285
 20
2.713549449284915
 30
0.0
 11
34.96361671606285
 21
2.687174449284914
 31
0.0
  0
LINE
  5
265
330
76
100
AcDbEntity
  8
126
  6
Continuous
 62
     3
100
AcDbLine
 10
34.86622271606285
 20
2.773519649284915
 30
0.0
 11
34.89217771606285
 21
2.747564349284913
 31
0.0
  0
LINE
  5
266
330
76
100
AcDbEntity
  8
126
  6
Continuous
 62
     3
100
AcDbLine
 10
34.92619271606285
 20
2.713549449284915
 30
0.0
 11
34.95256771606285
 21
2.687174449284914
 31
0.0
  0
LINE
  5
267
330
76
100
AcDbEntity
  8
126
  6
Continuous
 62
     3
100
AcDbLine
 10
34.86106671606285
 20
2.767627049284913
 30
0.0
 11
34.88702171606286
 21
2.741671749284915
 31
0.0
  0
LINE
  5
268
330
76
100
AcDbEntity
  8
126
  6
Continuous
 62
     3
100
AcDbLine
 10
34.91514371606285
 20
2.713549449284915
 30
0.0
 11
34.94151871606285
 21
2.687174449284914
 31
0.0
  0
LINE
  5
269
330
76
100
AcDbEntity
  8
126
  6
Continuous
 62
     3
100
AcDbLine
 10
34.85591071606285
 20
2.761734449284914
 30
0.0
 11
34.88186571606285
 21
2.735779249284914
 31
0.0
  0
LINE
  5
26A
330
76
100
AcDbEntity
  8
126
  6
Continuous
 62
     3
100
AcDbLine
 10
34.90409571606285
 20
2.713549449284915
 30
0.0
 11
34.93047071606285
 21
2.687174449284914
 31
0.0
  0
LINE
  5
26B
330
76
100
AcDbEntity
  8
126
  6
Continuous
 62
     3
100
AcDbLine
 10
34.76761771606285
 20
2.838978849284913
 30
0.0
 11
34.77060171606285
 21
2.835994949284913
 31
0.0
  0
LINE
  5
26C
330
76
100
AcDbEntity
  8
126
  6
Continuous
 62
     3
100
AcDbLine
 10
34.85075471606285
 20
2.755841949284913
 30
0.0
 11
34.87670971606285
 21
2.729886649284914
 31
0.0
  0
LINE
  5
26D
330
76
100
AcDbEntity
  8
126
  6
Continuous
 62
     3
100
AcDbLine
 10
34.89304671606285
 20
2.713549449284915
 30
0.0
 11
34.91942171606285
 21
2.687174449284914
 31
0.0
  0
LINE
  5
26E
330
76
100
AcDbEntity
  8
126
  6
Continuous
 62
     3
100
AcDbLine
 10
34.75656871606285
 20
2.838978849284913
 30
0.0
 11
34.76355171606285
 21
2.831995949284913
 31
0.0
  0
LINE
  5
26F
330
76
100
AcDbEntity
  8
126
  6
Continuous
 62
     3
100
AcDbLine
 10
34.84559871606285
 20
2.749949349284914
 30
0.0
 11
34.87155371606285
 21
2.723994049284915
 31
0.0
  0
LINE
  5
270
330
76
100
AcDbEntity
  8
126
  6
Continuous
 62
     3
100
AcDbLine
 10
34.88199871606286
 20
2.713549449284915
 30
0.0
 11
34.90837371606286
 21
2.687174449284914
 31
0.0
  0
LINE
  5
271
330
76
100
AcDbEntity
  8
126
  6
Continuous
 62
     3
100
AcDbLine
 10
34.74552071606285
 20
2.838978849284913
 30
0.0
 11
34.75650271606286
 21
2.827996849284913
 31
0.0
  0
LINE
  5
272
330
76
100
AcDbEntity
  8
126
  6
Continuous
 62
     3
100
AcDbLine
 10
34.84044271606285
 20
2.744056749284915
 30
0.0
 11
34.86639771606285
 21
2.718101549284914
 31
0.0
  0
LINE
  5
273
330
76
100
AcDbEntity
  8
126
  6
Continuous
 62
     3
100
AcDbLine
 10
34.87094971606286
 20
2.713549449284915
 30
0.0
 11
34.89732471606285
 21
2.687174449284914
 31
0.0
  0
LINE
  5
274
330
76
100
AcDbEntity
  8
126
  6
Continuous
 62
     3
100
AcDbLine
 10
34.73447171606285
 20
2.838978849284913
 30
0.0
 11
34.74945271606285
 21
2.823997849284915
 31
0.0
  0
LINE
  5
275
330
76
100
AcDbEntity
  8
126
  6
Continuous
 62
     3
100
AcDbLine
 10
34.83528671606285
 20
2.738164249284915
 30
0.0
 11
34.88627671606285
 21
2.687174449284914
 31
0.0
  0
LINE
  5
276
330
76
100
AcDbEntity
  8
126
  6
Continuous
 62
     3
100
AcDbLine
 10
34.72342371606286
 20
2.838978849284913
 30
0.0
 11
34.74240371606285
 21
2.819998749284913
 31
0.0
  0
LINE
  5
277
330
76
100
AcDbEntity
  8
126
  6
Continuous
 62
     3
100
AcDbLine
 10
34.83013071606285
 20
2.732271649284914
 30
0.0
 11
34.87522771606285
 21
2.687174449284914
 31
0.0
  0
LINE
  5
278
330
76
100
AcDbEntity
  8
126
  6
Continuous
 62
     3
100
AcDbLine
 10
34.71237471606285
 20
2.838978849284913
 30
0.0
 11
34.73535371606285
 21
2.815999749284913
 31
0.0
  0
LINE
  5
279
330
76
100
AcDbEntity
  8
126
  6
Continuous
 62
     3
100
AcDbLine
 10
34.82497471606285
 20
2.726379049284914
 30
0.0
 11
34.86417971606285
 21
2.687174449284914
 31
0.0
  0
LINE
  5
27A
330
76
100
AcDbEntity
  8
126
  6
Continuous
 62
     3
100
AcDbLine
 10
34.70143771606285
 20
2.838867449284915
 30
0.0
 11
34.72830471606285
 21
2.812000649284914
 31
0.0
  0
LINE
  5
27B
330
76
100
AcDbEntity
  8
126
  6
Continuous
 62
     3
100
AcDbLine
 10
34.81981871606285
 20
2.720486549284914
 30
0.0
 11
34.85313071606285
 21
2.687174449284914
 31
0.0
  0
LINE
  5
27C
330
76
100
AcDbEntity
  8
126
  6
Continuous
 62
     3
100
AcDbLine
 10
34.69438871606286
 20
2.834868349284913
 30
0.0
 11
34.72125471606285
 21
2.808001649284915
 31
0.0
  0
LINE
  5
27D
330
76
100
AcDbEntity
  8
126
  6
Continuous
 62
     3
100
AcDbLine
 10
34.81466271606285
 20
2.714593949284914
 30
0.0
 11
34.84208271606285
 21
2.687174449284914
 31
0.0
  0
LINE
  5
27E
330
76
100
AcDbEntity
  8
126
  6
Continuous
 62
     3
100
AcDbLine
 10
34.68733871606286
 20
2.830869349284913
 30
0.0
 11
34.71420571606285
 21
2.804002549284914
 31
0.0
  0
LINE
  5
27F
330
76
100
AcDbEntity
  8
126
  6
Continuous
 62
     3
100
AcDbLine
 10
34.80950671606285
 20
2.708701349284914
 30
0.0
 11
34.83546171606285
 21
2.682746149284914
 31
0.0
  0
LINE
  5
280
330
76
100
AcDbEntity
  8
126
  6
Continuous
 62
     3
100
AcDbLine
 10
34.68028971606285
 20
2.826870249284913
 30
0.0
 11
34.70715571606285
 21
2.800003549284915
 31
0.0
  0
LINE
  5
281
330
76
100
AcDbEntity
  8
126
  6
Continuous
 62
     3
100
AcDbLine
 10
34.80435071606285
 20
2.702808749284915
 30
0.0
 11
34.83030571606285
 21
2.676853549284913
 31
0.0
  0
LINE
  5
282
330
76
100
AcDbEntity
  8
126
  6
Continuous
 62
     3
100
AcDbLine
 10
34.67323971606286
 20
2.822871249284913
 30
0.0
 11
34.70010671606285
 21
2.796004449284914
 31
0.0
  0
LINE
  5
283
330
76
100
AcDbEntity
  8
126
  6
Continuous
 62
     3
100
AcDbLine
 10
34.79919471606285
 20
2.696916249284915
 30
0.0
 11
34.82514971606285
 21
2.670960949284914
 31
0.0
  0
LINE
  5
284
330
76
100
AcDbEntity
  8
126
  6
Continuous
 62
     3
100
AcDbLine
 10
34.66619071606285
 20
2.818872149284915
 30
0.0
 11
34.69305671606285
 21
2.792005449284915
 31
0.0
  0
LINE
  5
285
330
76
100
AcDbEntity
  8
126
  6
Continuous
 62
     3
100
AcDbLine
 10
34.79403871606285
 20
2.691023649284914
 30
0.0
 11
34.81999371606285
 21
2.665068349284914
 31
0.0
  0
LINE
  5
286
330
76
100
AcDbEntity
  8
126
  6
Continuous
 62
     3
100
AcDbLine
 10
34.65914071606285
 20
2.814873149284915
 30
0.0
 11
34.68600771606285
 21
2.788006349284914
 31
0.0
  0
LINE
  5
287
330
76
100
AcDbEntity
  8
126
  6
Continuous
 62
     3
100
AcDbLine
 10
34.78888271606285
 20
2.685131049284914
 30
0.0
 11
34.81483871606285
 21
2.659175849284914
 31
0.0
  0
LINE
  5
288
330
76
100
AcDbEntity
  8
126
  6
Continuous
 62
     3
100
AcDbLine
 10
34.65209171606285
 20
2.810874049284914
 30
0.0
 11
34.67895771606285
 21
2.784007349284914
 31
0.0
  0
LINE
  5
289
330
76
100
AcDbEntity
  8
126
  6
Continuous
 62
     3
100
AcDbLine
 10
34.78372671606285
 20
2.679238549284914
 30
0.0
 11
34.80968271606285
 21
2.653283249284914
 31
0.0
  0
LINE
  5
28A
330
76
100
AcDbEntity
  8
126
  6
Continuous
 62
     3
100
AcDbLine
 10
34.64504171606285
 20
2.806875049284915
 30
0.0
 11
34.67190871606285
 21
2.780008249284914
 31
0.0
  0
LINE
  5
28B
330
76
100
AcDbEntity
  8
126
  6
Continuous
 62
     3
100
AcDbLine
 10
34.77857071606285
 20
2.673345949284914
 30
0.0
 11
34.80136771606285
 21
2.650549449284913
 31
0.0
  0
LINE
  5
28C
330
76
100
AcDbEntity
  8
126
  6
Continuous
 62
     3
100
AcDbLine
 10
34.63799271606286
 20
2.802875949284914
 30
0.0
 11
34.66485871606285
 21
2.776009249284914
 31
0.0
  0
LINE
  5
28D
330
76
100
AcDbEntity
  8
126
  6
Continuous
 62
     3
100
AcDbLine
 10
34.77341471606286
 20
2.667453449284915
 30
0.0
 11
34.79031871606285
 21
2.650549449284913
 31
0.0
  0
LINE
  5
28E
330
76
100
AcDbEntity
  8
126
  6
Continuous
 62
     3
100
AcDbLine
 10
34.63094271606286
 20
2.798876949284914
 30
0.0
 11
34.65780971606284
 21
2.772010149284914
 31
0.0
  0
LINE
  5
28F
330
76
100
AcDbEntity
  8
126
  6
Continuous
 62
     3
100
AcDbLine
 10
34.76825871606286
 20
2.661560849284914
 30
0.0
 11
34.77927071606286
 21
2.650549449284913
 31
0.0
  0
LINE
  5
290
330
76
100
AcDbEntity
  8
126
  6
Continuous
 62
     3
100
AcDbLine
 10
34.62389371606285
 20
2.794877849284914
 30
0.0
 11
34.65076071606285
 21
2.768011149284915
 31
0.0
  0
LINE
  5
291
330
76
100
AcDbEntity
  8
126
  6
Continuous
 62
     3
100
AcDbLine
 10
34.76310271606286
 20
2.655668249284913
 30
0.0
 11
34.76822171606285
 21
2.650549449284913
 31
0.0
  0
LINE
  5
292
330
76
100
AcDbEntity
  8
126
  6
Continuous
 62
     3
100
AcDbLine
 10
34.61684371606285
 20
2.790878849284914
 30
0.0
 11
34.64371071606285
 21
2.764012049284914
 31
0.0
  0
LINE
  5
293
330
76
100
AcDbEntity
  8
126
  6
Continuous
 62
     3
100
AcDbLine
 10
34.60979471606285
 20
2.786879749284913
 30
0.0
 11
34.63666071606285
 21
2.760013049284915
 31
0.0
  0
LINE
  5
294
330
76
100
AcDbEntity
  8
126
  6
Continuous
 62
     3
100
AcDbLine
 10
34.70840371606286
 20
2.688270249284914
 30
0.0
 11
34.74612471606285
 21
2.650549449284913
 31
0.0
  0
LINE
  5
295
330
76
100
AcDbEntity
  8
126
  6
Continuous
 62
     3
100
AcDbLine
 10
34.60274471606285
 20
2.782880749284914
 30
0.0
 11
34.73507671606285
 21
2.650549449284913
 31
0.0
  0
LINE
  5
296
330
76
100
AcDbEntity
  8
126
  6
Continuous
 62
     3
100
AcDbLine
 10
34.59569571606285
 20
2.778881649284913
 30
0.0
 11
34.72402771606285
 21
2.650549449284913
 31
0.0
  0
LINE
  5
297
330
76
100
AcDbEntity
  8
126
  6
Continuous
 62
     3
100
AcDbLine
 10
34.52454971606285
 20
2.838978849284913
 30
0.0
 11
34.53345871606285
 21
2.830070349284913
 31
0.0
  0
LINE
  5
298
330
76
100
AcDbEntity
  8
126
  6
Continuous
 62
     3
100
AcDbLine
 10
34.58864571606285
 20
2.774882649284915
 30
0.0
 11
34.71297871606285
 21
2.650549449284913
 31
0.0
  0
LINE
  5
299
330
76
100
AcDbEntity
  8
126
  6
Continuous
 62
     3
100
AcDbLine
 10
34.51350171606285
 20
2.838978849284913
 30
0.0
 11
34.53180171606285
 21
2.820677949284915
 31
0.0
  0
LINE
  5
29A
330
76
100
AcDbEntity
  8
126
  6
Continuous
 62
     3
100
AcDbLine
 10
34.58159671606285
 20
2.770883549284913
 30
0.0
 11
34.70193071606285
 21
2.650549449284913
 31
0.0
  0
LINE
  5
29B
330
76
100
AcDbEntity
  8
126
  6
Continuous
 62
     3
100
AcDbLine
 10
34.50245271606285
 20
2.838978849284913
 30
0.0
 11
34.53014571606285
 21
2.811285549284915
 31
0.0
  0
LINE
  5
29C
330
76
100
AcDbEntity
  8
126
  6
Continuous
 62
     3
100
AcDbLine
 10
34.57454671606285
 20
2.766884549284914
 30
0.0
 11
34.69088171606286
 21
2.650549449284913
 31
0.0
  0
LINE
  5
29D
330
76
100
AcDbEntity
  8
126
  6
Continuous
 62
     3
100
AcDbLine
 10
34.49140371606285
 20
2.838978849284913
 30
0.0
 11
34.52848971606285
 21
2.801893149284915
 31
0.0
  0
LINE
  5
29E
330
76
100
AcDbEntity
  8
126
  6
Continuous
 62
     3
100
AcDbLine
 10
34.56749771606285
 20
2.762885449284913
 30
0.0
 11
34.67983371606286
 21
2.650549449284913
 31
0.0
  0
LINE
  5
29F
330
76
100
AcDbEntity
  8
126
  6
Continuous
 62
     3
100
AcDbLine
 10
34.48248571606285
 20
2.836848549284915
 30
0.0
 11
34.52683371606286
 21
2.792500749284914
 31
0.0
  0
LINE
  5
2A0
330
76
100
AcDbEntity
  8
126
  6
Continuous
 62
     3
100
AcDbLine
 10
34.56044771606285
 20
2.758886449284914
 30
0.0
 11
34.66878471606285
 21
2.650549449284913
 31
0.0
  0
LINE
  5
2A1
330
76
100
AcDbEntity
  8
126
  6
Continuous
 62
     3
100
AcDbLine
 10
34.48082971606285
 20
2.827456149284915
 30
0.0
 11
34.52517771606285
 21
2.783108349284914
 31
0.0
  0
LINE
  5
2A2
330
76
100
AcDbEntity
  8
126
  6
Continuous
 62
     3
100
AcDbLine
 10
34.55339871606284
 20
2.754887349284913
 30
0.0
 11
34.58026571606286
 21
2.728020649284915
 31
0.0
  0
LINE
  5
2A3
330
76
100
AcDbEntity
  8
126
  6
Continuous
 62
     3
100
AcDbLine
 10
34.47917371606286
 20
2.818063749284913
 30
0.0
 11
34.52352171606285
 21
2.773715849284914
 31
0.0
  0
LINE
  5
2A4
330
76
100
AcDbEntity
  8
126
  6
Continuous
 62
     3
100
AcDbLine
 10
34.54634871606284
 20
2.750888349284914
 30
0.0
 11
34.57321571606285
 21
2.724021649284914
 31
0.0
  0
LINE
  5
2A5
330
76
100
AcDbEntity
  8
126
  6
Continuous
 62
     3
100
AcDbLine
 10
34.47751771606285
 20
2.808671349284914
 30
0.0
 11
34.52186571606285
 21
2.764323449284914
 31
0.0
  0
LINE
  5
2A6
330
76
100
AcDbEntity
  8
126
  6
Continuous
 62
     3
100
AcDbLine
 10
34.53929971606285
 20
2.746889249284913
 30
0.0
 11
34.56616671606286
 21
2.720022549284915
 31
0.0
  0
LINE
  5
2A7
330
76
100
AcDbEntity
  8
126
  6
Continuous
 62
     3
100
AcDbLine
 10
34.47586171606284
 20
2.799278849284914
 30
0.0
 11
34.52020871606285
 21
2.754931049284913
 31
0.0
  0
LINE
  5
2A8
330
76
100
AcDbEntity
  8
126
  6
Continuous
 62
     3
100
AcDbLine
 10
34.53224971606285
 20
2.742890249284914
 30
0.0
 11
34.55911671606286
 21
2.716023549284915
 31
0.0
  0
LINE
  5
2A9
330
76
100
AcDbEntity
  8
126
  6
Continuous
 62
     3
100
AcDbLine
 10
34.47420571606285
 20
2.789886449284914
 30
0.0
 11
34.51855271606285
 21
2.745538649284914
 31
0.0
  0
LINE
  5
2AA
330
76
100
AcDbEntity
  8
126
  6
Continuous
 62
     3
100
AcDbLine
 10
34.52520071606285
 20
2.738891149284913
 30
0.0
 11
34.55206771606285
 21
2.712024449284915
 31
0.0
  0
LINE
  5
2AB
330
76
100
AcDbEntity
  8
126
  6
Continuous
 62
     3
100
AcDbLine
 10
34.47254871606285
 20
2.780494049284913
 30
0.0
 11
34.51689671606285
 21
2.736146249284915
 31
0.0
  0
LINE
  5
2AC
330
76
100
AcDbEntity
  8
126
  6
Continuous
 62
     3
100
AcDbLine
 10
34.51815071606285
 20
2.734892149284914
 30
0.0
 11
34.54501771606285
 21
2.708025449284914
 31
0.0
  0
LINE
  5
2AD
330
76
100
AcDbEntity
  8
126
  6
Continuous
 62
     3
100
AcDbLine
 10
34.47089271606285
 20
2.771101649284914
 30
0.0
 11
34.53796871606285
 21
2.704026349284915
 31
0.0
  0
LINE
  5
2AE
330
76
100
AcDbEntity
  8
126
  6
Continuous
 62
     3
100
AcDbLine
 10
34.46923671606285
 20
2.761709249284914
 30
0.0
 11
34.53091871606285
 21
2.700027349284914
 31
0.0
  0
LINE
  5
2AF
330
76
100
AcDbEntity
  8
126
  6
Continuous
 62
     3
100
AcDbLine
 10
34.46758071606285
 20
2.752316849284913
 30
0.0
 11
34.52386971606285
 21
2.696028249284915
 31
0.0
  0
LINE
  5
2B0
330
76
100
AcDbEntity
  8
126
  6
Continuous
 62
     3
100
AcDbLine
 10
34.46592471606285
 20
2.742924449284914
 30
0.0
 11
34.51681971606285
 21
2.692029249284914
 31
0.0
  0
LINE
  5
2B1
330
76
100
AcDbEntity
  8
126
  6
Continuous
 62
     3
100
AcDbLine
 10
34.46426871606286
 20
2.733532049284915
 30
0.0
 11
34.50977071606285
 21
2.688030149284915
 31
0.0
  0
LINE
  5
2B2
330
76
100
AcDbEntity
  8
126
  6
Continuous
 62
     3
100
AcDbLine
 10
34.46261271606285
 20
2.724139649284913
 30
0.0
 11
34.50695971606285
 21
2.679791849284914
 31
0.0
  0
LINE
  5
2B3
330
76
100
AcDbEntity
  8
126
  6
Continuous
 62
     3
100
AcDbLine
 10
34.46095571606285
 20
2.714747249284914
 30
0.0
 11
34.50530371606285
 21
2.670399349284914
 31
0.0
  0
LINE
  5
2B4
330
76
100
AcDbEntity
  8
126
  6
Continuous
 62
     3
100
AcDbLine
 10
34.45929971606285
 20
2.705354849284915
 30
0.0
 11
34.50364771606285
 21
2.661006949284915
 31
0.0
  0
LINE
  5
2B5
330
76
100
AcDbEntity
  8
126
  6
Continuous
 62
     3
100
AcDbLine
 10
34.45764371606286
 20
2.695962349284914
 30
0.0
 11
34.50199171606286
 21
2.651614549284915
 31
0.0
  0
LINE
  5
2B6
330
76
100
AcDbEntity
  8
126
  6
Continuous
 62
     3
100
AcDbLine
 10
34.45598771606285
 20
2.686569949284914
 30
0.0
 11
34.49200871606285
 21
2.650549449284913
 31
0.0
  0
LINE
  5
2B7
330
76
100
AcDbEntity
  8
126
  6
Continuous
 62
     3
100
AcDbLine
 10
34.45433171606286
 20
2.677177549284913
 30
0.0
 11
34.48095971606285
 21
2.650549449284913
 31
0.0
  0
TEXT
  5
2B8
330
76
100
AcDbEntity
  8
1
  6
Continuous
 62
     1
100
AcDbText
 10
34.82285271606285
 20
2.147734049284915
 30
0.0
 40
0.125
  1
TEMPLATE FOR 2521
 72
     1
 11
35.85410271606285
 21
2.210234049284915
 31
0.0
100
AcDbText
 73
     2
  0
TEXT
  5
2B9
330
76
100
AcDbEntity
  8
126
  6
Continuous
 62
     3
100
AcDbText
 10
36.65773838272951
 20
1.676620949284914
 30
0.0
 40
0.1
  1
10NOV03
 72
     1
 11
36.99107171606285
 21
1.726620949284914
 31
0.0
100
AcDbText
 73
     2
  0
TEXT
  5
2BA
330
76
100
AcDbEntity
  8
126
  6
Continuous
 62
     3
100
AcDbText
 10
34.47094571606285
 20
1.810489349284914
 30
0.0
 40
0.1
  1
KAB
100
AcDbText
  0
TEXT
  5
2BB
330
76
100
AcDbEntity
  8
126
  6
Continuous
 62
     3
100
AcDbText
 10
34.72164271606285
 20
1.568436849284915
 30
0.0
 40
0.1
  1
FULL
100
AcDbText
  0
TEXT
  5
2BC
330
76
100
AcDbEntity
  8
1
  6
Continuous
 62
     1
100
AcDbText
 10
35.11806271606285
 20
0.8954899492849147
 30
0.0
 40
0.1875
  1
74180436
 72
     1
 11
35.83681271606285
 21
0.9892399492849147
 31
0.0
100
AcDbText
 73
     2
  0
LINE
  5
2BD
330
76
100
AcDbEntity
  8
126
  6
Continuous
 62
     3
100
AcDbLine
 10
34.45267571606285
 20
2.667785149284914
 30
0.0
 11
34.46991071606285
 21
2.650549449284913
 31
0.0
  0
LINE
  5
2BE
330
76
100
AcDbEntity
  8
126
  6
Continuous
 62
     3
100
AcDbLine
 10
34.45101971606285
 20
2.658392749284915
 30
0.0
 11
34.45886271606286
 21
2.650549449284913
 31
0.0
  0
LINE
  5
2BF
330
76
100
AcDbEntity
  8
126
  6
Continuous
 62
     3
100
AcDbLine
 10
34.25938471606285
 20
2.838978849284913
 30
0.0
 11
34.26480071606285
 21
2.833562949284913
 31
0.0
  0
LINE
  5
2C0
330
76
100
AcDbEntity
  8
126
  6
Continuous
 62
     3
100
AcDbLine
 10
34.42043871606286
 20
2.677924449284915
 30
0.0
 11
34.42600671606285
 21
2.672356949284913
 31
0.0
  0
LINE
  5
2C1
330
76
100
AcDbEntity
  8
126
  6
Continuous
 62
     3
100
AcDbLine
 10
34.24833671606285
 20
2.838978849284913
 30
0.0
 11
34.26314471606286
 21
2.824170549284913
 31
0.0
  0
LINE
  5
2C2
330
76
100
AcDbEntity
  8
126
  6
Continuous
 62
     3
100
AcDbLine
 10
34.40939071606285
 20
2.677924449284915
 30
0.0
 11
34.42435071606285
 21
2.662964549284914
 31
0.0
  0
LINE
  5
2C3
330
76
100
AcDbEntity
  8
126
  6
Continuous
 62
     3
100
AcDbLine
 10
34.23728771606285
 20
2.838978849284913
 30
0.0
 11
34.26148871606285
 21
2.814778149284915
 31
0.0
  0
LINE
  5
2C4
330
76
100
AcDbEntity
  8
126
  6
Continuous
 62
     3
100
AcDbLine
 10
34.39834171606285
 20
2.677924449284915
 30
0.0
 11
34.42269471606285
 21
2.653572149284914
 31
0.0
  0
LINE
  5
2C5
330
76
100
AcDbEntity
  8
126
  6
Continuous
 62
     3
100
AcDbLine
 10
34.22623871606286
 20
2.838978849284913
 30
0.0
 11
34.25983271606285
 21
2.805385649284914
 31
0.0
  0
LINE
  5
2C6
330
76
100
AcDbEntity
  8
126
  6
Continuous
 62
     3
100
AcDbLine
 10
34.38729371606285
 20
2.677924449284915
 30
0.0
 11
34.41466871606285
 21
2.650549449284913
 31
0.0
  0
LINE
  5
2C7
330
76
100
AcDbEntity
  8
126
  6
Continuous
 62
     3
100
AcDbLine
 10
34.21519071606284
 20
2.838978849284913
 30
0.0
 11
34.25817571606285
 21
2.795993249284914
 31
0.0
  0
LINE
  5
2C8
330
76
100
AcDbEntity
  8
126
  6
Continuous
 62
     3
100
AcDbLine
 10
34.37624471606285
 20
2.677924449284915
 30
0.0
 11
34.40361971606285
 21
2.650549449284913
 31
0.0
  0
LINE
  5
2C9
330
76
100
AcDbEntity
  8
126
  6
Continuous
 62
     3
100
AcDbLine
 10
34.21217171606285
 20
2.830948649284913
 30
0.0
 11
34.25651971606285
 21
2.786600849284913
 31
0.0
  0
LINE
  5
2CA
330
76
100
AcDbEntity
  8
126
  6
Continuous
 62
     3
100
AcDbLine
 10
34.36519671606286
 20
2.677924449284915
 30
0.0
 11
34.39257171606286
 21
2.650549449284913
 31
0.0
  0
LINE
  5
2CB
330
76
100
AcDbEntity
  8
126
  6
Continuous
 62
     3
100
AcDbLine
 10
34.21051571606284
 20
2.821556349284913
 30
0.0
 11
34.25486371606285
 21
2.777208449284914
 31
0.0
  0
LINE
  5
2CC
330
76
100
AcDbEntity
  8
126
  6
Continuous
 62
     3
100
AcDbLine
 10
34.35414771606285
 20
2.677924449284915
 30
0.0
 11
34.38152271606286
 21
2.650549449284913
 31
0.0
  0
LINE
  5
2CD
330
76
100
AcDbEntity
  8
126
  6
Continuous
 62
     3
100
AcDbLine
 10
34.20885971606285
 20
2.812163849284914
 30
0.0
 11
34.25320771606286
 21
2.767816049284915
 31
0.0
  0
LINE
  5
2CE
330
76
100
AcDbEntity
  8
126
  6
Continuous
 62
     3
100
AcDbLine
 10
34.34309971606285
 20
2.677924449284915
 30
0.0
 11
34.37047471606285
 21
2.650549449284913
 31
0.0
  0
LINE
  5
2CF
330
76
100
AcDbEntity
  8
126
  6
Continuous
 62
     3
100
AcDbLine
 10
34.17099671606286
 20
2.838978849284913
 30
0.0
 11
34.17290271606285
 21
2.837072349284913
 31
0.0
  0
LINE
  5
2D0
330
76
100
AcDbEntity
  8
126
  6
Continuous
 62
     3
100
AcDbLine
 10
34.20720371606285
 20
2.802771449284914
 30
0.0
 11
34.25155171606285
 21
2.758423649284915
 31
0.0
  0
LINE
  5
2D1
330
76
100
AcDbEntity
  8
126
  6
Continuous
 62
     3
100
AcDbLine
 10
34.33205071606285
 20
2.677924449284915
 30
0.0
 11
34.35942571606285
 21
2.650549449284913
 31
0.0
  0
LINE
  5
2D2
330
76
100
AcDbEntity
  8
126
  6
Continuous
 62
     3
100
AcDbLine
 10
34.15994771606285
 20
2.838978849284913
 30
0.0
 11
34.17124671606285
 21
2.827679949284915
 31
0.0
  0
LINE
  5
2D3
330
76
100
AcDbEntity
  8
126
  6
Continuous
 62
     3
100
AcDbLine
 10
34.20554771606286
 20
2.793379049284915
 30
0.0
 11
34.24989571606285
 21
2.749031249284914
 31
0.0
  0
LINE
  5
2D4
330
76
100
AcDbEntity
  8
126
  6
Continuous
 62
     3
100
AcDbLine
 10
34.32100271606285
 20
2.677924449284915
 30
0.0
 11
34.34837771606285
 21
2.650549449284913
 31
0.0
  0
LINE
  5
2D5
330
76
100
AcDbEntity
  8
126
  6
Continuous
 62
     3
100
AcDbLine
 10
34.14889971606285
 20
2.838978849284913
 30
0.0
 11
34.16959071606285
 21
2.818287549284915
 31
0.0
  0
LINE
  5
2D6
330
76
100
AcDbEntity
  8
126
  6
Continuous
 62
     3
100
AcDbLine
 10
34.20389171606285
 20
2.783986649284915
 30
0.0
 11
34.24823971606285
 21
2.739638849284915
 31
0.0
  0
LINE
  5
2D7
330
76
100
AcDbEntity
  8
126
  6
Continuous
 62
     3
100
AcDbLine
 10
34.30995371606285
 20
2.677924449284915
 30
0.0
 11
34.33732871606285
 21
2.650549449284913
 31
0.0
  0
LINE
  5
2D8
330
76
100
AcDbEntity
  8
126
  6
Continuous
 62
     3
100
AcDbLine
 10
34.13785071606285
 20
2.838978849284913
 30
0.0
 11
34.16522571606285
 21
2.811603849284914
 31
0.0
  0
LINE
  5
2D9
330
76
100
AcDbEntity
  8
126
  6
Continuous
 62
     3
100
AcDbLine
 10
34.20223571606284
 20
2.774594249284914
 30
0.0
 11
34.24658271606285
 21
2.730246449284915
 31
0.0
  0
LINE
  5
2DA
330
76
100
AcDbEntity
  8
126
  6
Continuous
 62
     3
100
AcDbLine
 10
34.29890471606285
 20
2.677924449284915
 30
0.0
 11
34.32627971606285
 21
2.650549449284913
 31
0.0
  0
LINE
  5
2DB
330
76
100
AcDbEntity
  8
126
  6
Continuous
 62
     3
100
AcDbLine
 10
34.12680271606286
 20
2.838978849284913
 30
0.0
 11
34.15417771606286
 21
2.811603849284914
 31
0.0
  0
LINE
  5
2DC
330
76
100
AcDbEntity
  8
126
  6
Continuous
 62
     3
100
AcDbLine
 10
34.20057971606285
 20
2.765201849284914
 30
0.0
 11
34.24492671606285
 21
2.720854049284914
 31
0.0
  0
LINE
  5
2DD
330
76
100
AcDbEntity
  8
126
  6
Continuous
 62
     3
100
AcDbLine
 10
34.28785671606285
 20
2.677924449284915
 30
0.0
 11
34.31523171606285
 21
2.650549449284913
 31
0.0
  0
LINE
  5
2DE
330
76
100
AcDbEntity
  8
126
  6
Continuous
 62
     3
100
AcDbLine
 10
34.11575371606285
 20
2.838978849284913
 30
0.0
 11
34.14312871606286
 21
2.811603849284914
 31
0.0
  0
LINE
  5
2DF
330
76
100
AcDbEntity
  8
126
  6
Continuous
 62
     3
100
AcDbLine
 10
34.19892271606285
 20
2.755809449284914
 30
0.0
 11
34.24327071606285
 21
2.711461649284914
 31
0.0
  0
LINE
  5
2E0
330
76
100
AcDbEntity
  8
126
  6
Continuous
 62
     3
100
AcDbLine
 10
34.27680771606285
 20
2.677924449284915
 30
0.0
 11
34.30418271606285
 21
2.650549449284913
 31
0.0
  0
LINE
  5
2E1
330
76
100
AcDbEntity
  8
126
  6
Continuous
 62
     3
100
AcDbLine
 10
34.10470471606285
 20
2.838978849284913
 30
0.0
 11
34.13207971606285
 21
2.811603849284914
 31
0.0
  0
LINE
  5
2E2
330
76
100
AcDbEntity
  8
126
  6
Continuous
 62
     3
100
AcDbLine
 10
34.19726671606285
 20
2.746417049284914
 30
0.0
 11
34.24161471606285
 21
2.702069249284914
 31
0.0
  0
LINE
  5
2E3
330
76
100
AcDbEntity
  8
126
  6
Continuous
 62
     3
100
AcDbLine
 10
34.26575971606285
 20
2.677924449284915
 30
0.0
 11
34.29313471606285
 21
2.650549449284913
 31
0.0
  0
LINE
  5
2E4
330
76
100
AcDbEntity
  8
126
  6
Continuous
 62
     3
100
AcDbLine
 10
34.09365671606285
 20
2.838978849284913
 30
0.0
 11
34.12103171606285
 21
2.811603849284914
 31
0.0
  0
LINE
  5
2E5
330
76
100
AcDbEntity
  8
126
  6
Continuous
 62
     3
100
AcDbLine
 10
34.19561071606285
 20
2.737024649284915
 30
0.0
 11
34.23995871606285
 21
2.692676749284915
 31
0.0
  0
LINE
  5
2E6
330
76
100
AcDbEntity
  8
126
  6
Continuous
 62
     3
100
AcDbLine
 10
34.25471071606285
 20
2.677924449284915
 30
0.0
 11
34.28208571606286
 21
2.650549449284913
 31
0.0
  0
LINE
  5
2E7
330
76
100
AcDbEntity
  8
126
  6
Continuous
 62
     3
100
AcDbLine
 10
34.08260771606285
 20
2.838978849284913
 30
0.0
 11
34.10998271606285
 21
2.811603849284914
 31
0.0
  0
LINE
  5
2E8
330
76
100
AcDbEntity
  8
126
  6
Continuous
 62
     3
100
AcDbLine
 10
34.19395471606285
 20
2.727632249284915
 30
0.0
 11
34.23830271606286
 21
2.683284349284914
 31
0.0
  0
LINE
  5
2E9
330
76
100
AcDbEntity
  8
126
  6
Continuous
 62
     3
100
AcDbLine
 10
34.24366271606285
 20
2.677924449284915
 30
0.0
 11
34.27103771606285
 21
2.650549449284913
 31
0.0
  0
LINE
  5
2EA
330
76
100
AcDbEntity
  8
126
  6
Continuous
 62
     3
100
AcDbLine
 10
34.07155971606285
 20
2.838978849284913
 30
0.0
 11
34.09893471606285
 21
2.811603849284914
 31
0.0
  0
LINE
  5
2EB
330
76
100
AcDbEntity
  8
126
  6
Continuous
 62
     3
100
AcDbLine
 10
34.19229871606285
 20
2.718239749284914
 30
0.0
 11
34.25998871606285
 21
2.650549449284913
 31
0.0
  0
LINE
  5
2EC
330
76
100
AcDbEntity
  8
126
  6
Continuous
 62
     3
100
AcDbLine
 10
34.06051071606285
 20
2.838978849284913
 30
0.0
 11
34.08788571606285
 21
2.811603849284914
 31
0.0
  0
LINE
  5
2ED
330
76
100
AcDbEntity
  8
126
  6
Continuous
 62
     3
100
AcDbLine
 10
34.14097571606286
 20
2.758514149284915
 30
0.0
 11
34.14555171606285
 21
2.753938549284914
 31
0.0
  0
LINE
  5
2EE
330
76
100
AcDbEntity
  8
126
  6
Continuous
 62
     3
100
AcDbLine
 10
34.19064271606286
 20
2.708847449284915
 30
0.0
 11
34.24894071606285
 21
2.650549449284913
 31
0.0
  0
LINE
  5
2EF
330
76
100
AcDbEntity
  8
126
  6
Continuous
 62
     3
100
AcDbLine
 10
34.04946271606285
 20
2.838978849284913
 30
0.0
 11
34.07683771606285
 21
2.811603849284914
 31
0.0
  0
LINE
  5
2F0
330
76
100
AcDbEntity
  8
126
  6
Continuous
 62
     3
100
AcDbLine
 10
34.12992671606285
 20
2.758514149284915
 30
0.0
 11
34.14389471606285
 21
2.744546149284913
 31
0.0
  0
LINE
  5
2F1
330
76
100
AcDbEntity
  8
126
  6
Continuous
 62
     3
100
AcDbLine
 10
34.18898671606285
 20
2.699454949284914
 30
0.0
 11
34.23789171606285
 21
2.650549449284913
 31
0.0
  0
LINE
  5
2F2
330
76
100
AcDbEntity
  8
126
  6
Continuous
 62
     3
100
AcDbLine
 10
34.03841371606285
 20
2.838978849284913
 30
0.0
 11
34.06578871606285
 21
2.811603849284914
 31
0.0
  0
LINE
  5
2F3
330
76
100
AcDbEntity
  8
126
  6
Continuous
 62
     3
100
AcDbLine
 10
34.11887871606285
 20
2.758514149284915
 30
0.0
 11
34.14223871606285
 21
2.735153749284914
 31
0.0
  0
LINE
  5
2F4
330
76
100
AcDbEntity
  8
126
  6
Continuous
 62
     3
100
AcDbLine
 10
34.18732971606285
 20
2.690062549284915
 30
0.0
 11
34.22684371606286
 21
2.650549449284913
 31
0.0
  0
LINE
  5
2F5
330
76
100
AcDbEntity
  8
126
  6
Continuous
 62
     3
100
AcDbLine
 10
34.02736571606285
 20
2.838978849284913
 30
0.0
 11
34.05474071606285
 21
2.811603849284914
 31
0.0
  0
LINE
  5
2F6
330
76
100
AcDbEntity
  8
126
  6
Continuous
 62
     3
100
AcDbLine
 10
34.10782971606284
 20
2.758514149284915
 30
0.0
 11
34.13532971606285
 21
2.731014149284915
 31
0.0
  0
LINE
  5
2F7
330
76
100
AcDbEntity
  8
126
  6
Continuous
 62
     3
100
AcDbLine
 10
34.18567371606285
 20
2.680670149284914
 30
0.0
 11
34.21579471606285
 21
2.650549449284913
 31
0.0
  0
LINE
  5
2F8
330
76
100
AcDbEntity
  8
126
  6
Continuous
 62
     3
100
AcDbLine
 10
34.01631671606285
 20
2.838978849284913
 30
0.0
 11
34.04369171606286
 21
2.811603849284914
 31
0.0
  0
LINE
  5
2F9
330
76
100
AcDbEntity
  8
126
  6
Continuous
 62
     3
100
AcDbLine
 10
34.09678171606285
 20
2.758514149284915
 30
0.0
 11
34.12428171606285
 21
2.731014149284915
 31
0.0
  0
LINE
  5
2FA
330
76
100
AcDbEntity
  8
126
  6
Continuous
 62
     3
100
AcDbLine
 10
34.18401771606286
 20
2.671277749284914
 30
0.0
 11
34.20474571606285
 21
2.650549449284913
 31
0.0
  0
LINE
  5
2FB
330
76
100
AcDbEntity
  8
126
  6
Continuous
 62
     3
100
AcDbLine
 10
34.00526871606285
 20
2.838978849284913
 30
0.0
 11
34.03264371606285
 21
2.811603849284914
 31
0.0
  0
LINE
  5
2FC
330
76
100
AcDbEntity
  8
126
  6
Continuous
 62
     3
100
AcDbLine
 10
34.08573271606285
 20
2.758514149284915
 30
0.0
 11
34.11323271606285
 21
2.731014149284915
 31
0.0
  0
LINE
  5
2FD
330
76
100
AcDbEntity
  8
126
  6
Continuous
 62
     3
100
AcDbLine
 10
34.18236171606285
 20
2.661885349284915
 30
0.0
 11
34.19369771606285
 21
2.650549449284913
 31
0.0
  0
LINE
  5
2FE
330
76
100
AcDbEntity
  8
126
  6
Continuous
 62
     3
100
AcDbLine
 10
33.99421971606285
 20
2.838978849284913
 30
0.0
 11
34.02159471606285
 21
2.811603849284914
 31
0.0
  0
LINE
  5
2FF
330
76
100
AcDbEntity
  8
126
  6
Continuous
 62
     3
100
AcDbLine
 10
34.07468471606285
 20
2.758514149284915
 30
0.0
 11
34.10218471606285
 21
2.731014149284915
 31
0.0
  0
LINE
  5
300
330
76
100
AcDbEntity
  8
126
  6
Continuous
 62
     3
100
AcDbLine
 10
34.15527371606285
 20
2.677924449284915
 30
0.0
 11
34.15719471606286
 21
2.676003649284913
 31
0.0
  0
LINE
  5
301
330
76
100
AcDbEntity
  8
126
  6
Continuous
 62
     3
100
AcDbLine
 10
34.18070571606286
 20
2.652492949284915
 30
0.0
 11
34.18264871606285
 21
2.650549449284913
 31
0.0
  0
LINE
  5
302
330
76
100
AcDbEntity
  8
126
  6
Continuous
 62
     3
100
AcDbLine
 10
33.98317071606285
 20
2.838978849284913
 30
0.0
 11
34.01054571606285
 21
2.811603849284914
 31
0.0
  0
LINE
  5
303
330
76
100
AcDbEntity
  8
126
  6
Continuous
 62
     3
100
AcDbLine
 10
34.06363571606285
 20
2.758514149284915
 30
0.0
 11
34.09113571606285
 21
2.731014149284915
 31
0.0
  0
LINE
  5
304
330
76
100
AcDbEntity
  8
126
  6
Continuous
 62
     3
100
AcDbLine
 10
34.14422571606285
 20
2.677924449284915
 30
0.0
 11
34.15553871606285
 21
2.666611249284914
 31
0.0
  0
LINE
  5
305
330
76
100
AcDbEntity
  8
126
  6
Continuous
 62
     3
100
AcDbLine
 10
33.97212271606285
 20
2.838978849284913
 30
0.0
 11
33.99949771606285
 21
2.811603849284914
 31
0.0
  0
LINE
  5
306
330
76
100
AcDbEntity
  8
126
  6
Continuous
 62
     3
100
AcDbLine
 10
34.05258771606285
 20
2.758514149284915
 30
0.0
 11
34.08008771606285
 21
2.731014149284915
 31
0.0
  0
LINE
  5
307
330
76
100
AcDbEntity
  8
126
  6
Continuous
 62
     3
100
AcDbLine
 10
34.13317671606285
 20
2.677924449284915
 30
0.0
 11
34.15388271606285
 21
2.657218849284914
 31
0.0
  0
LINE
  5
308
330
76
100
AcDbEntity
  8
126
  6
Continuous
 62
     3
100
AcDbLine
 10
33.96107371606285
 20
2.838978849284913
 30
0.0
 11
33.98844871606285
 21
2.811603849284914
 31
0.0
  0
LINE
  5
309
330
76
100
AcDbEntity
  8
126
  6
Continuous
 62
     3
100
AcDbLine
 10
34.04153871606285
 20
2.758514149284915
 30
0.0
 11
34.06903871606285
 21
2.731014149284915
 31
0.0
  0
LINE
  5
30A
330
76
100
AcDbEntity
  8
126
  6
Continuous
 62
     3
100
AcDbLine
 10
34.12212871606286
 20
2.677924449284915
 30
0.0
 11
34.14950371606285
 21
2.650549449284913
 31
0.0
  0
LINE
  5
30B
330
76
100
AcDbEntity
  8
126
  6
Continuous
 62
     3
100
AcDbLine
 10
33.95002571606286
 20
2.838978849284913
 30
0.0
 11
33.97740071606285
 21
2.811603849284914
 31
0.0
  0
LINE
  5
30C
330
76
100
AcDbEntity
  8
126
  6
Continuous
 62
     3
100
AcDbLine
 10
34.03049071606285
 20
2.758514149284915
 30
0.0
 11
34.05799071606285
 21
2.731014149284915
 31
0.0
  0
LINE
  5
30D
330
76
100
AcDbEntity
  8
126
  6
Continuous
 62
     3
100
AcDbLine
 10
34.11107971606285
 20
2.677924449284915
 30
0.0
 11
34.13845471606285
 21
2.650549449284913
 31
0.0
  0
LINE
  5
30E
330
76
100
AcDbEntity
  8
126
  6
Continuous
 62
     3
100
AcDbLine
 10
33.93897671606286
 20
2.838978849284913
 30
0.0
 11
33.96635171606285
 21
2.811603849284914
 31
0.0
  0
LINE
  5
30F
330
76
100
AcDbEntity
  8
126
  6
Continuous
 62
     3
100
AcDbLine
 10
34.01944171606285
 20
2.758514149284915
 30
0.0
 11
34.04694171606286
 21
2.731014149284915
 31
0.0
  0
LINE
  5
310
330
76
100
AcDbEntity
  8
126
  6
Continuous
 62
     3
100
AcDbLine
 10
34.10003171606285
 20
2.677924449284915
 30
0.0
 11
34.12740671606285
 21
2.650549449284913
 31
0.0
  0
LINE
  5
311
330
76
100
AcDbEntity
  8
126
  6
Continuous
 62
     3
100
AcDbLine
 10
33.92792871606284
 20
2.838978849284913
 30
0.0
 11
33.95780471606285
 21
2.809102449284914
 31
0.0
  0
LINE
  5
312
330
76
100
AcDbEntity
  8
126
  6
Continuous
 62
     3
100
AcDbLine
 10
34.00839271606285
 20
2.758514149284915
 30
0.0
 11
34.03589271606286
 21
2.731014149284915
 31
0.0
  0
LINE
  5
313
330
76
100
AcDbEntity
  8
126
  6
Continuous
 62
     3
100
AcDbLine
 10
34.08898271606285
 20
2.677924449284915
 30
0.0
 11
34.11635771606285
 21
2.650549449284913
 31
0.0
  0
LINE
  5
314
330
76
100
AcDbEntity
  8
126
  6
Continuous
 62
     3
100
AcDbLine
 10
33.91687971606284
 20
2.838978849284913
 30
0.0
 11
33.95614871606285
 21
2.799710049284914
 31
0.0
  0
LINE
  5
315
330
76
100
AcDbEntity
  8
126
  6
Continuous
 62
     3
100
AcDbLine
 10
33.99734471606285
 20
2.758514149284915
 30
0.0
 11
34.02484471606285
 21
2.731014149284915
 31
0.0
  0
LINE
  5
316
330
76
100
AcDbEntity
  8
126
  6
Continuous
 62
     3
100
AcDbLine
 10
34.07793471606285
 20
2.677924449284915
 30
0.0
 11
34.10530971606285
 21
2.650549449284913
 31
0.0
  0
LINE
  5
317
330
76
100
AcDbEntity
  8
126
  6
Continuous
 62
     3
100
AcDbLine
 10
33.91016771606285
 20
2.834642849284913
 30
0.0
 11
33.95449271606285
 21
2.790317649284915
 31
0.0
  0
LINE
  5
318
330
76
100
AcDbEntity
  8
126
  6
Continuous
 62
     3
100
AcDbLine
 10
33.98629571606285
 20
2.758514149284915
 30
0.0
 11
34.01379571606285
 21
2.731014149284915
 31
0.0
  0
LINE
  5
319
330
76
100
AcDbEntity
  8
126
  6
Continuous
 62
     3
100
AcDbLine
 10
34.06688571606285
 20
2.677924449284915
 30
0.0
 11
34.09426071606285
 21
2.650549449284913
 31
0.0
  0
LINE
  5
31A
330
76
100
AcDbEntity
  8
126
  6
Continuous
 62
     3
100
AcDbLine
 10
33.90851071606285
 20
2.825250449284913
 30
0.0
 11
33.95283671606285
 21
2.780925249284914
 31
0.0
  0
LINE
  5
31B
330
76
100
AcDbEntity
  8
126
  6
Continuous
 62
     3
100
AcDbLine
 10
33.97524771606285
 20
2.758514149284915
 30
0.0
 11
34.00274771606285
 21
2.731014149284915
 31
0.0
  0
LINE
  5
31C
330
76
100
AcDbEntity
  8
126
  6
Continuous
 62
     3
100
AcDbLine
 10
34.05583671606285
 20
2.677924449284915
 30
0.0
 11
34.08321171606285
 21
2.650549449284913
 31
0.0
  0
LINE
  5
31D
330
76
100
AcDbEntity
  8
126
  6
Continuous
 62
     3
100
AcDbLine
 10
33.90685471606285
 20
2.815858049284913
 30
0.0
 11
33.95118071606285
 21
2.771532849284914
 31
0.0
  0
LINE
  5
31E
330
76
100
AcDbEntity
  8
126
  6
Continuous
 62
     3
100
AcDbLine
 10
33.96419871606286
 20
2.758514149284915
 30
0.0
 11
33.99169871606285
 21
2.731014149284915
 31
0.0
  0
LINE
  5
31F
330
76
100
AcDbEntity
  8
126
  6
Continuous
 62
     3
100
AcDbLine
 10
34.04478871606285
 20
2.677924449284915
 30
0.0
 11
34.07216371606285
 21
2.650549449284913
 31
0.0
  0
LINE
  5
320
330
76
100
AcDbEntity
  8
126
  6
Continuous
 62
     3
100
AcDbLine
 10
33.90519871606285
 20
2.806465649284914
 30
0.0
 11
33.94952371606285
 21
2.762140449284915
 31
0.0
  0
LINE
  5
321
330
76
100
AcDbEntity
  8
126
  6
Continuous
 62
     3
100
AcDbLine
 10
33.95315071606285
 20
2.758514149284915
 30
0.0
 11
33.98065071606286
 21
2.731014149284915
 31
0.0
  0
LINE
  5
322
330
76
100
AcDbEntity
  8
126
  6
Continuous
 62
     3
100
AcDbLine
 10
34.03373971606285
 20
2.677924449284915
 30
0.0
 11
34.06111471606286
 21
2.650549449284913
 31
0.0
  0
LINE
  5
323
330
76
100
AcDbEntity
  8
126
  6
Continuous
 62
     3
100
AcDbLine
 10
33.90354271606284
 20
2.797073249284914
 30
0.0
 11
33.96960171606286
 21
2.731014149284915
 31
0.0
  0
LINE
  5
324
330
76
100
AcDbEntity
  8
126
  6
Continuous
 62
     3
100
AcDbLine
 10
34.02269171606285
 20
2.677924449284915
 30
0.0
 11
34.05006671606285
 21
2.650549449284913
 31
0.0
  0
LINE
  5
325
330
76
100
AcDbEntity
  8
126
  6
Continuous
 62
     3
100
AcDbLine
 10
33.90188671606285
 20
2.787680849284914
 30
0.0
 11
33.95855371606284
 21
2.731014149284915
 31
0.0
  0
LINE
  5
326
330
76
100
AcDbEntity
  8
126
  6
Continuous
 62
     3
100
AcDbLine
 10
34.01164271606285
 20
2.677924449284915
 30
0.0
 11
34.03901771606285
 21
2.650549449284913
 31
0.0
  0
LINE
  5
327
330
76
100
AcDbEntity
  8
126
  6
Continuous
 62
     3
100
AcDbLine
 10
33.90023071606285
 20
2.778288449284914
 30
0.0
 11
33.94759971606286
 21
2.730919349284913
 31
0.0
  0
LINE
  5
328
330
76
100
AcDbEntity
  8
126
  6
Continuous
 62
     3
100
AcDbLine
 10
34.00059471606285
 20
2.677924449284915
 30
0.0
 11
34.02796971606285
 21
2.650549449284913
 31
0.0
  0
LINE
  5
329
330
76
100
AcDbEntity
  8
126
  6
Continuous
 62
     3
100
AcDbLine
 10
33.89857471606286
 20
2.768896049284915
 30
0.0
 11
33.94594371606285
 21
2.721526949284914
 31
0.0
  0
LINE
  5
32A
330
76
100
AcDbEntity
  8
126
  6
Continuous
 62
     3
100
AcDbLine
 10
33.98954571606285
 20
2.677924449284915
 30
0.0
 11
34.01692071606285
 21
2.650549449284913
 31
0.0
  0
LINE
  5
32B
330
76
100
AcDbEntity
  8
126
  6
Continuous
 62
     3
100
AcDbLine
 10
33.89691771606285
 20
2.759503649284915
 30
0.0
 11
33.94428771606285
 21
2.712134549284914
 31
0.0
  0
LINE
  5
32C
330
76
100
AcDbEntity
  8
126
  6
Continuous
 62
     3
100
AcDbLine
 10
33.97849771606285
 20
2.677924449284915
 30
0.0
 11
34.00587271606286
 21
2.650549449284913
 31
0.0
  0
LINE
  5
32D
330
76
100
AcDbEntity
  8
126
  6
Continuous
 62
     3
100
AcDbLine
 10
33.89526171606285
 20
2.750111249284914
 30
0.0
 11
33.94263071606285
 21
2.702742149284913
 31
0.0
  0
LINE
  5
32E
330
76
100
AcDbEntity
  8
126
  6
Continuous
 62
     3
100
AcDbLine
 10
33.96744871606286
 20
2.677924449284915
 30
0.0
 11
33.99482371606286
 21
2.650549449284913
 31
0.0
  0
LINE
  5
32F
330
76
100
AcDbEntity
  8
126
  6
Continuous
 62
     3
100
AcDbLine
 10
33.89360571606285
 20
2.740718849284915
 30
0.0
 11
33.94097471606285
 21
2.693349749284914
 31
0.0
  0
LINE
  5
330
330
76
100
AcDbEntity
  8
126
  6
Continuous
 62
     3
100
AcDbLine
 10
33.95640071606286
 20
2.677924449284915
 30
0.0
 11
33.98377571606285
 21
2.650549449284913
 31
0.0
  0
LINE
  5
331
330
76
100
AcDbEntity
  8
126
  6
Continuous
 62
     3
100
AcDbLine
 10
33.89194971606285
 20
2.731326449284914
 30
0.0
 11
33.93931871606285
 21
2.683957349284914
 31
0.0
  0
LINE
  5
332
330
76
100
AcDbEntity
  8
126
  6
Continuous
 62
     3
100
AcDbLine
 10
33.94535171606285
 20
2.677924449284915
 30
0.0
 11
33.97272671606285
 21
2.650549449284913
 31
0.0
  0
LINE
  5
333
330
76
100
AcDbEntity
  8
126
  6
Continuous
 62
     3
100
AcDbLine
 10
33.89029371606285
 20
2.721933949284915
 30
0.0
 11
33.96167771606285
 21
2.650549449284913
 31
0.0
  0
LINE
  5
334
330
76
100
AcDbEntity
  8
126
  6
Continuous
 62
     3
100
AcDbLine
 10
33.88863771606285
 20
2.712541549284915
 30
0.0
 11
33.95062971606285
 21
2.650549449284913
 31
0.0
  0
LINE
  5
335
330
76
100
AcDbEntity
  8
126
  6
Continuous
 62
     3
100
AcDbLine
 10
33.88698171606285
 20
2.703149149284914
 30
0.0
 11
33.93958071606285
 21
2.650549449284913
 31
0.0
  0
LINE
  5
336
330
76
100
AcDbEntity
  8
126
  6
Continuous
 62
     3
100
AcDbLine
 10
33.88532571606285
 20
2.693756749284915
 30
0.0
 11
33.92853271606286
 21
2.650549449284913
 31
0.0
  0
LINE
  5
337
330
76
100
AcDbEntity
  8
126
  6
Continuous
 62
     3
100
AcDbLine
 10
33.88366871606285
 20
2.684364349284914
 30
0.0
 11
33.91748371606285
 21
2.650549449284913
 31
0.0
  0
LINE
  5
338
330
76
100
AcDbEntity
  8
126
  6
Continuous
 62
     3
100
AcDbLine
 10
33.88201271606285
 20
2.674971949284913
 30
0.0
 11
33.90643571606285
 21
2.650549449284913
 31
0.0
  0
LINE
  5
339
330
76
100
AcDbEntity
  8
126
  6
Continuous
 62
     3
100
AcDbLine
 10
33.88035671606285
 20
2.665579549284915
 30
0.0
 11
33.89538671606285
 21
2.650549449284913
 31
0.0
  0
LINE
  5
33A
330
76
100
AcDbEntity
  8
126
  6
Continuous
 62
     3
100
AcDbLine
 10
33.87870071606285
 20
2.656187149284914
 30
0.0
 11
33.88433871606285
 21
2.650549449284913
 31
0.0
  0
LINE
  5
33B
330
76
100
AcDbEntity
  8
1
  6
Continuous
 62
     6
100
AcDbLine
 10
1.625279251465569
 20
0.8329193492849148
 30
0.0
 11
37.84120571606286
 21
0.8329193492849148
 31
0.0
  0
LINE
  5
33C
330
76
100
AcDbEntity
  8
1
  6
Continuous
 62
     6
100
AcDbLine
 10
37.84120571606286
 20
0.8329193492849148
 30
0.0
 11
37.84120571606286
 21
23.59299332605759
 31
0.0
  0
LINE
  5
33D
330
76
100
AcDbEntity
  8
1
  6
Continuous
 62
     6
100
AcDbLine
 10
37.84120571606286
 20
23.59299332605759
 30
0.0
 11
1.625279251465569
 21
23.59299332605759
 31
0.0
  0
LINE
  5
33E
330
76
100
AcDbEntity
  8
1
  6
Continuous
 62
     6
100
AcDbLine
 10
1.625279251465569
 20
23.59299332605759
 30
0.0
 11
1.625279251465569
 21
0.8329193492849148
 31
0.0
  0
INSERT
  5
33F
330
76
100
AcDbEntity
  8
1
100
AcDbBlockReference
  2
*U1
 10
9.0188576
 20
19.815788
 30
0.0
  0
INSERT
  5
340
330
76
100
AcDbEntity
  8
126
100
AcDbBlockReference
  2
*U2
 10
29.94192871606285
 20
1.349556349284914
 30
0.0
  0
TEXT
  5
408
330
76
100
AcDbEntity
  8
126
  6
Continuous
 62
     3
100
AcDbText
 10
33.87604671606285
 20
1.22531563139905
 30
0.0
 40
0.08
  1
B - ECO C00450 20AUG12
100
AcDbText
  0
LWPOLYLINE
  5
723
330
76
100
AcDbEntity
  8
1
  6
Continuous
 62
     1
100
AcDbPolyline
 90
        8
 70
     1
 43
0.0
 10
25.5084
 20
2.480039899999998
 42
0.4142135623730951
 10
27.0084
 20
3.980039899999998
 10
27.0084
 20
21.60504
 42
0.4142135623730951
 10
25.5084
 20
23.10504
 10
4.133399899999998
 20
23.10504
 42
0.4142135623730951
 10
2.6333999
 20
21.60504
 10
2.6333999
 20
3.980039899999998
 42
0.4142135623730951
 10
4.133399899999998
 20
2.480039899999998
  0
ENDSEC
  0
SECTION
  2
OBJECTS
  0
DICTIONARY
  5
C
330
0
100
AcDbDictionary
281
     1
  3
ACAD_2007HEADERVARS_RT
350
729
  3
ACAD_COLOR
350
6D
  3
ACAD_GROUP
350
D
  3
ACAD_LAYOUT
350
6C
  3
ACAD_MATERIAL
350
10
  3
ACAD_MLEADERSTYLE
350
70
  3
ACAD_MLINESTYLE
350
69
  3
ACAD_PLOTSETTINGS
350
6B
  3
ACAD_PLOTSTYLENAME
350
E
  3
ACAD_SCALELIST
350
3D
  3
ACAD_TABLESTYLE
350
6E
  3
ACAD_VISUALSTYLE
350
29
  3
ACDB_RECOMPOSE_DATA
350
727
  3
AcDbVariableDictionary
350
647
  3
AcmDictionary
350
399
  3
AMG
350
379
  3
AMGSNAPSETTINGS
350
3D9
  3
DWGPROPS
350
728
  0
DICTIONARY
  5
409
330
5F
100
AcDbDictionary
280
     1
281
     1
  3
ADSK_XREC_LAYER_RECONCILED
360
40A
  0
DICTIONARY
  5
40B
330
7A
100
AcDbDictionary
280
     1
281
     1
  3
ADSK_XREC_LAYER_RECONCILED
360
40C
  0
DICTIONARY
  5
40D
330
82
100
AcDbDictionary
280
     1
281
     1
  3
ADSK_XREC_LAYER_RECONCILED
360
40E
  0
DICTIONARY
  5
40F
330
83
100
AcDbDictionary
280
     1
281
     1
  3
ADSK_XREC_LAYER_RECONCILED
360
410
  0
DICTIONARY
  5
411
330
84
100
AcDbDictionary
280
     1
281
     1
  3
ADSK_XREC_LAYER_RECONCILED
360
412
  0
DICTIONARY
  5
413
330
85
100
AcDbDictionary
280
     1
281
     1
  3
ADSK_XREC_LAYER_RECONCILED
360
414
  0
DICTIONARY
  5
415
330
86
100
AcDbDictionary
280
     1
281
     1
  3
ADSK_XREC_LAYER_RECONCILED
360
416
  0
DICTIONARY
  5
417
330
87
100
AcDbDictionary
280
     1
281
     1
  3
ADSK_XREC_LAYER_RECONCILED
360
418
  0
DICTIONARY
  5
419
330
88
100
AcDbDictionary
280
     1
281
     1
  3
ADSK_XREC_LAYER_RECONCILED
360
41A
  0
DICTIONARY
  5
41B
330
89
100
AcDbDictionary
280
     1
281
     1
  3
ADSK_XREC_LAYER_RECONCILED
360
41C
  0
DICTIONARY
  5
41D
330
8A
100
AcDbDictionary
280
     1
281
     1
  3
ADSK_XREC_LAYER_RECONCILED
360
41E
  0
DICTIONARY
  5
41F
330
8B
100
AcDbDictionary
280
     1
281
     1
  3
ADSK_XREC_LAYER_RECONCILED
360
420
  0
DICTIONARY
  5
421
330
8C
100
AcDbDictionary
280
     1
281
     1
  3
ADSK_XREC_LAYER_RECONCILED
360
422
  0
DICTIONARY
  5
423
330
8D
100
AcDbDictionary
280
     1
281
     1
  3
ADSK_XREC_LAYER_RECONCILED
360
424
  0
DICTIONARY
  5
425
330
8E
100
AcDbDictionary
280
     1
281
     1
  3
ADSK_XREC_LAYER_RECONCILED
360
426
  0
DICTIONARY
  5
427
330
8F
100
AcDbDictionary
280
     1
281
     1
  3
ADSK_XREC_LAYER_RECONCILED
360
428
  0
DICTIONARY
  5
429
330
90
100
AcDbDictionary
280
     1
281
     1
  3
ADSK_XREC_LAYER_RECONCILED
360
42A
  0
DICTIONARY
  5
42B
330
91
100
AcDbDictionary
280
     1
281
     1
  3
ADSK_XREC_LAYER_RECONCILED
360
42C
  0
DICTIONARY
  5
42D
330
92
100
AcDbDictionary
280
     1
281
     1
  3
ADSK_XREC_LAYER_RECONCILED
360
42E
  0
DICTIONARY
  5
42F
330
93
100
AcDbDictionary
280
     1
281
     1
  3
ADSK_XREC_LAYER_RECONCILED
360
430
  0
DICTIONARY
  5
431
330
94
100
AcDbDictionary
280
     1
281
     1
  3
ADSK_XREC_LAYER_RECONCILED
360
432
  0
DICTIONARY
  5
433
330
95
100
AcDbDictionary
280
     1
281
     1
  3
ADSK_XREC_LAYER_RECONCILED
360
434
  0
DICTIONARY
  5
435
330
96
100
AcDbDictionary
280
     1
281
     1
  3
ADSK_XREC_LAYER_RECONCILED
360
436
  0
DICTIONARY
  5
437
330
97
100
AcDbDictionary
280
     1
281
     1
  3
ADSK_XREC_LAYER_RECONCILED
360
438
  0
DICTIONARY
  5
439
330
98
100
AcDbDictionary
280
     1
281
     1
  3
ADSK_XREC_LAYER_RECONCILED
360
43A
  0
DICTIONARY
  5
43B
330
99
100
AcDbDictionary
280
     1
281
     1
  3
ADSK_XREC_LAYER_RECONCILED
360
43C
  0
DICTIONARY
  5
43D
330
9A
100
AcDbDictionary
280
     1
281
     1
  3
ADSK_XREC_LAYER_RECONCILED
360
43E
  0
DICTIONARY
  5
43F
330
9B
100
AcDbDictionary
280
     1
281
     1
  3
ADSK_XREC_LAYER_RECONCILED
360
440
  0
DICTIONARY
  5
441
330
9C
100
AcDbDictionary
280
     1
281
     1
  3
ADSK_XREC_LAYER_RECONCILED
360
442
  0
DICTIONARY
  5
443
330
9D
100
AcDbDictionary
280
     1
281
     1
  3
ADSK_XREC_LAYER_RECONCILED
360
444
  0
DICTIONARY
  5
445
330
9E
100
AcDbDictionary
280
     1
281
     1
  3
ADSK_XREC_LAYER_RECONCILED
360
446
  0
DICTIONARY
  5
447
330
9F
100
AcDbDictionary
280
     1
281
     1
  3
ADSK_XREC_LAYER_RECONCILED
360
448
  0
DICTIONARY
  5
449
330
A0
100
AcDbDictionary
280
     1
281
     1
  3
ADSK_XREC_LAYER_RECONCILED
360
44A
  0
DICTIONARY
  5
44B
330
A1
100
AcDbDictionary
280
     1
281
     1
  3
ADSK_XREC_LAYER_RECONCILED
360
44C
  0
DICTIONARY
  5
44D
330
A2
100
AcDbDictionary
280
     1
281
     1
  3
ADSK_XREC_LAYER_RECONCILED
360
44E
  0
DICTIONARY
  5
44F
330
A3
100
AcDbDictionary
280
     1
281
     1
  3
ADSK_XREC_LAYER_RECONCILED
360
450
  0
DICTIONARY
  5
451
330
A4
100
AcDbDictionary
280
     1
281
     1
  3
ADSK_XREC_LAYER_RECONCILED
360
452
  0
DICTIONARY
  5
453
330
A5
100
AcDbDictionary
280
     1
281
     1
  3
ADSK_XREC_LAYER_RECONCILED
360
454
  0
DICTIONARY
  5
455
330
A6
100
AcDbDictionary
280
     1
281
     1
  3
ADSK_XREC_LAYER_RECONCILED
360
456
  0
DICTIONARY
  5
457
330
A7
100
AcDbDictionary
280
     1
281
     1
  3
ADSK_XREC_LAYER_RECONCILED
360
458
  0
DICTIONARY
  5
459
330
A8
100
AcDbDictionary
280
     1
281
     1
  3
ADSK_XREC_LAYER_RECONCILED
360
45A
  0
DICTIONARY
  5
45B
330
A9
100
AcDbDictionary
280
     1
281
     1
  3
ADSK_XREC_LAYER_RECONCILED
360
45C
  0
DICTIONARY
  5
45D
330
AA
100
AcDbDictionary
280
     1
281
     1
  3
ADSK_XREC_LAYER_RECONCILED
360
45E
  0
DICTIONARY
  5
45F
330
AB
100
AcDbDictionary
280
     1
281
     1
  3
ADSK_XREC_LAYER_RECONCILED
360
460
  0
DICTIONARY
  5
461
330
AC
100
AcDbDictionary
280
     1
281
     1
  3
ADSK_XREC_LAYER_RECONCILED
360
462
  0
DICTIONARY
  5
463
330
AD
100
AcDbDictionary
280
     1
281
     1
  3
ADSK_XREC_LAYER_RECONCILED
360
464
  0
DICTIONARY
  5
465
330
AE
100
AcDbDictionary
280
     1
281
     1
  3
ADSK_XREC_LAYER_RECONCILED
360
466
  0
DICTIONARY
  5
467
330
AF
100
AcDbDictionary
280
     1
281
     1
  3
ADSK_XREC_LAYER_RECONCILED
360
468
  0
DICTIONARY
  5
469
330
B0
100
AcDbDictionary
280
     1
281
     1
  3
ADSK_XREC_LAYER_RECONCILED
360
46A
  0
DICTIONARY
  5
46B
330
B1
100
AcDbDictionary
280
     1
281
     1
  3
ADSK_XREC_LAYER_RECONCILED
360
46C
  0
DICTIONARY
  5
46D
330
B2
100
AcDbDictionary
280
     1
281
     1
  3
ADSK_XREC_LAYER_RECONCILED
360
46E
  0
DICTIONARY
  5
46F
330
B3
100
AcDbDictionary
280
     1
281
     1
  3
ADSK_XREC_LAYER_RECONCILED
360
470
  0
DICTIONARY
  5
471
330
B4
100
AcDbDictionary
280
     1
281
     1
  3
ADSK_XREC_LAYER_RECONCILED
360
472
  0
DICTIONARY
  5
473
330
B5
100
AcDbDictionary
280
     1
281
     1
  3
ADSK_XREC_LAYER_RECONCILED
360
474
  0
DICTIONARY
  5
475
330
B6
100
AcDbDictionary
280
     1
281
     1
  3
ADSK_XREC_LAYER_RECONCILED
360
476
  0
DICTIONARY
  5
477
330
B7
100
AcDbDictionary
280
     1
281
     1
  3
ADSK_XREC_LAYER_RECONCILED
360
478
  0
DICTIONARY
  5
479
330
B8
100
AcDbDictionary
280
     1
281
     1
  3
ADSK_XREC_LAYER_RECONCILED
360
47A
  0
DICTIONARY
  5
47B
330
B9
100
AcDbDictionary
280
     1
281
     1
  3
ADSK_XREC_LAYER_RECONCILED
360
47C
  0
DICTIONARY
  5
47D
330
BA
100
AcDbDictionary
280
     1
281
     1
  3
ADSK_XREC_LAYER_RECONCILED
360
47E
  0
DICTIONARY
  5
47F
330
BB
100
AcDbDictionary
280
     1
281
     1
  3
ADSK_XREC_LAYER_RECONCILED
360
480
  0
DICTIONARY
  5
481
330
BC
100
AcDbDictionary
280
     1
281
     1
  3
ADSK_XREC_LAYER_RECONCILED
360
482
  0
DICTIONARY
  5
483
330
BD
100
AcDbDictionary
280
     1
281
     1
  3
ADSK_XREC_LAYER_RECONCILED
360
484
  0
DICTIONARY
  5
485
330
BE
100
AcDbDictionary
280
     1
281
     1
  3
ADSK_XREC_LAYER_RECONCILED
360
486
  0
DICTIONARY
  5
487
330
BF
100
AcDbDictionary
280
     1
281
     1
  3
ADSK_XREC_LAYER_RECONCILED
360
488
  0
DICTIONARY
  5
489
330
C0
100
AcDbDictionary
280
     1
281
     1
  3
ADSK_XREC_LAYER_RECONCILED
360
48A
  0
DICTIONARY
  5
48B
330
C1
100
AcDbDictionary
280
     1
281
     1
  3
ADSK_XREC_LAYER_RECONCILED
360
48C
  0
DICTIONARY
  5
48D
330
C2
100
AcDbDictionary
280
     1
281
     1
  3
ADSK_XREC_LAYER_RECONCILED
360
48E
  0
DICTIONARY
  5
48F
330
C3
100
AcDbDictionary
280
     1
281
     1
  3
ADSK_XREC_LAYER_RECONCILED
360
490
  0
DICTIONARY
  5
491
330
C4
100
AcDbDictionary
280
     1
281
     1
  3
ADSK_XREC_LAYER_RECONCILED
360
492
  0
DICTIONARY
  5
493
330
C5
100
AcDbDictionary
280
     1
281
     1
  3
ADSK_XREC_LAYER_RECONCILED
360
494
  0
DICTIONARY
  5
495
330
C6
100
AcDbDictionary
280
     1
281
     1
  3
ADSK_XREC_LAYER_RECONCILED
360
496
  0
DICTIONARY
  5
497
330
C7
100
AcDbDictionary
280
     1
281
     1
  3
ADSK_XREC_LAYER_RECONCILED
360
498
  0
DICTIONARY
  5
499
330
C8
100
AcDbDictionary
280
     1
281
     1
  3
ADSK_XREC_LAYER_RECONCILED
360
49A
  0
DICTIONARY
  5
49B
330
C9
100
AcDbDictionary
280
     1
281
     1
  3
ADSK_XREC_LAYER_RECONCILED
360
49C
  0
DICTIONARY
  5
49D
330
CA
100
AcDbDictionary
280
     1
281
     1
  3
ADSK_XREC_LAYER_RECONCILED
360
49E
  0
DICTIONARY
  5
49F
330
CB
100
AcDbDictionary
280
     1
281
     1
  3
ADSK_XREC_LAYER_RECONCILED
360
4A0
  0
DICTIONARY
  5
4A1
330
CC
100
AcDbDictionary
280
     1
281
     1
  3
ADSK_XREC_LAYER_RECONCILED
360
4A2
  0
DICTIONARY
  5
4A3
330
CD
100
AcDbDictionary
280
     1
281
     1
  3
ADSK_XREC_LAYER_RECONCILED
360
4A4
  0
DICTIONARY
  5
4A5
330
CE
100
AcDbDictionary
280
     1
281
     1
  3
ADSK_XREC_LAYER_RECONCILED
360
4A6
  0
DICTIONARY
  5
4A7
330
CF
100
AcDbDictionary
280
     1
281
     1
  3
ADSK_XREC_LAYER_RECONCILED
360
4A8
  0
DICTIONARY
  5
4A9
330
D0
100
AcDbDictionary
280
     1
281
     1
  3
ADSK_XREC_LAYER_RECONCILED
360
4AA
  0
DICTIONARY
  5
4AB
330
D1
100
AcDbDictionary
280
     1
281
     1
  3
ADSK_XREC_LAYER_RECONCILED
360
4AC
  0
DICTIONARY
  5
4AD
330
D2
100
AcDbDictionary
280
     1
281
     1
  3
ADSK_XREC_LAYER_RECONCILED
360
4AE
  0
DICTIONARY
  5
4AF
330
D3
100
AcDbDictionary
280
     1
281
     1
  3
ADSK_XREC_LAYER_RECONCILED
360
4B0
  0
DICTIONARY
  5
4B1
330
D4
100
AcDbDictionary
280
     1
281
     1
  3
ADSK_XREC_LAYER_RECONCILED
360
4B2
  0
DICTIONARY
  5
4B3
330
D5
100
AcDbDictionary
280
     1
281
     1
  3
ADSK_XREC_LAYER_RECONCILED
360
4B4
  0
DICTIONARY
  5
4B5
330
D6
100
AcDbDictionary
280
     1
281
     1
  3
ADSK_XREC_LAYER_RECONCILED
360
4B6
  0
DICTIONARY
  5
4B7
330
D7
100
AcDbDictionary
280
     1
281
     1
  3
ADSK_XREC_LAYER_RECONCILED
360
4B8
  0
DICTIONARY
  5
4B9
330
D8
100
AcDbDictionary
280
     1
281
     1
  3
ADSK_XREC_LAYER_RECONCILED
360
4BA
  0
DICTIONARY
  5
4BB
330
D9
100
AcDbDictionary
280
     1
281
     1
  3
ADSK_XREC_LAYER_RECONCILED
360
4BC
  0
DICTIONARY
  5
4BD
330
DA
100
AcDbDictionary
280
     1
281
     1
  3
ADSK_XREC_LAYER_RECONCILED
360
4BE
  0
DICTIONARY
  5
4BF
330
DB
100
AcDbDictionary
280
     1
281
     1
  3
ADSK_XREC_LAYER_RECONCILED
360
4C0
  0
DICTIONARY
  5
4C1
330
DC
100
AcDbDictionary
280
     1
281
     1
  3
ADSK_XREC_LAYER_RECONCILED
360
4C2
  0
DICTIONARY
  5
4C3
330
DD
100
AcDbDictionary
280
     1
281
     1
  3
ADSK_XREC_LAYER_RECONCILED
360
4C4
  0
DICTIONARY
  5
4C5
330
DE
100
AcDbDictionary
280
     1
281
     1
  3
ADSK_XREC_LAYER_RECONCILED
360
4C6
  0
DICTIONARY
  5
4C7
330
DF
100
AcDbDictionary
280
     1
281
     1
  3
ADSK_XREC_LAYER_RECONCILED
360
4C8
  0
DICTIONARY
  5
4C9
330
E0
100
AcDbDictionary
280
     1
281
     1
  3
ADSK_XREC_LAYER_RECONCILED
360
4CA
  0
DICTIONARY
  5
4CB
330
E1
100
AcDbDictionary
280
     1
281
     1
  3
ADSK_XREC_LAYER_RECONCILED
360
4CC
  0
DICTIONARY
  5
4CD
330
E2
100
AcDbDictionary
280
     1
281
     1
  3
ADSK_XREC_LAYER_RECONCILED
360
4CE
  0
DICTIONARY
  5
4CF
330
E3
100
AcDbDictionary
280
     1
281
     1
  3
ADSK_XREC_LAYER_RECONCILED
360
4D0
  0
DICTIONARY
  5
4D1
330
E4
100
AcDbDictionary
280
     1
281
     1
  3
ADSK_XREC_LAYER_RECONCILED
360
4D2
  0
DICTIONARY
  5
4D3
330
E5
100
AcDbDictionary
280
     1
281
     1
  3
ADSK_XREC_LAYER_RECONCILED
360
4D4
  0
DICTIONARY
  5
4D5
330
E6
100
AcDbDictionary
280
     1
281
     1
  3
ADSK_XREC_LAYER_RECONCILED
360
4D6
  0
DICTIONARY
  5
4D7
330
E7
100
AcDbDictionary
280
     1
281
     1
  3
ADSK_XREC_LAYER_RECONCILED
360
4D8
  0
DICTIONARY
  5
4D9
330
E8
100
AcDbDictionary
280
     1
281
     1
  3
ADSK_XREC_LAYER_RECONCILED
360
4DA
  0
DICTIONARY
  5
4DB
330
E9
100
AcDbDictionary
280
     1
281
     1
  3
ADSK_XREC_LAYER_RECONCILED
360
4DC
  0
DICTIONARY
  5
4DD
330
EA
100
AcDbDictionary
280
     1
281
     1
  3
ADSK_XREC_LAYER_RECONCILED
360
4DE
  0
DICTIONARY
  5
4DF
330
EB
100
AcDbDictionary
280
     1
281
     1
  3
ADSK_XREC_LAYER_RECONCILED
360
4E0
  0
DICTIONARY
  5
4E1
330
EC
100
AcDbDictionary
280
     1
281
     1
  3
ADSK_XREC_LAYER_RECONCILED
360
4E2
  0
DICTIONARY
  5
4E3
330
ED
100
AcDbDictionary
280
     1
281
     1
  3
ADSK_XREC_LAYER_RECONCILED
360
4E4
  0
DICTIONARY
  5
4E5
330
EE
100
AcDbDictionary
280
     1
281
     1
  3
ADSK_XREC_LAYER_RECONCILED
360
4E6
  0
DICTIONARY
  5
4E7
330
EF
100
AcDbDictionary
280
     1
281
     1
  3
ADSK_XREC_LAYER_RECONCILED
360
4E8
  0
DICTIONARY
  5
4E9
330
F0
100
AcDbDictionary
280
     1
281
     1
  3
ADSK_XREC_LAYER_RECONCILED
360
4EA
  0
DICTIONARY
  5
4EB
330
F1
100
AcDbDictionary
280
     1
281
     1
  3
ADSK_XREC_LAYER_RECONCILED
360
4EC
  0
DICTIONARY
  5
4ED
330
F2
100
AcDbDictionary
280
     1
281
     1
  3
ADSK_XREC_LAYER_RECONCILED
360
4EE
  0
DICTIONARY
  5
4EF
330
F3
100
AcDbDictionary
280
     1
281
     1
  3
ADSK_XREC_LAYER_RECONCILED
360
4F0
  0
DICTIONARY
  5
4F1
330
F4
100
AcDbDictionary
280
     1
281
     1
  3
ADSK_XREC_LAYER_RECONCILED
360
4F2
  0
DICTIONARY
  5
4F3
330
F5
100
AcDbDictionary
280
     1
281
     1
  3
ADSK_XREC_LAYER_RECONCILED
360
4F4
  0
DICTIONARY
  5
4F5
330
F6
100
AcDbDictionary
280
     1
281
     1
  3
ADSK_XREC_LAYER_RECONCILED
360
4F6
  0
DICTIONARY
  5
4F7
330
F7
100
AcDbDictionary
280
     1
281
     1
  3
ADSK_XREC_LAYER_RECONCILED
360
4F8
  0
DICTIONARY
  5
4F9
330
F8
100
AcDbDictionary
280
     1
281
     1
  3
ADSK_XREC_LAYER_RECONCILED
360
4FA
  0
DICTIONARY
  5
4FB
330
F9
100
AcDbDictionary
280
     1
281
     1
  3
ADSK_XREC_LAYER_RECONCILED
360
4FC
  0
DICTIONARY
  5
4FD
330
FA
100
AcDbDictionary
280
     1
281
     1
  3
ADSK_XREC_LAYER_RECONCILED
360
4FE
  0
DICTIONARY
  5
4FF
330
FB
100
AcDbDictionary
280
     1
281
     1
  3
ADSK_XREC_LAYER_RECONCILED
360
500
  0
DICTIONARY
  5
501
330
FC
100
AcDbDictionary
280
     1
281
     1
  3
ADSK_XREC_LAYER_RECONCILED
360
502
  0
DICTIONARY
  5
503
330
FD
100
AcDbDictionary
280
     1
281
     1
  3
ADSK_XREC_LAYER_RECONCILED
360
504
  0
DICTIONARY
  5
505
330
FE
100
AcDbDictionary
280
     1
281
     1
  3
ADSK_XREC_LAYER_RECONCILED
360
506
  0
DICTIONARY
  5
507
330
FF
100
AcDbDictionary
280
     1
281
     1
  3
ADSK_XREC_LAYER_RECONCILED
360
508
  0
DICTIONARY
  5
509
330
100
100
AcDbDictionary
280
     1
281
     1
  3
ADSK_XREC_LAYER_RECONCILED
360
50A
  0
DICTIONARY
  5
50B
330
101
100
AcDbDictionary
280
     1
281
     1
  3
ADSK_XREC_LAYER_RECONCILED
360
50C
  0
DICTIONARY
  5
50D
330
102
100
AcDbDictionary
280
     1
281
     1
  3
ADSK_XREC_LAYER_RECONCILED
360
50E
  0
DICTIONARY
  5
50F
330
103
100
AcDbDictionary
280
     1
281
     1
  3
ADSK_XREC_LAYER_RECONCILED
360
510
  0
DICTIONARY
  5
511
330
104
100
AcDbDictionary
280
     1
281
     1
  3
ADSK_XREC_LAYER_RECONCILED
360
512
  0
DICTIONARY
  5
513
330
105
100
AcDbDictionary
280
     1
281
     1
  3
ADSK_XREC_LAYER_RECONCILED
360
514
  0
DICTIONARY
  5
515
330
106
100
AcDbDictionary
280
     1
281
     1
  3
ADSK_XREC_LAYER_RECONCILED
360
516
  0
DICTIONARY
  5
517
330
107
100
AcDbDictionary
280
     1
281
     1
  3
ADSK_XREC_LAYER_RECONCILED
360
518
  0
DICTIONARY
  5
519
330
108
100
AcDbDictionary
280
     1
281
     1
  3
ADSK_XREC_LAYER_RECONCILED
360
51A
  0
DICTIONARY
  5
51B
330
109
100
AcDbDictionary
280
     1
281
     1
  3
ADSK_XREC_LAYER_RECONCILED
360
51C
  0
DICTIONARY
  5
51D
330
10A
100
AcDbDictionary
280
     1
281
     1
  3
ADSK_XREC_LAYER_RECONCILED
360
51E
  0
DICTIONARY
  5
51F
330
10B
100
AcDbDictionary
280
     1
281
     1
  3
ADSK_XREC_LAYER_RECONCILED
360
520
  0
DICTIONARY
  5
521
330
10C
100
AcDbDictionary
280
     1
281
     1
  3
ADSK_XREC_LAYER_RECONCILED
360
522
  0
DICTIONARY
  5
523
330
10D
100
AcDbDictionary
280
     1
281
     1
  3
ADSK_XREC_LAYER_RECONCILED
360
524
  0
DICTIONARY
  5
525
330
10E
100
AcDbDictionary
280
     1
281
     1
  3
ADSK_XREC_LAYER_RECONCILED
360
526
  0
DICTIONARY
  5
527
330
10F
100
AcDbDictionary
280
     1
281
     1
  3
ADSK_XREC_LAYER_RECONCILED
360
528
  0
DICTIONARY
  5
529
330
110
100
AcDbDictionary
280
     1
281
     1
  3
ADSK_XREC_LAYER_RECONCILED
360
52A
  0
DICTIONARY
  5
52B
330
111
100
AcDbDictionary
280
     1
281
     1
  3
ADSK_XREC_LAYER_RECONCILED
360
52C
  0
DICTIONARY
  5
52D
330
112
100
AcDbDictionary
280
     1
281
     1
  3
ADSK_XREC_LAYER_RECONCILED
360
52E
  0
DICTIONARY
  5
52F
330
113
100
AcDbDictionary
280
     1
281
     1
  3
ADSK_XREC_LAYER_RECONCILED
360
530
  0
DICTIONARY
  5
531
330
114
100
AcDbDictionary
280
     1
281
     1
  3
ADSK_XREC_LAYER_RECONCILED
360
532
  0
DICTIONARY
  5
533
330
115
100
AcDbDictionary
280
     1
281
     1
  3
ADSK_XREC_LAYER_RECONCILED
360
534
  0
DICTIONARY
  5
535
330
116
100
AcDbDictionary
280
     1
281
     1
  3
ADSK_XREC_LAYER_RECONCILED
360
536
  0
DICTIONARY
  5
537
330
117
100
AcDbDictionary
280
     1
281
     1
  3
ADSK_XREC_LAYER_RECONCILED
360
538
  0
DICTIONARY
  5
539
330
118
100
AcDbDictionary
280
     1
281
     1
  3
ADSK_XREC_LAYER_RECONCILED
360
53A
  0
DICTIONARY
  5
53B
330
119
100
AcDbDictionary
280
     1
281
     1
  3
ADSK_XREC_LAYER_RECONCILED
360
53C
  0
DICTIONARY
  5
53D
330
11A
100
AcDbDictionary
280
     1
281
     1
  3
ADSK_XREC_LAYER_RECONCILED
360
53E
  0
DICTIONARY
  5
53F
330
11B
100
AcDbDictionary
280
     1
281
     1
  3
ADSK_XREC_LAYER_RECONCILED
360
540
  0
DICTIONARY
  5
541
330
11C
100
AcDbDictionary
280
     1
281
     1
  3
ADSK_XREC_LAYER_RECONCILED
360
542
  0
DICTIONARY
  5
543
330
11D
100
AcDbDictionary
280
     1
281
     1
  3
ADSK_XREC_LAYER_RECONCILED
360
544
  0
DICTIONARY
  5
545
330
11E
100
AcDbDictionary
280
     1
281
     1
  3
ADSK_XREC_LAYER_RECONCILED
360
546
  0
DICTIONARY
  5
547
330
11F
100
AcDbDictionary
280
     1
281
     1
  3
ADSK_XREC_LAYER_RECONCILED
360
548
  0
DICTIONARY
  5
549
330
120
100
AcDbDictionary
280
     1
281
     1
  3
ADSK_XREC_LAYER_RECONCILED
360
54A
  0
DICTIONARY
  5
54B
330
121
100
AcDbDictionary
280
     1
281
     1
  3
ADSK_XREC_LAYER_RECONCILED
360
54C
  0
DICTIONARY
  5
54D
330
122
100
AcDbDictionary
280
     1
281
     1
  3
ADSK_XREC_LAYER_RECONCILED
360
54E
  0
DICTIONARY
  5
54F
330
123
100
AcDbDictionary
280
     1
281
     1
  3
ADSK_XREC_LAYER_RECONCILED
360
550
  0
DICTIONARY
  5
551
330
124
100
AcDbDictionary
280
     1
281
     1
  3
ADSK_XREC_LAYER_RECONCILED
360
552
  0
DICTIONARY
  5
553
330
125
100
AcDbDictionary
280
     1
281
     1
  3
ADSK_XREC_LAYER_RECONCILED
360
554
  0
DICTIONARY
  5
555
330
126
100
AcDbDictionary
280
     1
281
     1
  3
ADSK_XREC_LAYER_RECONCILED
360
556
  0
DICTIONARY
  5
557
330
127
100
AcDbDictionary
280
     1
281
     1
  3
ADSK_XREC_LAYER_RECONCILED
360
558
  0
DICTIONARY
  5
559
330
128
100
AcDbDictionary
280
     1
281
     1
  3
ADSK_XREC_LAYER_RECONCILED
360
55A
  0
DICTIONARY
  5
55B
330
129
100
AcDbDictionary
280
     1
281
     1
  3
ADSK_XREC_LAYER_RECONCILED
360
55C
  0
DICTIONARY
  5
55D
330
12A
100
AcDbDictionary
280
     1
281
     1
  3
ADSK_XREC_LAYER_RECONCILED
360
55E
  0
DICTIONARY
  5
55F
330
12B
100
AcDbDictionary
280
     1
281
     1
  3
ADSK_XREC_LAYER_RECONCILED
360
560
  0
DICTIONARY
  5
561
330
12C
100
AcDbDictionary
280
     1
281
     1
  3
ADSK_XREC_LAYER_RECONCILED
360
562
  0
DICTIONARY
  5
563
330
12D
100
AcDbDictionary
280
     1
281
     1
  3
ADSK_XREC_LAYER_RECONCILED
360
564
  0
DICTIONARY
  5
565
330
12E
100
AcDbDictionary
280
     1
281
     1
  3
ADSK_XREC_LAYER_RECONCILED
360
566
  0
DICTIONARY
  5
567
330
12F
100
AcDbDictionary
280
     1
281
     1
  3
ADSK_XREC_LAYER_RECONCILED
360
568
  0
DICTIONARY
  5
569
330
130
100
AcDbDictionary
280
     1
281
     1
  3
ADSK_XREC_LAYER_RECONCILED
360
56A
  0
DICTIONARY
  5
56B
330
131
100
AcDbDictionary
280
     1
281
     1
  3
ADSK_XREC_LAYER_RECONCILED
360
56C
  0
DICTIONARY
  5
56D
330
132
100
AcDbDictionary
280
     1
281
     1
  3
ADSK_XREC_LAYER_RECONCILED
360
56E
  0
DICTIONARY
  5
56F
330
133
100
AcDbDictionary
280
     1
281
     1
  3
ADSK_XREC_LAYER_RECONCILED
360
570
  0
DICTIONARY
  5
571
330
134
100
AcDbDictionary
280
     1
281
     1
  3
ADSK_XREC_LAYER_RECONCILED
360
572
  0
DICTIONARY
  5
573
330
135
100
AcDbDictionary
280
     1
281
     1
  3
ADSK_XREC_LAYER_RECONCILED
360
574
  0
DICTIONARY
  5
3F0
330
76
100
AcDbDictionary
280
     1
281
     1
  3
ACAD_SORTENTS
360
724
  0
DICTIONARY
  5
406
330
140
100
AcDbDictionary
280
     1
281
     1
  3
ACAD_SORTENTS
360
407
  0
DICTIONARY
  5
729
102
{ACAD_REACTORS
330
C
102
}
330
C
100
AcDbDictionary
281
     1
  3
DIMARCSYM
350
72A
  3
DIMLTEX1
350
72C
  3
DIMLTEX2
350
72D
  3
DIMLTYPE
350
72B
  0
DICTIONARY
  5
6D
102
{ACAD_REACTORS
330
C
102
}
330
C
100
AcDbDictionary
281
     1
  0
DICTIONARY
  5
D
102
{ACAD_REACTORS
330
C
102
}
330
C
100
AcDbDictionary
281
     1
  0
DICTIONARY
  5
6C
102
{ACAD_REACTORS
330
C
102
}
330
C
100
AcDbDictionary
281
     1
  3
Layout1
350
75
  3
Model
350
79
  0
DICTIONARY
  5
10
102
{ACAD_REACTORS
330
C
102
}
330
C
100
AcDbDictionary
281
     1
  3
ByBlock
350
19
  3
ByLayer
350
11
  3
Global
350
21
  0
DICTIONARY
  5
70
102
{ACAD_REACTORS
330
C
102
}
330
C
100
AcDbDictionary
281
     1
  3
Standard
350
71
  0
DICTIONARY
  5
69
102
{ACAD_REACTORS
330
C
102
}
330
C
100
AcDbDictionary
281
     1
  3
Standard
350
6A
  0
DICTIONARY
  5
6B
102
{ACAD_REACTORS
330
C
102
}
330
C
100
AcDbDictionary
281
     1
  0
ACDBDICTIONARYWDFLT
  5
E
102
{ACAD_REACTORS
330
C
102
}
330
C
100
AcDbDictionary
281
     1
  3
Normal
350
F
100
AcDbDictionaryWithDefault
340
F
  0
DICTIONARY
  5
3D
102
{ACAD_REACTORS
330
C
102
}
330
C
100
AcDbDictionary
281
     1
  3
A0
350
3E
  3
A1
350
3F
  3
A2
350
40
  3
A3
350
41
  3
A4
350
42
  3
A5
350
43
  3
A6
350
44
  3
A7
350
45
  3
A8
350
46
  3
A9
350
47
  3
B0
350
48
  3
B1
350
49
  3
B2
350
4A
  3
B3
350
4B
  3
B4
350
4C
  3
B5
350
4D
  3
B6
350
4E
  3
B7
350
4F
  3
B8
350
50
  3
B9
350
51
  3
C0
350
52
  3
C1
350
53
  3
C2
350
54
  3
C3
350
55
  3
C4
350
56
  3
C5
350
57
  3
C6
350
58
  3
C7
350
59
  3
C8
350
5A
  3
C9
350
5B
  3
D0
350
5C
  3
D1
350
5D
  3
D2
350
5E
  0
DICTIONARY
  5
6E
102
{ACAD_REACTORS
330
C
102
}
330
C
100
AcDbDictionary
281
     1
  3
Standard
350
6F
  0
DICTIONARY
  5
29
102
{ACAD_REACTORS
330
C
102
}
330
C
100
AcDbDictionary
281
     1
  3
2dWireframe
350
2F
  3
3D Hidden
350
31
  3
3dWireframe
350
30
  3
Basic
350
2E
  3
Brighten
350
35
  3
ColorChange
350
39
  3
Conceptual
350
32
  3
Dim
350
34
  3
EdgeColorOff
350
3C
  3
Facepattern
350
38
  3
Flat
350
2A
  3
FlatWithEdges
350
2B
  3
Gouraud
350
2C
  3
GouraudWithEdges
350
2D
  3
JitterOff
350
3A
  3
Linepattern
350
37
  3
OverhangOff
350
3B
  3
Realistic
350
33
  3
Thicken
350
36
  0
XRECORD
  5
727
102
{ACAD_REACTORS
330
C
102
}
330
C
100
AcDbXrecord
280
     1
 90
        1
330
6F
  0
DICTIONARY
  5
647
102
{ACAD_REACTORS
330
C
102
}
330
C
100
AcDbDictionary
281
     1
  3
CANNOSCALE
350
667
  3
CMLEADERSTYLE
350
666
  3
CTABLESTYLE
350
665
  3
DIMASSOC
350
66A
  3
EXPORTMODELSPACE
350
649
  3
EXPORTPAGESETUP
350
648
  3
INDEXCTL
350
669
  3
SORTENTS
350
668
  3
XCLIPFRAME
350
725
  0
DICTIONARY
  5
399
102
{ACAD_REACTORS
330
C
102
}
330
C
100
AcDbDictionary
281
     1
  3
AcmStdDictionary
350
3A3
  0
DICTIONARY
  5
379
102
{ACAD_REACTORS
330
C
102
}
330
C
100
AcDbDictionary
281
     1
  0
DICTIONARY
  5
3D9
102
{ACAD_REACTORS
330
C
102
}
330
C
100
AcDbDictionary
281
     1
  0
XRECORD
  5
728
102
{ACAD_REACTORS
330
C
102
}
330
C
100
AcDbXrecord
280
     1
  1
DWGPROPS COOKIE
  2

  3

  4

  6

  7

  8
nick.oyenik
  9

300
=
301
=
302
=
303
=
304
=
305
=
306
=
307
=
308
=
309
=
 40
0.0160799189814815
 41
2456160.667396447
 42
2456160.683826863
  1

 90
        0
  0
XRECORD
  5
40A
102
{ACAD_REACTORS
330
409
102
}
330
409
100
AcDbXrecord
280
     1
290
     1
  0
XRECORD
  5
40C
102
{ACAD_REACTORS
330
40B
102
}
330
40B
100
AcDbXrecord
280
     1
290
     1
  0
XRECORD
  5
40E
102
{ACAD_REACTORS
330
40D
102
}
330
40D
100
AcDbXrecord
280
     1
290
     1
  0
XRECORD
  5
410
102
{ACAD_REACTORS
330
40F
102
}
330
40F
100
AcDbXrecord
280
     1
290
     1
  0
XRECORD
  5
412
102
{ACAD_REACTORS
330
411
102
}
330
411
100
AcDbXrecord
280
     1
290
     1
  0
XRECORD
  5
414
102
{ACAD_REACTORS
330
413
102
}
330
413
100
AcDbXrecord
280
     1
290
     1
  0
XRECORD
  5
416
102
{ACAD_REACTORS
330
415
102
}
330
415
100
AcDbXrecord
280
     1
290
     1
  0
XRECORD
  5
418
102
{ACAD_REACTORS
330
417
102
}
330
417
100
AcDbXrecord
280
     1
290
     1
  0
XRECORD
  5
41A
102
{ACAD_REACTORS
330
419
102
}
330
419
100
AcDbXrecord
280
     1
290
     1
  0
XRECORD
  5
41C
102
{ACAD_REACTORS
330
41B
102
}
330
41B
100
AcDbXrecord
280
     1
290
     1
  0
XRECORD
  5
41E
102
{ACAD_REACTORS
330
41D
102
}
330
41D
100
AcDbXrecord
280
     1
290
     1
  0
XRECORD
  5
420
102
{ACAD_REACTORS
330
41F
102
}
330
41F
100
AcDbXrecord
280
     1
290
     1
  0
XRECORD
  5
422
102
{ACAD_REACTORS
330
421
102
}
330
421
100
AcDbXrecord
280
     1
290
     1
  0
XRECORD
  5
424
102
{ACAD_REACTORS
330
423
102
}
330
423
100
AcDbXrecord
280
     1
290
     1
  0
XRECORD
  5
426
102
{ACAD_REACTORS
330
425
102
}
330
425
100
AcDbXrecord
280
     1
290
     1
  0
XRECORD
  5
428
102
{ACAD_REACTORS
330
427
102
}
330
427
100
AcDbXrecord
280
     1
290
     1
  0
XRECORD
  5
42A
102
{ACAD_REACTORS
330
429
102
}
330
429
100
AcDbXrecord
280
     1
290
     1
  0
XRECORD
  5
42C
102
{ACAD_REACTORS
330
42B
102
}
330
42B
100
AcDbXrecord
280
     1
290
     1
  0
XRECORD
  5
42E
102
{ACAD_REACTORS
330
42D
102
}
330
42D
100
AcDbXrecord
280
     1
290
     1
  0
XRECORD
  5
430
102
{ACAD_REACTORS
330
42F
102
}
330
42F
100
AcDbXrecord
280
     1
290
     1
  0
XRECORD
  5
432
102
{ACAD_REACTORS
330
431
102
}
330
431
100
AcDbXrecord
280
     1
290
     1
  0
XRECORD
  5
434
102
{ACAD_REACTORS
330
433
102
}
330
433
100
AcDbXrecord
280
     1
290
     1
  0
XRECORD
  5
436
102
{ACAD_REACTORS
330
435
102
}
330
435
100
AcDbXrecord
280
     1
290
     1
  0
XRECORD
  5
438
102
{ACAD_REACTORS
330
437
102
}
330
437
100
AcDbXrecord
280
     1
290
     1
  0
XRECORD
  5
43A
102
{ACAD_REACTORS
330
439
102
}
330
439
100
AcDbXrecord
280
     1
290
     1
  0
XRECORD
  5
43C
102
{ACAD_REACTORS
330
43B
102
}
330
43B
100
AcDbXrecord
280
     1
290
     1
  0
XRECORD
  5
43E
102
{ACAD_REACTORS
330
43D
102
}
330
43D
100
AcDbXrecord
280
     1
290
     1
  0
XRECORD
  5
440
102
{ACAD_REACTORS
330
43F
102
}
330
43F
100
AcDbXrecord
280
     1
290
     1
  0
XRECORD
  5
442
102
{ACAD_REACTORS
330
441
102
}
330
441
100
AcDbXrecord
280
     1
290
     1
  0
XRECORD
  5
444
102
{ACAD_REACTORS
330
443
102
}
330
443
100
AcDbXrecord
280
     1
290
     1
  0
XRECORD
  5
446
102
{ACAD_REACTORS
330
445
102
}
330
445
100
AcDbXrecord
280
     1
290
     1
  0
XRECORD
  5
448
102
{ACAD_REACTORS
330
447
102
}
330
447
100
AcDbXrecord
280
     1
290
     1
  0
XRECORD
  5
44A
102
{ACAD_REACTORS
330
449
102
}
330
449
100
AcDbXrecord
280
     1
290
     1
  0
XRECORD
  5
44C
102
{ACAD_REACTORS
330
44B
102
}
330
44B
100
AcDbXrecord
280
     1
290
     1
  0
XRECORD
  5
44E
102
{ACAD_REACTORS
330
44D
102
}
330
44D
100
AcDbXrecord
280
     1
290
     1
  0
XRECORD
  5
450
102
{ACAD_REACTORS
330
44F
102
}
330
44F
100
AcDbXrecord
280
     1
290
     1
  0
XRECORD
  5
452
102
{ACAD_REACTORS
330
451
102
}
330
451
100
AcDbXrecord
280
     1
290
     1
  0
XRECORD
  5
454
102
{ACAD_REACTORS
330
453
102
}
330
453
100
AcDbXrecord
280
     1
290
     1
  0
XRECORD
  5
456
102
{ACAD_REACTORS
330
455
102
}
330
455
100
AcDbXrecord
280
     1
290
     1
  0
XRECORD
  5
458
102
{ACAD_REACTORS
330
457
102
}
330
457
100
AcDbXrecord
280
     1
290
     1
  0
XRECORD
  5
45A
102
{ACAD_REACTORS
330
459
102
}
330
459
100
AcDbXrecord
280
     1
290
     1
  0
XRECORD
  5
45C
102
{ACAD_REACTORS
330
45B
102
}
330
45B
100
AcDbXrecord
280
     1
290
     1
  0
XRECORD
  5
45E
102
{ACAD_REACTORS
330
45D
102
}
330
45D
100
AcDbXrecord
280
     1
290
     1
  0
XRECORD
  5
460
102
{ACAD_REACTORS
330
45F
102
}
330
45F
100
AcDbXrecord
280
     1
290
     1
  0
XRECORD
  5
462
102
{ACAD_REACTORS
330
461
102
}
330
461
100
AcDbXrecord
280
     1
290
     1
  0
XRECORD
  5
464
102
{ACAD_REACTORS
330
463
102
}
330
463
100
AcDbXrecord
280
     1
290
     1
  0
XRECORD
  5
466
102
{ACAD_REACTORS
330
465
102
}
330
465
100
AcDbXrecord
280
     1
290
     1
  0
XRECORD
  5
468
102
{ACAD_REACTORS
330
467
102
}
330
467
100
AcDbXrecord
280
     1
290
     1
  0
XRECORD
  5
46A
102
{ACAD_REACTORS
330
469
102
}
330
469
100
AcDbXrecord
280
     1
290
     1
  0
XRECORD
  5
46C
102
{ACAD_REACTORS
330
46B
102
}
330
46B
100
AcDbXrecord
280
     1
290
     1
  0
XRECORD
  5
46E
102
{ACAD_REACTORS
330
46D
102
}
330
46D
100
AcDbXrecord
280
     1
290
     1
  0
XRECORD
  5
470
102
{ACAD_REACTORS
330
46F
102
}
330
46F
100
AcDbXrecord
280
     1
290
     1
  0
XRECORD
  5
472
102
{ACAD_REACTORS
330
471
102
}
330
471
100
AcDbXrecord
280
     1
290
     1
  0
XRECORD
  5
474
102
{ACAD_REACTORS
330
473
102
}
330
473
100
AcDbXrecord
280
     1
290
     1
  0
XRECORD
  5
476
102
{ACAD_REACTORS
330
475
102
}
330
475
100
AcDbXrecord
280
     1
290
     1
  0
XRECORD
  5
478
102
{ACAD_REACTORS
330
477
102
}
330
477
100
AcDbXrecord
280
     1
290
     1
  0
XRECORD
  5
47A
102
{ACAD_REACTORS
330
479
102
}
330
479
100
AcDbXrecord
280
     1
290
     1
  0
XRECORD
  5
47C
102
{ACAD_REACTORS
330
47B
102
}
330
47B
100
AcDbXrecord
280
     1
290
     1
  0
XRECORD
  5
47E
102
{ACAD_REACTORS
330
47D
102
}
330
47D
100
AcDbXrecord
280
     1
290
     1
  0
XRECORD
  5
480
102
{ACAD_REACTORS
330
47F
102
}
330
47F
100
AcDbXrecord
280
     1
290
     1
  0
XRECORD
  5
482
102
{ACAD_REACTORS
330
481
102
}
330
481
100
AcDbXrecord
280
     1
290
     1
  0
XRECORD
  5
484
102
{ACAD_REACTORS
330
483
102
}
330
483
100
AcDbXrecord
280
     1
290
     1
  0
XRECORD
  5
486
102
{ACAD_REACTORS
330
485
102
}
330
485
100
AcDbXrecord
280
     1
290
     1
  0
XRECORD
  5
488
102
{ACAD_REACTORS
330
487
102
}
330
487
100
AcDbXrecord
280
     1
290
     1
  0
XRECORD
  5
48A
102
{ACAD_REACTORS
330
489
102
}
330
489
100
AcDbXrecord
280
     1
290
     1
  0
XRECORD
  5
48C
102
{ACAD_REACTORS
330
48B
102
}
330
48B
100
AcDbXrecord
280
     1
290
     1
  0
XRECORD
  5
48E
102
{ACAD_REACTORS
330
48D
102
}
330
48D
100
AcDbXrecord
280
     1
290
     1
  0
XRECORD
  5
490
102
{ACAD_REACTORS
330
48F
102
}
330
48F
100
AcDbXrecord
280
     1
290
     1
  0
XRECORD
  5
492
102
{ACAD_REACTORS
330
491
102
}
330
491
100
AcDbXrecord
280
     1
290
     1
  0
XRECORD
  5
494
102
{ACAD_REACTORS
330
493
102
}
330
493
100
AcDbXrecord
280
     1
290
     1
  0
XRECORD
  5
496
102
{ACAD_REACTORS
330
495
102
}
330
495
100
AcDbXrecord
280
     1
290
     1
  0
XRECORD
  5
498
102
{ACAD_REACTORS
330
497
102
}
330
497
100
AcDbXrecord
280
     1
290
     1
  0
XRECORD
  5
49A
102
{ACAD_REACTORS
330
499
102
}
330
499
100
AcDbXrecord
280
     1
290
     1
  0
XRECORD
  5
49C
102
{ACAD_REACTORS
330
49B
102
}
330
49B
100
AcDbXrecord
280
     1
290
     1
  0
XRECORD
  5
49E
102
{ACAD_REACTORS
330
49D
102
}
330
49D
100
AcDbXrecord
280
     1
290
     1
  0
XRECORD
  5
4A0
102
{ACAD_REACTORS
330
49F
102
}
330
49F
100
AcDbXrecord
280
     1
290
     1
  0
XRECORD
  5
4A2
102
{ACAD_REACTORS
330
4A1
102
}
330
4A1
100
AcDbXrecord
280
     1
290
     1
  0
XRECORD
  5
4A4
102
{ACAD_REACTORS
330
4A3
102
}
330
4A3
100
AcDbXrecord
280
     1
290
     1
  0
XRECORD
  5
4A6
102
{ACAD_REACTORS
330
4A5
102
}
330
4A5
100
AcDbXrecord
280
     1
290
     1
  0
XRECORD
  5
4A8
102
{ACAD_REACTORS
330
4A7
102
}
330
4A7
100
AcDbXrecord
280
     1
290
     1
  0
XRECORD
  5
4AA
102
{ACAD_REACTORS
330
4A9
102
}
330
4A9
100
AcDbXrecord
280
     1
290
     1
  0
XRECORD
  5
4AC
102
{ACAD_REACTORS
330
4AB
102
}
330
4AB
100
AcDbXrecord
280
     1
290
     1
  0
XRECORD
  5
4AE
102
{ACAD_REACTORS
330
4AD
102
}
330
4AD
100
AcDbXrecord
280
     1
290
     1
  0
XRECORD
  5
4B0
102
{ACAD_REACTORS
330
4AF
102
}
330
4AF
100
AcDbXrecord
280
     1
290
     1
  0
XRECORD
  5
4B2
102
{ACAD_REACTORS
330
4B1
102
}
330
4B1
100
AcDbXrecord
280
     1
290
     1
  0
XRECORD
  5
4B4
102
{ACAD_REACTORS
330
4B3
102
}
330
4B3
100
AcDbXrecord
280
     1
290
     1
  0
XRECORD
  5
4B6
102
{ACAD_REACTORS
330
4B5
102
}
330
4B5
100
AcDbXrecord
280
     1
290
     1
  0
XRECORD
  5
4B8
102
{ACAD_REACTORS
330
4B7
102
}
330
4B7
100
AcDbXrecord
280
     1
290
     1
  0
XRECORD
  5
4BA
102
{ACAD_REACTORS
330
4B9
102
}
330
4B9
100
AcDbXrecord
280
     1
290
     1
  0
XRECORD
  5
4BC
102
{ACAD_REACTORS
330
4BB
102
}
330
4BB
100
AcDbXrecord
280
     1
290
     1
  0
XRECORD
  5
4BE
102
{ACAD_REACTORS
330
4BD
102
}
330
4BD
100
AcDbXrecord
280
     1
290
     1
  0
XRECORD
  5
4C0
102
{ACAD_REACTORS
330
4BF
102
}
330
4BF
100
AcDbXrecord
280
     1
290
     1
  0
XRECORD
  5
4C2
102
{ACAD_REACTORS
330
4C1
102
}
330
4C1
100
AcDbXrecord
280
     1
290
     1
  0
XRECORD
  5
4C4
102
{ACAD_REACTORS
330
4C3
102
}
330
4C3
100
AcDbXrecord
280
     1
290
     1
  0
XRECORD
  5
4C6
102
{ACAD_REACTORS
330
4C5
102
}
330
4C5
100
AcDbXrecord
280
     1
290
     1
  0
XRECORD
  5
4C8
102
{ACAD_REACTORS
330
4C7
102
}
330
4C7
100
AcDbXrecord
280
     1
290
     1
  0
XRECORD
  5
4CA
102
{ACAD_REACTORS
330
4C9
102
}
330
4C9
100
AcDbXrecord
280
     1
290
     1
  0
XRECORD
  5
4CC
102
{ACAD_REACTORS
330
4CB
102
}
330
4CB
100
AcDbXrecord
280
     1
290
     1
  0
XRECORD
  5
4CE
102
{ACAD_REACTORS
330
4CD
102
}
330
4CD
100
AcDbXrecord
280
     1
290
     1
  0
XRECORD
  5
4D0
102
{ACAD_REACTORS
330
4CF
102
}
330
4CF
100
AcDbXrecord
280
     1
290
     1
  0
XRECORD
  5
4D2
102
{ACAD_REACTORS
330
4D1
102
}
330
4D1
100
AcDbXrecord
280
     1
290
     1
  0
XRECORD
  5
4D4
102
{ACAD_REACTORS
330
4D3
102
}
330
4D3
100
AcDbXrecord
280
     1
290
     1
  0
XRECORD
  5
4D6
102
{ACAD_REACTORS
330
4D5
102
}
330
4D5
100
AcDbXrecord
280
     1
290
     1
  0
XRECORD
  5
4D8
102
{ACAD_REACTORS
330
4D7
102
}
330
4D7
100
AcDbXrecord
280
     1
290
     1
  0
XRECORD
  5
4DA
102
{ACAD_REACTORS
330
4D9
102
}
330
4D9
100
AcDbXrecord
280
     1
290
     1
  0
XRECORD
  5
4DC
102
{ACAD_REACTORS
330
4DB
102
}
330
4DB
100
AcDbXrecord
280
     1
290
     1
  0
XRECORD
  5
4DE
102
{ACAD_REACTORS
330
4DD
102
}
330
4DD
100
AcDbXrecord
280
     1
290
     1
  0
XRECORD
  5
4E0
102
{ACAD_REACTORS
330
4DF
102
}
330
4DF
100
AcDbXrecord
280
     1
290
     1
  0
XRECORD
  5
4E2
102
{ACAD_REACTORS
330
4E1
102
}
330
4E1
100
AcDbXrecord
280
     1
290
     1
  0
XRECORD
  5
4E4
102
{ACAD_REACTORS
330
4E3
102
}
330
4E3
100
AcDbXrecord
280
     1
290
     1
  0
XRECORD
  5
4E6
102
{ACAD_REACTORS
330
4E5
102
}
330
4E5
100
AcDbXrecord
280
     1
290
     1
  0
XRECORD
  5
4E8
102
{ACAD_REACTORS
330
4E7
102
}
330
4E7
100
AcDbXrecord
280
     1
290
     1
  0
XRECORD
  5
4EA
102
{ACAD_REACTORS
330
4E9
102
}
330
4E9
100
AcDbXrecord
280
     1
290
     1
  0
XRECORD
  5
4EC
102
{ACAD_REACTORS
330
4EB
102
}
330
4EB
100
AcDbXrecord
280
     1
290
     1
  0
XRECORD
  5
4EE
102
{ACAD_REACTORS
330
4ED
102
}
330
4ED
100
AcDbXrecord
280
     1
290
     1
  0
XRECORD
  5
4F0
102
{ACAD_REACTORS
330
4EF
102
}
330
4EF
100
AcDbXrecord
280
     1
290
     1
  0
XRECORD
  5
4F2
102
{ACAD_REACTORS
330
4F1
102
}
330
4F1
100
AcDbXrecord
280
     1
290
     1
  0
XRECORD
  5
4F4
102
{ACAD_REACTORS
330
4F3
102
}
330
4F3
100
AcDbXrecord
280
     1
290
     1
  0
XRECORD
  5
4F6
102
{ACAD_REACTORS
330
4F5
102
}
330
4F5
100
AcDbXrecord
280
     1
290
     1
  0
XRECORD
  5
4F8
102
{ACAD_REACTORS
330
4F7
102
}
330
4F7
100
AcDbXrecord
280
     1
290
     1
  0
XRECORD
  5
4FA
102
{ACAD_REACTORS
330
4F9
102
}
330
4F9
100
AcDbXrecord
280
     1
290
     1
  0
XRECORD
  5
4FC
102
{ACAD_REACTORS
330
4FB
102
}
330
4FB
100
AcDbXrecord
280
     1
290
     1
  0
XRECORD
  5
4FE
102
{ACAD_REACTORS
330
4FD
102
}
330
4FD
100
AcDbXrecord
280
     1
290
     1
  0
XRECORD
  5
500
102
{ACAD_REACTORS
330
4FF
102
}
330
4FF
100
AcDbXrecord
280
     1
290
     1
  0
XRECORD
  5
502
102
{ACAD_REACTORS
330
501
102
}
330
501
100
AcDbXrecord
280
     1
290
     1
  0
XRECORD
  5
504
102
{ACAD_REACTORS
330
503
102
}
330
503
100
AcDbXrecord
280
     1
290
     1
  0
XRECORD
  5
506
102
{ACAD_REACTORS
330
505
102
}
330
505
100
AcDbXrecord
280
     1
290
     1
  0
XRECORD
  5
508
102
{ACAD_REACTORS
330
507
102
}
330
507
100
AcDbXrecord
280
     1
290
     1
  0
XRECORD
  5
50A
102
{ACAD_REACTORS
330
509
102
}
330
509
100
AcDbXrecord
280
     1
290
     1
  0
XRECORD
  5
50C
102
{ACAD_REACTORS
330
50B
102
}
330
50B
100
AcDbXrecord
280
     1
290
     1
  0
XRECORD
  5
50E
102
{ACAD_REACTORS
330
50D
102
}
330
50D
100
AcDbXrecord
280
     1
290
     1
  0
XRECORD
  5
510
102
{ACAD_REACTORS
330
50F
102
}
330
50F
100
AcDbXrecord
280
     1
290
     1
  0
XRECORD
  5
512
102
{ACAD_REACTORS
330
511
102
}
330
511
100
AcDbXrecord
280
     1
290
     1
  0
XRECORD
  5
514
102
{ACAD_REACTORS
330
513
102
}
330
513
100
AcDbXrecord
280
     1
290
     1
  0
XRECORD
  5
516
102
{ACAD_REACTORS
330
515
102
}
330
515
100
AcDbXrecord
280
     1
290
     1
  0
XRECORD
  5
518
102
{ACAD_REACTORS
330
517
102
}
330
517
100
AcDbXrecord
280
     1
290
     1
  0
XRECORD
  5
51A
102
{ACAD_REACTORS
330
519
102
}
330
519
100
AcDbXrecord
280
     1
290
     1
  0
XRECORD
  5
51C
102
{ACAD_REACTORS
330
51B
102
}
330
51B
100
AcDbXrecord
280
     1
290
     1
  0
XRECORD
  5
51E
102
{ACAD_REACTORS
330
51D
102
}
330
51D
100
AcDbXrecord
280
     1
290
     1
  0
XRECORD
  5
520
102
{ACAD_REACTORS
330
51F
102
}
330
51F
100
AcDbXrecord
280
     1
290
     1
  0
XRECORD
  5
522
102
{ACAD_REACTORS
330
521
102
}
330
521
100
AcDbXrecord
280
     1
290
     1
  0
XRECORD
  5
524
102
{ACAD_REACTORS
330
523
102
}
330
523
100
AcDbXrecord
280
     1
290
     1
  0
XRECORD
  5
526
102
{ACAD_REACTORS
330
525
102
}
330
525
100
AcDbXrecord
280
     1
290
     1
  0
XRECORD
  5
528
102
{ACAD_REACTORS
330
527
102
}
330
527
100
AcDbXrecord
280
     1
290
     1
  0
XRECORD
  5
52A
102
{ACAD_REACTORS
330
529
102
}
330
529
100
AcDbXrecord
280
     1
290
     1
  0
XRECORD
  5
52C
102
{ACAD_REACTORS
330
52B
102
}
330
52B
100
AcDbXrecord
280
     1
290
     1
  0
XRECORD
  5
52E
102
{ACAD_REACTORS
330
52D
102
}
330
52D
100
AcDbXrecord
280
     1
290
     1
  0
XRECORD
  5
530
102
{ACAD_REACTORS
330
52F
102
}
330
52F
100
AcDbXrecord
280
     1
290
     1
  0
XRECORD
  5
532
102
{ACAD_REACTORS
330
531
102
}
330
531
100
AcDbXrecord
280
     1
290
     1
  0
XRECORD
  5
534
102
{ACAD_REACTORS
330
533
102
}
330
533
100
AcDbXrecord
280
     1
290
     1
  0
XRECORD
  5
536
102
{ACAD_REACTORS
330
535
102
}
330
535
100
AcDbXrecord
280
     1
290
     1
  0
XRECORD
  5
538
102
{ACAD_REACTORS
330
537
102
}
330
537
100
AcDbXrecord
280
     1
290
     1
  0
XRECORD
  5
53A
102
{ACAD_REACTORS
330
539
102
}
330
539
100
AcDbXrecord
280
     1
290
     1
  0
XRECORD
  5
53C
102
{ACAD_REACTORS
330
53B
102
}
330
53B
100
AcDbXrecord
280
     1
290
     1
  0
XRECORD
  5
53E
102
{ACAD_REACTORS
330
53D
102
}
330
53D
100
AcDbXrecord
280
     1
290
     1
  0
XRECORD
  5
540
102
{ACAD_REACTORS
330
53F
102
}
330
53F
100
AcDbXrecord
280
     1
290
     1
  0
XRECORD
  5
542
102
{ACAD_REACTORS
330
541
102
}
330
541
100
AcDbXrecord
280
     1
290
     1
  0
XRECORD
  5
544
102
{ACAD_REACTORS
330
543
102
}
330
543
100
AcDbXrecord
280
     1
290
     1
  0
XRECORD
  5
546
102
{ACAD_REACTORS
330
545
102
}
330
545
100
AcDbXrecord
280
     1
290
     1
  0
XRECORD
  5
548
102
{ACAD_REACTORS
330
547
102
}
330
547
100
AcDbXrecord
280
     1
290
     1
  0
XRECORD
  5
54A
102
{ACAD_REACTORS
330
549
102
}
330
549
100
AcDbXrecord
280
     1
290
     1
  0
XRECORD
  5
54C
102
{ACAD_REACTORS
330
54B
102
}
330
54B
100
AcDbXrecord
280
     1
290
     1
  0
XRECORD
  5
54E
102
{ACAD_REACTORS
330
54D
102
}
330
54D
100
AcDbXrecord
280
     1
290
     1
  0
XRECORD
  5
550
102
{ACAD_REACTORS
330
54F
102
}
330
54F
100
AcDbXrecord
280
     1
290
     1
  0
XRECORD
  5
552
102
{ACAD_REACTORS
330
551
102
}
330
551
100
AcDbXrecord
280
     1
290
     1
  0
XRECORD
  5
554
102
{ACAD_REACTORS
330
553
102
}
330
553
100
AcDbXrecord
280
     1
290
     1
  0
XRECORD
  5
556
102
{ACAD_REACTORS
330
555
102
}
330
555
100
AcDbXrecord
280
     1
290
     1
  0
XRECORD
  5
558
102
{ACAD_REACTORS
330
557
102
}
330
557
100
AcDbXrecord
280
     1
290
     1
  0
XRECORD
  5
55A
102
{ACAD_REACTORS
330
559
102
}
330
559
100
AcDbXrecord
280
     1
290
     1
  0
XRECORD
  5
55C
102
{ACAD_REACTORS
330
55B
102
}
330
55B
100
AcDbXrecord
280
     1
290
     1
  0
XRECORD
  5
55E
102
{ACAD_REACTORS
330
55D
102
}
330
55D
100
AcDbXrecord
280
     1
290
     1
  0
XRECORD
  5
560
102
{ACAD_REACTORS
330
55F
102
}
330
55F
100
AcDbXrecord
280
     1
290
     1
  0
XRECORD
  5
562
102
{ACAD_REACTORS
330
561
102
}
330
561
100
AcDbXrecord
280
     1
290
     1
  0
XRECORD
  5
564
102
{ACAD_REACTORS
330
563
102
}
330
563
100
AcDbXrecord
280
     1
290
     1
  0
XRECORD
  5
566
102
{ACAD_REACTORS
330
565
102
}
330
565
100
AcDbXrecord
280
     1
290
     1
  0
XRECORD
  5
568
102
{ACAD_REACTORS
330
567
102
}
330
567
100
AcDbXrecord
280
     1
290
     1
  0
XRECORD
  5
56A
102
{ACAD_REACTORS
330
569
102
}
330
569
100
AcDbXrecord
280
     1
290
     1
  0
XRECORD
  5
56C
102
{ACAD_REACTORS
330
56B
102
}
330
56B
100
AcDbXrecord
280
     1
290
     1
  0
XRECORD
  5
56E
102
{ACAD_REACTORS
330
56D
102
}
330
56D
100
AcDbXrecord
280
     1
290
     1
  0
XRECORD
  5
570
102
{ACAD_REACTORS
330
56F
102
}
330
56F
100
AcDbXrecord
280
     1
290
     1
  0
XRECORD
  5
572
102
{ACAD_REACTORS
330
571
102
}
330
571
100
AcDbXrecord
280
     1
290
     1
  0
XRECORD
  5
574
102
{ACAD_REACTORS
330
573
102
}
330
573
100
AcDbXrecord
280
     1
290
     1
  0
SORTENTSTABLE
  5
724
102
{ACAD_REACTORS
330
3F0
102
}
330
3F0
100
AcDbSortentsTable
330
76
331
290
  5
291
331
2B2
  5
2B3
331
2A1
  5
2A2
331
2BD
  5
2BE
331
33E
  5
33F
331
2CE
  5
2CF
331
1ED
  5
1EE
331
2DF
  5
2E0
331
1FE
  5
1FF
331
2F0
  5
2F1
331
20F
  5
210
331
1DC
  5
1DD
331
301
  5
302
331
220
  5
221
331
323
  5
324
331
312
  5
313
331
231
  5
232
331
27F
  5
280
331
26E
  5
26F
331
25D
  5
25E
331
24C
  5
24D
331
1C8
  5
1C8
331
291
  5
292
331
280
  5
281
331
2B3
  5
2B4
331
2A2
  5
2A3
331
1D2
  5
1D3
331
2BE
  5
2BF
331
1DD
  5
1DE
331
33F
  5
340
331
2CF
  5
2D0
331
1EE
  5
1EF
331
2E0
  5
2E1
331
1FF
  5
200
331
2F1
  5
2F2
331
210
  5
211
331
302
  5
303
331
221
  5
222
331
324
  5
325
331
313
  5
314
331
232
  5
233
331
26F
  5
270
331
25E
  5
25F
331
24D
  5
24E
331
1C9
  5
1C9
331
1C0
  5
1C0
331
1B4
  5
1B4
331
292
  5
293
331
281
  5
282
331
270
  5
271
331
2B4
  5
2B5
331
2A3
  5
2A4
331
1D3
  5
1D4
331
2BF
  5
2C0
331
2D0
  5
2D1
331
1EF
  5
1F0
331
2E1
  5
2E2
331
200
  5
201
331
2F2
  5
2F3
331
211
  5
212
331
1DE
  5
1DF
331
303
  5
304
331
222
  5
223
331
325
  5
326
331
314
  5
315
331
233
  5
234
331
25F
  5
260
331
24E
  5
24F
331
330
  5
331
331
293
  5
294
331
282
  5
283
331
271
  5
272
331
260
  5
261
331
2B5
  5
2B6
331
2A4
  5
2A5
331
1D4
  5
1D5
331
2C0
  5
2C1
331
2D1
  5
2D2
331
1F0
  5
1F1
331
2E2
  5
2E3
331
201
  5
202
331
2F3
  5
2F4
331
212
  5
213
331
1DF
  5
1E0
331
304
  5
305
331
223
  5
224
331
326
  5
327
331
315
  5
316
331
234
  5
235
331
24F
  5
250
331
340
  5
408
331
331
  5
332
331
250
  5
251
331
294
  5
295
331
283
  5
284
331
272
  5
273
331
2B6
  5
2B7
331
2A5
  5
2A6
331
1D5
  5
1D6
331
261
  5
262
331
2C1
  5
2C2
331
2D2
  5
2D3
331
1F1
  5
1F2
331
2E3
  5
2E4
331
202
  5
203
331
2F4
  5
2F5
331
213
  5
214
331
1E0
  5
1E1
331
305
  5
306
331
224
  5
225
331
327
  5
328
331
316
  5
317
331
235
  5
236
331
328
  5
329
331
332
  5
333
331
251
  5
252
331
240
  5
241
331
295
  5
296
331
284
  5
285
331
273
  5
274
331
2B7
  5
2B8
331
2A6
  5
2A7
331
1D6
  5
1D7
331
262
  5
263
331
2C2
  5
2C3
331
1E1
  5
1E2
331
2D3
  5
2D4
331
1F2
  5
1F3
331
2E4
  5
2E5
331
203
  5
204
331
2F5
  5
2F6
331
214
  5
215
331
306
  5
307
331
225
  5
226
331
317
  5
318
331
236
  5
237
331
1C4
  5
1C4
331
1B8
  5
1B8
331
329
  5
32A
331
318
  5
319
331
333
  5
334
331
252
  5
253
331
241
  5
242
331
296
  5
297
331
285
  5
286
331
274
  5
275
331
2A7
  5
2A8
331
1D7
  5
1D8
331
263
  5
264
331
2C3
  5
2C4
331
2D4
  5
2D5
331
1F3
  5
1F4
331
2E5
  5
2E6
331
204
  5
205
331
1E2
  5
1E3
331
2F6
  5
2F7
331
215
  5
216
331
307
  5
308
331
226
  5
227
331
237
  5
238
331
1C5
  5
1C5
331
308
  5
309
331
32A
  5
32B
331
319
  5
31A
331
238
  5
239
331
334
  5
335
331
253
  5
254
331
2A8
  5
2A9
331
297
  5
298
331
286
  5
287
331
275
  5
276
331
2C4
  5
2C5
331
1E3
  5
1E4
331
264
  5
265
331
242
  5
243
331
2D5
  5
2D6
331
2E6
  5
2E7
331
205
  5
206
331
1F4
  5
1F5
331
2F7
  5
2F8
331
216
  5
217
331
227
  5
228
331
1C6
  5
1C6
331
2F8
  5
2F9
331
309
  5
30A
331
228
  5
229
331
32B
  5
32C
331
31A
  5
31B
331
335
  5
336
331
254
  5
255
331
243
  5
244
331
2A9
  5
2AA
331
298
  5
299
331
287
  5
288
331
276
  5
277
331
2C5
  5
2C6
331
1E4
  5
1E5
331
265
  5
266
331
239
  5
23A
331
2D6
  5
2D7
331
2E7
  5
2E8
331
206
  5
207
331
1F5
  5
1F6
331
217
  5
218
331
1C7
  5
1C7
331
2E8
  5
2E9
331
2F9
  5
2FA
331
218
  5
219
331
30A
  5
30B
331
32C
  5
32D
331
31B
  5
31C
331
23A
  5
23B
331
336
  5
337
331
255
  5
256
331
2AA
  5
2AB
331
299
  5
29A
331
288
  5
289
331
277
  5
278
331
266
  5
267
331
244
  5
245
331
229
  5
22A
331
2C6
  5
2C7
331
1E5
  5
1E6
331
2D7
  5
2D8
331
1F6
  5
1F7
331
207
  5
208
331
1BC
  5
1BC
331
2D8
  5
2D9
331
2E9
  5
2EA
331
208
  5
209
331
2FA
  5
2FB
331
30B
  5
30C
331
22A
  5
22B
331
32D
  5
32E
331
31C
  5
31D
331
337
  5
338
331
256
  5
257
331
245
  5
246
331
2AB
  5
2AC
331
29A
  5
29B
331
289
  5
28A
331
278
  5
279
331
2C7
  5
2C8
331
1E6
  5
1E7
331
267
  5
268
331
23B
  5
23C
331
219
  5
21A
331
1F7
  5
1F8
331
338
  5
339
331
2C8
  5
2C9
331
2D9
  5
2DA
331
1F8
  5
1F9
331
2EA
  5
2EB
331
2FB
  5
2FC
331
21A
  5
21B
331
30C
  5
30D
331
32E
  5
32F
331
31D
  5
31E
331
23C
  5
23D
331
2AC
  5
2AD
331
29B
  5
29C
331
28A
  5
28B
331
279
  5
27A
331
268
  5
269
331
257
  5
258
331
1E7
  5
1E8
331
246
  5
247
331
22B
  5
22C
331
209
  5
20A
331
2B8
  5
2B9
331
339
  5
33A
331
2C9
  5
2CA
331
1E8
  5
1E9
331
2DA
  5
2DB
331
2EB
  5
2EC
331
2FC
  5
2FD
331
21B
  5
21C
331
723
  5
1CE
331
30D
  5
30E
331
32F
  5
330
331
31E
  5
31F
331
23D
  5
23E
331
2AD
  5
2AE
331
29C
  5
29D
331
28B
  5
28C
331
27A
  5
27B
331
269
  5
26A
331
258
  5
259
331
247
  5
248
331
22C
  5
22D
331
20A
  5
20B
331
1F9
  5
1FA
331
2B9
  5
2BA
331
1D8
  5
1D9
331
33A
  5
33B
331
2CA
  5
2CB
331
1E9
  5
1EA
331
2DB
  5
2DC
331
2EC
  5
2ED
331
2FD
  5
2FE
331
21C
  5
21D
331
30E
  5
30F
331
31F
  5
320
331
23E
  5
23F
331
28C
  5
28D
331
27B
  5
27C
331
26A
  5
26B
331
259
  5
25A
331
248
  5
249
331
22D
  5
22E
331
20B
  5
20C
331
1FA
  5
1FB
331
2AE
  5
2AF
331
29D
  5
29E
331
1AD
  5
1AD
331
408
  5
723
331
2BA
  5
2BB
331
1D9
  5
1DA
331
33B
  5
33C
331
2CB
  5
2CC
331
1EA
  5
1EB
331
2DC
  5
2DD
331
2ED
  5
2EE
331
2FE
  5
2FF
331
21D
  5
21E
331
30F
  5
310
331
320
  5
321
331
23F
  5
240
331
28D
  5
28E
331
27C
  5
27D
331
26B
  5
26C
331
25A
  5
25B
331
249
  5
24A
331
22E
  5
22F
331
20C
  5
20D
331
1FB
  5
1FC
331
1B0
  5
1B0
331
2AF
  5
2B0
331
29E
  5
29F
331
1AE
  5
1AE
331
2B0
  5
2B1
331
2BB
  5
2BC
331
1DA
  5
1DB
331
33C
  5
33D
331
2CC
  5
2CD
331
2DD
  5
2DE
331
1FC
  5
1FD
331
2EE
  5
2EF
331
2FF
  5
300
331
21E
  5
21F
331
321
  5
322
331
310
  5
311
331
28E
  5
28F
331
27D
  5
27E
331
26C
  5
26D
331
25B
  5
25C
331
24A
  5
24B
331
22F
  5
230
331
20D
  5
20E
331
1EB
  5
1EC
331
29F
  5
2A0
331
1AF
  5
1AF
331
2B1
  5
2B2
331
2A0
  5
2A1
331
2BC
  5
2BD
331
1DB
  5
1DC
331
33D
  5
33E
331
2CD
  5
2CE
331
2DE
  5
2DF
331
1FD
  5
1FE
331
2EF
  5
2F0
331
300
  5
301
331
21F
  5
220
331
322
  5
323
331
311
  5
312
331
28F
  5
290
331
27E
  5
27F
331
26D
  5
26E
331
25C
  5
25D
331
24B
  5
24C
331
230
  5
231
331
20E
  5
20F
331
1EC
  5
1ED
  0
SORTENTSTABLE
  5
407
102
{ACAD_REACTORS
330
406
102
}
330
406
100
AcDbSortentsTable
330
140
  0
XRECORD
  5
72A
102
{ACAD_REACTORS
330
729
102
}
330
729
100
AcDbXrecord
280
     1
 70
     1
  0
XRECORD
  5
72C
102
{ACAD_REACTORS
330
729
102
}
330
729
100
AcDbXrecord
280
     1
340
65
  0
XRECORD
  5
72D
102
{ACAD_REACTORS
330
729
102
}
330
729
100
AcDbXrecord
280
     1
340
65
  0
XRECORD
  5
72B
102
{ACAD_REACTORS
330
729
102
}
330
729
100
AcDbXrecord
280
     1
340
65
  0
LAYOUT
  5
75
102
{ACAD_XDICTIONARY
360
755
102
}
102
{ACAD_REACTORS
330
6C
102
}
330
6C
100
AcDbPlotSettings
  1

  2
Adobe PDF
  4

  6

 40
0.0
 41
0.0
 42
0.0
 43
0.0
 44
0.0
 45
0.0
 46
0.0
 47
0.0
 48
0.0
 49
0.0
140
0.0
141
0.0
142
1.0
143
1.0
 70
   688
 72
     0
 73
     0
 74
     5
  7
monochrome.ctb
 75
    16
147
1.0
148
0.0
149
0.0
100
AcDbLayout
  1
Layout1
 70
     1
 71
     1
 10
0.0
 20
0.0
 11
12.0
 21
9.0
 12
0.0
 22
0.0
 32
0.0
 14
1.000000000000000E+20
 24
1.000000000000000E+20
 34
1.000000000000000E+20
 15
-1.000000000000000E+20
 25
-1.000000000000000E+20
 35
-1.000000000000000E+20
146
0.0
 13
0.0
 23
0.0
 33
0.0
 16
1.0
 26
0.0
 36
0.0
 17
0.0
 27
1.0
 37
0.0
 76
     0
330
72
  0
LAYOUT
  5
79
102
{ACAD_XDICTIONARY
360
5B4
102
}
102
{ACAD_REACTORS
330
6C
102
}
330
6C
100
AcDbPlotSettings
  1

  2
Adobe PDF
  4
Letter
  6

 40
3.174999952316283
 41
3.174999952316283
 42
3.175003051757812
 43
3.17498779296875
 44
215.8999938964844
 45
279.3999938964844
 46
0.0
 47
0.0
 48
0.0
 49
0.0
140
0.0
141
0.0
142
1.0
143
4.329440959661196
 70
 11952
 72
     0
 73
     1
 74
     0
  7
monochrome.ctb
 75
     0
147
0.2309767033012631
148
89.82951748980539
149
-18.94393229026148
100
AcDbLayout
  1
Model
 70
     1
 71
     0
 10
0.0
 20
0.0
 11
12.0
 21
9.0
 12
0.0
 22
0.0
 32
0.0
 14
0.0
 24
0.0
 34
0.0
 15
0.0
 25
0.0
 35
0.0
146
0.0
 13
0.0
 23
0.0
 33
0.0
 16
1.0
 26
0.0
 36
0.0
 17
0.0
 27
1.0
 37
0.0
 76
     0
330
76
331
13A
1001
ACAD_PSEXT
1000
Adobe PDF
1000
Adobe PDF Converter
1000
Documents\*.pdf
1000

1070
     0
  0
MATERIAL
  5
19
102
{ACAD_XDICTIONARY
360
1A
102
}
102
{ACAD_REACTORS
330
10
102
}
330
10
100
AcDbMaterial
  1
ByBlock
 72
     0
 43
0.0208333333333333
 43
0.0
 43
0.0
 43
0.0
 43
0.0
 43
0.0208333333333333
 43
0.0
 43
0.0
 43
0.0
 43
0.0
 43
1.0
 43
0.0
 43
0.0
 43
0.0
 43
0.0
 43
1.0
 77
     0
 47
0.0208333333333333
 47
0.0
 47
0.0
 47
0.0
 47
0.0
 47
0.0208333333333333
 47
0.0
 47
0.0
 47
0.0
 47
0.0
 47
1.0
 47
0.0
 47
0.0
 47
0.0
 47
0.0
 47
1.0
171
     0
 49
0.0208333333333333
 49
0.0
 49
0.0
 49
0.0
 49
0.0
 49
0.0208333333333333
 49
0.0
 49
0.0
 49
0.0
 49
0.0
 49
1.0
 49
0.0
 49
0.0
 49
0.0
 49
0.0
 49
1.0
175
     0
142
0.0208333333333333
142
0.0
142
0.0
142
0.0
142
0.0
142
0.0208333333333333
142
0.0
142
0.0
142
0.0
142
0.0
142
1.0
142
0.0
142
0.0
142
0.0
142
0.0
142
1.0
179
     0
144
0.0208333333333333
144
0.0
144
0.0
144
0.0
144
0.0
144
0.0208333333333333
144
0.0
144
0.0
144
0.0
144
0.0
144
1.0
144
0.0
144
0.0
144
0.0
144
0.0
144
1.0
147
0.0208333333333333
147
0.0
147
0.0
147
0.0
147
0.0
147
0.0208333333333333
147
0.0
147
0.0
147
0.0
147
0.0
147
1.0
147
0.0
147
0.0
147
0.0
147
0.0
147
1.0
  0
MATERIAL
  5
11
102
{ACAD_XDICTIONARY
360
12
102
}
102
{ACAD_REACTORS
330
10
102
}
330
10
100
AcDbMaterial
  1
ByLayer
 72
     0
 43
0.0208333333333333
 43
0.0
 43
0.0
 43
0.0
 43
0.0
 43
0.0208333333333333
 43
0.0
 43
0.0
 43
0.0
 43
0.0
 43
1.0
 43
0.0
 43
0.0
 43
0.0
 43
0.0
 43
1.0
 77
     0
 47
0.0208333333333333
 47
0.0
 47
0.0
 47
0.0
 47
0.0
 47
0.0208333333333333
 47
0.0
 47
0.0
 47
0.0
 47
0.0
 47
1.0
 47
0.0
 47
0.0
 47
0.0
 47
0.0
 47
1.0
171
     0
 49
0.0208333333333333
 49
0.0
 49
0.0
 49
0.0
 49
0.0
 49
0.0208333333333333
 49
0.0
 49
0.0
 49
0.0
 49
0.0
 49
1.0
 49
0.0
 49
0.0
 49
0.0
 49
0.0
 49
1.0
175
     0
142
0.0208333333333333
142
0.0
142
0.0
142
0.0
142
0.0
142
0.0208333333333333
142
0.0
142
0.0
142
0.0
142
0.0
142
1.0
142
0.0
142
0.0
142
0.0
142
0.0
142
1.0
179
     0
144
0.0208333333333333
144
0.0
144
0.0
144
0.0
144
0.0
144
0.0208333333333333
144
0.0
144
0.0
144
0.0
144
0.0
144
1.0
144
0.0
144
0.0
144
0.0
144
0.0
144
1.0
147
0.0208333333333333
147
0.0
147
0.0
147
0.0
147
0.0
147
0.0208333333333333
147
0.0
147
0.0
147
0.0
147
0.0
147
1.0
147
0.0
147
0.0
147
0.0
147
0.0
147
1.0
  0
MATERIAL
  5
21
102
{ACAD_XDICTIONARY
360
22
102
}
102
{ACAD_REACTORS
330
10
102
}
330
10
100
AcDbMaterial
  1
Global
 72
     0
 43
0.0208333333333333
 43
0.0
 43
0.0
 43
0.0
 43
0.0
 43
0.0208333333333333
 43
0.0
 43
0.0
 43
0.0
 43
0.0
 43
1.0
 43
0.0
 43
0.0
 43
0.0
 43
0.0
 43
1.0
 77
     0
 47
0.0208333333333333
 47
0.0
 47
0.0
 47
0.0
 47
0.0
 47
0.0208333333333333
 47
0.0
 47
0.0
 47
0.0
 47
0.0
 47
1.0
 47
0.0
 47
0.0
 47
0.0
 47
0.0
 47
1.0
171
     0
 49
0.0208333333333333
 49
0.0
 49
0.0
 49
0.0
 49
0.0
 49
0.0208333333333333
 49
0.0
 49
0.0
 49
0.0
 49
0.0
 49
1.0
 49
0.0
 49
0.0
 49
0.0
 49
0.0
 49
1.0
175
     0
142
0.0208333333333333
142
0.0
142
0.0
142
0.0
142
0.0
142
0.0208333333333333
142
0.0
142
0.0
142
0.0
142
0.0
142
1.0
142
0.0
142
0.0
142
0.0
142
0.0
142
1.0
179
     0
144
0.0208333333333333
144
0.0
144
0.0
144
0.0
144
0.0
144
0.0208333333333333
144
0.0
144
0.0
144
0.0
144
0.0
144
1.0
144
0.0
144
0.0
144
0.0
144
0.0
144
1.0
147
0.0208333333333333
147
0.0
147
0.0
147
0.0
147
0.0
147
0.0208333333333333
147
0.0
147
0.0
147
0.0
147
0.0
147
1.0
147
0.0
147
0.0
147
0.0
147
0.0
147
1.0
  0
MLEADERSTYLE
  5
71
102
{ACAD_REACTORS
330
70
102
}
330
70
100
AcDbMLeaderStyle
170
     2
171
     1
172
     0
 90
        2
 40
0.0
 41
0.0
173
     1
 91
-1056964608
340
65
 92
       -2
290
     1
 42
0.09
291
     1
 43
0.36
  3
Standard
 44
0.18
300

342
60
174
     1
178
     6
175
     1
176
     0
 93
-1056964608
 45
0.18
292
     0
297
     0
 46
0.18
 94
-1056964608
 47
1.0
 49
1.0
140
1.0
293
     1
141
0.0
294
     1
177
     0
142
1.0
295
     0
296
     0
143
0.125
1001
ACAD_MLEADERVER
1070
     2
  0
MLINESTYLE
  5
6A
102
{ACAD_REACTORS
330
69
102
}
330
69
100
AcDbMlineStyle
  2
STANDARD
 70
     0
  3

 62
   256
 51
90.0
 52
90.0
 71
     2
 49
0.5
 62
   256
  6
BYLAYER
 49
-0.5
 62
   256
  6
BYLAYER
  0
ACDBPLACEHOLDER
  5
F
102
{ACAD_REACTORS
330
E
102
}
330
E
  0
SCALE
  5
3E
102
{ACAD_REACTORS
330
3D
102
}
330
3D
100
AcDbScale
 70
     0
300
1:1
140
1.0
141
1.0
290
     1
  0
SCALE
  5
3F
102
{ACAD_REACTORS
330
3D
102
}
330
3D
100
AcDbScale
 70
     0
300
1:2
140
1.0
141
2.0
290
     0
  0
SCALE
  5
40
102
{ACAD_REACTORS
330
3D
102
}
330
3D
100
AcDbScale
 70
     0
300
1:4
140
1.0
141
4.0
290
     0
  0
SCALE
  5
41
102
{ACAD_REACTORS
330
3D
102
}
330
3D
100
AcDbScale
 70
     0
300
1:5
140
1.0
141
5.0
290
     0
  0
SCALE
  5
42
102
{ACAD_REACTORS
330
3D
102
}
330
3D
100
AcDbScale
 70
     0
300
1:8
140
1.0
141
8.0
290
     0
  0
SCALE
  5
43
102
{ACAD_REACTORS
330
3D
102
}
330
3D
100
AcDbScale
 70
     0
300
1:10
140
1.0
141
10.0
290
     0
  0
SCALE
  5
44
102
{ACAD_REACTORS
330
3D
102
}
330
3D
100
AcDbScale
 70
     0
300
1:16
140
1.0
141
16.0
290
     0
  0
SCALE
  5
45
102
{ACAD_REACTORS
330
3D
102
}
330
3D
100
AcDbScale
 70
     0
300
1:20
140
1.0
141
20.0
290
     0
  0
SCALE
  5
46
102
{ACAD_REACTORS
330
3D
102
}
330
3D
100
AcDbScale
 70
     0
300
1:30
140
1.0
141
30.0
290
     0
  0
SCALE
  5
47
102
{ACAD_REACTORS
330
3D
102
}
330
3D
100
AcDbScale
 70
     0
300
1:40
140
1.0
141
40.0
290
     0
  0
SCALE
  5
48
102
{ACAD_REACTORS
330
3D
102
}
330
3D
100
AcDbScale
 70
     0
300
1:50
140
1.0
141
50.0
290
     0
  0
SCALE
  5
49
102
{ACAD_REACTORS
330
3D
102
}
330
3D
100
AcDbScale
 70
     0
300
1:100
140
1.0
141
100.0
290
     0
  0
SCALE
  5
4A
102
{ACAD_REACTORS
330
3D
102
}
330
3D
100
AcDbScale
 70
     0
300
2:1
140
2.0
141
1.0
290
     0
  0
SCALE
  5
4B
102
{ACAD_REACTORS
330
3D
102
}
330
3D
100
AcDbScale
 70
     0
300
4:1
140
4.0
141
1.0
290
     0
  0
SCALE
  5
4C
102
{ACAD_REACTORS
330
3D
102
}
330
3D
100
AcDbScale
 70
     0
300
8:1
140
8.0
141
1.0
290
     0
  0
SCALE
  5
4D
102
{ACAD_REACTORS
330
3D
102
}
330
3D
100
AcDbScale
 70
     0
300
10:1
140
10.0
141
1.0
290
     0
  0
SCALE
  5
4E
102
{ACAD_REACTORS
330
3D
102
}
330
3D
100
AcDbScale
 70
     0
300
100:1
140
100.0
141
1.0
290
     0
  0
SCALE
  5
4F
102
{ACAD_REACTORS
330
3D
102
}
330
3D
100
AcDbScale
 70
     0
300
1/128" = 1'-0"
140
0.0078125
141
12.0
290
     0
  0
SCALE
  5
50
102
{ACAD_REACTORS
330
3D
102
}
330
3D
100
AcDbScale
 70
     0
300
1/64" = 1'-0"
140
0.015625
141
12.0
290
     0
  0
SCALE
  5
51
102
{ACAD_REACTORS
330
3D
102
}
330
3D
100
AcDbScale
 70
     0
300
1/32" = 1'-0"
140
0.03125
141
12.0
290
     0
  0
SCALE
  5
52
102
{ACAD_REACTORS
330
3D
102
}
330
3D
100
AcDbScale
 70
     0
300
1/16" = 1'-0"
140
0.0625
141
12.0
290
     0
  0
SCALE
  5
53
102
{ACAD_REACTORS
330
3D
102
}
330
3D
100
AcDbScale
 70
     0
300
3/32" = 1'-0"
140
0.09375
141
12.0
290
     0
  0
SCALE
  5
54
102
{ACAD_REACTORS
330
3D
102
}
330
3D
100
AcDbScale
 70
     0
300
1/8" = 1'-0"
140
0.125
141
12.0
290
     0
  0
SCALE
  5
55
102
{ACAD_REACTORS
330
3D
102
}
330
3D
100
AcDbScale
 70
     0
300
3/16" = 1'-0"
140
0.1875
141
12.0
290
     0
  0
SCALE
  5
56
102
{ACAD_REACTORS
330
3D
102
}
330
3D
100
AcDbScale
 70
     0
300
1/4" = 1'-0"
140
0.25
141
12.0
290
     0
  0
SCALE
  5
57
102
{ACAD_REACTORS
330
3D
102
}
330
3D
100
AcDbScale
 70
     0
300
3/8" = 1'-0"
140
0.375
141
12.0
290
     0
  0
SCALE
  5
58
102
{ACAD_REACTORS
330
3D
102
}
330
3D
100
AcDbScale
 70
     0
300
1/2" = 1'-0"
140
0.5
141
12.0
290
     0
  0
SCALE
  5
59
102
{ACAD_REACTORS
330
3D
102
}
330
3D
100
AcDbScale
 70
     0
300
3/4" = 1'-0"
140
0.75
141
12.0
290
     0
  0
SCALE
  5
5A
102
{ACAD_REACTORS
330
3D
102
}
330
3D
100
AcDbScale
 70
     0
300
1" = 1'-0"
140
1.0
141
12.0
290
     0
  0
SCALE
  5
5B
102
{ACAD_REACTORS
330
3D
102
}
330
3D
100
AcDbScale
 70
     0
300
1-1/2" = 1'-0"
140
1.5
141
12.0
290
     0
  0
SCALE
  5
5C
102
{ACAD_REACTORS
330
3D
102
}
330
3D
100
AcDbScale
 70
     0
300
3" = 1'-0"
140
3.0
141
12.0
290
     0
  0
SCALE
  5
5D
102
{ACAD_REACTORS
330
3D
102
}
330
3D
100
AcDbScale
 70
     0
300
6" = 1'-0"
140
6.0
141
12.0
290
     0
  0
SCALE
  5
5E
102
{ACAD_REACTORS
330
3D
102
}
330
3D
100
AcDbScale
 70
     0
300
1'-0" = 1'-0"
140
12.0
141
12.0
290
     0
  0
TABLESTYLE
  5
6F
102
{ACAD_XDICTIONARY
360
66C
102
}
102
{ACAD_REACTORS
330
6E
102
}
330
6E
100
AcDbTableStyle
  3
Standard
 70
     0
 71
     0
 40
0.06
 41
0.06
280
     0
281
     0
  7
STANDARD
140
0.18
170
     2
 62
     0
 63
     7
283
     0
274
    -2
284
     1
 64
     0
275
    -2
285
     1
 65
     0
276
    -2
286
     1
 66
     0
277
    -2
287
     1
 67
     0
278
    -2
288
     1
 68
     0
279
    -2
289
     1
 69
     0
  7
STANDARD
140
0.25
170
     5
 62
     0
 63
     7
283
     0
274
    -2
284
     1
 64
     0
275
    -2
285
     1
 65
     0
276
    -2
286
     1
 66
     0
277
    -2
287
     1
 67
     0
278
    -2
288
     1
 68
     0
279
    -2
289
     1
 69
     0
  7
STANDARD
140
0.18
170
     5
 62
     0
 63
     7
283
     0
274
    -2
284
     1
 64
     0
275
    -2
285
     1
 65
     0
276
    -2
286
     1
 66
     0
277
    -2
287
     1
 67
     0
278
    -2
288
     1
 68
     0
279
    -2
289
     1
 69
     0
  0
VISUALSTYLE
  5
2F
102
{ACAD_XDICTIONARY
360
738
102
}
102
{ACAD_REACTORS
330
29
102
}
330
29
100
AcDbVisualStyle
  2

 70
     4
 71
     0
 72
     2
 73
     0
 90
        0
 40
-0.6
 41
-30.0
 62
     5
 63
     7
 74
     1
 91
        4
 64
     7
 65
   257
 75
     1
175
     1
 42
1.0
 92
        0
 66
   257
 43
1.0
 76
     1
 77
     6
 78
     2
 67
     7
 79
     5
170
     0
171
     0
290
     0
174
     0
 93
        1
 44
0.0
173
     0
291
     0
 45
0.0
1001
ACAD
1000
AcDbSavedByObjectVersion
1070
     0
  0
VISUALSTYLE
  5
31
102
{ACAD_XDICTIONARY
360
73C
102
}
102
{ACAD_REACTORS
330
29
102
}
330
29
100
AcDbVisualStyle
  2

 70
     6
 71
     1
 72
     2
 73
     2
 90
        0
 40
-0.6
 41
-30.0
 62
     5
 63
     7
 74
     2
 91
        2
 64
     7
 65
   257
 75
     2
175
     1
 42
179.0
 92
        0
 66
   257
 43
1.0
 76
     1
 77
     6
 78
     2
 67
     7
 79
     3
170
     0
171
     0
290
     0
174
     0
 93
        1
 44
0.0
173
     0
291
     0
 45
0.0
1001
ACAD
1000
AcDbSavedByObjectVersion
1070
     0
  0
VISUALSTYLE
  5
30
102
{ACAD_XDICTIONARY
360
73A
102
}
102
{ACAD_REACTORS
330
29
102
}
330
29
100
AcDbVisualStyle
  2

 70
     5
 71
     0
 72
     2
 73
     0
 90
        0
 40
-0.6
 41
-30.0
 62
     5
 63
     7
 74
     1
 91
        4
 64
     7
 65
   257
 75
     1
175
     1
 42
1.0
 92
        0
 66
   257
 43
1.0
 76
     1
 77
     6
 78
     2
 67
     7
 79
     5
170
     0
171
     0
290
     0
174
     0
 93
        1
 44
0.0
173
     0
291
     0
 45
0.0
1001
ACAD
1000
AcDbSavedByObjectVersion
1070
     0
  0
VISUALSTYLE
  5
2E
102
{ACAD_XDICTIONARY
360
736
102
}
102
{ACAD_REACTORS
330
29
102
}
330
29
100
AcDbVisualStyle
  2

 70
     7
 71
     1
 72
     0
 73
     1
 90
        0
 40
-0.6
 41
-30.0
 62
     5
 63
     7
 74
     0
 91
        4
 64
     7
 65
   257
 75
     1
175
     1
 42
1.0
 92
        8
 66
     7
 43
1.0
 76
     1
 77
     6
 78
     2
 67
     7
 79
     5
170
     0
171
     0
290
     0
174
     0
 93
        1
 44
0.0
173
     0
291
     1
 45
0.0
1001
ACAD
1000
AcDbSavedByObjectVersion
1070
     0
  0
VISUALSTYLE
  5
35
102
{ACAD_XDICTIONARY
360
744
102
}
102
{ACAD_REACTORS
330
29
102
}
330
29
100
AcDbVisualStyle
  2

 70
    12
 71
     2
 72
     2
 73
     0
 90
        0
 40
-0.6
 41
-30.0
 62
     5
 63
     7
 74
     1
 91
        4
 64
     7
 65
   257
 75
     1
175
     1
 42
1.0
 92
        8
 66
     7
 43
1.0
 76
     1
 77
     6
 78
     2
 67
     7
 79
     5
170
     0
171
     0
290
     0
174
     0
 93
        1
 44
50.0
173
     0
291
     1
 45
0.0
1001
ACAD
1000
AcDbSavedByObjectVersion
1070
     0
  0
VISUALSTYLE
  5
39
102
{ACAD_XDICTIONARY
360
74C
102
}
102
{ACAD_REACTORS
330
29
102
}
330
29
100
AcDbVisualStyle
  2

 70
    16
 71
     2
 72
     2
 73
     3
 90
        0
 40
-0.6
 41
-30.0
 62
     5
 63
     8
 74
     1
 91
        4
 64
     7
 65
   257
 75
     1
175
     1
 42
1.0
 92
        8
 66
     8
 43
1.0
 76
     1
 77
     6
 78
     2
 67
     7
 79
     5
170
     0
171
     0
290
     0
174
     0
 93
        1
 44
0.0
173
     0
291
     1
 45
0.0
1001
ACAD
1000
AcDbSavedByObjectVersion
1070
     0
  0
VISUALSTYLE
  5
32
102
{ACAD_XDICTIONARY
360
73E
102
}
102
{ACAD_REACTORS
330
29
102
}
330
29
100
AcDbVisualStyle
  2

 70
     9
 71
     3
 72
     2
 73
     0
 90
        0
 40
-0.6
 41
-30.0
 62
     5
 63
     7
 74
     2
 91
        2
 64
     7
 65
   257
 75
     1
175
     1
 42
179.0
 92
        8
 66
     7
 43
1.0
 76
     1
 77
     6
 78
     2
 67
     7
 79
     3
170
     0
171
     0
290
     0
174
     0
 93
        1
 44
0.0
173
     0
291
     0
 45
0.0
1001
ACAD
1000
AcDbSavedByObjectVersion
1070
     0
  0
VISUALSTYLE
  5
34
102
{ACAD_XDICTIONARY
360
742
102
}
102
{ACAD_REACTORS
330
29
102
}
330
29
100
AcDbVisualStyle
  2

 70
    11
 71
     2
 72
     2
 73
     0
 90
        0
 40
-0.6
 41
-30.0
 62
     5
 63
     7
 74
     1
 91
        4
 64
     7
 65
   257
 75
     1
175
     1
 42
1.0
 92
        8
 66
     7
 43
1.0
 76
     1
 77
     6
 78
     2
 67
     7
 79
     5
170
     0
171
     0
290
     0
174
     0
 93
        1
 44
-50.0
173
     0
291
     1
 45
0.0
1001
ACAD
1000
AcDbSavedByObjectVersion
1070
     0
  0
VISUALSTYLE
  5
3C
102
{ACAD_XDICTIONARY
360
752
102
}
102
{ACAD_REACTORS
330
29
102
}
330
29
100
AcDbVisualStyle
  2

 70
    22
 71
     2
 72
     2
 73
     0
 90
        0
 40
-0.6
 41
-30.0
 62
     5
 63
     7
 74
     1
 91
        4
 64
     7
 65
   257
 75
     1
175
     1
 42
1.0
 92
        8
 66
     7
 43
1.0
 76
     1
 77
     6
 78
     2
 67
     7
 79
     5
170
     0
171
     0
290
     0
174
     0
 93
        1
 44
0.0
173
     0
291
     1
 45
0.0
1001
ACAD
1000
AcDbSavedByObjectVersion
1070
     0
  0
VISUALSTYLE
  5
38
102
{ACAD_XDICTIONARY
360
74A
102
}
102
{ACAD_REACTORS
330
29
102
}
330
29
100
AcDbVisualStyle
  2

 70
    15
 71
     2
 72
     2
 73
     0
 90
        0
 40
-0.6
 41
-30.0
 62
     5
 63
     7
 74
     1
 91
        4
 64
     7
 65
   257
 75
     1
175
     1
 42
1.0
 92
        8
 66
     7
 43
1.0
 76
     1
 77
     6
 78
     2
 67
     7
 79
     5
170
     0
171
     0
290
     0
174
     0
 93
        1
 44
0.0
173
     0
291
     1
 45
0.0
1001
ACAD
1000
AcDbSavedByObjectVersion
1070
     0
  0
VISUALSTYLE
  5
2A
102
{ACAD_XDICTIONARY
360
72E
102
}
102
{ACAD_REACTORS
330
29
102
}
330
29
100
AcDbVisualStyle
  2

 70
     0
 71
     2
 72
     1
 73
     1
 90
        2
 40
-0.6
 41
30.0
 62
     5
 63
     7
 74
     0
 91
        4
 64
     7
 65
   257
 75
     1
175
     1
 42
1.0
 92
        8
 66
     7
 43
1.0
 76
     1
 77
     6
 78
     2
 67
     7
 79
     5
170
     0
171
     0
290
     0
174
     0
 93
       13
 44
0.0
173
     0
291
     1
 45
0.0
1001
ACAD
1000
AcDbSavedByObjectVersion
1070
     0
  0
VISUALSTYLE
  5
2B
102
{ACAD_XDICTIONARY
360
730
102
}
102
{ACAD_REACTORS
330
29
102
}
330
29
100
AcDbVisualStyle
  2

 70
     1
 71
     2
 72
     1
 73
     1
 90
        2
 40
-0.6
 41
30.0
 62
     5
 63
     7
 74
     1
 91
        4
 64
     7
 65
   257
 75
     1
175
     1
 42
1.0
 92
        0
 66
   257
 43
1.0
 76
     1
 77
     6
 78
     2
 67
     7
 79
     5
170
     0
171
     0
290
     0
174
     0
 93
       13
 44
0.0
173
     0
291
     1
 45
0.0
1001
ACAD
1000
AcDbSavedByObjectVersion
1070
     0
  0
VISUALSTYLE
  5
2C
102
{ACAD_XDICTIONARY
360
732
102
}
102
{ACAD_REACTORS
330
29
102
}
330
29
100
AcDbVisualStyle
  2

 70
     2
 71
     2
 72
     2
 73
     1
 90
        2
 40
-0.6
 41
30.0
 62
     5
 63
     7
 74
     0
 91
        4
 64
     7
 65
   257
 75
     1
175
     1
 42
1.0
 92
        0
 66
     7
 43
1.0
 76
     1
 77
     6
 78
     2
 67
     7
 79
     5
170
     0
171
     0
290
     0
174
     0
 93
       13
 44
0.0
173
     0
291
     1
 45
0.0
1001
ACAD
1000
AcDbSavedByObjectVersion
1070
     0
  0
VISUALSTYLE
  5
2D
102
{ACAD_XDICTIONARY
360
734
102
}
102
{ACAD_REACTORS
330
29
102
}
330
29
100
AcDbVisualStyle
  2

 70
     3
 71
     2
 72
     2
 73
     1
 90
        2
 40
-0.6
 41
30.0
 62
     5
 63
     7
 74
     1
 91
        4
 64
     7
 65
   257
 75
     1
175
     1
 42
1.0
 92
        0
 66
   257
 43
1.0
 76
     1
 77
     6
 78
     2
 67
     7
 79
     5
170
     0
171
     0
290
     0
174
     0
 93
       13
 44
0.0
173
     0
291
     1
 45
0.0
1001
ACAD
1000
AcDbSavedByObjectVersion
1070
     0
  0
VISUALSTYLE
  5
3A
102
{ACAD_XDICTIONARY
360
74E
102
}
102
{ACAD_REACTORS
330
29
102
}
330
29
100
AcDbVisualStyle
  2

 70
    20
 71
     2
 72
     2
 73
     0
 90
        0
 40
-0.6
 41
-30.0
 62
     5
 63
     7
 74
     1
 91
        4
 64
     7
 65
   257
 75
     1
175
     1
 42
1.0
 92
       10
 66
     7
 43
1.0
 76
     1
 77
     6
 78
     2
 67
     7
 79
     5
170
     0
171
     0
290
     0
174
     0
 93
        1
 44
0.0
173
     0
291
     1
 45
0.0
1001
ACAD
1000
AcDbSavedByObjectVersion
1070
     0
  0
VISUALSTYLE
  5
37
102
{ACAD_XDICTIONARY
360
748
102
}
102
{ACAD_REACTORS
330
29
102
}
330
29
100
AcDbVisualStyle
  2

 70
    14
 71
     2
 72
     2
 73
     0
 90
        0
 40
-0.6
 41
-30.0
 62
     5
 63
     7
 74
     1
 91
        4
 64
     7
 65
   257
 75
     7
175
     7
 42
1.0
 92
        8
 66
     7
 43
1.0
 76
     1
 77
     6
 78
     2
 67
     7
 79
     5
170
     0
171
     0
290
     0
174
     0
 93
        1
 44
0.0
173
     0
291
     1
 45
0.0
1001
ACAD
1000
AcDbSavedByObjectVersion
1070
     0
  0
VISUALSTYLE
  5
3B
102
{ACAD_XDICTIONARY
360
750
102
}
102
{ACAD_REACTORS
330
29
102
}
330
29
100
AcDbVisualStyle
  2

 70
    21
 71
     2
 72
     2
 73
     0
 90
        0
 40
-0.6
 41
-30.0
 62
     5
 63
     7
 74
     1
 91
        4
 64
     7
 65
   257
 75
     1
175
     1
 42
1.0
 92
        9
 66
     7
 43
1.0
 76
     1
 77
     6
 78
     2
 67
     7
 79
     5
170
     0
171
     0
290
     0
174
     0
 93
        1
 44
0.0
173
     0
291
     1
 45
0.0
1001
ACAD
1000
AcDbSavedByObjectVersion
1070
     0
  0
VISUALSTYLE
  5
33
102
{ACAD_XDICTIONARY
360
740
102
}
102
{ACAD_REACTORS
330
29
102
}
330
29
100
AcDbVisualStyle
  2

 70
     8
 71
     2
 72
     2
 73
     0
 90
        0
 40
-0.6
 41
-30.0
 62
     5
 63
     7
 74
     1
 91
        0
 64
     7
 65
   257
 75
     1
175
     1
 42
1.0
 92
        8
 66
     8
 43
1.0
 76
     1
 77
     6
 78
     2
 67
     7
 79
     5
170
     0
171
     0
290
     0
174
     0
 93
       13
 44
0.0
173
     0
291
     0
 45
0.0
1001
ACAD
1000
AcDbSavedByObjectVersion
1070
     0
  0
VISUALSTYLE
  5
36
102
{ACAD_XDICTIONARY
360
746
102
}
102
{ACAD_REACTORS
330
29
102
}
330
29
100
AcDbVisualStyle
  2

 70
    13
 71
     2
 72
     2
 73
     0
 90
        0
 40
-0.6
 41
-30.0
 62
     5
 63
     7
 74
     1
 91
        4
 64
     7
 65
   257
 75
     1
175
     1
 42
1.0
 92
       12
 66
     7
 43
1.0
 76
     1
 77
     6
 78
     2
 67
     7
 79
     5
170
     0
171
     0
290
     0
174
     0
 93
        1
 44
0.0
173
     0
291
     1
 45
0.0
1001
ACAD
1000
AcDbSavedByObjectVersion
1070
     0
  0
DICTIONARYVAR
  5
667
102
{ACAD_REACTORS
330
647
102
}
330
647
100
DictionaryVariables
280
     0
  1
1:1
  0
DICTIONARYVAR
  5
666
102
{ACAD_REACTORS
330
647
102
}
330
647
100
DictionaryVariables
280
     0
  1
STANDARD
  0
DICTIONARYVAR
  5
665
102
{ACAD_REACTORS
330
647
102
}
330
647
100
DictionaryVariables
280
     0
  1
STANDARD
  0
DICTIONARYVAR
  5
66A
102
{ACAD_REACTORS
330
647
102
}
330
647
100
DictionaryVariables
280
     0
  1
1
  0
DICTIONARYVAR
  5
649
102
{ACAD_REACTORS
330
647
102
}
330
647
100
DictionaryVariables
280
     0
  1
2
  0
DICTIONARYVAR
  5
648
102
{ACAD_REACTORS
330
647
102
}
330
647
100
DictionaryVariables
280
     0
  1
1
  0
DICTIONARYVAR
  5
669
102
{ACAD_REACTORS
330
647
102
}
330
647
100
DictionaryVariables
280
     0
  1
0
  0
DICTIONARYVAR
  5
668
102
{ACAD_REACTORS
330
647
102
}
330
647
100
DictionaryVariables
280
     0
  1
127
  0
DICTIONARYVAR
  5
725
102
{ACAD_REACTORS
330
647
102
}
330
647
100
DictionaryVariables
280
     0
  1
2
  0
DICTIONARY
  5
3A3
102
{ACAD_REACTORS
330
399
102
}
330
399
100
AcDbDictionary
281
     1
  0
DICTIONARY
  5
755
330
75
100
AcDbDictionary
280
     1
281
     1
  3
ACAD_XREC_ROUNDTRIP
360
756
  0
DICTIONARY
  5
5B4
330
79
100
AcDbDictionary
280
     1
281
     1
  3
ACAD_XREC_ROUNDTRIP
360
757
  3
AcPublish_PlotSettingsOverride
360
5B5
  0
DICTIONARY
  5
1A
330
19
100
AcDbDictionary
280
     1
281
     1
  3
ACAD_XREC_ROUNDTRIP
360
671
  3
BUMPTILE
360
1C
  3
DIFFUSETILE
360
1B
  3
OPACITYTILE
360
1F
  3
REFLECTIONTILE
360
1E
  3
REFRACTIONTILE
360
20
  3
SPECULARTILE
360
1D
  0
DICTIONARY
  5
12
330
11
100
AcDbDictionary
280
     1
281
     1
  3
ACAD_XREC_ROUNDTRIP
360
670
  3
BUMPTILE
360
14
  3
DIFFUSETILE
360
13
  3
OPACITYTILE
360
17
  3
REFLECTIONTILE
360
16
  3
REFRACTIONTILE
360
18
  3
SPECULARTILE
360
15
  0
DICTIONARY
  5
22
330
21
100
AcDbDictionary
280
     1
281
     1
  3
ACAD_XREC_ROUNDTRIP
360
672
  3
BUMPTILE
360
24
  3
DIFFUSETILE
360
23
  3
OPACITYTILE
360
27
  3
REFLECTIONTILE
360
26
  3
REFRACTIONTILE
360
28
  3
SPECULARTILE
360
25
  0
DICTIONARY
  5
66C
330
6F
100
AcDbDictionary
280
     1
281
     1
  3
ACAD_ROUNDTRIP_2008_TABLESTYLE_CELLSTYLEMAP
360
726
  3
ACAD_XREC_ROUNDTRIP
360
754
  0
DICTIONARY
  5
738
330
2F
100
AcDbDictionary
280
     1
281
     1
  3
ACAD_XREC_ROUNDTRIP
360
739
  0
DICTIONARY
  5
73C
330
31
100
AcDbDictionary
280
     1
281
     1
  3
ACAD_XREC_ROUNDTRIP
360
73D
  0
DICTIONARY
  5
73A
330
30
100
AcDbDictionary
280
     1
281
     1
  3
ACAD_XREC_ROUNDTRIP
360
73B
  0
DICTIONARY
  5
736
330
2E
100
AcDbDictionary
280
     1
281
     1
  3
ACAD_XREC_ROUNDTRIP
360
737
  0
DICTIONARY
  5
744
330
35
100
AcDbDictionary
280
     1
281
     1
  3
ACAD_XREC_ROUNDTRIP
360
745
  0
DICTIONARY
  5
74C
330
39
100
AcDbDictionary
280
     1
281
     1
  3
ACAD_XREC_ROUNDTRIP
360
74D
  0
DICTIONARY
  5
73E
330
32
100
AcDbDictionary
280
     1
281
     1
  3
ACAD_XREC_ROUNDTRIP
360
73F
  0
DICTIONARY
  5
742
330
34
100
AcDbDictionary
280
     1
281
     1
  3
ACAD_XREC_ROUNDTRIP
360
743
  0
DICTIONARY
  5
752
330
3C
100
AcDbDictionary
280
     1
281
     1
  3
ACAD_XREC_ROUNDTRIP
360
753
  0
DICTIONARY
  5
74A
330
38
100
AcDbDictionary
280
     1
281
     1
  3
ACAD_XREC_ROUNDTRIP
360
74B
  0
DICTIONARY
  5
72E
330
2A
100
AcDbDictionary
280
     1
281
     1
  3
ACAD_XREC_ROUNDTRIP
360
72F
  0
DICTIONARY
  5
730
330
2B
100
AcDbDictionary
280
     1
281
     1
  3
ACAD_XREC_ROUNDTRIP
360
731
  0
DICTIONARY
  5
732
330
2C
100
AcDbDictionary
280
     1
281
     1
  3
ACAD_XREC_ROUNDTRIP
360
733
  0
DICTIONARY
  5
734
330
2D
100
AcDbDictionary
280
     1
281
     1
  3
ACAD_XREC_ROUNDTRIP
360
735
  0
DICTIONARY
  5
74E
330
3A
100
AcDbDictionary
280
     1
281
     1
  3
ACAD_XREC_ROUNDTRIP
360
74F
  0
DICTIONARY
  5
748
330
37
100
AcDbDictionary
280
     1
281
     1
  3
ACAD_XREC_ROUNDTRIP
360
749
  0
DICTIONARY
  5
750
330
3B
100
AcDbDictionary
280
     1
281
     1
  3
ACAD_XREC_ROUNDTRIP
360
751
  0
DICTIONARY
  5
740
330
33
100
AcDbDictionary
280
     1
281
     1
  3
ACAD_XREC_ROUNDTRIP
360
741
  0
DICTIONARY
  5
746
330
36
100
AcDbDictionary
280
     1
281
     1
  3
ACAD_XREC_ROUNDTRIP
360
747
  0
XRECORD
  5
756
102
{ACAD_REACTORS
330
755
102
}
330
755
100
AcDbXrecord
280
     1
102
SHADEPLOT
 70
     0
102
SHADEPLOTRESLEVEL
 70
     2
102
SHADEPLOTCUSTOMDPI
 70
   300
  0
XRECORD
  5
757
102
{ACAD_REACTORS
330
5B4
102
}
330
5B4
100
AcDbXrecord
280
     1
102
SHADEPLOT
 70
     0
102
SHADEPLOTRESLEVEL
 70
     2
102
SHADEPLOTCUSTOMDPI
 70
   300
  0
PLOTSETTINGS
  5
5B5
102
{ACAD_XDICTIONARY
360
758
102
}
102
{ACAD_REACTORS
330
5B4
102
}
330
5B4
100
AcDbPlotSettings
  1

  2
DWG To PDF.pc3
  4
ANSI_D_(34.00_x_22.00_Inches)
  6

 40
5.793749809265136
 41
17.79375076293945
 42
5.79376220703125
 43
17.79376220703125
 44
863.5999755859375
 45
558.7999877929686
 46
0.0
 47
0.0
 48
1.625279251465569
 49
0.8329193492849148
140
37.84120571606286
141
23.59299332605759
142
1.0
143
1.0
 70
 11936
 72
     0
 73
     0
 74
     4
  7

 75
     0
147
0.3020079933692588
148
-41.28209298722546
149
-21.15615147183683
1001
ACAD_PSEXT
1000
DWG To PDF.pc3
1000
DWG To PDF
1000
File
1000

1070
     0
  0
XRECORD
  5
671
102
{ACAD_REACTORS
330
1A
102
}
330
1A
100
AcDbXrecord
280
     1
102
MATERIAL
148
0.0
149
0.0
149
0.0
 93
        0
 94
      127
282
     0
 72
     0
 77
     0
171
     0
175
     0
179
     0
273
     0
  0
XRECORD
  5
1C
102
{ACAD_REACTORS
330
1A
102
}
330
1A
100
AcDbXrecord
280
     1
270
     1
271
     1
  0
XRECORD
  5
1B
102
{ACAD_REACTORS
330
1A
102
}
330
1A
100
AcDbXrecord
280
     1
270
     1
271
     1
  0
XRECORD
  5
1F
102
{ACAD_REACTORS
330
1A
102
}
330
1A
100
AcDbXrecord
280
     1
270
     1
271
     1
  0
XRECORD
  5
1E
102
{ACAD_REACTORS
330
1A
102
}
330
1A
100
AcDbXrecord
280
     1
270
     1
271
     1
  0
XRECORD
  5
20
102
{ACAD_REACTORS
330
1A
102
}
330
1A
100
AcDbXrecord
280
     1
270
     1
271
     1
  0
XRECORD
  5
1D
102
{ACAD_REACTORS
330
1A
102
}
330
1A
100
AcDbXrecord
280
     1
270
     1
271
     1
  0
XRECORD
  5
670
102
{ACAD_REACTORS
330
12
102
}
330
12
100
AcDbXrecord
280
     1
102
MATERIAL
148
0.0
149
0.0
149
0.0
 93
        0
 94
      127
282
     0
 72
     0
 77
     0
171
     0
175
     0
179
     0
273
     0
  0
XRECORD
  5
14
102
{ACAD_REACTORS
330
12
102
}
330
12
100
AcDbXrecord
280
     1
270
     1
271
     1
  0
XRECORD
  5
13
102
{ACAD_REACTORS
330
12
102
}
330
12
100
AcDbXrecord
280
     1
270
     1
271
     1
  0
XRECORD
  5
17
102
{ACAD_REACTORS
330
12
102
}
330
12
100
AcDbXrecord
280
     1
270
     1
271
     1
  0
XRECORD
  5
16
102
{ACAD_REACTORS
330
12
102
}
330
12
100
AcDbXrecord
280
     1
270
     1
271
     1
  0
XRECORD
  5
18
102
{ACAD_REACTORS
330
12
102
}
330
12
100
AcDbXrecord
280
     1
270
     1
271
     1
  0
XRECORD
  5
15
102
{ACAD_REACTORS
330
12
102
}
330
12
100
AcDbXrecord
280
     1
270
     1
271
     1
  0
XRECORD
  5
672
102
{ACAD_REACTORS
330
22
102
}
330
22
100
AcDbXrecord
280
     1
102
MATERIAL
148
0.0
149
0.0
149
0.0
 93
        0
 94
      127
282
     0
 72
     0
 77
     0
171
     0
175
     0
179
     0
273
     0
  0
XRECORD
  5
24
102
{ACAD_REACTORS
330
22
102
}
330
22
100
AcDbXrecord
280
     1
270
     1
271
     1
  0
XRECORD
  5
23
102
{ACAD_REACTORS
330
22
102
}
330
22
100
AcDbXrecord
280
     1
270
     1
271
     1
  0
XRECORD
  5
27
102
{ACAD_REACTORS
330
22
102
}
330
22
100
AcDbXrecord
280
     1
270
     1
271
     1
  0
XRECORD
  5
26
102
{ACAD_REACTORS
330
22
102
}
330
22
100
AcDbXrecord
280
     1
270
     1
271
     1
  0
XRECORD
  5
28
102
{ACAD_REACTORS
330
22
102
}
330
22
100
AcDbXrecord
280
     1
270
     1
271
     1
  0
XRECORD
  5
25
102
{ACAD_REACTORS
330
22
102
}
330
22
100
AcDbXrecord
280
     1
270
     1
271
     1
  0
CELLSTYLEMAP
  5
726
102
{ACAD_REACTORS
330
66C
102
}
330
66C
100
AcDbCellStyleMap
 90
        3
300
CELLSTYLE
  1
TABLEFORMAT_BEGIN
 90
        5
170
     1
 91
        0
 92
    32768
 62
   257
 93
        1
300
CONTENTFORMAT
  1
CONTENTFORMAT_BEGIN
 90
        0
 91
        0
 92
      512
 93
        0
300

 40
0.0
140
1.0
 94
        5
 62
     0
340
60
144
0.25
309
CONTENTFORMAT_END
171
     1
301
MARGIN
  1
CELLMARGIN_BEGIN
 40
0.06
 40
0.06
 40
0.06
 40
0.06
 40
0.18
 40
0.18
309
CELLMARGIN_END
 94
        6
 95
        1
302
GRIDFORMAT
  1
GRIDFORMAT_BEGIN
 90
        0
 91
        1
 62
     0
 92
       -2
340
0
 93
        0
 40
0.045
309
GRIDFORMAT_END
 95
        2
302
GRIDFORMAT
  1
GRIDFORMAT_BEGIN
 90
        0
 91
        1
 62
     0
 92
       -2
340
0
 93
        0
 40
0.045
309
GRIDFORMAT_END
 95
        4
302
GRIDFORMAT
  1
GRIDFORMAT_BEGIN
 90
        0
 91
        1
 62
     0
 92
       -2
340
0
 93
        0
 40
0.045
309
GRIDFORMAT_END
 95
        8
302
GRIDFORMAT
  1
GRIDFORMAT_BEGIN
 90
        0
 91
        1
 62
     0
 92
       -2
340
0
 93
        0
 40
0.045
309
GRIDFORMAT_END
 95
       16
302
GRIDFORMAT
  1
GRIDFORMAT_BEGIN
 90
        0
 91
        1
 62
     0
 92
       -2
340
0
 93
        0
 40
0.045
309
GRIDFORMAT_END
 95
       32
302
GRIDFORMAT
  1
GRIDFORMAT_BEGIN
 90
        0
 91
        1
 62
     0
 92
       -2
340
0
 93
        0
 40
0.045
309
GRIDFORMAT_END
309
TABLEFORMAT_END
  1
CELLSTYLE_BEGIN
 90
        1
 91
        1
300
_TITLE
309
CELLSTYLE_END
300
CELLSTYLE
  1
TABLEFORMAT_BEGIN
 90
        5
170
     1
 91
        0
 92
        0
 62
   257
 93
        1
300
CONTENTFORMAT
  1
CONTENTFORMAT_BEGIN
 90
        0
 91
        0
 92
      512
 93
        0
300

 40
0.0
140
1.0
 94
        5
 62
     0
340
60
144
0.18
309
CONTENTFORMAT_END
171
     1
301
MARGIN
  1
CELLMARGIN_BEGIN
 40
0.06
 40
0.06
 40
0.06
 40
0.06
 40
0.18
 40
0.18
309
CELLMARGIN_END
 94
        6
 95
        1
302
GRIDFORMAT
  1
GRIDFORMAT_BEGIN
 90
        0
 91
        1
 62
     0
 92
       -2
340
0
 93
        0
 40
0.045
309
GRIDFORMAT_END
 95
        2
302
GRIDFORMAT
  1
GRIDFORMAT_BEGIN
 90
        0
 91
        1
 62
     0
 92
       -2
340
0
 93
        0
 40
0.045
309
GRIDFORMAT_END
 95
        4
302
GRIDFORMAT
  1
GRIDFORMAT_BEGIN
 90
        0
 91
        1
 62
     0
 92
       -2
340
0
 93
        0
 40
0.045
309
GRIDFORMAT_END
 95
        8
302
GRIDFORMAT
  1
GRIDFORMAT_BEGIN
 90
        0
 91
        1
 62
     0
 92
       -2
340
0
 93
        0
 40
0.045
309
GRIDFORMAT_END
 95
       16
302
GRIDFORMAT
  1
GRIDFORMAT_BEGIN
 90
        0
 91
        1
 62
     0
 92
       -2
340
0
 93
        0
 40
0.045
309
GRIDFORMAT_END
 95
       32
302
GRIDFORMAT
  1
GRIDFORMAT_BEGIN
 90
        0
 91
        1
 62
     0
 92
       -2
340
0
 93
        0
 40
0.045
309
GRIDFORMAT_END
309
TABLEFORMAT_END
  1
CELLSTYLE_BEGIN
 90
        2
 91
        1
300
_HEADER
309
CELLSTYLE_END
300
CELLSTYLE
  1
TABLEFORMAT_BEGIN
 90
        5
170
     1
 91
        0
 92
        0
 62
   257
 93
        1
300
CONTENTFORMAT
  1
CONTENTFORMAT_BEGIN
 90
        0
 91
        0
 92
      512
 93
        0
300

 40
0.0
140
1.0
 94
        2
 62
     0
340
60
144
0.18
309
CONTENTFORMAT_END
171
     1
301
MARGIN
  1
CELLMARGIN_BEGIN
 40
0.06
 40
0.06
 40
0.06
 40
0.06
 40
0.18
 40
0.18
309
CELLMARGIN_END
 94
        6
 95
        1
302
GRIDFORMAT
  1
GRIDFORMAT_BEGIN
 90
        0
 91
        1
 62
     0
 92
       -2
340
0
 93
        0
 40
0.045
309
GRIDFORMAT_END
 95
        2
302
GRIDFORMAT
  1
GRIDFORMAT_BEGIN
 90
        0
 91
        1
 62
     0
 92
       -2
340
0
 93
        0
 40
0.045
309
GRIDFORMAT_END
 95
        4
302
GRIDFORMAT
  1
GRIDFORMAT_BEGIN
 90
        0
 91
        1
 62
     0
 92
       -2
340
0
 93
        0
 40
0.045
309
GRIDFORMAT_END
 95
        8
302
GRIDFORMAT
  1
GRIDFORMAT_BEGIN
 90
        0
 91
        1
 62
     0
 92
       -2
340
0
 93
        0
 40
0.045
309
GRIDFORMAT_END
 95
       16
302
GRIDFORMAT
  1
GRIDFORMAT_BEGIN
 90
        0
 91
        1
 62
     0
 92
       -2
340
0
 93
        0
 40
0.045
309
GRIDFORMAT_END
 95
       32
302
GRIDFORMAT
  1
GRIDFORMAT_BEGIN
 90
        0
 91
        1
 62
     0
 92
       -2
340
0
 93
        0
 40
0.045
309
GRIDFORMAT_END
309
TABLEFORMAT_END
  1
CELLSTYLE_BEGIN
 90
        3
 91
        2
300
_DATA
309
CELLSTYLE_END
  0
XRECORD
  5
754
102
{ACAD_REACTORS
330
66C
102
}
330
66C
100
AcDbXrecord
280
     1
102
ACAD_ROUNDTRIP_PRE2007_TABLESTYLE
 90
      512
 91
        0
  1

 92
      512
 93
        0
  2

 94
      512
 95
        0
  3

  0
XRECORD
  5
739
102
{ACAD_REACTORS
330
738
102
}
330
738
100
AcDbXrecord
280
     1
102
RTVSPropertyOp0
 70
     1
102
RTVSPropertyOp1
 70
     1
102
RTVSPropertyOp2
 70
     1
102
RTVSPropertyOp3
 70
     1
102
RTVSPropertyOp4
 70
     1
102
RTVSPropertyOp5
 70
     1
102
RTVSPropertyOp6
 70
     1
102
RTVSPropertyOp7
 70
     1
102
RTVSPropertyOp8
 70
     1
102
RTVSPropertyOp9
 70
     1
102
RTVSPropertyOp10
 70
     1
102
RTVSPropertyOp11
 70
     1
102
RTVSPropertyOp12
 70
     1
102
RTVSPropertyOp13
 70
     1
102
RTVSPropertyOp14
 70
     1
102
RTVSPropertyOp15
 70
     1
102
RTVSPropertyOp16
 70
     1
102
RTVSPropertyOp17
 70
     1
102
RTVSPropertyOp18
 70
     1
102
RTVSPropertyOp19
 70
     1
102
RTVSPropertyOp20
 70
     1
102
RTVSPropertyOp21
 70
     1
102
RTVSPropertyOp22
 70
     1
102
RTVSPropertyOp23
 70
     1
102
RTVSPropertyOp24
 70
     1
102
RTVSPropertyOp25
 70
     1
102
RTVSPropertyOp26
 70
     1
102
RTVSPropertyOp27
 70
     1
  0
XRECORD
  5
73D
102
{ACAD_REACTORS
330
73C
102
}
330
73C
100
AcDbXrecord
280
     1
102
RTVSPropertyOp0
 70
     1
102
RTVSPropertyOp1
 70
     1
102
RTVSPropertyOp2
 70
     1
102
RTVSPropertyOp3
 70
     1
102
RTVSPropertyOp4
 70
     1
102
RTVSPropertyOp5
 70
     1
102
RTVSPropertyOp6
 70
     1
102
RTVSPropertyOp7
 70
     1
102
RTVSPropertyOp8
 70
     1
102
RTVSPropertyOp9
 70
     1
102
RTVSPropertyOp10
 70
     1
102
RTVSPropertyOp11
 70
     1
102
RTVSPropertyOp12
 70
     1
102
RTVSPropertyOp13
 70
     1
102
RTVSPropertyOp14
 70
     1
102
RTVSPropertyOp15
 70
     1
102
RTVSPropertyOp16
 70
     1
102
RTVSPropertyOp17
 70
     1
102
RTVSPropertyOp18
 70
     1
102
RTVSPropertyOp19
 70
     1
102
RTVSPropertyOp20
 70
     1
102
RTVSPropertyOp21
 70
     1
102
RTVSPropertyOp22
 70
     1
102
RTVSPropertyOp23
 70
     1
102
RTVSPropertyOp24
 70
     1
102
RTVSPropertyOp25
 70
     1
102
RTVSPropertyOp26
 70
     1
102
RTVSPropertyOp27
 70
     1
  0
XRECORD
  5
73B
102
{ACAD_REACTORS
330
73A
102
}
330
73A
100
AcDbXrecord
280
     1
102
RTVSPropertyOp0
 70
     1
102
RTVSPropertyOp1
 70
     1
102
RTVSPropertyOp2
 70
     1
102
RTVSPropertyOp3
 70
     1
102
RTVSPropertyOp4
 70
     1
102
RTVSPropertyOp5
 70
     1
102
RTVSPropertyOp6
 70
     1
102
RTVSPropertyOp7
 70
     1
102
RTVSPropertyOp8
 70
     1
102
RTVSPropertyOp9
 70
     1
102
RTVSPropertyOp10
 70
     1
102
RTVSPropertyOp11
 70
     1
102
RTVSPropertyOp12
 70
     1
102
RTVSPropertyOp13
 70
     1
102
RTVSPropertyOp14
 70
     1
102
RTVSPropertyOp15
 70
     1
102
RTVSPropertyOp16
 70
     1
102
RTVSPropertyOp17
 70
     1
102
RTVSPropertyOp18
 70
     1
102
RTVSPropertyOp19
 70
     1
102
RTVSPropertyOp20
 70
     1
102
RTVSPropertyOp21
 70
     1
102
RTVSPropertyOp22
 70
     1
102
RTVSPropertyOp23
 70
     1
102
RTVSPropertyOp24
 70
     1
102
RTVSPropertyOp25
 70
     1
102
RTVSPropertyOp26
 70
     1
102
RTVSPropertyOp27
 70
     1
  0
XRECORD
  5
737
102
{ACAD_REACTORS
330
736
102
}
330
736
100
AcDbXrecord
280
     1
102
RTVSPropertyOp0
 70
     1
102
RTVSPropertyOp1
 70
     1
102
RTVSPropertyOp2
 70
     1
102
RTVSPropertyOp3
 70
     1
102
RTVSPropertyOp4
 70
     1
102
RTVSPropertyOp5
 70
     1
102
RTVSPropertyOp6
 70
     1
102
RTVSPropertyOp7
 70
     1
102
RTVSPropertyOp8
 70
     1
102
RTVSPropertyOp9
 70
     1
102
RTVSPropertyOp10
 70
     1
102
RTVSPropertyOp11
 70
     1
102
RTVSPropertyOp12
 70
     1
102
RTVSPropertyOp13
 70
     1
102
RTVSPropertyOp14
 70
     1
102
RTVSPropertyOp15
 70
     1
102
RTVSPropertyOp16
 70
     1
102
RTVSPropertyOp17
 70
     1
102
RTVSPropertyOp18
 70
     1
102
RTVSPropertyOp19
 70
     1
102
RTVSPropertyOp20
 70
     1
102
RTVSPropertyOp21
 70
     1
102
RTVSPropertyOp22
 70
     1
102
RTVSPropertyOp23
 70
     1
102
RTVSPropertyOp24
 70
     1
102
RTVSPropertyOp25
 70
     1
102
RTVSPropertyOp26
 70
     1
102
RTVSPropertyOp27
 70
     1
  0
XRECORD
  5
745
102
{ACAD_REACTORS
330
744
102
}
330
744
100
AcDbXrecord
280
     1
102
RTVSPropertyOp0
 70
     1
102
RTVSPropertyOp1
 70
     1
102
RTVSPropertyOp2
 70
     1
102
RTVSPropertyOp3
 70
     1
102
RTVSPropertyOp4
 70
     1
102
RTVSPropertyOp5
 70
     1
102
RTVSPropertyOp6
 70
     1
102
RTVSPropertyOp7
 70
     1
102
RTVSPropertyOp8
 70
     1
102
RTVSPropertyOp9
 70
     1
102
RTVSPropertyOp10
 70
     1
102
RTVSPropertyOp11
 70
     1
102
RTVSPropertyOp12
 70
     1
102
RTVSPropertyOp13
 70
     1
102
RTVSPropertyOp14
 70
     1
102
RTVSPropertyOp15
 70
     1
102
RTVSPropertyOp16
 70
     1
102
RTVSPropertyOp17
 70
     1
102
RTVSPropertyOp18
 70
     1
102
RTVSPropertyOp19
 70
     1
102
RTVSPropertyOp20
 70
     1
102
RTVSPropertyOp21
 70
     1
102
RTVSPropertyOp22
 70
     1
102
RTVSPropertyOp23
 70
     1
102
RTVSPropertyOp24
 70
     1
102
RTVSPropertyOp25
 70
     1
102
RTVSPropertyOp26
 70
     1
102
RTVSPropertyOp27
 70
     1
  0
XRECORD
  5
74D
102
{ACAD_REACTORS
330
74C
102
}
330
74C
100
AcDbXrecord
280
     1
102
RTVSPropertyOp0
 70
     1
102
RTVSPropertyOp1
 70
     1
102
RTVSPropertyOp2
 70
     1
102
RTVSPropertyOp3
 70
     1
102
RTVSPropertyOp4
 70
     1
102
RTVSPropertyOp5
 70
     1
102
RTVSPropertyOp6
 70
     1
102
RTVSPropertyOp7
 70
     1
102
RTVSPropertyOp8
 70
     1
102
RTVSPropertyOp9
 70
     1
102
RTVSPropertyOp10
 70
     1
102
RTVSPropertyOp11
 70
     1
102
RTVSPropertyOp12
 70
     1
102
RTVSPropertyOp13
 70
     1
102
RTVSPropertyOp14
 70
     1
102
RTVSPropertyOp15
 70
     1
102
RTVSPropertyOp16
 70
     1
102
RTVSPropertyOp17
 70
     1
102
RTVSPropertyOp18
 70
     1
102
RTVSPropertyOp19
 70
     1
102
RTVSPropertyOp20
 70
     1
102
RTVSPropertyOp21
 70
     1
102
RTVSPropertyOp22
 70
     1
102
RTVSPropertyOp23
 70
     1
102
RTVSPropertyOp24
 70
     1
102
RTVSPropertyOp25
 70
     1
102
RTVSPropertyOp26
 70
     1
102
RTVSPropertyOp27
 70
     1
  0
XRECORD
  5
73F
102
{ACAD_REACTORS
330
73E
102
}
330
73E
100
AcDbXrecord
280
     1
102
RTVSPropertyOp0
 70
     1
102
RTVSPropertyOp1
 70
     1
102
RTVSPropertyOp2
 70
     1
102
RTVSPropertyOp3
 70
     1
102
RTVSPropertyOp4
 70
     1
102
RTVSPropertyOp5
 70
     1
102
RTVSPropertyOp6
 70
     1
102
RTVSPropertyOp7
 70
     1
102
RTVSPropertyOp8
 70
     1
102
RTVSPropertyOp9
 70
     1
102
RTVSPropertyOp10
 70
     1
102
RTVSPropertyOp11
 70
     1
102
RTVSPropertyOp12
 70
     1
102
RTVSPropertyOp13
 70
     1
102
RTVSPropertyOp14
 70
     1
102
RTVSPropertyOp15
 70
     1
102
RTVSPropertyOp16
 70
     1
102
RTVSPropertyOp17
 70
     1
102
RTVSPropertyOp18
 70
     1
102
RTVSPropertyOp19
 70
     1
102
RTVSPropertyOp20
 70
     1
102
RTVSPropertyOp21
 70
     1
102
RTVSPropertyOp22
 70
     1
102
RTVSPropertyOp23
 70
     1
102
RTVSPropertyOp24
 70
     1
102
RTVSPropertyOp25
 70
     1
102
RTVSPropertyOp26
 70
     1
102
RTVSPropertyOp27
 70
     1
  0
XRECORD
  5
743
102
{ACAD_REACTORS
330
742
102
}
330
742
100
AcDbXrecord
280
     1
102
RTVSPropertyOp0
 70
     1
102
RTVSPropertyOp1
 70
     1
102
RTVSPropertyOp2
 70
     1
102
RTVSPropertyOp3
 70
     1
102
RTVSPropertyOp4
 70
     1
102
RTVSPropertyOp5
 70
     1
102
RTVSPropertyOp6
 70
     1
102
RTVSPropertyOp7
 70
     1
102
RTVSPropertyOp8
 70
     1
102
RTVSPropertyOp9
 70
     1
102
RTVSPropertyOp10
 70
     1
102
RTVSPropertyOp11
 70
     1
102
RTVSPropertyOp12
 70
     1
102
RTVSPropertyOp13
 70
     1
102
RTVSPropertyOp14
 70
     1
102
RTVSPropertyOp15
 70
     1
102
RTVSPropertyOp16
 70
     1
102
RTVSPropertyOp17
 70
     1
102
RTVSPropertyOp18
 70
     1
102
RTVSPropertyOp19
 70
     1
102
RTVSPropertyOp20
 70
     1
102
RTVSPropertyOp21
 70
     1
102
RTVSPropertyOp22
 70
     1
102
RTVSPropertyOp23
 70
     1
102
RTVSPropertyOp24
 70
     1
102
RTVSPropertyOp25
 70
     1
102
RTVSPropertyOp26
 70
     1
102
RTVSPropertyOp27
 70
     1
  0
XRECORD
  5
753
102
{ACAD_REACTORS
330
752
102
}
330
752
100
AcDbXrecord
280
     1
102
RTVSPropertyOp0
 70
     0
102
RTVSPropertyOp1
 70
     0
102
RTVSPropertyOp2
 70
     0
102
RTVSPropertyOp3
 70
     0
102
RTVSPropertyOp4
 70
     0
102
RTVSPropertyOp5
 70
     0
102
RTVSPropertyOp6
 70
     0
102
RTVSPropertyOp7
 70
     0
102
RTVSPropertyOp8
 70
     0
102
RTVSPropertyOp9
 70
     0
102
RTVSPropertyOp10
 70
     0
102
RTVSPropertyOp11
 70
     0
102
RTVSPropertyOp12
 70
     0
102
RTVSPropertyOp13
 70
     0
102
RTVSPropertyOp14
 70
     2
102
RTVSPropertyOp15
 70
     0
102
RTVSPropertyOp16
 70
     0
102
RTVSPropertyOp17
 70
     0
102
RTVSPropertyOp18
 70
     0
102
RTVSPropertyOp19
 70
     0
102
RTVSPropertyOp20
 70
     0
102
RTVSPropertyOp21
 70
     0
102
RTVSPropertyOp22
 70
     0
102
RTVSPropertyOp23
 70
     0
102
RTVSPropertyOp24
 70
     0
102
RTVSPropertyOp25
 70
     0
102
RTVSPropertyOp26
 70
     0
102
RTVSPropertyOp27
 70
     0
  0
XRECORD
  5
74B
102
{ACAD_REACTORS
330
74A
102
}
330
74A
100
AcDbXrecord
280
     1
102
RTVSPropertyOp0
 70
     1
102
RTVSPropertyOp1
 70
     1
102
RTVSPropertyOp2
 70
     1
102
RTVSPropertyOp3
 70
     1
102
RTVSPropertyOp4
 70
     1
102
RTVSPropertyOp5
 70
     1
102
RTVSPropertyOp6
 70
     1
102
RTVSPropertyOp7
 70
     1
102
RTVSPropertyOp8
 70
     1
102
RTVSPropertyOp9
 70
     1
102
RTVSPropertyOp10
 70
     1
102
RTVSPropertyOp11
 70
     1
102
RTVSPropertyOp12
 70
     1
102
RTVSPropertyOp13
 70
     1
102
RTVSPropertyOp14
 70
     1
102
RTVSPropertyOp15
 70
     1
102
RTVSPropertyOp16
 70
     1
102
RTVSPropertyOp17
 70
     1
102
RTVSPropertyOp18
 70
     1
102
RTVSPropertyOp19
 70
     1
102
RTVSPropertyOp20
 70
     1
102
RTVSPropertyOp21
 70
     1
102
RTVSPropertyOp22
 70
     1
102
RTVSPropertyOp23
 70
     1
102
RTVSPropertyOp24
 70
     1
102
RTVSPropertyOp25
 70
     1
102
RTVSPropertyOp26
 70
     1
102
RTVSPropertyOp27
 70
     1
  0
XRECORD
  5
72F
102
{ACAD_REACTORS
330
72E
102
}
330
72E
100
AcDbXrecord
280
     1
102
RTVSPropertyOp0
 70
     1
102
RTVSPropertyOp1
 70
     1
102
RTVSPropertyOp2
 70
     1
102
RTVSPropertyOp3
 70
     1
102
RTVSPropertyOp4
 70
     1
102
RTVSPropertyOp5
 70
     1
102
RTVSPropertyOp6
 70
     1
102
RTVSPropertyOp7
 70
     1
102
RTVSPropertyOp8
 70
     1
102
RTVSPropertyOp9
 70
     1
102
RTVSPropertyOp10
 70
     1
102
RTVSPropertyOp11
 70
     1
102
RTVSPropertyOp12
 70
     1
102
RTVSPropertyOp13
 70
     1
102
RTVSPropertyOp14
 70
     1
102
RTVSPropertyOp15
 70
     1
102
RTVSPropertyOp16
 70
     1
102
RTVSPropertyOp17
 70
     1
102
RTVSPropertyOp18
 70
     1
102
RTVSPropertyOp19
 70
     1
102
RTVSPropertyOp20
 70
     1
102
RTVSPropertyOp21
 70
     1
102
RTVSPropertyOp22
 70
     1
102
RTVSPropertyOp23
 70
     1
102
RTVSPropertyOp24
 70
     1
102
RTVSPropertyOp25
 70
     1
102
RTVSPropertyOp26
 70
     1
102
RTVSPropertyOp27
 70
     1
  0
XRECORD
  5
731
102
{ACAD_REACTORS
330
730
102
}
330
730
100
AcDbXrecord
280
     1
102
RTVSPropertyOp0
 70
     1
102
RTVSPropertyOp1
 70
     1
102
RTVSPropertyOp2
 70
     1
102
RTVSPropertyOp3
 70
     1
102
RTVSPropertyOp4
 70
     1
102
RTVSPropertyOp5
 70
     1
102
RTVSPropertyOp6
 70
     1
102
RTVSPropertyOp7
 70
     1
102
RTVSPropertyOp8
 70
     1
102
RTVSPropertyOp9
 70
     1
102
RTVSPropertyOp10
 70
     1
102
RTVSPropertyOp11
 70
     1
102
RTVSPropertyOp12
 70
     1
102
RTVSPropertyOp13
 70
     1
102
RTVSPropertyOp14
 70
     1
102
RTVSPropertyOp15
 70
     1
102
RTVSPropertyOp16
 70
     1
102
RTVSPropertyOp17
 70
     1
102
RTVSPropertyOp18
 70
     1
102
RTVSPropertyOp19
 70
     1
102
RTVSPropertyOp20
 70
     1
102
RTVSPropertyOp21
 70
     1
102
RTVSPropertyOp22
 70
     1
102
RTVSPropertyOp23
 70
     1
102
RTVSPropertyOp24
 70
     1
102
RTVSPropertyOp25
 70
     1
102
RTVSPropertyOp26
 70
     1
102
RTVSPropertyOp27
 70
     1
  0
XRECORD
  5
733
102
{ACAD_REACTORS
330
732
102
}
330
732
100
AcDbXrecord
280
     1
102
RTVSPropertyOp0
 70
     1
102
RTVSPropertyOp1
 70
     1
102
RTVSPropertyOp2
 70
     1
102
RTVSPropertyOp3
 70
     1
102
RTVSPropertyOp4
 70
     1
102
RTVSPropertyOp5
 70
     1
102
RTVSPropertyOp6
 70
     1
102
RTVSPropertyOp7
 70
     1
102
RTVSPropertyOp8
 70
     1
102
RTVSPropertyOp9
 70
     1
102
RTVSPropertyOp10
 70
     1
102
RTVSPropertyOp11
 70
     1
102
RTVSPropertyOp12
 70
     1
102
RTVSPropertyOp13
 70
     1
102
RTVSPropertyOp14
 70
     1
102
RTVSPropertyOp15
 70
     1
102
RTVSPropertyOp16
 70
     1
102
RTVSPropertyOp17
 70
     1
102
RTVSPropertyOp18
 70
     1
102
RTVSPropertyOp19
 70
     1
102
RTVSPropertyOp20
 70
     1
102
RTVSPropertyOp21
 70
     1
102
RTVSPropertyOp22
 70
     1
102
RTVSPropertyOp23
 70
     1
102
RTVSPropertyOp24
 70
     1
102
RTVSPropertyOp25
 70
     1
102
RTVSPropertyOp26
 70
     1
102
RTVSPropertyOp27
 70
     1
  0
XRECORD
  5
735
102
{ACAD_REACTORS
330
734
102
}
330
734
100
AcDbXrecord
280
     1
102
RTVSPropertyOp0
 70
     1
102
RTVSPropertyOp1
 70
     1
102
RTVSPropertyOp2
 70
     1
102
RTVSPropertyOp3
 70
     1
102
RTVSPropertyOp4
 70
     1
102
RTVSPropertyOp5
 70
     1
102
RTVSPropertyOp6
 70
     1
102
RTVSPropertyOp7
 70
     1
102
RTVSPropertyOp8
 70
     1
102
RTVSPropertyOp9
 70
     1
102
RTVSPropertyOp10
 70
     1
102
RTVSPropertyOp11
 70
     1
102
RTVSPropertyOp12
 70
     1
102
RTVSPropertyOp13
 70
     1
102
RTVSPropertyOp14
 70
     1
102
RTVSPropertyOp15
 70
     1
102
RTVSPropertyOp16
 70
     1
102
RTVSPropertyOp17
 70
     1
102
RTVSPropertyOp18
 70
     1
102
RTVSPropertyOp19
 70
     1
102
RTVSPropertyOp20
 70
     1
102
RTVSPropertyOp21
 70
     1
102
RTVSPropertyOp22
 70
     1
102
RTVSPropertyOp23
 70
     1
102
RTVSPropertyOp24
 70
     1
102
RTVSPropertyOp25
 70
     1
102
RTVSPropertyOp26
 70
     1
102
RTVSPropertyOp27
 70
     1
  0
XRECORD
  5
74F
102
{ACAD_REACTORS
330
74E
102
}
330
74E
100
AcDbXrecord
280
     1
102
RTVSPropertyOp0
 70
     0
102
RTVSPropertyOp1
 70
     0
102
RTVSPropertyOp2
 70
     0
102
RTVSPropertyOp3
 70
     0
102
RTVSPropertyOp4
 70
     0
102
RTVSPropertyOp5
 70
     0
102
RTVSPropertyOp6
 70
     0
102
RTVSPropertyOp7
 70
     0
102
RTVSPropertyOp8
 70
     0
102
RTVSPropertyOp9
 70
     0
102
RTVSPropertyOp10
 70
     0
102
RTVSPropertyOp11
 70
     0
102
RTVSPropertyOp12
 70
     0
102
RTVSPropertyOp13
 70
     0
102
RTVSPropertyOp14
 70
     2
102
RTVSPropertyOp15
 70
     0
102
RTVSPropertyOp16
 70
     0
102
RTVSPropertyOp17
 70
     0
102
RTVSPropertyOp18
 70
     0
102
RTVSPropertyOp19
 70
     0
102
RTVSPropertyOp20
 70
     0
102
RTVSPropertyOp21
 70
     0
102
RTVSPropertyOp22
 70
     0
102
RTVSPropertyOp23
 70
     0
102
RTVSPropertyOp24
 70
     0
102
RTVSPropertyOp25
 70
     0
102
RTVSPropertyOp26
 70
     0
102
RTVSPropertyOp27
 70
     0
  0
XRECORD
  5
749
102
{ACAD_REACTORS
330
748
102
}
330
748
100
AcDbXrecord
280
     1
102
RTVSPropertyOp0
 70
     1
102
RTVSPropertyOp1
 70
     1
102
RTVSPropertyOp2
 70
     1
102
RTVSPropertyOp3
 70
     1
102
RTVSPropertyOp4
 70
     1
102
RTVSPropertyOp5
 70
     1
102
RTVSPropertyOp6
 70
     1
102
RTVSPropertyOp7
 70
     1
102
RTVSPropertyOp8
 70
     1
102
RTVSPropertyOp9
 70
     1
102
RTVSPropertyOp10
 70
     1
102
RTVSPropertyOp11
 70
     1
102
RTVSPropertyOp12
 70
     1
102
RTVSPropertyOp13
 70
     1
102
RTVSPropertyOp14
 70
     1
102
RTVSPropertyOp15
 70
     1
102
RTVSPropertyOp16
 70
     1
102
RTVSPropertyOp17
 70
     1
102
RTVSPropertyOp18
 70
     1
102
RTVSPropertyOp19
 70
     1
102
RTVSPropertyOp20
 70
     1
102
RTVSPropertyOp21
 70
     1
102
RTVSPropertyOp22
 70
     1
102
RTVSPropertyOp23
 70
     1
102
RTVSPropertyOp24
 70
     1
102
RTVSPropertyOp25
 70
     1
102
RTVSPropertyOp26
 70
     1
102
RTVSPropertyOp27
 70
     1
  0
XRECORD
  5
751
102
{ACAD_REACTORS
330
750
102
}
330
750
100
AcDbXrecord
280
     1
102
RTVSPropertyOp0
 70
     0
102
RTVSPropertyOp1
 70
     0
102
RTVSPropertyOp2
 70
     0
102
RTVSPropertyOp3
 70
     0
102
RTVSPropertyOp4
 70
     0
102
RTVSPropertyOp5
 70
     0
102
RTVSPropertyOp6
 70
     0
102
RTVSPropertyOp7
 70
     0
102
RTVSPropertyOp8
 70
     0
102
RTVSPropertyOp9
 70
     0
102
RTVSPropertyOp10
 70
     0
102
RTVSPropertyOp11
 70
     0
102
RTVSPropertyOp12
 70
     0
102
RTVSPropertyOp13
 70
     0
102
RTVSPropertyOp14
 70
     2
102
RTVSPropertyOp15
 70
     0
102
RTVSPropertyOp16
 70
     0
102
RTVSPropertyOp17
 70
     0
102
RTVSPropertyOp18
 70
     0
102
RTVSPropertyOp19
 70
     0
102
RTVSPropertyOp20
 70
     0
102
RTVSPropertyOp21
 70
     0
102
RTVSPropertyOp22
 70
     0
102
RTVSPropertyOp23
 70
     0
102
RTVSPropertyOp24
 70
     0
102
RTVSPropertyOp25
 70
     0
102
RTVSPropertyOp26
 70
     0
102
RTVSPropertyOp27
 70
     0
  0
XRECORD
  5
741
102
{ACAD_REACTORS
330
740
102
}
330
740
100
AcDbXrecord
280
     1
102
RTVSPropertyOp0
 70
     1
102
RTVSPropertyOp1
 70
     1
102
RTVSPropertyOp2
 70
     1
102
RTVSPropertyOp3
 70
     1
102
RTVSPropertyOp4
 70
     1
102
RTVSPropertyOp5
 70
     1
102
RTVSPropertyOp6
 70
     1
102
RTVSPropertyOp7
 70
     1
102
RTVSPropertyOp8
 70
     1
102
RTVSPropertyOp9
 70
     1
102
RTVSPropertyOp10
 70
     1
102
RTVSPropertyOp11
 70
     1
102
RTVSPropertyOp12
 70
     1
102
RTVSPropertyOp13
 70
     1
102
RTVSPropertyOp14
 70
     1
102
RTVSPropertyOp15
 70
     1
102
RTVSPropertyOp16
 70
     1
102
RTVSPropertyOp17
 70
     1
102
RTVSPropertyOp18
 70
     1
102
RTVSPropertyOp19
 70
     1
102
RTVSPropertyOp20
 70
     1
102
RTVSPropertyOp21
 70
     1
102
RTVSPropertyOp22
 70
     1
102
RTVSPropertyOp23
 70
     1
102
RTVSPropertyOp24
 70
     1
102
RTVSPropertyOp25
 70
     1
102
RTVSPropertyOp26
 70
     1
102
RTVSPropertyOp27
 70
     1
  0
XRECORD
  5
747
102
{ACAD_REACTORS
330
746
102
}
330
746
100
AcDbXrecord
280
     1
102
RTVSPropertyOp0
 70
     1
102
RTVSPropertyOp1
 70
     1
102
RTVSPropertyOp2
 70
     1
102
RTVSPropertyOp3
 70
     1
102
RTVSPropertyOp4
 70
     1
102
RTVSPropertyOp5
 70
     1
102
RTVSPropertyOp6
 70
     1
102
RTVSPropertyOp7
 70
     1
102
RTVSPropertyOp8
 70
     1
102
RTVSPropertyOp9
 70
     1
102
RTVSPropertyOp10
 70
     1
102
RTVSPropertyOp11
 70
     1
102
RTVSPropertyOp12
 70
     1
102
RTVSPropertyOp13
 70
     1
102
RTVSPropertyOp14
 70
     1
102
RTVSPropertyOp15
 70
     1
102
RTVSPropertyOp16
 70
     1
102
RTVSPropertyOp17
 70
     1
102
RTVSPropertyOp18
 70
     1
102
RTVSPropertyOp19
 70
     1
102
RTVSPropertyOp20
 70
     1
102
RTVSPropertyOp21
 70
     1
102
RTVSPropertyOp22
 70
     1
102
RTVSPropertyOp23
 70
     1
102
RTVSPropertyOp24
 70
     1
102
RTVSPropertyOp25
 70
     1
102
RTVSPropertyOp26
 70
     1
102
RTVSPropertyOp27
 70
     1
  0
DICTIONARY
  5
758
330
5B5
100
AcDbDictionary
280
     1
281
     1
  3
ACAD_XREC_ROUNDTRIP
360
759
  0
XRECORD
  5
759
102
{ACAD_REACTORS
330
758
102
}
330
758
100
AcDbXrecord
280
     1
102
SHADEPLOT
 70
     0
102
SHADEPLOTRESLEVEL
 70
     2
102
SHADEPLOTCUSTOMDPI
 70
   300
  0
ENDSEC
  0
EOF
