  0
SECTION
  2
HEADER
  9
$ACADVER
  1
AC1009
999
I-DEAS Drafting Master Series 7m1 Not Encoded
  9
$EXTMIN
 10
0.0
 20
0.0
  9
$EXTMAX
 10
4.8E+001
 20
2.425E+001
  9
$TEXTSIZE
 40
1.25E-001
  9
$LTSCALE
 40
1.0
  9
$CLAYER
  8
1
  9
$CECOLOR
 62
1
  9
$DIMASZ
 40
1.25E-001
  9
$DIMEXO
 40
6.25E-002
  9
$DIMDLI
 40
2.5E-001
  9
$DIMEXE
 40
1.25E-001
  9
$DIMTP
 40
5.0E-003
  9
$DIMTM
 40
-5.0E-003
  9
$DIMTXT
 40
1.25E-001
  9
$DIMLIM
 70
0
  9
$DIMTIH
 70
1
  9
$DIMTOH
 70
1
  9
$DIMSE1
 70
0
  9
$DIMSE2
 70
0
  9
$DIMTAD
 70
0
  9
$DIMASO
 70
1
  9
$DIMALT
 70
0
  9
$DIMALTD
 70
0
  9
$DIMTOFL
 70
1
  9
$DIMTIX
 70
0
  9
$DIMSAH
 70
0
  9
$DIMTFAC
 40
1.0
  9
$DIMGAP
 40
6.25E-002
  9
$LUNITS
 70
2
  9
$LUPREC
 70
3
  9
$FILLETRAD
 40
5.0E-001
  9
$AUNITS
 70
0
  9
$AUPREC
 70
1
  9
$CHAMFERA
 40
2.5E-001
  9
$CHAMFERB
 40
2.5E-001
  9
$ANGBASE
 50
0.0
  9
$ANGDIR
 70
0
  9
$PDMODE
 70
2
  9
$PDSIZE
 40
-1.0E-002
  9
$SPLINETYPE
 70
6
  0
ENDSEC
  0
SECTION
  2
TABLES
  0
TABLE
  2
LTYPE
 70
7
  0
LTYPE
  2
HIDDENNEW00
  3
_ 
 70
64
 72
65
 73
2
 40
1.875E-001
 49
1.25E-001
 49
-6.25E-002
  0
LTYPE
  2
HIDDENNEW01
  3
_ 
 70
64
 72
65
 73
2
 40
1.875E-001
 49
1.25E-001
 49
-6.25E-002
  0
LTYPE
  2
HIDDEN
  3
_ 
 70
64
 72
65
 73
2
 40
1.875E-001
 49
1.25E-001
 49
-6.25E-002
  0
LTYPE
  2
CENTERLINE
  3
_ 
 70
64
 72
65
 73
4
 40
1.25
 49
1.0
 49
-6.25E-002
 49
1.25E-001
 49
-6.25E-002
  0
LTYPE
  2
PHANTOM
  3
_ 
 70
64
 72
65
 73
6
 40
1.1875
 49
7.5E-001
 49
-6.25E-002
 49
1.25E-001
 49
-6.25E-002
 49
1.25E-001
 49
-6.25E-002
  0
LTYPE
  2
SHORT_DASH
  3
_ 
 70
64
 72
65
 73
2
 40
1.25E-001
 49
6.25E-002
 49
-6.25E-002
  0
LTYPE
  2
LONG_DASH
  3
_ 
 70
64
 72
65
 73
2
 40
3.75E-001
 49
1.875E-001
 49
-1.875E-001
  0
ENDTAB
  0
TABLE
  2
LAYER
 70
258
  0
LAYER
  2
1
 70
0
 62
7
  6
CONTINUOUS
  0
LAYER
  2
2
 70
0
 62
7
  6
CONTINUOUS
  0
LAYER
  2
3
 70
0
 62
7
  6
CONTINUOUS
  0
LAYER
  2
4
 70
0
 62
7
  6
CONTINUOUS
  0
LAYER
  2
5
 70
0
 62
7
  6
CONTINUOUS
  0
LAYER
  2
6
 70
0
 62
7
  6
CONTINUOUS
  0
LAYER
  2
7
 70
0
 62
7
  6
CONTINUOUS
  0
LAYER
  2
8
 70
0
 62
7
  6
CONTINUOUS
  0
LAYER
  2
9
 70
0
 62
7
  6
CONTINUOUS
  0
LAYER
  2
10
 70
0
 62
7
  6
CONTINUOUS
  0
LAYER
  2
11
 70
0
 62
7
  6
CONTINUOUS
  0
LAYER
  2
12
 70
0
 62
7
  6
CONTINUOUS
  0
LAYER
  2
13
 70
0
 62
7
  6
CONTINUOUS
  0
LAYER
  2
14
 70
0
 62
7
  6
CONTINUOUS
  0
LAYER
  2
15
 70
0
 62
7
  6
CONTINUOUS
  0
LAYER
  2
16
 70
0
 62
7
  6
CONTINUOUS
  0
LAYER
  2
17
 70
0
 62
7
  6
CONTINUOUS
  0
LAYER
  2
18
 70
0
 62
7
  6
CONTINUOUS
  0
LAYER
  2
19
 70
0
 62
7
  6
CONTINUOUS
  0
LAYER
  2
20
 70
0
 62
7
  6
CONTINUOUS
  0
LAYER
  2
21
 70
0
 62
7
  6
CONTINUOUS
  0
LAYER
  2
22
 70
0
 62
7
  6
CONTINUOUS
  0
LAYER
  2
23
 70
0
 62
7
  6
CONTINUOUS
  0
LAYER
  2
24
 70
0
 62
7
  6
CONTINUOUS
  0
LAYER
  2
25
 70
0
 62
7
  6
CONTINUOUS
  0
LAYER
  2
26
 70
0
 62
7
  6
CONTINUOUS
  0
LAYER
  2
27
 70
0
 62
7
  6
CONTINUOUS
  0
LAYER
  2
28
 70
0
 62
7
  6
CONTINUOUS
  0
LAYER
  2
29
 70
0
 62
7
  6
CONTINUOUS
  0
LAYER
  2
30
 70
0
 62
7
  6
CONTINUOUS
  0
LAYER
  2
31
 70
0
 62
7
  6
CONTINUOUS
  0
LAYER
  2
32
 70
0
 62
7
  6
CONTINUOUS
  0
LAYER
  2
33
 70
0
 62
7
  6
CONTINUOUS
  0
LAYER
  2
34
 70
0
 62
7
  6
CONTINUOUS
  0
LAYER
  2
35
 70
0
 62
7
  6
CONTINUOUS
  0
LAYER
  2
36
 70
0
 62
7
  6
CONTINUOUS
  0
LAYER
  2
37
 70
0
 62
7
  6
CONTINUOUS
  0
LAYER
  2
38
 70
0
 62
7
  6
CONTINUOUS
  0
LAYER
  2
39
 70
0
 62
7
  6
CONTINUOUS
  0
LAYER
  2
40
 70
0
 62
7
  6
CONTINUOUS
  0
LAYER
  2
41
 70
0
 62
7
  6
CONTINUOUS
  0
LAYER
  2
42
 70
0
 62
7
  6
CONTINUOUS
  0
LAYER
  2
43
 70
0
 62
7
  6
CONTINUOUS
  0
LAYER
  2
44
 70
0
 62
7
  6
CONTINUOUS
  0
LAYER
  2
45
 70
0
 62
7
  6
CONTINUOUS
  0
LAYER
  2
46
 70
0
 62
7
  6
CONTINUOUS
  0
LAYER
  2
47
 70
0
 62
7
  6
CONTINUOUS
  0
LAYER
  2
48
 70
0
 62
7
  6
CONTINUOUS
  0
LAYER
  2
49
 70
0
 62
7
  6
CONTINUOUS
  0
LAYER
  2
50
 70
0
 62
7
  6
CONTINUOUS
  0
LAYER
  2
51
 70
0
 62
7
  6
CONTINUOUS
  0
LAYER
  2
52
 70
0
 62
7
  6
CONTINUOUS
  0
LAYER
  2
53
 70
0
 62
7
  6
CONTINUOUS
  0
LAYER
  2
54
 70
0
 62
7
  6
CONTINUOUS
  0
LAYER
  2
55
 70
0
 62
7
  6
CONTINUOUS
  0
LAYER
  2
56
 70
0
 62
7
  6
CONTINUOUS
  0
LAYER
  2
57
 70
0
 62
7
  6
CONTINUOUS
  0
LAYER
  2
58
 70
0
 62
7
  6
CONTINUOUS
  0
LAYER
  2
59
 70
0
 62
7
  6
CONTINUOUS
  0
LAYER
  2
60
 70
0
 62
7
  6
CONTINUOUS
  0
LAYER
  2
61
 70
0
 62
7
  6
CONTINUOUS
  0
LAYER
  2
62
 70
0
 62
7
  6
CONTINUOUS
  0
LAYER
  2
63
 70
0
 62
7
  6
CONTINUOUS
  0
LAYER
  2
64
 70
0
 62
7
  6
CONTINUOUS
  0
LAYER
  2
65
 70
0
 62
7
  6
CONTINUOUS
  0
LAYER
  2
66
 70
0
 62
7
  6
CONTINUOUS
  0
LAYER
  2
67
 70
0
 62
7
  6
CONTINUOUS
  0
LAYER
  2
68
 70
0
 62
7
  6
CONTINUOUS
  0
LAYER
  2
69
 70
0
 62
7
  6
CONTINUOUS
  0
LAYER
  2
70
 70
0
 62
7
  6
CONTINUOUS
  0
LAYER
  2
71
 70
0
 62
7
  6
CONTINUOUS
  0
LAYER
  2
72
 70
0
 62
7
  6
CONTINUOUS
  0
LAYER
  2
73
 70
0
 62
7
  6
CONTINUOUS
  0
LAYER
  2
74
 70
0
 62
7
  6
CONTINUOUS
  0
LAYER
  2
75
 70
0
 62
7
  6
CONTINUOUS
  0
LAYER
  2
76
 70
0
 62
7
  6
CONTINUOUS
  0
LAYER
  2
77
 70
0
 62
7
  6
CONTINUOUS
  0
LAYER
  2
78
 70
0
 62
7
  6
CONTINUOUS
  0
LAYER
  2
79
 70
0
 62
7
  6
CONTINUOUS
  0
LAYER
  2
80
 70
0
 62
7
  6
CONTINUOUS
  0
LAYER
  2
81
 70
0
 62
7
  6
CONTINUOUS
  0
LAYER
  2
82
 70
0
 62
7
  6
CONTINUOUS
  0
LAYER
  2
83
 70
0
 62
7
  6
CONTINUOUS
  0
LAYER
  2
84
 70
0
 62
7
  6
CONTINUOUS
  0
LAYER
  2
85
 70
0
 62
7
  6
CONTINUOUS
  0
LAYER
  2
86
 70
0
 62
7
  6
CONTINUOUS
  0
LAYER
  2
87
 70
0
 62
7
  6
CONTINUOUS
  0
LAYER
  2
88
 70
0
 62
7
  6
CONTINUOUS
  0
LAYER
  2
89
 70
0
 62
7
  6
CONTINUOUS
  0
LAYER
  2
90
 70
0
 62
7
  6
CONTINUOUS
  0
LAYER
  2
91
 70
0
 62
7
  6
CONTINUOUS
  0
LAYER
  2
92
 70
0
 62
7
  6
CONTINUOUS
  0
LAYER
  2
93
 70
0
 62
7
  6
CONTINUOUS
  0
LAYER
  2
94
 70
0
 62
7
  6
CONTINUOUS
  0
LAYER
  2
95
 70
0
 62
7
  6
CONTINUOUS
  0
LAYER
  2
96
 70
0
 62
7
  6
CONTINUOUS
  0
LAYER
  2
97
 70
0
 62
7
  6
CONTINUOUS
  0
LAYER
  2
98
 70
0
 62
7
  6
CONTINUOUS
  0
LAYER
  2
99
 70
0
 62
7
  6
CONTINUOUS
  0
LAYER
  2
100
 70
0
 62
7
  6
CONTINUOUS
  0
LAYER
  2
101
 70
0
 62
7
  6
CONTINUOUS
  0
LAYER
  2
102
 70
0
 62
7
  6
CONTINUOUS
  0
LAYER
  2
103
 70
0
 62
7
  6
CONTINUOUS
  0
LAYER
  2
104
 70
0
 62
7
  6
CONTINUOUS
  0
LAYER
  2
105
 70
0
 62
7
  6
CONTINUOUS
  0
LAYER
  2
106
 70
0
 62
7
  6
CONTINUOUS
  0
LAYER
  2
107
 70
0
 62
7
  6
CONTINUOUS
  0
LAYER
  2
108
 70
0
 62
7
  6
CONTINUOUS
  0
LAYER
  2
109
 70
0
 62
7
  6
CONTINUOUS
  0
LAYER
  2
110
 70
0
 62
7
  6
CONTINUOUS
  0
LAYER
  2
111
 70
0
 62
7
  6
CONTINUOUS
  0
LAYER
  2
112
 70
0
 62
7
  6
CONTINUOUS
  0
LAYER
  2
113
 70
0
 62
7
  6
CONTINUOUS
  0
LAYER
  2
114
 70
0
 62
7
  6
CONTINUOUS
  0
LAYER
  2
115
 70
0
 62
7
  6
CONTINUOUS
  0
LAYER
  2
116
 70
0
 62
7
  6
CONTINUOUS
  0
LAYER
  2
117
 70
0
 62
7
  6
CONTINUOUS
  0
LAYER
  2
118
 70
0
 62
7
  6
CONTINUOUS
  0
LAYER
  2
119
 70
0
 62
7
  6
CONTINUOUS
  0
LAYER
  2
120
 70
0
 62
7
  6
CONTINUOUS
  0
LAYER
  2
121
 70
0
 62
7
  6
CONTINUOUS
  0
LAYER
  2
122
 70
0
 62
7
  6
CONTINUOUS
  0
LAYER
  2
123
 70
0
 62
7
  6
CONTINUOUS
  0
LAYER
  2
124
 70
0
 62
7
  6
CONTINUOUS
  0
LAYER
  2
125
 70
0
 62
7
  6
CONTINUOUS
  0
LAYER
  2
126
 70
0
 62
7
  6
CONTINUOUS
  0
LAYER
  2
127
 70
0
 62
7
  6
CONTINUOUS
  0
LAYER
  2
128
 70
0
 62
7
  6
CONTINUOUS
  0
LAYER
  2
129
 70
0
 62
7
  6
CONTINUOUS
  0
LAYER
  2
130
 70
0
 62
7
  6
CONTINUOUS
  0
LAYER
  2
131
 70
0
 62
7
  6
CONTINUOUS
  0
LAYER
  2
132
 70
0
 62
7
  6
CONTINUOUS
  0
LAYER
  2
133
 70
0
 62
7
  6
CONTINUOUS
  0
LAYER
  2
134
 70
0
 62
7
  6
CONTINUOUS
  0
LAYER
  2
135
 70
0
 62
7
  6
CONTINUOUS
  0
LAYER
  2
136
 70
0
 62
7
  6
CONTINUOUS
  0
LAYER
  2
137
 70
0
 62
7
  6
CONTINUOUS
  0
LAYER
  2
138
 70
0
 62
7
  6
CONTINUOUS
  0
LAYER
  2
139
 70
0
 62
7
  6
CONTINUOUS
  0
LAYER
  2
140
 70
0
 62
7
  6
CONTINUOUS
  0
LAYER
  2
141
 70
0
 62
7
  6
CONTINUOUS
  0
LAYER
  2
142
 70
0
 62
7
  6
CONTINUOUS
  0
LAYER
  2
143
 70
0
 62
7
  6
CONTINUOUS
  0
LAYER
  2
144
 70
0
 62
7
  6
CONTINUOUS
  0
LAYER
  2
145
 70
0
 62
7
  6
CONTINUOUS
  0
LAYER
  2
146
 70
0
 62
7
  6
CONTINUOUS
  0
LAYER
  2
147
 70
0
 62
7
  6
CONTINUOUS
  0
LAYER
  2
148
 70
0
 62
7
  6
CONTINUOUS
  0
LAYER
  2
149
 70
0
 62
7
  6
CONTINUOUS
  0
LAYER
  2
150
 70
0
 62
7
  6
CONTINUOUS
  0
LAYER
  2
151
 70
0
 62
7
  6
CONTINUOUS
  0
LAYER
  2
152
 70
0
 62
7
  6
CONTINUOUS
  0
LAYER
  2
153
 70
0
 62
7
  6
CONTINUOUS
  0
LAYER
  2
154
 70
0
 62
7
  6
CONTINUOUS
  0
LAYER
  2
155
 70
0
 62
7
  6
CONTINUOUS
  0
LAYER
  2
156
 70
0
 62
7
  6
CONTINUOUS
  0
LAYER
  2
157
 70
0
 62
7
  6
CONTINUOUS
  0
LAYER
  2
158
 70
0
 62
7
  6
CONTINUOUS
  0
LAYER
  2
159
 70
0
 62
7
  6
CONTINUOUS
  0
LAYER
  2
160
 70
0
 62
7
  6
CONTINUOUS
  0
LAYER
  2
161
 70
0
 62
7
  6
CONTINUOUS
  0
LAYER
  2
162
 70
0
 62
7
  6
CONTINUOUS
  0
LAYER
  2
163
 70
0
 62
7
  6
CONTINUOUS
  0
LAYER
  2
164
 70
0
 62
7
  6
CONTINUOUS
  0
LAYER
  2
165
 70
0
 62
7
  6
CONTINUOUS
  0
LAYER
  2
166
 70
0
 62
7
  6
CONTINUOUS
  0
LAYER
  2
167
 70
0
 62
7
  6
CONTINUOUS
  0
LAYER
  2
168
 70
0
 62
7
  6
CONTINUOUS
  0
LAYER
  2
169
 70
0
 62
7
  6
CONTINUOUS
  0
LAYER
  2
170
 70
0
 62
7
  6
CONTINUOUS
  0
LAYER
  2
171
 70
0
 62
7
  6
CONTINUOUS
  0
LAYER
  2
172
 70
0
 62
7
  6
CONTINUOUS
  0
LAYER
  2
173
 70
0
 62
7
  6
CONTINUOUS
  0
LAYER
  2
174
 70
0
 62
7
  6
CONTINUOUS
  0
LAYER
  2
175
 70
0
 62
7
  6
CONTINUOUS
  0
LAYER
  2
176
 70
0
 62
7
  6
CONTINUOUS
  0
LAYER
  2
177
 70
0
 62
7
  6
CONTINUOUS
  0
LAYER
  2
178
 70
0
 62
7
  6
CONTINUOUS
  0
LAYER
  2
179
 70
0
 62
7
  6
CONTINUOUS
  0
LAYER
  2
180
 70
0
 62
7
  6
CONTINUOUS
  0
LAYER
  2
Drafting_Hidden_Entities
 70
1
 62
7
  6
CONTINUOUS
  0
ENDTAB
  0
TABLE
  2
STYLE
 70
1
  0
STYLE
  2
STANDARD
 70
64
 40
0.0
 41
1.0
 50
0.0
 71
0
 42
1.0
  3
monotxt.shx
  4
bigfont.shx
  0
ENDTAB
  0
TABLE
  2
VIEW
 70
0
  0
ENDTAB
  0
TABLE
  2
DIMSTYLE
 70
4
  0
DIMSTYLE
  2
DSTYLE1
 70
0
  3

  4

  5

  6

  7

 40
1.0
 41
7.5E-001
 42
1.25E-001
 43
3.8E-001
 44
2.5E-001
 45
1.0E-003
 46
0.0
 47
5.0E-003
 48
5.0E-003
 71
0
 72
0
 73
1
 74
1
 75
0
 76
1
 77
0
 78
7
140
3.75E-001
141
9.0E-002
142
0.0
143
1.0
144
1.0
145
0.0
146
1.0
147
6.25E-002
170
0
171
2
172
0
173
0
174
0
175
0
176
0
177
0
178
0
  0
DIMSTYLE
  2
DSTYLE2
 70
0
  3

  4

  5

  6

  7

 40
1.0
 41
7.5E-001
 42
1.25E-001
 43
3.8E-001
 44
6.25E-002
 45
1.0E-003
 46
0.0
 47
5.0E-003
 48
5.0E-003
 71
0
 72
0
 73
1
 74
1
 75
1
 76
1
 77
0
 78
7
140
3.75E-001
141
9.0E-002
142
0.0
143
1.0
144
1.0
145
0.0
146
1.0
147
6.25E-002
170
0
171
2
172
0
173
0
174
0
175
0
176
0
177
0
178
0
  0
DIMSTYLE
  2
DSTYLE3
 70
0
  3

  4

  5

  6

  7

 40
1.0
 41
7.5E-001
 42
6.25E-002
 43
3.8E-001
 44
1.25E-001
 45
1.0E-003
 46
0.0
 47
5.0E-003
 48
5.0E-003
 71
0
 72
0
 73
1
 74
1
 75
1
 76
0
 77
0
 78
7
140
6.25E-001
141
9.0E-002
142
0.0
143
2.54E+001
144
1.0
145
0.0
146
1.0
147
6.25E-002
170
0
171
2
172
0
173
0
174
0
175
0
176
0
177
0
178
0
  0
DIMSTYLE
  2
DSTYLE4
 70
0
  3

  4

  5

  6

  7

 40
1.0
 41
7.5E-001
 42
1.25E-001
 43
3.8E-001
 44
2.5E-001
 45
1.0E-003
 46
0.0
 47
5.0E-003
 48
5.0E-003
 71
0
 72
0
 73
1
 74
1
 75
0
 76
0
 77
0
 78
7
140
3.75E-001
141
9.0E-002
142
0.0
143
1.0
144
1.0
145
0.0
146
1.0
147
6.25E-002
170
0
171
2
172
0
173
0
174
0
175
0
176
0
177
0
178
0
  0
ENDTAB
  0
ENDSEC
  0
SECTION
  2
BLOCKS
  0
BLOCK
  2
*TX23
  3
*TX
 10
0.0
 20
0.0
 70
65
  0
TEXT
  8
1
  6
CONTINUOUS
 62
3
 10
0.0
 20
0.0
 40
3.0E-001
  1
MCS3232
  0
TEXT
  8
1
  6
CONTINUOUS
 62
3
 10
0.0
 20
-4.5E-001
 40
3.0E-001
  1
N21732
  0
ENDBLK
  0
BLOCK
  2
CLIPBRD_SYM1086099717_SYM
 10
0.0
 20
0.0
 70
0
  0
LINE
  8
1
  6
CONTINUOUS
 62
3
 10
0.0
 20
0.0
 11
0.0
 21
1.5
  0
POLYLINE
  8
1
  6
CONTINUOUS
 62
3
 66
1
 40
2.0E-002
 41
2.0E-002
 70
0
  0
VERTEX
  8
1
 42
0.0
 10
-4.6577667
 20
1.5
 70
0
  0
VERTEX
  8
1
 42
0.0
 10
4.6577667
 20
1.5
 70
0
  0
SEQEND
  0
POLYLINE
  8
1
  6
CONTINUOUS
 62
3
 66
1
 40
2.0E-002
 41
2.0E-002
 70
0
  0
VERTEX
  8
1
 42
0.0
 10
-4.6577667
 20
6.4393183
 70
0
  0
VERTEX
  8
1
 42
0.0
 10
-4.6577667
 20
1.5
 70
0
  0
SEQEND
  0
POLYLINE
  8
1
  6
CONTINUOUS
 62
3
 66
1
 40
2.0E-002
 41
2.0E-002
 70
0
  0
VERTEX
  8
1
 42
0.0
 10
-4.6577667
 20
6.4393183
 70
0
  0
VERTEX
  8
1
 42
0.0
 10
0.0
 20
8.2115884
 70
0
  0
SEQEND
  0
POLYLINE
  8
1
  6
CONTINUOUS
 62
3
 66
1
 40
2.0E-002
 41
2.0E-002
 70
0
  0
VERTEX
  8
1
 42
0.0
 10
0.0
 20
8.2115884
 70
0
  0
VERTEX
  8
1
 42
0.0
 10
4.6577667
 20
6.4393183
 70
0
  0
SEQEND
  0
POLYLINE
  8
1
  6
CONTINUOUS
 62
3
 66
1
 40
2.0E-002
 41
2.0E-002
 70
0
  0
VERTEX
  8
1
 42
0.0
 10
4.6577667
 20
1.5
 70
0
  0
VERTEX
  8
1
 42
0.0
 10
4.6577667
 20
6.4393183
 70
0
  0
SEQEND
  0
TEXT
  8
1
  6
CONTINUOUS
 62
3
 10
2.5880934
 20
6.9351501
 40
4.0E-001
  1
**IMPORTANT**
 51
-4.1943E-006
 72
1
 73
2
 11
-1.19066E-002
 21
6.7351501
  0
INSERT
  2
*TX41
  8
1
 10
1.03479E-002
 20
5.7375051
  0
POINT
  8
1
  6
CONTINUOUS
 62
1
 10
0.0
 20
0.0
  0
ENDBLK
  0
BLOCK
  2
*TX34
  3
*TX
 10
0.0
 20
0.0
 70
65
  0
TEXT
  8
126
  6
CONTINUOUS
 62
3
 10
9.0E-001
 20
5.0E-002
 40
1.0E-001
  1
24 LB COATED PAPER
 72
1
 73
2
 11
0.0
 21
0.0
  0
TEXT
  8
126
  6
CONTINUOUS
 62
3
 10
2.5E-001
 20
-1.0E-001
 40
1.0E-001
  1
WHITE
 72
1
 73
2
 11
0.0
 21
-1.5E-001
  0
ENDBLK
  0
BLOCK
  2
*TX35
  3
*TX
 10
0.0
 20
0.0
 70
65
  0
TEXT
  8
126
  6
CONTINUOUS
 62
3
 10
0.0
 20
0.0
 40
6.053E-002
  1
THIS PRINT IS THE PROPERTY OF ELKAY MANUFACTURING COMPANY
 41
1.0344828
  0
TEXT
  8
126
  6
CONTINUOUS
 62
3
 10
0.0
 20
-1.0553E-001
 40
6.053E-002
  1
AND IS LOANED SUBJECT TO RETURN UPON DEMAND AND UPON THE
 41
1.0344828
  0
TEXT
  8
126
  6
CONTINUOUS
 62
3
 10
0.0
 20
-2.1106E-001
 40
6.053E-002
  1
EXPRESS CONDITION THAT IT IS NOT TO BE USED DIRECTLY OR
 41
1.0344828
  0
TEXT
  8
126
  6
CONTINUOUS
 62
3
 10
0.0
 20
-3.1659E-001
 40
6.053E-002
  1
INDIRECTLY WITHOUT OUR PERMISSION FOR PURPOSES OTHER THAN
 41
1.0344828
  0
TEXT
  8
126
  6
CONTINUOUS
 62
3
 10
0.0
 20
-4.2212E-001
 40
6.053E-002
  1
THOSE FOR WHICH IT WAS FURNISHED.
 41
1.0344828
  0
ENDBLK
  0
BLOCK
  2
*TX36
  3
*TX
 10
0.0
 20
0.0
 70
65
  0
TEXT
  8
1
  6
CONTINUOUS
 62
3
 10
0.0
 20
0.0
 40
3.0E-001
  1
CCR3232
  0
TEXT
  8
1
  6
CONTINUOUS
 62
3
 10
0.0
 20
-4.5E-001
 40
3.0E-001
  1
DE21732
  0
ENDBLK
  0
BLOCK
  2
*TX41
  3
*TX
 10
0.0
 20
0.0
 70
65
  0
TEXT
  8
1
  6
CONTINUOUS
 62
3
 10
3.7125
 20
1.375E-001
 40
2.75E-001
  1
VERIFY THAT THE MODEL BEING
 72
1
 73
2
 11
0.0
 21
0.0
  0
TEXT
  8
1
  6
CONTINUOUS
 62
3
 10
3.4375
 20
-2.75E-001
 40
2.75E-001
  1
INSTALLED IS LISTED ABOVE
 72
1
 73
2
 11
0.0
 21
-4.125E-001
  0
TEXT
  8
1
  6
CONTINUOUS
 62
3
 10
3.575
 20
-6.875E-001
 40
2.75E-001
  1
BEFORE USING THIS TEMPLATE
 72
1
 73
2
 11
0.0
 21
-8.25E-001
  0
TEXT
  8
1
  6
CONTINUOUS
 62
3
 10
2.75E-001
 20
-1.1
 40
2.75E-001
  1
  
 72
1
 73
2
 11
0.0
 21
-1.2375
  0
TEXT
  8
1
  6
CONTINUOUS
 62
3
 10
2.8875
 20
-1.5125
 40
2.75E-001
  1
CHECK THE TEMPLATE BY
 72
1
 73
2
 11
0.0
 21
-1.65
  0
TEXT
  8
1
  6
CONTINUOUS
 62
3
 10
2.475
 20
-1.925
 40
2.75E-001
  1
LAYING IT OVER THE
 72
1
 73
2
 11
0.0
 21
-2.0625
  0
TEXT
  8
1
  6
CONTINUOUS
 62
3
 10
3.575
 20
-2.3375
 40
2.75E-001
  1
SINK PRIOR TO INSTALLATION
 72
1
 73
2
 11
0.0
 21
-2.475
  0
TEXT
  8
1
  6
CONTINUOUS
 62
3
 10
1.375E-001
 20
-2.75
 40
2.75E-001
  1
 
 72
1
 73
2
 11
0.0
 21
-2.8875
  0
TEXT
  8
1
  6
CONTINUOUS
 62
3
 10
3.85
 20
-3.1625
 40
2.75E-001
  1
FOR QUESTIONS PLEASE CONTACT
 72
1
 73
2
 11
0.0
 21
-3.3
  0
TEXT
  8
1
  6
CONTINUOUS
 62
3
 10
3.025
 20
-3.575
 40
2.75E-001
  1
ELKAY CUSTOMER SERVICE
 72
1
 73
2
 11
0.0
 21
-3.7125
  0
ENDBLK
  0
BLOCK
  2
*TX44
  3
*TX
 10
0.0
 20
0.0
 70
65
  0
TEXT
  8
1
  6
CONTINUOUS
 62
3
 10
2.97
 20
1.1E-001
 40
2.2E-001
  1
VERIFY THAT THE MODEL BEING
 72
1
 73
2
 11
0.0
 21
0.0
  0
TEXT
  8
1
  6
CONTINUOUS
 62
3
 10
2.75
 20
-2.2E-001
 40
2.2E-001
  1
INSTALLED IS LISTED ABOVE
 72
1
 73
2
 11
0.0
 21
-3.3E-001
  0
TEXT
  8
1
  6
CONTINUOUS
 62
3
 10
2.86
 20
-5.5E-001
 40
2.2E-001
  1
BEFORE USING THIS TEMPLATE
 72
1
 73
2
 11
0.0
 21
-6.6E-001
  0
TEXT
  8
1
  6
CONTINUOUS
 62
3
 10
2.2E-001
 20
-8.8E-001
 40
2.2E-001
  1
  
 72
1
 73
2
 11
0.0
 21
-9.9E-001
  0
TEXT
  8
1
  6
CONTINUOUS
 62
3
 10
2.31
 20
-1.21
 40
2.2E-001
  1
CHECK THE TEMPLATE BY
 72
1
 73
2
 11
0.0
 21
-1.32
  0
TEXT
  8
1
  6
CONTINUOUS
 62
3
 10
1.98
 20
-1.54
 40
2.2E-001
  1
LAYING IT OVER THE
 72
1
 73
2
 11
0.0
 21
-1.65
  0
TEXT
  8
1
  6
CONTINUOUS
 62
3
 10
2.86
 20
-1.87
 40
2.2E-001
  1
SINK PRIOR TO INSTALLATION
 72
1
 73
2
 11
0.0
 21
-1.98
  0
TEXT
  8
1
  6
CONTINUOUS
 62
3
 10
1.1E-001
 20
-2.2
 40
2.2E-001
  1
 
 72
1
 73
2
 11
0.0
 21
-2.31
  0
TEXT
  8
1
  6
CONTINUOUS
 62
3
 10
3.08
 20
-2.53
 40
2.2E-001
  1
FOR QUESTIONS PLEASE CONTACT
 72
1
 73
2
 11
0.0
 21
-2.64
  0
TEXT
  8
1
  6
CONTINUOUS
 62
3
 10
2.42
 20
-2.86
 40
2.2E-001
  1
ELKAY CUSTOMER SERVICE
 72
1
 73
2
 11
0.0
 21
-2.97
  0
ENDBLK
  0
BLOCK
  2
*D43
  3
*D
 10
0.0
 20
0.0
 70
65
  0
LINE
  8
1
  6
CONTINUOUS
 62
3
 10
2.4914704E+001
 20
1.0839867E+001
 11
2.6105063E+001
 21
1.2030226E+001
  0
LINE
  8
1
  6
CONTINUOUS
 62
3
 10
2.5928287E+001
 20
1.1853449E+001
 11
2.6370228E+001
 21
1.1234731E+001
  0
LINE
  8
1
  6
CONTINUOUS
 62
3
 10
2.5928287E+001
 20
1.1853449E+001
 11
2.6547005E+001
 21
1.1411508E+001
  0
LINE
  8
1
  6
CONTINUOUS
 62
3
 10
2.6370228E+001
 20
1.1234731E+001
 11
2.6547005E+001
 21
1.1411508E+001
  0
LINE
  8
1
  6
CONTINUOUS
 62
3
 10
3.64465E+001
 20
1.3352361
 11
3.5827781E+001
 21
1.7771778
  0
LINE
  8
1
  6
CONTINUOUS
 62
3
 10
3.64465E+001
 20
1.3352361
 11
3.6004558E+001
 21
1.9539545
  0
LINE
  8
1
  6
CONTINUOUS
 62
3
 10
3.5827781E+001
 20
1.7771778
 11
3.6004558E+001
 21
1.9539545
  0
LINE
  8
1
  6
CONTINUOUS
 62
3
 10
2.5928287E+001
 20
1.1853449E+001
 11
3.0937393E+001
 21
6.8443428
  0
LINE
  8
1
  6
CONTINUOUS
 62
3
 10
3.64465E+001
 20
1.3352361
 11
3.1437393E+001
 21
6.3443428
  0
TEXT
  8
1
  6
CONTINUOUS
 62
3
 10
3.0287393E+001
 20
6.4068428
 40
3.75E-001
  1
14 7/8
 41
8.0E-001
  0
ENDBLK
  0
BLOCK
  2
*D44
  3
*D
 10
0.0
 20
0.0
 70
65
  0
LINE
  8
1
  6
CONTINUOUS
 62
3
 10
1.4286658E+001
 20
2.301601E+001
 11
1.5584713E+001
 21
2.1717954E+001
  0
LINE
  8
1
  6
CONTINUOUS
 62
3
 10
1.5407936E+001
 20
2.1894731E+001
 11
1.4789218E+001
 21
2.1452789E+001
  0
LINE
  8
1
  6
CONTINUOUS
 62
3
 10
1.5407936E+001
 20
2.1894731E+001
 11
1.4965995E+001
 21
2.1276012E+001
  0
LINE
  8
1
  6
CONTINUOUS
 62
3
 10
1.4789218E+001
 20
2.1452789E+001
 11
1.4965995E+001
 21
2.1276012E+001
  0
LINE
  8
1
  6
CONTINUOUS
 62
3
 10
4.0272862
 20
1.0514081E+001
 11
4.4692279
 21
1.1132799E+001
  0
LINE
  8
1
  6
CONTINUOUS
 62
3
 10
4.0272862
 20
1.0514081E+001
 11
4.6460046
 21
1.0956022E+001
  0
LINE
  8
1
  6
CONTINUOUS
 62
3
 10
4.4692279
 20
1.1132799E+001
 11
4.6460046
 21
1.0956022E+001
  0
LINE
  8
1
  6
CONTINUOUS
 62
3
 10
1.5407936E+001
 20
2.1894731E+001
 11
9.9676113
 21
1.6454406E+001
  0
LINE
  8
1
  6
CONTINUOUS
 62
3
 10
4.0272862
 20
1.0514081E+001
 11
9.4676113
 21
1.5954406E+001
  0
TEXT
  8
1
  6
CONTINUOUS
 62
3
 10
8.6676113
 20
1.6016906E+001
 40
3.75E-001
  1
16 3/32
 41
8.0E-001
  0
ENDBLK
  0
BLOCK
  2
*D45
  3
*D
 10
0.0
 20
0.0
 70
65
  0
LINE
  8
1
  6
CONTINUOUS
 62
3
 10
3.8922287
 20
1.2798362E+001
 11
4.3341704
 21
1.2179644E+001
  0
LINE
  8
1
  6
CONTINUOUS
 62
3
 10
3.8922287
 20
1.2798362E+001
 11
4.5109471
 21
1.235642E+001
  0
LINE
  8
1
  6
CONTINUOUS
 62
3
 10
4.3341704
 20
1.2179644E+001
 11
4.5109471
 21
1.235642E+001
  0
LINE
  8
1
  6
CONTINUOUS
 62
3
 10
1.5382714E+001
 20
1.3078768
 11
1.4763995E+001
 21
1.7498185
  0
LINE
  8
1
  6
CONTINUOUS
 62
3
 10
1.5382714E+001
 20
1.3078768
 11
1.4940772E+001
 21
1.9265952
  0
LINE
  8
1
  6
CONTINUOUS
 62
3
 10
1.4763995E+001
 20
1.7498185
 11
1.4940772E+001
 21
1.9265952
  0
LINE
  8
1
  6
CONTINUOUS
 62
3
 10
3.8922287
 20
1.2798362E+001
 11
9.3874713
 21
7.3031194
  0
LINE
  8
1
  6
CONTINUOUS
 62
3
 10
1.5382714E+001
 20
1.3078768
 11
9.8874713
 21
6.8031194
  0
TEXT
  8
1
  6
CONTINUOUS
 62
3
 10
8.7374713
 20
6.8656194
 40
3.75E-001
  1
16 1/4
 41
8.0E-001
  0
ENDBLK
  0
BLOCK
  2
*D46
  3
*D
 10
0.0
 20
0.0
 70
65
  0
LINE
  8
1
  6
CONTINUOUS
 62
3
 10
2.4737927E+001
 20
1.0839867E+001
 11
2.3547567E+001
 21
1.2030226E+001
  0
LINE
  8
1
  6
CONTINUOUS
 62
3
 10
2.3724344E+001
 20
1.1853449E+001
 11
2.3105626E+001
 21
1.1411508E+001
  0
LINE
  8
1
  6
CONTINUOUS
 62
3
 10
2.3724344E+001
 20
1.1853449E+001
 11
2.3282402E+001
 21
1.1234731E+001
  0
LINE
  8
1
  6
CONTINUOUS
 62
3
 10
2.3105626E+001
 20
1.1411508E+001
 11
2.3282402E+001
 21
1.1234731E+001
  0
LINE
  8
1
  6
CONTINUOUS
 62
3
 10
1.3206131E+001
 20
1.3352361
 11
1.3648072E+001
 21
1.9539545
  0
LINE
  8
1
  6
CONTINUOUS
 62
3
 10
1.3206131E+001
 20
1.3352361
 11
1.3824849E+001
 21
1.7771778
  0
LINE
  8
1
  6
CONTINUOUS
 62
3
 10
1.3648072E+001
 20
1.9539545
 11
1.3824849E+001
 21
1.7771778
  0
LINE
  8
1
  6
CONTINUOUS
 62
3
 10
2.3724344E+001
 20
1.1853449E+001
 11
1.8715237E+001
 21
6.8443428
  0
LINE
  8
1
  6
CONTINUOUS
 62
3
 10
1.3206131E+001
 20
1.3352361
 11
1.8215237E+001
 21
6.3443428
  0
TEXT
  8
1
  6
CONTINUOUS
 62
3
 10
1.7565237E+001
 20
6.4068428
 40
3.75E-001
  1
14 7/8
 41
8.0E-001
  0
ENDBLK
  0
BLOCK
  2
*D229
  3
*D
 10
0.0
 20
0.0
 70
65
  0
LINE
  8
1
  6
CONTINUOUS
 62
3
 10
4.5760402E+001
 20
1.2798362E+001
 11
4.5141684E+001
 21
1.235642E+001
  0
LINE
  8
1
  6
CONTINUOUS
 62
3
 10
4.5760402E+001
 20
1.2798362E+001
 11
4.531846E+001
 21
1.2179644E+001
  0
LINE
  8
1
  6
CONTINUOUS
 62
3
 10
4.5141684E+001
 20
1.235642E+001
 11
4.531846E+001
 21
1.2179644E+001
  0
LINE
  8
1
  6
CONTINUOUS
 62
3
 10
3.4269917E+001
 20
1.3078768
 11
3.4711859E+001
 21
1.9265952
  0
LINE
  8
1
  6
CONTINUOUS
 62
3
 10
3.4269917E+001
 20
1.3078768
 11
3.4888635E+001
 21
1.7498185
  0
LINE
  8
1
  6
CONTINUOUS
 62
3
 10
3.4711859E+001
 20
1.9265952
 11
3.4888635E+001
 21
1.7498185
  0
LINE
  8
1
  6
CONTINUOUS
 62
3
 10
4.5760402E+001
 20
1.2798362E+001
 11
4.0265159E+001
 21
7.3031194
  0
LINE
  8
1
  6
CONTINUOUS
 62
3
 10
3.4269917E+001
 20
1.3078768
 11
3.9765159E+001
 21
6.8031194
  0
TEXT
  8
1
  6
CONTINUOUS
 62
3
 10
3.9115159E+001
 20
6.8656194
 40
3.75E-001
  1
16 1/4
 41
8.0E-001
  0
ENDBLK
  0
BLOCK
  2
*D233
  3
*D
 10
0.0
 20
0.0
 70
65
  0
LINE
  8
1
  6
CONTINUOUS
 62
3
 10
3.4775363
 20
1.1385644E+001
 11
1.6854692
 21
5.2123731
  0
LINE
  8
1
  6
CONTINUOUS
 62
3
 10
3.4775363
 20
1.1385644E+001
 11
3.148403
 21
1.0700227E+001
  0
LINE
  8
1
  6
CONTINUOUS
 62
3
 10
3.4775363
 20
1.1385644E+001
 11
3.3884914
 21
1.063053E+001
  0
LINE
  8
1
  6
CONTINUOUS
 62
3
 10
3.148403
 20
1.0700227E+001
 11
3.3884914
 21
1.063053E+001
  0
LINE
  8
1
  6
CONTINUOUS
 62
3
 10
2.6854692
 20
5.2123731
 11
1.6854692
 21
5.2123731
  0
TEXT
  8
1
  6
CONTINUOUS
 62
3
 10
2.7479692
 20
4.8998731
 40
6.25E-001
  1
1 1/2 R
  0
TEXT
  8
1
  6
CONTINUOUS
 62
3
 10
2.7479692
 20
3.9623731
 40
6.25E-001
  1
TYP
  0
ENDBLK
  0
BLOCK
  2
*D238
  3
*D
 10
0.0
 20
0.0
 70
65
  0
LINE
  8
1
  6
CONTINUOUS
 62
3
 10
3.5365973E+001
 20
2.301601E+001
 11
3.4067918E+001
 21
2.1717954E+001
  0
LINE
  8
1
  6
CONTINUOUS
 62
3
 10
3.4244694E+001
 20
2.1894731E+001
 11
3.4686636E+001
 21
2.1276012E+001
  0
LINE
  8
1
  6
CONTINUOUS
 62
3
 10
3.4244694E+001
 20
2.1894731E+001
 11
3.4863413E+001
 21
2.1452789E+001
  0
LINE
  8
1
  6
CONTINUOUS
 62
3
 10
3.4686636E+001
 20
2.1276012E+001
 11
3.4863413E+001
 21
2.1452789E+001
  0
LINE
  8
1
  6
CONTINUOUS
 62
3
 10
4.5625344E+001
 20
1.0514081E+001
 11
4.5006626E+001
 21
1.0956022E+001
  0
LINE
  8
1
  6
CONTINUOUS
 62
3
 10
4.5625344E+001
 20
1.0514081E+001
 11
4.5183403E+001
 21
1.1132799E+001
  0
LINE
  8
1
  6
CONTINUOUS
 62
3
 10
4.5006626E+001
 20
1.0956022E+001
 11
4.5183403E+001
 21
1.1132799E+001
  0
LINE
  8
1
  6
CONTINUOUS
 62
3
 10
3.4244694E+001
 20
2.1894731E+001
 11
3.9685019E+001
 21
1.6454406E+001
  0
LINE
  8
1
  6
CONTINUOUS
 62
3
 10
4.5625344E+001
 20
1.0514081E+001
 11
4.0185019E+001
 21
1.5954406E+001
  0
TEXT
  8
1
  6
CONTINUOUS
 62
3
 10
3.8885019E+001
 20
1.6016906E+001
 40
3.75E-001
  1
16 3/32
 41
8.0E-001
  0
ENDBLK
  0
BLOCK
  2
*D242
  3
*D
 10
0.0
 20
0.0
 70
65
  0
LINE
  8
1
  6
CONTINUOUS
 62
3
 10
3.5454361E+001
 20
2.2979398E+001
 11
3.5454361E+001
 21
2.20741E+001
  0
LINE
  8
1
  6
CONTINUOUS
 62
3
 10
1.4198265E+001
 20
2.2979398E+001
 11
1.4198265E+001
 21
2.20741E+001
  0
LINE
  8
1
  6
CONTINUOUS
 62
3
 10
3.5454361E+001
 20
2.23241E+001
 11
3.4704361E+001
 21
2.24491E+001
  0
LINE
  8
1
  6
CONTINUOUS
 62
3
 10
3.5454361E+001
 20
2.23241E+001
 11
3.4704361E+001
 21
2.21991E+001
  0
LINE
  8
1
  6
CONTINUOUS
 62
3
 10
3.4704361E+001
 20
2.24491E+001
 11
3.4704361E+001
 21
2.21991E+001
  0
LINE
  8
1
  6
CONTINUOUS
 62
3
 10
1.4198265E+001
 20
2.23241E+001
 11
1.4948265E+001
 21
2.24491E+001
  0
LINE
  8
1
  6
CONTINUOUS
 62
3
 10
1.4198265E+001
 20
2.23241E+001
 11
1.4948265E+001
 21
2.21991E+001
  0
LINE
  8
1
  6
CONTINUOUS
 62
3
 10
1.4948265E+001
 20
2.24491E+001
 11
1.4948265E+001
 21
2.21991E+001
  0
LINE
  8
1
  6
CONTINUOUS
 62
3
 10
3.5454361E+001
 20
2.23241E+001
 11
2.5788813E+001
 21
2.23241E+001
  0
LINE
  8
1
  6
CONTINUOUS
 62
3
 10
1.4198265E+001
 20
2.23241E+001
 11
2.3863813E+001
 21
2.23241E+001
  0
TEXT
  8
1
  6
CONTINUOUS
 62
3
 10
2.3926313E+001
 20
2.21366E+001
 40
3.75E-001
  1
21 1/4
 41
8.0E-001
  0
ENDBLK
  0
ENDSEC
  0
SECTION
  2
ENTITIES
  0
DIMENSION
  8
1
  6
CONTINUOUS
 62
3
  2
*D43
  3
DSTYLE1
 10
3.64465E+001
 20
1.3352361
 11
3.1187393E+001
 21
6.5943428
 70
128
 13
2.4826315E+001
 23
1.0751478E+001
 14
3.6405106E+001
 24
1.2938421
 40
0.0
 50
3.15E+002
  0
DIMENSION
  8
1
  6
CONTINUOUS
 62
3
  2
*D44
  3
DSTYLE1
 10
4.0272862
 20
1.0514081E+001
 11
9.7176113
 21
1.6204406E+001
 70
128
 13
1.4198269E+001
 23
2.3104398E+001
 14
3.8782793
 24
1.0663088E+001
 40
0.0
 50
2.25E+002
  0
DIMENSION
  8
1
  6
CONTINUOUS
 62
3
  2
*D45
  3
DSTYLE2
 10
1.5382714E+001
 20
1.3078768
 11
9.6374713
 21
7.0531194
 70
128
 13
3.8782746
 23
1.2784408E+001
 14
1.536876E+001
 24
1.2939227
 40
0.0
 50
3.15E+002
  0
DIMENSION
  8
1
  6
CONTINUOUS
 62
3
  2
*D46
  3
DSTYLE1
 10
1.3206131E+001
 20
1.3352361
 11
1.8465237E+001
 21
6.5943428
 70
128
 13
2.4826315E+001
 23
1.0751478E+001
 14
1.3247525E+001
 24
1.2938421
 40
0.0
 50
2.25E+002
  0
INSERT
  2
*TX23
  8
1
 10
2.5352018E+001
 20
2.0202803E+001
  0
TEXT
  8
126
  6
CONTINUOUS
 62
3
 10
4.5465047E+001
 20
1.19776
 40
1.0E-001
  1
JAS
 41
1.0
  0
LINE
  8
1
  6
CONTINUOUS
 62
3
 10
2.7335723E+001
 20
2.0969882E+001
 11
2.2317192E+001
 21
2.0969882E+001
  0
TEXT
  8
1
  6
CONTINUOUS
 62
3
 10
2.7192866E+001
 20
2.1432204E+001
 40
4.0E-001
  1
TEMPLATE FOR
 41
1.0
 72
1
 73
2
 11
2.4792866E+001
 21
2.1232204E+001
  0
INSERT
  2
*TX36
  8
1
 10
2.2261741E+001
 20
2.0202803E+001
  0
TEXT
  8
1
  6
CONTINUOUS
 62
3
 10
2.6026774E+001
 20
1.2966126E+001
 40
3.0E-001
  1
74180417
 72
1
 73
2
 11
2.4826774E+001
 21
1.2816126E+001
  0
POLYLINE
  8
1
  6
CONTINUOUS
 62
3
 66
1
 40
2.0E-002
 41
2.0E-002
 70
0
  0
VERTEX
  8
1
 42
0.0
 10
2.1100102E+001
 20
1.3466746E+001
 70
0
  0
VERTEX
  8
1
 42
0.0
 10
2.8552529E+001
 20
1.3466746E+001
 70
0
  0
SEQEND
  0
POLYLINE
  8
1
  6
CONTINUOUS
 62
3
 66
1
 40
2.0E-002
 41
2.0E-002
 70
0
  0
VERTEX
  8
1
 42
0.0
 10
2.1100102E+001
 20
1.74182E+001
 70
0
  0
VERTEX
  8
1
 42
0.0
 10
2.1100102E+001
 20
1.3466746E+001
 70
0
  0
SEQEND
  0
POLYLINE
  8
1
  6
CONTINUOUS
 62
3
 66
1
 40
2.0E-002
 41
2.0E-002
 70
0
  0
VERTEX
  8
1
 42
0.0
 10
2.1100102E+001
 20
1.74182E+001
 70
0
  0
VERTEX
  8
1
 42
0.0
 10
2.4826315E+001
 20
1.8836016E+001
 70
0
  0
SEQEND
  0
POLYLINE
  8
1
  6
CONTINUOUS
 62
3
 66
1
 40
2.0E-002
 41
2.0E-002
 70
0
  0
VERTEX
  8
1
 42
0.0
 10
2.4826315E+001
 20
1.8836016E+001
 70
0
  0
VERTEX
  8
1
 42
0.0
 10
2.8552529E+001
 20
1.74182E+001
 70
0
  0
SEQEND
  0
POLYLINE
  8
1
  6
CONTINUOUS
 62
3
 66
1
 40
2.0E-002
 41
2.0E-002
 70
0
  0
VERTEX
  8
1
 42
0.0
 10
2.8552529E+001
 20
1.3466746E+001
 70
0
  0
VERTEX
  8
1
 42
0.0
 10
2.8552529E+001
 20
1.74182E+001
 70
0
  0
SEQEND
  0
TEXT
  8
1
  6
CONTINUOUS
 62
3
 10
2.689679E+001
 20
1.7814866E+001
 40
3.2E-001
  1
**IMPORTANT**
 41
1.0
 51
-4.1943E-006
 72
1
 73
2
 11
2.481679E+001
 21
1.7654866E+001
  0
INSERT
  2
*TX44
  8
1
 10
2.4834594E+001
 20
1.685675E+001
  0
LINE
  8
1
  6
CONTINUOUS
 62
1
 10
4.5774351E+001
 20
1.0663088E+001
 11
3.6405106E+001
 21
1.2938421
  0
LINE
  8
1
  6
CONTINUOUS
 62
1
 10
3.4283776E+001
 20
1.2938514
 11
2.4826315E+001
 21
1.0751478E+001
  0
LINE
  8
1
  6
CONTINUOUS
 62
1
 10
2.4826315E+001
 20
1.0751478E+001
 11
1.536876E+001
 21
1.2939227
  0
LINE
  8
1
  6
CONTINUOUS
 62
1
 10
1.3247439E+001
 20
1.2939227
 11
3.8782746
 21
1.0663088E+001
  0
LINE
  8
1
  6
CONTINUOUS
 62
1
 10
3.8782746
 20
1.2784408E+001
 11
1.4198265E+001
 21
2.3104398E+001
  0
LINE
  8
1
  6
CONTINUOUS
 62
1
 10
1.4198265E+001
 20
2.3104398E+001
 11
3.5454361E+001
 21
2.3104398E+001
  0
LINE
  8
1
  6
CONTINUOUS
 62
1
 10
3.5454361E+001
 20
2.3104398E+001
 11
4.5774351E+001
 21
1.2784408E+001
  0
ARC
  8
1
  6
CONTINUOUS
 62
1
 10
3.5344446E+001
 20
2.3545023
 40
1.5
 50
2.249995E+002
 51
3.15E+002
  0
ARC
  8
1
  6
CONTINUOUS
 62
1
 10
4.4713691E+001
 20
1.1723748E+001
 40
1.5
 50
3.15E+002
 51
4.05E+002
  0
ARC
  8
1
  6
CONTINUOUS
 62
1
 10
1.43081E+001
 20
2.3545829
 40
1.5
 50
2.25E+002
 51
3.15E+002
  0
ARC
  8
1
  6
CONTINUOUS
 62
1
 10
4.9389348
 20
1.1723748E+001
 40
1.5
 50
1.35E+002
 51
2.25E+002
  0
DIMENSION
  8
1
  6
CONTINUOUS
 62
3
  2
*D229
  3
DSTYLE2
 10
3.4269917E+001
 20
1.3078768
 11
4.0015159E+001
 21
7.0531194
 70
128
 13
4.5774356E+001
 23
1.2784408E+001
 14
3.4283871E+001
 24
1.2939227
 40
0.0
 50
2.25E+002
  0
INSERT
  2
*D233
  8
1
 10
0.0
 20
0.0
  0
DIMENSION
  8
1
  6
CONTINUOUS
 62
3
  2
*D238
  3
DSTYLE1
 10
4.5625344E+001
 20
1.0514081E+001
 11
3.9935019E+001
 21
1.6204406E+001
 70
128
 13
3.5454361E+001
 23
2.3104398E+001
 14
4.5774351E+001
 24
1.0663088E+001
 40
0.0
 50
3.15E+002
  0
DIMENSION
  8
1
  6
CONTINUOUS
 62
3
  2
*D242
  3
DSTYLE4
 10
1.4198265E+001
 20
2.23241E+001
 11
2.4826313E+001
 21
2.23241E+001
 70
128
 13
3.5454361E+001
 23
2.3104398E+001
 14
1.4198265E+001
 24
2.3104398E+001
 40
0.0
 50
0.0
  0
TEXT
  8
126
  6
CONTINUOUS
 62
3
 10
4.3870148E+001
 20
7.182016E-001
 40
8.0E-002
  1
REL - ECNBV03397 01JUN04
  0
TEXT
  8
180
  6
CONTINUOUS
 62
1
 10
4.5420679E+001
 20
2.0635022
 40
1.25E-001
  1
MANUFACTURING COMPANY
 41
9.0E-001
  0
TEXT
  8
126
  6
CONTINUOUS
 62
3
 10
4.65503E+001
 20
1.9835604
 40
7.5E-002
  1
BROADVIEW, ILLINOIS
 72
1
 73
2
 11
4.58378E+001
 21
1.9460604
  0
LINE
  8
126
  6
CONTINUOUS
 62
3
 10
4.4231459E+001
 20
2.0651951
 11
4.442109E+001
 21
2.0651951
  0
LINE
  8
126
  6
CONTINUOUS
 62
3
 10
4.3905033E+001
 20
2.2262495
 11
4.416734E+001
 21
2.2262495
  0
LINE
  8
126
  6
CONTINUOUS
 62
3
 10
4.3871808E+001
 20
2.0378201
 11
4.4146808E+001
 21
2.0378201
  0
LINE
  8
126
  6
CONTINUOUS
 62
3
 10
4.3871808E+001
 20
2.0378201
 11
4.3905033E+001
 21
2.2262495
  0
LINE
  8
126
  6
CONTINUOUS
 62
3
 10
4.3952347E+001
 20
2.1988745
 11
4.4162513E+001
 21
2.1988745
  0
LINE
  8
126
  6
CONTINUOUS
 62
3
 10
4.4174464E+001
 20
2.0378201
 11
4.4207689E+001
 21
2.2262495
  0
LINE
  8
126
  6
CONTINUOUS
 62
3
 10
4.4207689E+001
 20
2.2262495
 11
4.4259857E+001
 21
2.2262495
  0
LINE
  8
126
  6
CONTINUOUS
 62
3
 10
4.4174464E+001
 20
2.0378201
 11
4.4416263E+001
 21
2.0378201
  0
LINE
  8
126
  6
CONTINUOUS
 62
3
 10
4.4231459E+001
 20
2.0651951
 11
4.4259857E+001
 21
2.2262495
  0
LINE
  8
126
  6
CONTINUOUS
 62
3
 10
4.3942986E+001
 20
2.1457848
 11
4.3952347E+001
 21
2.1988745
  0
LINE
  8
126
  6
CONTINUOUS
 62
3
 10
4.4162513E+001
 20
2.1988745
 11
4.416734E+001
 21
2.2262495
  0
LINE
  8
126
  6
CONTINUOUS
 62
3
 10
4.413561E+001
 20
2.1182848
 11
4.4140459E+001
 21
2.1457848
  0
LINE
  8
126
  6
CONTINUOUS
 62
3
 10
4.5369389E+001
 20
2.2262495
 11
4.5215113E+001
 21
2.1110701
  0
LINE
  8
126
  6
CONTINUOUS
 62
3
 10
4.5369389E+001
 20
2.2262495
 11
4.5308168E+001
 21
2.2262495
  0
LINE
  8
126
  6
CONTINUOUS
 62
3
 10
4.5308168E+001
 20
2.2262495
 11
4.5194817E+001
 21
2.1416236
  0
LINE
  8
126
  6
CONTINUOUS
 62
3
 10
4.4146808E+001
 20
2.0378201
 11
4.4151635E+001
 21
2.0651951
  0
LINE
  8
126
  6
CONTINUOUS
 62
3
 10
4.3932356E+001
 20
2.0651951
 11
4.3941718E+001
 21
2.1182848
  0
LINE
  8
126
  6
CONTINUOUS
 62
3
 10
4.4140459E+001
 20
2.1457848
 11
4.3942986E+001
 21
2.1457848
  0
LINE
  8
126
  6
CONTINUOUS
 62
3
 10
4.3941718E+001
 20
2.1182848
 11
4.413561E+001
 21
2.1182848
  0
LINE
  8
126
  6
CONTINUOUS
 62
3
 10
4.4769963E+001
 20
2.2262495
 11
4.4626839E+001
 21
2.1450578
  0
LINE
  8
126
  6
CONTINUOUS
 62
3
 10
4.3932356E+001
 20
2.0651951
 11
4.4151635E+001
 21
2.0651951
  0
LINE
  8
126
  6
CONTINUOUS
 62
3
 10
4.4416263E+001
 20
2.0378201
 11
4.442109E+001
 21
2.0651951
  0
LINE
  8
126
  6
CONTINUOUS
 62
3
 10
4.4695736E+001
 20
2.2262495
 11
4.4769963E+001
 21
2.2262495
  0
LINE
  8
126
  6
CONTINUOUS
 62
3
 10
4.4662342E+001
 20
2.0378201
 11
4.4743563E+001
 21
2.0378201
  0
LINE
  8
126
  6
CONTINUOUS
 62
3
 10
4.4502363E+001
 20
2.0744451
 11
4.4495905E+001
 21
2.0378201
  0
LINE
  8
126
  6
CONTINUOUS
 62
3
 10
4.452913E+001
 20
2.2262495
 11
4.4510613E+001
 21
2.1212329
  0
LINE
  8
126
  6
CONTINUOUS
 62
3
 10
4.49176E+001
 20
2.2262495
 11
4.50091E+001
 21
2.2262495
  0
LINE
  8
126
  6
CONTINUOUS
 62
3
 10
4.5039707E+001
 20
2.0378201
 11
4.5100725E+001
 21
2.0378201
  0
LINE
  8
126
  6
CONTINUOUS
 62
3
 10
4.4576624E+001
 20
2.1165717
 11
4.4502363E+001
 21
2.0744451
  0
LINE
  8
126
  6
CONTINUOUS
 62
3
 10
4.4695736E+001
 20
2.2262495
 11
4.4510613E+001
 21
2.1212329
  0
LINE
  8
126
  6
CONTINUOUS
 62
3
 10
4.452913E+001
 20
2.2262495
 11
4.4476963E+001
 21
2.2262495
  0
LINE
  8
126
  6
CONTINUOUS
 62
3
 10
4.4443738E+001
 20
2.0378201
 11
4.4476963E+001
 21
2.2262495
  0
LINE
  8
126
  6
CONTINUOUS
 62
3
 10
4.4743563E+001
 20
2.0378201
 11
4.4626839E+001
 21
2.1450578
  0
LINE
  8
126
  6
CONTINUOUS
 62
3
 10
4.4662342E+001
 20
2.0378201
 11
4.4576624E+001
 21
2.1165717
  0
LINE
  8
126
  6
CONTINUOUS
 62
3
 10
4.4495905E+001
 20
2.0378201
 11
4.4443738E+001
 21
2.0378201
  0
LINE
  8
126
  6
CONTINUOUS
 62
3
 10
4.4752725E+001
 20
2.0378201
 11
4.4801392E+001
 21
2.0378201
  0
LINE
  8
126
  6
CONTINUOUS
 62
3
 10
4.4856516E+001
 20
2.1008201
 11
4.4954578E+001
 21
2.2128907
  0
LINE
  8
126
  6
CONTINUOUS
 62
3
 10
4.5009073E+001
 20
2.1008201
 11
4.4954578E+001
 21
2.2128907
  0
LINE
  8
126
  6
CONTINUOUS
 62
3
 10
4.4752725E+001
 20
2.0378201
 11
4.49176E+001
 21
2.2262495
  0
LINE
  8
126
  6
CONTINUOUS
 62
3
 10
4.4833438E+001
 20
2.0744451
 11
4.5021898E+001
 21
2.0744451
  0
LINE
  8
126
  6
CONTINUOUS
 62
3
 10
4.5100725E+001
 20
2.0378201
 11
4.50091E+001
 21
2.2262495
  0
LINE
  8
126
  6
CONTINUOUS
 62
3
 10
4.4856516E+001
 20
2.1008201
 11
4.5009073E+001
 21
2.1008201
  0
LINE
  8
126
  6
CONTINUOUS
 62
3
 10
4.4801392E+001
 20
2.0378201
 11
4.4833438E+001
 21
2.0744451
  0
LINE
  8
126
  6
CONTINUOUS
 62
3
 10
4.5039707E+001
 20
2.0378201
 11
4.5021898E+001
 21
2.0744451
  0
LINE
  8
126
  6
CONTINUOUS
 62
3
 10
4.5308168E+001
 20
2.2262495
 11
4.5369389E+001
 21
2.2262495
  0
LINE
  8
126
  6
CONTINUOUS
 62
3
 10
4.5146475E+001
 20
2.0378201
 11
4.5202197E+001
 21
2.0378201
  0
LINE
  8
126
  6
CONTINUOUS
 62
3
 10
4.5146475E+001
 20
2.0378201
 11
4.5157611E+001
 21
2.1009709
  0
LINE
  8
126
  6
CONTINUOUS
 62
3
 10
4.5202197E+001
 20
2.0378201
 11
4.5215113E+001
 21
2.1110701
  0
LINE
  8
126
  6
CONTINUOUS
 62
3
 10
4.5115135E+001
 20
2.2262495
 11
4.5194817E+001
 21
2.1416236
  0
LINE
  8
126
  6
CONTINUOUS
 62
3
 10
4.5157611E+001
 20
2.1009709
 11
4.5039651E+001
 21
2.2262495
  0
LINE
  8
126
  6
CONTINUOUS
 62
3
 10
4.5039651E+001
 20
2.2262495
 11
4.5115135E+001
 21
2.2262495
  0
LINE
  8
126
  6
CONTINUOUS
 62
3
 10
4.535834E+001
 20
2.2262495
 11
4.5363063E+001
 21
2.2215268
  0
LINE
  8
126
  6
CONTINUOUS
 62
3
 10
4.5347292E+001
 20
2.2262495
 11
4.5356737E+001
 21
2.216804
  0
LINE
  8
126
  6
CONTINUOUS
 62
3
 10
4.5336243E+001
 20
2.2262495
 11
4.5350412E+001
 21
2.2120813
  0
LINE
  8
126
  6
CONTINUOUS
 62
3
 10
4.5325195E+001
 20
2.2262495
 11
4.5344086E+001
 21
2.2073586
  0
LINE
  8
126
  6
CONTINUOUS
 62
3
 10
4.5314146E+001
 20
2.2262495
 11
4.533776E+001
 21
2.2026358
  0
LINE
  8
126
  6
CONTINUOUS
 62
3
 10
4.5305265E+001
 20
2.2240821
 11
4.5331434E+001
 21
2.1979131
  0
LINE
  8
126
  6
CONTINUOUS
 62
3
 10
4.5298939E+001
 20
2.2193594
 11
4.5325108E+001
 21
2.1931904
  0
LINE
  8
126
  6
CONTINUOUS
 62
3
 10
4.5292613E+001
 20
2.2146366
 11
4.5318782E+001
 21
2.1884677
  0
LINE
  8
126
  6
CONTINUOUS
 62
3
 10
4.5286288E+001
 20
2.2099139
 11
4.5312457E+001
 21
2.1837449
  0
LINE
  8
126
  6
CONTINUOUS
 62
3
 10
4.5279962E+001
 20
2.2051912
 11
4.5306131E+001
 21
2.1790222
  0
LINE
  8
126
  6
CONTINUOUS
 62
3
 10
4.5273636E+001
 20
2.2004684
 11
4.5299805E+001
 21
2.1742995
  0
LINE
  8
126
  6
CONTINUOUS
 62
3
 10
4.526731E+001
 20
2.1957457
 11
4.5293479E+001
 21
2.1695768
  0
LINE
  8
126
  6
CONTINUOUS
 62
3
 10
4.5260984E+001
 20
2.191023
 11
4.5287153E+001
 21
2.164854
  0
LINE
  8
126
  6
CONTINUOUS
 62
3
 10
4.5254659E+001
 20
2.1863003
 11
4.5280827E+001
 21
2.1601313
  0
LINE
  8
126
  6
CONTINUOUS
 62
3
 10
4.5248333E+001
 20
2.1815775
 11
4.5274502E+001
 21
2.1554086
  0
LINE
  8
126
  6
CONTINUOUS
 62
3
 10
4.5242007E+001
 20
2.1768548
 11
4.5268176E+001
 21
2.1506858
  0
LINE
  8
126
  6
CONTINUOUS
 62
3
 10
4.5235681E+001
 20
2.1721321
 11
4.526185E+001
 21
2.1459631
  0
LINE
  8
126
  6
CONTINUOUS
 62
3
 10
4.5229355E+001
 20
2.1674094
 11
4.5255524E+001
 21
2.1412404
  0
LINE
  8
126
  6
CONTINUOUS
 62
3
 10
4.5223029E+001
 20
2.1626866
 11
4.5249198E+001
 21
2.1365177
  0
LINE
  8
126
  6
CONTINUOUS
 62
3
 10
4.5216704E+001
 20
2.1579639
 11
4.5242873E+001
 21
2.1317949
  0
LINE
  8
126
  6
CONTINUOUS
 62
3
 10
4.5210378E+001
 20
2.1532412
 11
4.5236547E+001
 21
2.1270722
  0
LINE
  8
126
  6
CONTINUOUS
 62
3
 10
4.5204052E+001
 20
2.1485185
 11
4.5230221E+001
 21
2.1223495
  0
LINE
  8
126
  6
CONTINUOUS
 62
3
 10
4.5197726E+001
 20
2.1437957
 11
4.5223895E+001
 21
2.1176267
  0
LINE
  8
126
  6
CONTINUOUS
 62
3
 10
4.5104224E+001
 20
2.2262495
 11
4.5217569E+001
 21
2.112904
  0
LINE
  8
126
  6
CONTINUOUS
 62
3
 10
4.5093175E+001
 20
2.2262495
 11
4.52141E+001
 21
2.1053249
  0
LINE
  8
126
  6
CONTINUOUS
 62
3
 10
4.5082127E+001
 20
2.2262495
 11
4.5212444E+001
 21
2.0959325
  0
LINE
  8
126
  6
CONTINUOUS
 62
3
 10
4.5071078E+001
 20
2.2262495
 11
4.5210788E+001
 21
2.0865401
  0
LINE
  8
126
  6
CONTINUOUS
 62
3
 10
4.506003E+001
 20
2.2262495
 11
4.5209132E+001
 21
2.0771477
  0
LINE
  8
126
  6
CONTINUOUS
 62
3
 10
4.5048981E+001
 20
2.2262495
 11
4.5207475E+001
 21
2.0677553
  0
LINE
  8
126
  6
CONTINUOUS
 62
3
 10
4.5067352E+001
 20
2.1968303
 11
4.5205819E+001
 21
2.0583629
  0
LINE
  8
126
  6
CONTINUOUS
 62
3
 10
4.5156794E+001
 20
2.0963396
 11
4.5204163E+001
 21
2.0489705
  0
LINE
  8
126
  6
CONTINUOUS
 62
3
 10
4.5155138E+001
 20
2.0869471
 11
4.5202507E+001
 21
2.0395781
  0
LINE
  8
126
  6
CONTINUOUS
 62
3
 10
4.5004787E+001
 20
2.2262495
 11
4.5013183E+001
 21
2.2178534
  0
LINE
  8
126
  6
CONTINUOUS
 62
3
 10
4.5153482E+001
 20
2.0775547
 11
4.5193216E+001
 21
2.0378201
  0
LINE
  8
126
  6
CONTINUOUS
 62
3
 10
4.4993738E+001
 20
2.2262495
 11
4.5023641E+001
 21
2.1963474
  0
LINE
  8
126
  6
CONTINUOUS
 62
3
 10
4.5151826E+001
 20
2.0681623
 11
4.5182168E+001
 21
2.0378201
  0
LINE
  8
126
  6
CONTINUOUS
 62
3
 10
4.498269E+001
 20
2.2262495
 11
4.5034098E+001
 21
2.1748415
  0
LINE
  8
126
  6
CONTINUOUS
 62
3
 10
4.5150169E+001
 20
2.0587699
 11
4.5171119E+001
 21
2.0378201
  0
LINE
  8
126
  6
CONTINUOUS
 62
3
 10
4.4971641E+001
 20
2.2262495
 11
4.5044555E+001
 21
2.1533355
  0
LINE
  8
126
  6
CONTINUOUS
 62
3
 10
4.5148513E+001
 20
2.0493775
 11
4.5160071E+001
 21
2.0378201
  0
LINE
  8
126
  6
CONTINUOUS
 62
3
 10
4.4960593E+001
 20
2.2262495
 11
4.5055013E+001
 21
2.1318296
  0
LINE
  8
126
  6
CONTINUOUS
 62
3
 10
4.5146857E+001
 20
2.0399851
 11
4.5149022E+001
 21
2.0378201
  0
LINE
  8
126
  6
CONTINUOUS
 62
3
 10
4.4949544E+001
 20
2.2262495
 11
4.506547E+001
 21
2.1103236
  0
LINE
  8
126
  6
CONTINUOUS
 62
3
 10
4.4938496E+001
 20
2.2262495
 11
4.4953307E+001
 21
2.2114384
  0
LINE
  8
126
  6
CONTINUOUS
 62
3
 10
4.4957155E+001
 20
2.2075901
 11
4.5075928E+001
 21
2.0888176
  0
LINE
  8
126
  6
CONTINUOUS
 62
3
 10
4.4927447E+001
 20
2.2262495
 11
4.4948151E+001
 21
2.2055458
  0
TEXT
  8
126
  6
CONTINUOUS
 62
3
 10
4.3908307E+001
 20
1.2007212
 40
9.375E-002
  1
DR.BY
 41
9.0E-001
  0
TEXT
  8
126
  6
CONTINUOUS
 62
3
 10
3.9900569E+001
 20
1.6903557
 40
8.0E-002
  1
MATERIAL
  0
TEXT
  8
126
  6
CONTINUOUS
 62
3
 10
3.9884175E+001
 20
2.1442263
 40
8.0E-002
  1
FINISH
  0
TEXT
  8
126
  6
CONTINUOUS
 62
3
 10
4.4903197E+001
 20
1.1991238
 40
9.375E-002
  1
CH.BY
 41
9.0E-001
  0
TEXT
  8
126
  6
CONTINUOUS
 62
3
 10
4.3911063E+001
 20
9.967469E-001
 40
9.375E-002
  1
SCALE
 41
1.04
  0
TEXT
  8
1
  6
CONTINUOUS
 62
1
 10
4.591435E+001
 20
6.130856E-001
 40
1.875E-001
  1
REV-REL
 51
-4.1943E-006
  0
TEXT
  8
126
  6
CONTINUOUS
 62
3
 10
4.5905618E+001
 20
1.1818001
 40
9.375E-002
  1
DATE
 41
1.025
  0
LINE
  8
180
  6
CONTINUOUS
 62
6
 10
3.9835304E+001
 20
2.2019E-001
 11
3.9835304E+001
 21
2.2826903
  0
LINE
  8
180
  6
CONTINUOUS
 62
6
 10
3.9835304E+001
 20
2.2826903
 11
4.7835307E+001
 21
2.2826903
  0
LINE
  8
180
  6
CONTINUOUS
 62
6
 10
4.3835305E+001
 20
2.2826903
 11
4.3835305E+001
 21
2.2019E-001
  0
LINE
  8
180
  6
CONTINUOUS
 62
6
 10
4.3835305E+001
 20
5.3269E-001
 11
4.7835307E+001
 21
5.3269E-001
  0
LINE
  8
180
  6
CONTINUOUS
 62
6
 10
4.7835307E+001
 20
8.451901E-001
 11
4.3835305E+001
 21
8.451901E-001
  0
LINE
  8
180
  6
CONTINUOUS
 62
6
 10
4.3835305E+001
 20
1.3451901
 11
4.7835307E+001
 21
1.3451901
  0
LINE
  8
180
  6
CONTINUOUS
 62
6
 10
4.3835305E+001
 20
2.2826903
 11
4.3835305E+001
 21
1.8451901
  0
LINE
  8
180
  6
CONTINUOUS
 62
6
 10
4.3835305E+001
 20
1.8451901
 11
4.7835307E+001
 21
1.8451901
  0
LINE
  8
180
  6
CONTINUOUS
 62
6
 10
4.5835305E+001
 20
1.3451901
 11
4.5835305E+001
 21
5.3269E-001
  0
LINE
  8
180
  6
CONTINUOUS
 62
6
 10
4.3835305E+001
 20
1.1576901
 11
4.5835305E+001
 21
1.1576901
  0
LINE
  8
180
  6
CONTINUOUS
 62
6
 10
4.4835305E+001
 20
1.1576901
 11
4.4835305E+001
 21
1.3451901
  0
LINE
  8
180
  6
CONTINUOUS
 62
6
 10
4.3835305E+001
 20
1.8451901
 11
3.9835304E+001
 21
1.8451901
  0
LINE
  8
180
  6
CONTINUOUS
 62
6
 10
4.3835305E+001
 20
8.451901E-001
 11
3.9835304E+001
 21
8.451901E-001
  0
LINE
  8
126
  6
CONTINUOUS
 62
3
 10
4.4967613E+001
 20
2.1860841
 11
4.5086385E+001
 21
2.0673117
  0
LINE
  8
126
  6
CONTINUOUS
 62
3
 10
4.491704E+001
 20
2.2256085
 11
4.4942995E+001
 21
2.1996532
  0
LINE
  8
126
  6
CONTINUOUS
 62
3
 10
4.497807E+001
 20
2.1645782
 11
4.5096842E+001
 21
2.0458057
  0
LINE
  8
126
  6
CONTINUOUS
 62
3
 10
4.4911884E+001
 20
2.2197159
 11
4.4937839E+001
 21
2.1937607
  0
LINE
  8
126
  6
CONTINUOUS
 62
3
 10
4.4988527E+001
 20
2.1430722
 11
4.5093779E+001
 21
2.0378201
  0
LINE
  8
126
  6
CONTINUOUS
 62
3
 10
4.4906728E+001
 20
2.2138234
 11
4.4932683E+001
 21
2.1878681
  0
LINE
  8
126
  6
CONTINUOUS
 62
3
 10
4.4998985E+001
 20
2.1215663
 11
4.5082731E+001
 21
2.0378201
  0
LINE
  8
126
  6
CONTINUOUS
 62
3
 10
4.4901572E+001
 20
2.2079308
 11
4.4927527E+001
 21
2.1819755
  0
LINE
  8
126
  6
CONTINUOUS
 62
3
 10
4.5008682E+001
 20
2.1008201
 11
4.5071682E+001
 21
2.0378201
  0
LINE
  8
126
  6
CONTINUOUS
 62
3
 10
4.4896416E+001
 20
2.2020382
 11
4.4922371E+001
 21
2.176083
  0
LINE
  8
126
  6
CONTINUOUS
 62
3
 10
4.4997634E+001
 20
2.1008201
 11
4.5060634E+001
 21
2.0378201
  0
LINE
  8
126
  6
CONTINUOUS
 62
3
 10
4.489126E+001
 20
2.1961457
 11
4.4917215E+001
 21
2.1701904
  0
LINE
  8
126
  6
CONTINUOUS
 62
3
 10
4.4986585E+001
 20
2.1008201
 11
4.501296E+001
 21
2.0744451
  0
LINE
  8
126
  6
CONTINUOUS
 62
3
 10
4.5030357E+001
 20
2.0570484
 11
4.5049585E+001
 21
2.0378201
  0
LINE
  8
126
  6
CONTINUOUS
 62
3
 10
4.4886104E+001
 20
2.1902531
 11
4.4912059E+001
 21
2.1642978
  0
LINE
  8
126
  6
CONTINUOUS
 62
3
 10
4.4975537E+001
 20
2.1008201
 11
4.5001912E+001
 21
2.0744451
  0
LINE
  8
126
  6
CONTINUOUS
 62
3
 10
4.4880948E+001
 20
2.1843605
 11
4.4906903E+001
 21
2.1584053
  0
LINE
  8
126
  6
CONTINUOUS
 62
3
 10
4.4964488E+001
 20
2.1008201
 11
4.4990863E+001
 21
2.0744451
  0
LINE
  8
126
  6
CONTINUOUS
 62
3
 10
4.4875792E+001
 20
2.178468
 11
4.4901747E+001
 21
2.1525127
  0
LINE
  8
126
  6
CONTINUOUS
 62
3
 10
4.495344E+001
 20
2.1008201
 11
4.4979815E+001
 21
2.0744451
  0
LINE
  8
126
  6
CONTINUOUS
 62
3
 10
4.4870636E+001
 20
2.1725754
 11
4.4896591E+001
 21
2.1466201
  0
LINE
  8
126
  6
CONTINUOUS
 62
3
 10
4.4942391E+001
 20
2.1008201
 11
4.4968766E+001
 21
2.0744451
  0
LINE
  8
126
  6
CONTINUOUS
 62
3
 10
4.486548E+001
 20
2.1666828
 11
4.4891435E+001
 21
2.1407276
  0
LINE
  8
126
  6
CONTINUOUS
 62
3
 10
4.4931343E+001
 20
2.1008201
 11
4.4957718E+001
 21
2.0744451
  0
LINE
  8
126
  6
CONTINUOUS
 62
3
 10
4.4860324E+001
 20
2.1607903
 11
4.4886279E+001
 21
2.134835
  0
LINE
  8
126
  6
CONTINUOUS
 62
3
 10
4.4920294E+001
 20
2.1008201
 11
4.4946669E+001
 21
2.0744451
  0
LINE
  8
126
  6
CONTINUOUS
 62
3
 10
4.4855168E+001
 20
2.1548977
 11
4.4881123E+001
 21
2.1289424
  0
LINE
  8
126
  6
CONTINUOUS
 62
3
 10
4.4909245E+001
 20
2.1008201
 11
4.493562E+001
 21
2.0744451
  0
LINE
  8
126
  6
CONTINUOUS
 62
3
 10
4.4850012E+001
 20
2.1490051
 11
4.4875967E+001
 21
2.1230499
  0
LINE
  8
126
  6
CONTINUOUS
 62
3
 10
4.4898197E+001
 20
2.1008201
 11
4.4924572E+001
 21
2.0744451
  0
LINE
  8
126
  6
CONTINUOUS
 62
3
 10
4.4761719E+001
 20
2.2262495
 11
4.4764703E+001
 21
2.2232656
  0
LINE
  8
126
  6
CONTINUOUS
 62
3
 10
4.4844856E+001
 20
2.1431126
 11
4.4870811E+001
 21
2.1171573
  0
LINE
  8
126
  6
CONTINUOUS
 62
3
 10
4.4887148E+001
 20
2.1008201
 11
4.4913523E+001
 21
2.0744451
  0
LINE
  8
126
  6
CONTINUOUS
 62
3
 10
4.475067E+001
 20
2.2262495
 11
4.4757653E+001
 21
2.2192666
  0
LINE
  8
126
  6
CONTINUOUS
 62
3
 10
4.48397E+001
 20
2.13722
 11
4.4865655E+001
 21
2.1112647
  0
LINE
  8
126
  6
CONTINUOUS
 62
3
 10
4.48761E+001
 20
2.1008201
 11
4.4902475E+001
 21
2.0744451
  0
LINE
  8
126
  6
CONTINUOUS
 62
3
 10
4.4739622E+001
 20
2.2262495
 11
4.4750604E+001
 21
2.2152675
  0
LINE
  8
126
  6
CONTINUOUS
 62
3
 10
4.4834544E+001
 20
2.1313274
 11
4.4860499E+001
 21
2.1053722
  0
LINE
  8
126
  6
CONTINUOUS
 62
3
 10
4.4865051E+001
 20
2.1008201
 11
4.4891426E+001
 21
2.0744451
  0
LINE
  8
126
  6
CONTINUOUS
 62
3
 10
4.4728573E+001
 20
2.2262495
 11
4.4743554E+001
 21
2.2112685
  0
LINE
  8
126
  6
CONTINUOUS
 62
3
 10
4.4829388E+001
 20
2.1254349
 11
4.4880378E+001
 21
2.0744451
  0
LINE
  8
126
  6
CONTINUOUS
 62
3
 10
4.4717525E+001
 20
2.2262495
 11
4.4736505E+001
 21
2.2072694
  0
LINE
  8
126
  6
CONTINUOUS
 62
3
 10
4.4824232E+001
 20
2.1195423
 11
4.4869329E+001
 21
2.0744451
  0
LINE
  8
126
  6
CONTINUOUS
 62
3
 10
4.4706476E+001
 20
2.2262495
 11
4.4729455E+001
 21
2.2032704
  0
LINE
  8
126
  6
CONTINUOUS
 62
3
 10
4.4819076E+001
 20
2.1136497
 11
4.4858281E+001
 21
2.0744451
  0
LINE
  8
126
  6
CONTINUOUS
 62
3
 10
4.4695539E+001
 20
2.226138
 11
4.4722406E+001
 21
2.1992713
  0
LINE
  8
126
  6
CONTINUOUS
 62
3
 10
4.481392E+001
 20
2.1077572
 11
4.4847232E+001
 21
2.0744451
  0
LINE
  8
126
  6
CONTINUOUS
 62
3
 10
4.468849E+001
 20
2.222139
 11
4.4715356E+001
 21
2.1952723
  0
LINE
  8
126
  6
CONTINUOUS
 62
3
 10
4.4808764E+001
 20
2.1018646
 11
4.4836184E+001
 21
2.0744451
  0
LINE
  8
126
  6
CONTINUOUS
 62
3
 10
4.468144E+001
 20
2.21814
 11
4.4708307E+001
 21
2.1912732
  0
LINE
  8
126
  6
CONTINUOUS
 62
3
 10
4.4803608E+001
 20
2.095972
 11
4.4829563E+001
 21
2.0700168
  0
LINE
  8
126
  6
CONTINUOUS
 62
3
 10
4.4674391E+001
 20
2.2141409
 11
4.4701257E+001
 21
2.1872742
  0
LINE
  8
126
  6
CONTINUOUS
 62
3
 10
4.4798452E+001
 20
2.0900795
 11
4.4824407E+001
 21
2.0641242
  0
LINE
  8
126
  6
CONTINUOUS
 62
3
 10
4.4667341E+001
 20
2.2101419
 11
4.4694208E+001
 21
2.1832751
  0
LINE
  8
126
  6
CONTINUOUS
 62
3
 10
4.4793296E+001
 20
2.0841869
 11
4.4819251E+001
 21
2.0582316
  0
LINE
  8
126
  6
CONTINUOUS
 62
3
 10
4.4660292E+001
 20
2.2061428
 11
4.4687158E+001
 21
2.1792761
  0
LINE
  8
126
  6
CONTINUOUS
 62
3
 10
4.478814E+001
 20
2.0782943
 11
4.4814095E+001
 21
2.052339
  0
LINE
  8
126
  6
CONTINUOUS
 62
3
 10
4.4653242E+001
 20
2.2021438
 11
4.4680109E+001
 21
2.175277
  0
LINE
  8
126
  6
CONTINUOUS
 62
3
 10
4.4782984E+001
 20
2.0724018
 11
4.480894E+001
 21
2.0464465
  0
LINE
  8
126
  6
CONTINUOUS
 62
3
 10
4.4646193E+001
 20
2.1981447
 11
4.4673059E+001
 21
2.171278
  0
LINE
  8
126
  6
CONTINUOUS
 62
3
 10
4.4777828E+001
 20
2.0665092
 11
4.4803784E+001
 21
2.0405539
  0
LINE
  8
126
  6
CONTINUOUS
 62
3
 10
4.4639143E+001
 20
2.1941457
 11
4.466601E+001
 21
2.1672789
  0
LINE
  8
126
  6
CONTINUOUS
 62
3
 10
4.4772672E+001
 20
2.0606166
 11
4.4795469E+001
 21
2.0378201
  0
LINE
  8
126
  6
CONTINUOUS
 62
3
 10
4.4632094E+001
 20
2.1901466
 11
4.465896E+001
 21
2.1632799
  0
LINE
  8
126
  6
CONTINUOUS
 62
3
 10
4.4767516E+001
 20
2.054724
 11
4.478442E+001
 21
2.0378201
  0
LINE
  8
126
  6
CONTINUOUS
 62
3
 10
4.4625044E+001
 20
2.1861476
 11
4.4651911E+001
 21
2.1592808
  0
LINE
  8
126
  6
CONTINUOUS
 62
3
 10
4.476236E+001
 20
2.0488315
 11
4.4773372E+001
 21
2.0378201
  0
LINE
  8
126
  6
CONTINUOUS
 62
3
 10
4.4617995E+001
 20
2.1821485
 11
4.4644862E+001
 21
2.1552818
  0
LINE
  8
126
  6
CONTINUOUS
 62
3
 10
4.4757204E+001
 20
2.0429389
 11
4.4762323E+001
 21
2.0378201
  0
LINE
  8
126
  6
CONTINUOUS
 62
3
 10
4.4610945E+001
 20
2.1781495
 11
4.4637812E+001
 21
2.1512827
  0
LINE
  8
126
  6
CONTINUOUS
 62
3
 10
4.4603896E+001
 20
2.1741504
 11
4.4630762E+001
 21
2.1472837
  0
LINE
  8
126
  6
CONTINUOUS
 62
3
 10
4.4702505E+001
 20
2.0755409
 11
4.4740226E+001
 21
2.0378201
  0
LINE
  8
126
  6
CONTINUOUS
 62
3
 10
4.4596846E+001
 20
2.1701514
 11
4.4729178E+001
 21
2.0378201
  0
LINE
  8
126
  6
CONTINUOUS
 62
3
 10
4.4589797E+001
 20
2.1661523
 11
4.4718129E+001
 21
2.0378201
  0
LINE
  8
126
  6
CONTINUOUS
 62
3
 10
4.4518651E+001
 20
2.2262495
 11
4.452756E+001
 21
2.217341
  0
LINE
  8
126
  6
CONTINUOUS
 62
3
 10
4.4582747E+001
 20
2.1621533
 11
4.470708E+001
 21
2.0378201
  0
LINE
  8
126
  6
CONTINUOUS
 62
3
 10
4.4507603E+001
 20
2.2262495
 11
4.4525903E+001
 21
2.2079486
  0
LINE
  8
126
  6
CONTINUOUS
 62
3
 10
4.4575698E+001
 20
2.1581542
 11
4.4696032E+001
 21
2.0378201
  0
LINE
  8
126
  6
CONTINUOUS
 62
3
 10
4.4496554E+001
 20
2.2262495
 11
4.4524247E+001
 21
2.1985562
  0
LINE
  8
126
  6
CONTINUOUS
 62
3
 10
4.4568648E+001
 20
2.1541552
 11
4.4684983E+001
 21
2.0378201
  0
LINE
  8
126
  6
CONTINUOUS
 62
3
 10
4.4485505E+001
 20
2.2262495
 11
4.4522591E+001
 21
2.1891638
  0
LINE
  8
126
  6
CONTINUOUS
 62
3
 10
4.4561599E+001
 20
2.1501561
 11
4.4673935E+001
 21
2.0378201
  0
LINE
  8
126
  6
CONTINUOUS
 62
3
 10
4.4476587E+001
 20
2.2241192
 11
4.4520935E+001
 21
2.1797714
  0
LINE
  8
126
  6
CONTINUOUS
 62
3
 10
4.4554549E+001
 20
2.1461571
 11
4.4662886E+001
 21
2.0378201
  0
LINE
  8
126
  6
CONTINUOUS
 62
3
 10
4.4474931E+001
 20
2.2147268
 11
4.4519279E+001
 21
2.1703789
  0
LINE
  8
126
  6
CONTINUOUS
 62
3
 10
4.45475E+001
 20
2.142158
 11
4.4574367E+001
 21
2.1152913
  0
LINE
  8
126
  6
CONTINUOUS
 62
3
 10
4.4473275E+001
 20
2.2053344
 11
4.4517623E+001
 21
2.1609865
  0
LINE
  8
126
  6
CONTINUOUS
 62
3
 10
4.454045E+001
 20
2.138159
 11
4.4567317E+001
 21
2.1112923
  0
LINE
  8
126
  6
CONTINUOUS
 62
3
 10
4.4471619E+001
 20
2.195942
 11
4.4515967E+001
 21
2.1515941
  0
LINE
  8
126
  6
CONTINUOUS
 62
3
 10
4.4533401E+001
 20
2.1341599
 11
4.4560268E+001
 21
2.1072932
  0
LINE
  8
126
  6
CONTINUOUS
 62
3
 10
4.4469963E+001
 20
2.1865496
 11
4.451431E+001
 21
2.1422017
  0
LINE
  8
126
  6
CONTINUOUS
 62
3
 10
4.4526351E+001
 20
2.1301609
 11
4.4553218E+001
 21
2.1032942
  0
LINE
  8
126
  6
CONTINUOUS
 62
3
 10
4.4468307E+001
 20
2.1771571
 11
4.4512654E+001
 21
2.1328093
  0
LINE
  8
126
  6
CONTINUOUS
 62
3
 10
4.4519302E+001
 20
2.1261618
 11
4.4546169E+001
 21
2.0992951
  0
LINE
  8
126
  6
CONTINUOUS
 62
3
 10
4.446665E+001
 20
2.1677647
 11
4.4510998E+001
 21
2.1234169
  0
LINE
  8
126
  6
CONTINUOUS
 62
3
 10
4.4512252E+001
 20
2.1221628
 11
4.4539119E+001
 21
2.0952961
  0
LINE
  8
126
  6
CONTINUOUS
 62
3
 10
4.4464994E+001
 20
2.1583723
 11
4.453207E+001
 21
2.091297
  0
LINE
  8
126
  6
CONTINUOUS
 62
3
 10
4.4463338E+001
 20
2.1489799
 11
4.452502E+001
 21
2.087298
  0
LINE
  8
126
  6
CONTINUOUS
 62
3
 10
4.4461682E+001
 20
2.1395875
 11
4.4517971E+001
 21
2.0832989
  0
LINE
  8
126
  6
CONTINUOUS
 62
3
 10
4.4460026E+001
 20
2.1301951
 11
4.4510921E+001
 21
2.0792999
  0
LINE
  8
126
  6
CONTINUOUS
 62
3
 10
4.445837E+001
 20
2.1208027
 11
4.4503872E+001
 21
2.0753008
  0
LINE
  8
126
  6
CONTINUOUS
 62
3
 10
4.4456714E+001
 20
2.1114103
 11
4.4501061E+001
 21
2.0670625
  0
LINE
  8
126
  6
CONTINUOUS
 62
3
 10
4.4455057E+001
 20
2.1020179
 11
4.4499405E+001
 21
2.0576701
  0
LINE
  8
126
  6
CONTINUOUS
 62
3
 10
4.4453401E+001
 20
2.0926255
 11
4.4497749E+001
 21
2.0482776
  0
LINE
  8
126
  6
CONTINUOUS
 62
3
 10
4.4451745E+001
 20
2.0832331
 11
4.4496093E+001
 21
2.0388852
  0
LINE
  8
126
  6
CONTINUOUS
 62
3
 10
4.4450089E+001
 20
2.0738407
 11
4.448611E+001
 21
2.0378201
  0
LINE
  8
126
  6
CONTINUOUS
 62
3
 10
4.4448433E+001
 20
2.0644482
 11
4.4475061E+001
 21
2.0378201
  0
TEXT
  8
1
  6
CONTINUOUS
 62
1
 10
4.6910703E+001
 20
1.6600047
 40
1.25E-001
  1
TEMPLATE FOR 1732
 72
1
 73
2
 11
4.5848203E+001
 21
1.5975047
  0
TEXT
  8
126
  6
CONTINUOUS
 62
3
 10
4.7335173E+001
 20
1.1638916
 40
1.0E-001
  1
10NOV03
 72
1
 73
2
 11
4.6985173E+001
 21
1.1138916
  0
TEXT
  8
126
  6
CONTINUOUS
 62
3
 10
4.4465047E+001
 20
1.19776
 40
1.0E-001
  1
KAB
 41
1.0
  0
TEXT
  8
126
  6
CONTINUOUS
 62
3
 10
4.4715744E+001
 20
9.557075E-001
 40
1.0E-001
  1
FULL
  0
TEXT
  8
1
  6
CONTINUOUS
 62
1
 10
4.6580914E+001
 20
4.702606E-001
 40
1.875E-001
  1
74180417
 72
1
 73
2
 11
4.5830914E+001
 21
3.765106E-001
  0
LINE
  8
126
  6
CONTINUOUS
 62
3
 10
4.4446777E+001
 20
2.0550558
 11
4.4464012E+001
 21
2.0378201
  0
LINE
  8
126
  6
CONTINUOUS
 62
3
 10
4.4445121E+001
 20
2.0456634
 11
4.4452964E+001
 21
2.0378201
  0
LINE
  8
126
  6
CONTINUOUS
 62
3
 10
4.4253486E+001
 20
2.2262495
 11
4.4258902E+001
 21
2.2208336
  0
LINE
  8
126
  6
CONTINUOUS
 62
3
 10
4.441454E+001
 20
2.0651951
 11
4.4420108E+001
 21
2.0596276
  0
LINE
  8
126
  6
CONTINUOUS
 62
3
 10
4.4242438E+001
 20
2.2262495
 11
4.4257246E+001
 21
2.2114412
  0
LINE
  8
126
  6
CONTINUOUS
 62
3
 10
4.4403492E+001
 20
2.0651951
 11
4.4418452E+001
 21
2.0502352
  0
LINE
  8
126
  6
CONTINUOUS
 62
3
 10
4.4231389E+001
 20
2.2262495
 11
4.425559E+001
 21
2.2020487
  0
LINE
  8
126
  6
CONTINUOUS
 62
3
 10
4.4392443E+001
 20
2.0651951
 11
4.4416796E+001
 21
2.0408428
  0
LINE
  8
126
  6
CONTINUOUS
 62
3
 10
4.422034E+001
 20
2.2262495
 11
4.4253934E+001
 21
2.1926564
  0
LINE
  8
126
  6
CONTINUOUS
 62
3
 10
4.4381395E+001
 20
2.0651951
 11
4.440877E+001
 21
2.0378201
  0
LINE
  8
126
  6
CONTINUOUS
 62
3
 10
4.4209292E+001
 20
2.2262495
 11
4.4252277E+001
 21
2.1832639
  0
LINE
  8
126
  6
CONTINUOUS
 62
3
 10
4.4370346E+001
 20
2.0651951
 11
4.4397721E+001
 21
2.0378201
  0
LINE
  8
126
  6
CONTINUOUS
 62
3
 10
4.4206273E+001
 20
2.2182194
 11
4.4250621E+001
 21
2.1738715
  0
LINE
  8
126
  6
CONTINUOUS
 62
3
 10
4.4359298E+001
 20
2.0651951
 11
4.4386673E+001
 21
2.0378201
  0
LINE
  8
126
  6
CONTINUOUS
 62
3
 10
4.4204617E+001
 20
2.208827
 11
4.4248965E+001
 21
2.1644791
  0
LINE
  8
126
  6
CONTINUOUS
 62
3
 10
4.4348249E+001
 20
2.0651951
 11
4.4375624E+001
 21
2.0378201
  0
LINE
  8
126
  6
CONTINUOUS
 62
3
 10
4.4202961E+001
 20
2.1994345
 11
4.4247309E+001
 21
2.1550867
  0
LINE
  8
126
  6
CONTINUOUS
 62
3
 10
4.4337201E+001
 20
2.0651951
 11
4.4364576E+001
 21
2.0378201
  0
LINE
  8
126
  6
CONTINUOUS
 62
3
 10
4.4165098E+001
 20
2.2262495
 11
4.4167004E+001
 21
2.224343
  0
LINE
  8
126
  6
CONTINUOUS
 62
3
 10
4.4201305E+001
 20
2.1900421
 11
4.4245653E+001
 21
2.1456943
  0
LINE
  8
126
  6
CONTINUOUS
 62
3
 10
4.4326152E+001
 20
2.0651951
 11
4.4353527E+001
 21
2.0378201
  0
LINE
  8
126
  6
CONTINUOUS
 62
3
 10
4.4154049E+001
 20
2.2262495
 11
4.4165348E+001
 21
2.2149506
  0
LINE
  8
126
  6
CONTINUOUS
 62
3
 10
4.4199649E+001
 20
2.1806497
 11
4.4243997E+001
 21
2.1363019
  0
LINE
  8
126
  6
CONTINUOUS
 62
3
 10
4.4315104E+001
 20
2.0651951
 11
4.4342479E+001
 21
2.0378201
  0
LINE
  8
126
  6
CONTINUOUS
 62
3
 10
4.4143001E+001
 20
2.2262495
 11
4.4163692E+001
 21
2.2055582
  0
LINE
  8
126
  6
CONTINUOUS
 62
3
 10
4.4197993E+001
 20
2.1712573
 11
4.4242341E+001
 21
2.1269095
  0
LINE
  8
126
  6
CONTINUOUS
 62
3
 10
4.4304055E+001
 20
2.0651951
 11
4.433143E+001
 21
2.0378201
  0
LINE
  8
126
  6
CONTINUOUS
 62
3
 10
4.4131952E+001
 20
2.2262495
 11
4.4159327E+001
 21
2.1988745
  0
LINE
  8
126
  6
CONTINUOUS
 62
3
 10
4.4196337E+001
 20
2.1618649
 11
4.4240684E+001
 21
2.1175171
  0
LINE
  8
126
  6
CONTINUOUS
 62
3
 10
4.4293006E+001
 20
2.0651951
 11
4.4320381E+001
 21
2.0378201
  0
LINE
  8
126
  6
CONTINUOUS
 62
3
 10
4.4120904E+001
 20
2.2262495
 11
4.4148279E+001
 21
2.1988745
  0
LINE
  8
126
  6
CONTINUOUS
 62
3
 10
4.4194681E+001
 20
2.1524725
 11
4.4239028E+001
 21
2.1081247
  0
LINE
  8
126
  6
CONTINUOUS
 62
3
 10
4.4281958E+001
 20
2.0651951
 11
4.4309333E+001
 21
2.0378201
  0
LINE
  8
126
  6
CONTINUOUS
 62
3
 10
4.4109855E+001
 20
2.2262495
 11
4.413723E+001
 21
2.1988745
  0
LINE
  8
126
  6
CONTINUOUS
 62
3
 10
4.4193024E+001
 20
2.1430801
 11
4.4237372E+001
 21
2.0987323
  0
LINE
  8
126
  6
CONTINUOUS
 62
3
 10
4.4270909E+001
 20
2.0651951
 11
4.4298284E+001
 21
2.0378201
  0
LINE
  8
126
  6
CONTINUOUS
 62
3
 10
4.4098806E+001
 20
2.2262495
 11
4.4126181E+001
 21
2.1988745
  0
LINE
  8
126
  6
CONTINUOUS
 62
3
 10
4.4191368E+001
 20
2.1336877
 11
4.4235716E+001
 21
2.0893399
  0
LINE
  8
126
  6
CONTINUOUS
 62
3
 10
4.4259861E+001
 20
2.0651951
 11
4.4287236E+001
 21
2.0378201
  0
LINE
  8
126
  6
CONTINUOUS
 62
3
 10
4.4087758E+001
 20
2.2262495
 11
4.4115133E+001
 21
2.1988745
  0
LINE
  8
126
  6
CONTINUOUS
 62
3
 10
4.4189712E+001
 20
2.1242953
 11
4.423406E+001
 21
2.0799475
  0
LINE
  8
126
  6
CONTINUOUS
 62
3
 10
4.4248812E+001
 20
2.0651951
 11
4.4276187E+001
 21
2.0378201
  0
LINE
  8
126
  6
CONTINUOUS
 62
3
 10
4.4076709E+001
 20
2.2262495
 11
4.4104084E+001
 21
2.1988745
  0
LINE
  8
126
  6
CONTINUOUS
 62
3
 10
4.4188056E+001
 20
2.1149029
 11
4.4232404E+001
 21
2.070555
  0
LINE
  8
126
  6
CONTINUOUS
 62
3
 10
4.4237764E+001
 20
2.0651951
 11
4.4265139E+001
 21
2.0378201
  0
LINE
  8
126
  6
CONTINUOUS
 62
3
 10
4.4065661E+001
 20
2.2262495
 11
4.4093036E+001
 21
2.1988745
  0
LINE
  8
126
  6
CONTINUOUS
 62
3
 10
4.41864E+001
 20
2.1055105
 11
4.425409E+001
 21
2.0378201
  0
LINE
  8
126
  6
CONTINUOUS
 62
3
 10
4.4054612E+001
 20
2.2262495
 11
4.4081987E+001
 21
2.1988745
  0
LINE
  8
126
  6
CONTINUOUS
 62
3
 10
4.4135077E+001
 20
2.1457848
 11
4.4139653E+001
 21
2.1412092
  0
LINE
  8
126
  6
CONTINUOUS
 62
3
 10
4.4184744E+001
 20
2.096118
 11
4.4243042E+001
 21
2.0378201
  0
LINE
  8
126
  6
CONTINUOUS
 62
3
 10
4.4043564E+001
 20
2.2262495
 11
4.4070939E+001
 21
2.1988745
  0
LINE
  8
126
  6
CONTINUOUS
 62
3
 10
4.4124028E+001
 20
2.1457848
 11
4.4137996E+001
 21
2.1318168
  0
LINE
  8
126
  6
CONTINUOUS
 62
3
 10
4.4183088E+001
 20
2.0867256
 11
4.4231993E+001
 21
2.0378201
  0
LINE
  8
126
  6
CONTINUOUS
 62
3
 10
4.4032515E+001
 20
2.2262495
 11
4.405989E+001
 21
2.1988745
  0
LINE
  8
126
  6
CONTINUOUS
 62
3
 10
4.411298E+001
 20
2.1457848
 11
4.413634E+001
 21
2.1224244
  0
LINE
  8
126
  6
CONTINUOUS
 62
3
 10
4.4181431E+001
 20
2.0773332
 11
4.4220945E+001
 21
2.0378201
  0
LINE
  8
126
  6
CONTINUOUS
 62
3
 10
4.4021467E+001
 20
2.2262495
 11
4.4048842E+001
 21
2.1988745
  0
LINE
  8
126
  6
CONTINUOUS
 62
3
 10
4.4101931E+001
 20
2.1457848
 11
4.4129431E+001
 21
2.1182848
  0
LINE
  8
126
  6
CONTINUOUS
 62
3
 10
4.4179775E+001
 20
2.0679408
 11
4.4209896E+001
 21
2.0378201
  0
LINE
  8
126
  6
CONTINUOUS
 62
3
 10
4.4010418E+001
 20
2.2262495
 11
4.4037793E+001
 21
2.1988745
  0
LINE
  8
126
  6
CONTINUOUS
 62
3
 10
4.4090883E+001
 20
2.1457848
 11
4.4118383E+001
 21
2.1182848
  0
LINE
  8
126
  6
CONTINUOUS
 62
3
 10
4.4178119E+001
 20
2.0585484
 11
4.4198847E+001
 21
2.0378201
  0
LINE
  8
126
  6
CONTINUOUS
 62
3
 10
4.399937E+001
 20
2.2262495
 11
4.4026745E+001
 21
2.1988745
  0
LINE
  8
126
  6
CONTINUOUS
 62
3
 10
4.4079834E+001
 20
2.1457848
 11
4.4107334E+001
 21
2.1182848
  0
LINE
  8
126
  6
CONTINUOUS
 62
3
 10
4.4176463E+001
 20
2.049156
 11
4.4187799E+001
 21
2.0378201
  0
LINE
  8
126
  6
CONTINUOUS
 62
3
 10
4.3988321E+001
 20
2.2262495
 11
4.4015696E+001
 21
2.1988745
  0
LINE
  8
126
  6
CONTINUOUS
 62
3
 10
4.4068786E+001
 20
2.1457848
 11
4.4096286E+001
 21
2.1182848
  0
LINE
  8
126
  6
CONTINUOUS
 62
3
 10
4.4149375E+001
 20
2.0651951
 11
4.4151296E+001
 21
2.0632743
  0
LINE
  8
126
  6
CONTINUOUS
 62
3
 10
4.4174807E+001
 20
2.0397636
 11
4.417675E+001
 21
2.0378201
  0
LINE
  8
126
  6
CONTINUOUS
 62
3
 10
4.3977272E+001
 20
2.2262495
 11
4.4004647E+001
 21
2.1988745
  0
LINE
  8
126
  6
CONTINUOUS
 62
3
 10
4.4057737E+001
 20
2.1457848
 11
4.4085237E+001
 21
2.1182848
  0
LINE
  8
126
  6
CONTINUOUS
 62
3
 10
4.4138327E+001
 20
2.0651951
 11
4.414964E+001
 21
2.0538819
  0
LINE
  8
126
  6
CONTINUOUS
 62
3
 10
4.3966224E+001
 20
2.2262495
 11
4.3993599E+001
 21
2.1988745
  0
LINE
  8
126
  6
CONTINUOUS
 62
3
 10
4.4046689E+001
 20
2.1457848
 11
4.4074189E+001
 21
2.1182848
  0
LINE
  8
126
  6
CONTINUOUS
 62
3
 10
4.4127278E+001
 20
2.0651951
 11
4.4147984E+001
 21
2.0444895
  0
LINE
  8
126
  6
CONTINUOUS
 62
3
 10
4.3955175E+001
 20
2.2262495
 11
4.398255E+001
 21
2.1988745
  0
LINE
  8
126
  6
CONTINUOUS
 62
3
 10
4.403564E+001
 20
2.1457848
 11
4.406314E+001
 21
2.1182848
  0
LINE
  8
126
  6
CONTINUOUS
 62
3
 10
4.411623E+001
 20
2.0651951
 11
4.4143605E+001
 21
2.0378201
  0
LINE
  8
126
  6
CONTINUOUS
 62
3
 10
4.3944127E+001
 20
2.2262495
 11
4.3971502E+001
 21
2.1988745
  0
LINE
  8
126
  6
CONTINUOUS
 62
3
 10
4.4024592E+001
 20
2.1457848
 11
4.4052092E+001
 21
2.1182848
  0
LINE
  8
126
  6
CONTINUOUS
 62
3
 10
4.4105181E+001
 20
2.0651951
 11
4.4132556E+001
 21
2.0378201
  0
LINE
  8
126
  6
CONTINUOUS
 62
3
 10
4.3933078E+001
 20
2.2262495
 11
4.3960453E+001
 21
2.1988745
  0
LINE
  8
126
  6
CONTINUOUS
 62
3
 10
4.4013543E+001
 20
2.1457848
 11
4.4041043E+001
 21
2.1182848
  0
LINE
  8
126
  6
CONTINUOUS
 62
3
 10
4.4094133E+001
 20
2.0651951
 11
4.4121508E+001
 21
2.0378201
  0
LINE
  8
126
  6
CONTINUOUS
 62
3
 10
4.392203E+001
 20
2.2262495
 11
4.3951906E+001
 21
2.1963731
  0
LINE
  8
126
  6
CONTINUOUS
 62
3
 10
4.4002494E+001
 20
2.1457848
 11
4.4029994E+001
 21
2.1182848
  0
LINE
  8
126
  6
CONTINUOUS
 62
3
 10
4.4083084E+001
 20
2.0651951
 11
4.4110459E+001
 21
2.0378201
  0
LINE
  8
126
  6
CONTINUOUS
 62
3
 10
4.3910981E+001
 20
2.2262495
 11
4.395025E+001
 21
2.1869807
  0
LINE
  8
126
  6
CONTINUOUS
 62
3
 10
4.3991446E+001
 20
2.1457848
 11
4.4018946E+001
 21
2.1182848
  0
LINE
  8
126
  6
CONTINUOUS
 62
3
 10
4.4072036E+001
 20
2.0651951
 11
4.4099411E+001
 21
2.0378201
  0
LINE
  8
126
  6
CONTINUOUS
 62
3
 10
4.3904269E+001
 20
2.2219136
 11
4.3948594E+001
 21
2.1775883
  0
LINE
  8
126
  6
CONTINUOUS
 62
3
 10
4.3980397E+001
 20
2.1457848
 11
4.4007897E+001
 21
2.1182848
  0
LINE
  8
126
  6
CONTINUOUS
 62
3
 10
4.4060987E+001
 20
2.0651951
 11
4.4088362E+001
 21
2.0378201
  0
LINE
  8
126
  6
CONTINUOUS
 62
3
 10
4.3902612E+001
 20
2.2125211
 11
4.3946938E+001
 21
2.1681959
  0
LINE
  8
126
  6
CONTINUOUS
 62
3
 10
4.3969349E+001
 20
2.1457848
 11
4.3996849E+001
 21
2.1182848
  0
LINE
  8
126
  6
CONTINUOUS
 62
3
 10
4.4049938E+001
 20
2.0651951
 11
4.4077313E+001
 21
2.0378201
  0
LINE
  8
126
  6
CONTINUOUS
 62
3
 10
4.3900956E+001
 20
2.2031287
 11
4.3945282E+001
 21
2.1588035
  0
LINE
  8
126
  6
CONTINUOUS
 62
3
 10
4.39583E+001
 20
2.1457848
 11
4.39858E+001
 21
2.1182848
  0
LINE
  8
126
  6
CONTINUOUS
 62
3
 10
4.403889E+001
 20
2.0651951
 11
4.4066265E+001
 21
2.0378201
  0
LINE
  8
126
  6
CONTINUOUS
 62
3
 10
4.38993E+001
 20
2.1937363
 11
4.3943625E+001
 21
2.1494111
  0
LINE
  8
126
  6
CONTINUOUS
 62
3
 10
4.3947252E+001
 20
2.1457848
 11
4.3974752E+001
 21
2.1182848
  0
LINE
  8
126
  6
CONTINUOUS
 62
3
 10
4.4027841E+001
 20
2.0651951
 11
4.4055216E+001
 21
2.0378201
  0
LINE
  8
126
  6
CONTINUOUS
 62
3
 10
4.3897644E+001
 20
2.1843439
 11
4.3963703E+001
 21
2.1182848
  0
LINE
  8
126
  6
CONTINUOUS
 62
3
 10
4.4016793E+001
 20
2.0651951
 11
4.4044168E+001
 21
2.0378201
  0
LINE
  8
126
  6
CONTINUOUS
 62
3
 10
4.3895988E+001
 20
2.1749515
 11
4.3952655E+001
 21
2.1182848
  0
LINE
  8
126
  6
CONTINUOUS
 62
3
 10
4.4005744E+001
 20
2.0651951
 11
4.4033119E+001
 21
2.0378201
  0
LINE
  8
126
  6
CONTINUOUS
 62
3
 10
4.3894332E+001
 20
2.1655591
 11
4.3941701E+001
 21
2.11819
  0
LINE
  8
126
  6
CONTINUOUS
 62
3
 10
4.3994696E+001
 20
2.0651951
 11
4.4022071E+001
 21
2.0378201
  0
LINE
  8
126
  6
CONTINUOUS
 62
3
 10
4.3892676E+001
 20
2.1561667
 11
4.3940045E+001
 21
2.1087976
  0
LINE
  8
126
  6
CONTINUOUS
 62
3
 10
4.3983647E+001
 20
2.0651951
 11
4.4011022E+001
 21
2.0378201
  0
LINE
  8
126
  6
CONTINUOUS
 62
3
 10
4.3891019E+001
 20
2.1467743
 11
4.3938389E+001
 21
2.0994052
  0
LINE
  8
126
  6
CONTINUOUS
 62
3
 10
4.3972599E+001
 20
2.0651951
 11
4.3999974E+001
 21
2.0378201
  0
LINE
  8
126
  6
CONTINUOUS
 62
3
 10
4.3889363E+001
 20
2.1373819
 11
4.3936732E+001
 21
2.0900128
  0
LINE
  8
126
  6
CONTINUOUS
 62
3
 10
4.396155E+001
 20
2.0651951
 11
4.3988925E+001
 21
2.0378201
  0
LINE
  8
126
  6
CONTINUOUS
 62
3
 10
4.3887707E+001
 20
2.1279895
 11
4.3935076E+001
 21
2.0806204
  0
LINE
  8
126
  6
CONTINUOUS
 62
3
 10
4.3950502E+001
 20
2.0651951
 11
4.3977877E+001
 21
2.0378201
  0
LINE
  8
126
  6
CONTINUOUS
 62
3
 10
4.3886051E+001
 20
2.1185971
 11
4.393342E+001
 21
2.071228
  0
LINE
  8
126
  6
CONTINUOUS
 62
3
 10
4.3939453E+001
 20
2.0651951
 11
4.3966828E+001
 21
2.0378201
  0
LINE
  8
126
  6
CONTINUOUS
 62
3
 10
4.3884395E+001
 20
2.1092047
 11
4.3955779E+001
 21
2.0378201
  0
LINE
  8
126
  6
CONTINUOUS
 62
3
 10
4.3882739E+001
 20
2.0998122
 11
4.3944731E+001
 21
2.0378201
  0
LINE
  8
126
  6
CONTINUOUS
 62
3
 10
4.3881083E+001
 20
2.0904198
 11
4.3933682E+001
 21
2.0378201
  0
LINE
  8
126
  6
CONTINUOUS
 62
3
 10
4.3879427E+001
 20
2.0810274
 11
4.3922634E+001
 21
2.0378201
  0
LINE
  8
126
  6
CONTINUOUS
 62
3
 10
4.387777E+001
 20
2.071635
 11
4.3911585E+001
 21
2.0378201
  0
LINE
  8
126
  6
CONTINUOUS
 62
3
 10
4.3876114E+001
 20
2.0622426
 11
4.3900537E+001
 21
2.0378201
  0
LINE
  8
126
  6
CONTINUOUS
 62
3
 10
4.3874458E+001
 20
2.0528502
 11
4.3889488E+001
 21
2.0378201
  0
LINE
  8
126
  6
CONTINUOUS
 62
3
 10
4.3872802E+001
 20
2.0434578
 11
4.387844E+001
 21
2.0378201
  0
LINE
  8
1
  6
CONTINUOUS
 62
6
 10
4.7835307E+001
 20
2.2019E-001
 11
4.7835307E+001
 21
2.4005865E+001
  0
LINE
  8
1
  6
CONTINUOUS
 62
6
 10
2.938701E-001
 20
2.2019E-001
 11
4.7835307E+001
 21
2.2019E-001
  0
LINE
  8
1
  6
CONTINUOUS
 62
6
 10
4.7835307E+001
 20
2.4005865E+001
 11
2.938701E-001
 21
2.4005865E+001
  0
LINE
  8
1
  6
CONTINUOUS
 62
6
 10
2.938701E-001
 20
2.4005865E+001
 11
2.938701E-001
 21
2.2019E-001
  0
INSERT
  2
*TX34
  8
126
 10
4.1766559E+001
 20
1.4342421
  0
INSERT
  2
*TX35
  8
126
 10
3.993603E+001
 20
7.36827E-001
  0
ENDSEC
  0
EOF
