  0
SECTION
  2
HEADER
  9
$ACADVER
  1
AC1009
999
I-DEAS Drafting Master Series 7m1 Not Encoded
  9
$EXTMIN
 10
0.0
 20
0.0
  9
$EXTMAX
 10
3.4E+001
 20
2.2E+001
  9
$TEXTSIZE
 40
1.25E-001
  9
$LTSCALE
 40
1.0
  9
$CLAYER
  8
1
  9
$CECOLOR
 62
1
  9
$DIMASZ
 40
1.25E-001
  9
$DIMEXO
 40
6.25E-002
  9
$DIMDLI
 40
2.5E-001
  9
$DIMEXE
 40
1.25E-001
  9
$DIMTP
 40
5.0E-003
  9
$DIMTM
 40
-5.0E-003
  9
$DIMTXT
 40
1.25E-001
  9
$DIMLIM
 70
0
  9
$DIMTIH
 70
1
  9
$DIMTOH
 70
1
  9
$DIMSE1
 70
0
  9
$DIMSE2
 70
0
  9
$DIMTAD
 70
0
  9
$DIMASO
 70
1
  9
$DIMALT
 70
0
  9
$DIMALTD
 70
0
  9
$DIMTOFL
 70
1
  9
$DIMTIX
 70
0
  9
$DIMSAH
 70
0
  9
$DIMTFAC
 40
1.0
  9
$DIMGAP
 40
6.25E-002
  9
$LUNITS
 70
2
  9
$LUPREC
 70
3
  9
$FILLETRAD
 40
5.0E-001
  9
$AUNITS
 70
0
  9
$AUPREC
 70
1
  9
$CHAMFERA
 40
2.5E-001
  9
$CHAMFERB
 40
2.5E-001
  9
$ANGBASE
 50
0.0
  9
$ANGDIR
 70
0
  9
$PDMODE
 70
2
  9
$PDSIZE
 40
-1.0E-002
  9
$SPLINETYPE
 70
6
  0
ENDSEC
  0
SECTION
  2
TABLES
  0
TABLE
  2
LTYPE
 70
7
  0
LTYPE
  2
HIDDENNEW00
  3
_ 
 70
64
 72
65
 73
2
 40
1.875E-001
 49
1.25E-001
 49
-6.25E-002
  0
LTYPE
  2
HIDDENNEW01
  3
_ 
 70
64
 72
65
 73
2
 40
1.875E-001
 49
1.25E-001
 49
-6.25E-002
  0
LTYPE
  2
HIDDEN
  3
_ 
 70
64
 72
65
 73
2
 40
1.875E-001
 49
1.25E-001
 49
-6.25E-002
  0
LTYPE
  2
CENTERLINE
  3
_ 
 70
64
 72
65
 73
4
 40
1.25
 49
1.0
 49
-6.25E-002
 49
1.25E-001
 49
-6.25E-002
  0
LTYPE
  2
PHANTOM
  3
_ 
 70
64
 72
65
 73
6
 40
1.1875
 49
7.5E-001
 49
-6.25E-002
 49
1.25E-001
 49
-6.25E-002
 49
1.25E-001
 49
-6.25E-002
  0
LTYPE
  2
SHORT_DASH
  3
_ 
 70
64
 72
65
 73
2
 40
1.25E-001
 49
6.25E-002
 49
-6.25E-002
  0
LTYPE
  2
LONG_DASH
  3
_ 
 70
64
 72
65
 73
2
 40
3.75E-001
 49
1.875E-001
 49
-1.875E-001
  0
ENDTAB
  0
TABLE
  2
LAYER
 70
258
  0
LAYER
  2
1
 70
0
 62
7
  6
CONTINUOUS
  0
LAYER
  2
2
 70
0
 62
7
  6
CONTINUOUS
  0
LAYER
  2
3
 70
0
 62
7
  6
CONTINUOUS
  0
LAYER
  2
4
 70
0
 62
7
  6
CONTINUOUS
  0
LAYER
  2
5
 70
0
 62
7
  6
CONTINUOUS
  0
LAYER
  2
6
 70
0
 62
7
  6
CONTINUOUS
  0
LAYER
  2
7
 70
0
 62
7
  6
CONTINUOUS
  0
LAYER
  2
8
 70
0
 62
7
  6
CONTINUOUS
  0
LAYER
  2
9
 70
0
 62
7
  6
CONTINUOUS
  0
LAYER
  2
10
 70
0
 62
7
  6
CONTINUOUS
  0
LAYER
  2
11
 70
0
 62
7
  6
CONTINUOUS
  0
LAYER
  2
12
 70
0
 62
7
  6
CONTINUOUS
  0
LAYER
  2
13
 70
0
 62
7
  6
CONTINUOUS
  0
LAYER
  2
14
 70
0
 62
7
  6
CONTINUOUS
  0
LAYER
  2
15
 70
0
 62
7
  6
CONTINUOUS
  0
LAYER
  2
16
 70
0
 62
7
  6
CONTINUOUS
  0
LAYER
  2
17
 70
0
 62
7
  6
CONTINUOUS
  0
LAYER
  2
18
 70
0
 62
7
  6
CONTINUOUS
  0
LAYER
  2
19
 70
0
 62
7
  6
CONTINUOUS
  0
LAYER
  2
20
 70
0
 62
7
  6
CONTINUOUS
  0
LAYER
  2
21
 70
0
 62
7
  6
CONTINUOUS
  0
LAYER
  2
22
 70
0
 62
7
  6
CONTINUOUS
  0
LAYER
  2
23
 70
0
 62
7
  6
CONTINUOUS
  0
LAYER
  2
24
 70
0
 62
7
  6
CONTINUOUS
  0
LAYER
  2
25
 70
0
 62
7
  6
CONTINUOUS
  0
LAYER
  2
26
 70
0
 62
7
  6
CONTINUOUS
  0
LAYER
  2
27
 70
0
 62
7
  6
CONTINUOUS
  0
LAYER
  2
28
 70
0
 62
7
  6
CONTINUOUS
  0
LAYER
  2
29
 70
0
 62
7
  6
CONTINUOUS
  0
LAYER
  2
30
 70
0
 62
7
  6
CONTINUOUS
  0
LAYER
  2
31
 70
0
 62
7
  6
CONTINUOUS
  0
LAYER
  2
32
 70
0
 62
7
  6
CONTINUOUS
  0
LAYER
  2
33
 70
0
 62
7
  6
CONTINUOUS
  0
LAYER
  2
34
 70
0
 62
7
  6
CONTINUOUS
  0
LAYER
  2
35
 70
0
 62
7
  6
CONTINUOUS
  0
LAYER
  2
36
 70
0
 62
7
  6
CONTINUOUS
  0
LAYER
  2
37
 70
0
 62
7
  6
CONTINUOUS
  0
LAYER
  2
38
 70
0
 62
7
  6
CONTINUOUS
  0
LAYER
  2
39
 70
0
 62
7
  6
CONTINUOUS
  0
LAYER
  2
40
 70
0
 62
7
  6
CONTINUOUS
  0
LAYER
  2
41
 70
0
 62
7
  6
CONTINUOUS
  0
LAYER
  2
42
 70
0
 62
7
  6
CONTINUOUS
  0
LAYER
  2
43
 70
0
 62
7
  6
CONTINUOUS
  0
LAYER
  2
44
 70
0
 62
7
  6
CONTINUOUS
  0
LAYER
  2
45
 70
0
 62
7
  6
CONTINUOUS
  0
LAYER
  2
46
 70
0
 62
7
  6
CONTINUOUS
  0
LAYER
  2
47
 70
0
 62
7
  6
CONTINUOUS
  0
LAYER
  2
48
 70
0
 62
7
  6
CONTINUOUS
  0
LAYER
  2
49
 70
0
 62
7
  6
CONTINUOUS
  0
LAYER
  2
50
 70
0
 62
7
  6
CONTINUOUS
  0
LAYER
  2
51
 70
0
 62
7
  6
CONTINUOUS
  0
LAYER
  2
52
 70
0
 62
7
  6
CONTINUOUS
  0
LAYER
  2
53
 70
0
 62
7
  6
CONTINUOUS
  0
LAYER
  2
54
 70
0
 62
7
  6
CONTINUOUS
  0
LAYER
  2
55
 70
0
 62
7
  6
CONTINUOUS
  0
LAYER
  2
56
 70
0
 62
7
  6
CONTINUOUS
  0
LAYER
  2
57
 70
0
 62
7
  6
CONTINUOUS
  0
LAYER
  2
58
 70
0
 62
7
  6
CONTINUOUS
  0
LAYER
  2
59
 70
0
 62
7
  6
CONTINUOUS
  0
LAYER
  2
60
 70
0
 62
7
  6
CONTINUOUS
  0
LAYER
  2
61
 70
0
 62
7
  6
CONTINUOUS
  0
LAYER
  2
62
 70
0
 62
7
  6
CONTINUOUS
  0
LAYER
  2
63
 70
0
 62
7
  6
CONTINUOUS
  0
LAYER
  2
64
 70
0
 62
7
  6
CONTINUOUS
  0
LAYER
  2
65
 70
0
 62
7
  6
CONTINUOUS
  0
LAYER
  2
66
 70
0
 62
7
  6
CONTINUOUS
  0
LAYER
  2
67
 70
0
 62
7
  6
CONTINUOUS
  0
LAYER
  2
68
 70
0
 62
7
  6
CONTINUOUS
  0
LAYER
  2
69
 70
0
 62
7
  6
CONTINUOUS
  0
LAYER
  2
70
 70
0
 62
7
  6
CONTINUOUS
  0
LAYER
  2
71
 70
0
 62
7
  6
CONTINUOUS
  0
LAYER
  2
72
 70
0
 62
7
  6
CONTINUOUS
  0
LAYER
  2
73
 70
0
 62
7
  6
CONTINUOUS
  0
LAYER
  2
74
 70
0
 62
7
  6
CONTINUOUS
  0
LAYER
  2
75
 70
0
 62
7
  6
CONTINUOUS
  0
LAYER
  2
76
 70
0
 62
7
  6
CONTINUOUS
  0
LAYER
  2
77
 70
0
 62
7
  6
CONTINUOUS
  0
LAYER
  2
78
 70
0
 62
7
  6
CONTINUOUS
  0
LAYER
  2
79
 70
0
 62
7
  6
CONTINUOUS
  0
LAYER
  2
80
 70
0
 62
7
  6
CONTINUOUS
  0
LAYER
  2
81
 70
0
 62
7
  6
CONTINUOUS
  0
LAYER
  2
82
 70
0
 62
7
  6
CONTINUOUS
  0
LAYER
  2
83
 70
0
 62
7
  6
CONTINUOUS
  0
LAYER
  2
84
 70
0
 62
7
  6
CONTINUOUS
  0
LAYER
  2
85
 70
0
 62
7
  6
CONTINUOUS
  0
LAYER
  2
86
 70
0
 62
7
  6
CONTINUOUS
  0
LAYER
  2
87
 70
0
 62
7
  6
CONTINUOUS
  0
LAYER
  2
88
 70
0
 62
7
  6
CONTINUOUS
  0
LAYER
  2
89
 70
0
 62
7
  6
CONTINUOUS
  0
LAYER
  2
90
 70
0
 62
7
  6
CONTINUOUS
  0
LAYER
  2
91
 70
0
 62
7
  6
CONTINUOUS
  0
LAYER
  2
92
 70
0
 62
7
  6
CONTINUOUS
  0
LAYER
  2
93
 70
0
 62
7
  6
CONTINUOUS
  0
LAYER
  2
94
 70
0
 62
7
  6
CONTINUOUS
  0
LAYER
  2
95
 70
0
 62
7
  6
CONTINUOUS
  0
LAYER
  2
96
 70
0
 62
7
  6
CONTINUOUS
  0
LAYER
  2
97
 70
0
 62
7
  6
CONTINUOUS
  0
LAYER
  2
98
 70
0
 62
7
  6
CONTINUOUS
  0
LAYER
  2
99
 70
0
 62
7
  6
CONTINUOUS
  0
LAYER
  2
100
 70
0
 62
7
  6
CONTINUOUS
  0
LAYER
  2
101
 70
0
 62
7
  6
CONTINUOUS
  0
LAYER
  2
102
 70
0
 62
7
  6
CONTINUOUS
  0
LAYER
  2
103
 70
0
 62
7
  6
CONTINUOUS
  0
LAYER
  2
104
 70
0
 62
7
  6
CONTINUOUS
  0
LAYER
  2
105
 70
0
 62
7
  6
CONTINUOUS
  0
LAYER
  2
106
 70
0
 62
7
  6
CONTINUOUS
  0
LAYER
  2
107
 70
0
 62
7
  6
CONTINUOUS
  0
LAYER
  2
108
 70
0
 62
7
  6
CONTINUOUS
  0
LAYER
  2
109
 70
0
 62
7
  6
CONTINUOUS
  0
LAYER
  2
110
 70
0
 62
7
  6
CONTINUOUS
  0
LAYER
  2
111
 70
0
 62
7
  6
CONTINUOUS
  0
LAYER
  2
112
 70
0
 62
7
  6
CONTINUOUS
  0
LAYER
  2
113
 70
0
 62
7
  6
CONTINUOUS
  0
LAYER
  2
114
 70
0
 62
7
  6
CONTINUOUS
  0
LAYER
  2
115
 70
0
 62
7
  6
CONTINUOUS
  0
LAYER
  2
116
 70
0
 62
7
  6
CONTINUOUS
  0
LAYER
  2
117
 70
0
 62
7
  6
CONTINUOUS
  0
LAYER
  2
118
 70
0
 62
7
  6
CONTINUOUS
  0
LAYER
  2
119
 70
0
 62
7
  6
CONTINUOUS
  0
LAYER
  2
120
 70
0
 62
7
  6
CONTINUOUS
  0
LAYER
  2
121
 70
0
 62
7
  6
CONTINUOUS
  0
LAYER
  2
122
 70
0
 62
7
  6
CONTINUOUS
  0
LAYER
  2
123
 70
0
 62
7
  6
CONTINUOUS
  0
LAYER
  2
124
 70
0
 62
7
  6
CONTINUOUS
  0
LAYER
  2
125
 70
0
 62
7
  6
CONTINUOUS
  0
LAYER
  2
126
 70
0
 62
7
  6
CONTINUOUS
  0
LAYER
  2
127
 70
0
 62
7
  6
CONTINUOUS
  0
LAYER
  2
128
 70
0
 62
7
  6
CONTINUOUS
  0
LAYER
  2
129
 70
0
 62
7
  6
CONTINUOUS
  0
LAYER
  2
130
 70
0
 62
7
  6
CONTINUOUS
  0
LAYER
  2
131
 70
0
 62
7
  6
CONTINUOUS
  0
LAYER
  2
132
 70
0
 62
7
  6
CONTINUOUS
  0
LAYER
  2
133
 70
0
 62
7
  6
CONTINUOUS
  0
LAYER
  2
134
 70
0
 62
7
  6
CONTINUOUS
  0
LAYER
  2
135
 70
0
 62
7
  6
CONTINUOUS
  0
LAYER
  2
136
 70
0
 62
7
  6
CONTINUOUS
  0
LAYER
  2
137
 70
0
 62
7
  6
CONTINUOUS
  0
LAYER
  2
138
 70
0
 62
7
  6
CONTINUOUS
  0
LAYER
  2
139
 70
0
 62
7
  6
CONTINUOUS
  0
LAYER
  2
140
 70
0
 62
7
  6
CONTINUOUS
  0
LAYER
  2
141
 70
0
 62
7
  6
CONTINUOUS
  0
LAYER
  2
142
 70
0
 62
7
  6
CONTINUOUS
  0
LAYER
  2
143
 70
0
 62
7
  6
CONTINUOUS
  0
LAYER
  2
144
 70
0
 62
7
  6
CONTINUOUS
  0
LAYER
  2
145
 70
0
 62
7
  6
CONTINUOUS
  0
LAYER
  2
146
 70
0
 62
7
  6
CONTINUOUS
  0
LAYER
  2
147
 70
0
 62
7
  6
CONTINUOUS
  0
LAYER
  2
148
 70
0
 62
7
  6
CONTINUOUS
  0
LAYER
  2
149
 70
0
 62
7
  6
CONTINUOUS
  0
LAYER
  2
150
 70
0
 62
7
  6
CONTINUOUS
  0
LAYER
  2
151
 70
0
 62
7
  6
CONTINUOUS
  0
LAYER
  2
152
 70
0
 62
7
  6
CONTINUOUS
  0
LAYER
  2
153
 70
0
 62
7
  6
CONTINUOUS
  0
LAYER
  2
154
 70
0
 62
7
  6
CONTINUOUS
  0
LAYER
  2
155
 70
0
 62
7
  6
CONTINUOUS
  0
LAYER
  2
156
 70
0
 62
7
  6
CONTINUOUS
  0
LAYER
  2
157
 70
0
 62
7
  6
CONTINUOUS
  0
LAYER
  2
158
 70
0
 62
7
  6
CONTINUOUS
  0
LAYER
  2
159
 70
0
 62
7
  6
CONTINUOUS
  0
LAYER
  2
160
 70
0
 62
7
  6
CONTINUOUS
  0
LAYER
  2
161
 70
0
 62
7
  6
CONTINUOUS
  0
LAYER
  2
162
 70
0
 62
7
  6
CONTINUOUS
  0
LAYER
  2
163
 70
0
 62
7
  6
CONTINUOUS
  0
LAYER
  2
164
 70
0
 62
7
  6
CONTINUOUS
  0
LAYER
  2
165
 70
0
 62
7
  6
CONTINUOUS
  0
LAYER
  2
166
 70
0
 62
7
  6
CONTINUOUS
  0
LAYER
  2
167
 70
0
 62
7
  6
CONTINUOUS
  0
LAYER
  2
168
 70
0
 62
7
  6
CONTINUOUS
  0
LAYER
  2
169
 70
0
 62
7
  6
CONTINUOUS
  0
LAYER
  2
170
 70
0
 62
7
  6
CONTINUOUS
  0
LAYER
  2
171
 70
0
 62
7
  6
CONTINUOUS
  0
LAYER
  2
172
 70
0
 62
7
  6
CONTINUOUS
  0
LAYER
  2
173
 70
0
 62
7
  6
CONTINUOUS
  0
LAYER
  2
174
 70
0
 62
7
  6
CONTINUOUS
  0
LAYER
  2
175
 70
0
 62
7
  6
CONTINUOUS
  0
LAYER
  2
176
 70
0
 62
7
  6
CONTINUOUS
  0
LAYER
  2
177
 70
0
 62
7
  6
CONTINUOUS
  0
LAYER
  2
178
 70
0
 62
7
  6
CONTINUOUS
  0
LAYER
  2
179
 70
0
 62
7
  6
CONTINUOUS
  0
LAYER
  2
180
 70
0
 62
7
  6
CONTINUOUS
  0
LAYER
  2
Drafting_Hidden_Entities
 70
1
 62
7
  6
CONTINUOUS
  0
ENDTAB
  0
TABLE
  2
STYLE
 70
1
  0
STYLE
  2
STANDARD
 70
64
 40
0.0
 41
1.0
 50
0.0
 71
0
 42
1.0
  3
monotxt.shx
  4

  0
ENDTAB
  0
TABLE
  2
VIEW
 70
0
  0
ENDTAB
  0
TABLE
  2
DIMSTYLE
 70
2
  0
DIMSTYLE
  2
DSTYLE1
 70
0
  3

  4

  5

  6

  7

 40
1.0
 41
5.0E-001
 42
1.0E-001
 43
3.8E-001
 44
2.5E-001
 45
1.0E-003
 46
0.0
 47
5.0E-003
 48
5.0E-003
 71
0
 72
0
 73
1
 74
1
 75
0
 76
0
 77
0
 78
7
140
3.75E-001
141
9.0E-002
142
0.0
143
1.0
144
1.0
145
0.0
146
1.0
147
2.5E-001
170
0
171
2
172
0
173
0
174
0
175
0
176
0
177
0
178
0
  0
DIMSTYLE
  2
DSTYLE2
 70
0
  3

  4

  5

  6

  7

 40
1.0
 41
5.0E-001
 42
6.25E-002
 43
3.8E-001
 44
1.25E-001
 45
1.0E-003
 46
0.0
 47
5.0E-003
 48
5.0E-003
 71
0
 72
0
 73
1
 74
1
 75
1
 76
0
 77
0
 78
7
140
3.75E-001
141
9.0E-002
142
0.0
143
2.54E+001
144
1.0
145
0.0
146
1.0
147
6.25E-002
170
0
171
2
172
0
173
0
174
0
175
0
176
0
177
0
178
0
  0
ENDTAB
  0
ENDSEC
  0
SECTION
  2
BLOCKS
  0
BLOCK
  2
*TX27
  3
*TX
 10
0.0
 20
0.0
 70
65
  0
TEXT
  8
126
  6
CONTINUOUS
 62
3
 10
0.0
 20
0.0
 40
6.053E-002
  1
THIS PRINT IS THE PROPERTY OF ELKAY MANUFACTURING COMPANY
 41
1.0344828
  0
TEXT
  8
126
  6
CONTINUOUS
 62
3
 10
0.0
 20
-1.0553E-001
 40
6.053E-002
  1
AND IS LOANED SUBJECT TO RETURN UPON DEMAND AND UPON THE
 41
1.0344828
  0
TEXT
  8
126
  6
CONTINUOUS
 62
3
 10
0.0
 20
-2.1106E-001
 40
6.053E-002
  1
EXPRESS CONDITION THAT IT IS NOT TO BE USED DIRECTLY OR
 41
1.0344828
  0
TEXT
  8
126
  6
CONTINUOUS
 62
3
 10
0.0
 20
-3.1659E-001
 40
6.053E-002
  1
INDIRECTLY WITHOUT OUR PERMISSION FOR PURPOSES OTHER THAN
 41
1.0344828
  0
TEXT
  8
126
  6
CONTINUOUS
 62
3
 10
0.0
 20
-4.2212E-001
 40
6.053E-002
  1
THOSE FOR WHICH IT WAS FURNISHED.
 41
1.0344828
  0
ENDBLK
  0
BLOCK
  2
*TX28
  3
*TX
 10
0.0
 20
0.0
 70
65
  0
TEXT
  8
1
  6
CONTINUOUS
 62
3
 10
3.7125
 20
1.375E-001
 40
2.75E-001
  1
VERIFY THAT THE MODEL BEING
 72
1
 73
2
 11
0.0
 21
0.0
  0
TEXT
  8
1
  6
CONTINUOUS
 62
3
 10
3.4375
 20
-2.75E-001
 40
2.75E-001
  1
INSTALLED IS LISTED ABOVE
 72
1
 73
2
 11
0.0
 21
-4.125E-001
  0
TEXT
  8
1
  6
CONTINUOUS
 62
3
 10
3.575
 20
-6.875E-001
 40
2.75E-001
  1
BEFORE USING THIS TEMPLATE
 72
1
 73
2
 11
0.0
 21
-8.25E-001
  0
TEXT
  8
1
  6
CONTINUOUS
 62
3
 10
2.75E-001
 20
-1.1
 40
2.75E-001
  1
  
 72
1
 73
2
 11
0.0
 21
-1.2375
  0
TEXT
  8
1
  6
CONTINUOUS
 62
3
 10
2.8875
 20
-1.5125
 40
2.75E-001
  1
CHECK THE TEMPLATE BY
 72
1
 73
2
 11
0.0
 21
-1.65
  0
TEXT
  8
1
  6
CONTINUOUS
 62
3
 10
2.475
 20
-1.925
 40
2.75E-001
  1
LAYING IT OVER THE
 72
1
 73
2
 11
0.0
 21
-2.0625
  0
TEXT
  8
1
  6
CONTINUOUS
 62
3
 10
3.575
 20
-2.3375
 40
2.75E-001
  1
SINK PRIOR TO INSTALLATION
 72
1
 73
2
 11
0.0
 21
-2.475
  0
TEXT
  8
1
  6
CONTINUOUS
 62
3
 10
1.375E-001
 20
-2.75
 40
2.75E-001
  1
 
 72
1
 73
2
 11
0.0
 21
-2.8875
  0
TEXT
  8
1
  6
CONTINUOUS
 62
3
 10
3.85
 20
-3.1625
 40
2.75E-001
  1
FOR QUESTIONS PLEASE CONTACT
 72
1
 73
2
 11
0.0
 21
-3.3
  0
TEXT
  8
1
  6
CONTINUOUS
 62
3
 10
3.025
 20
-3.575
 40
2.75E-001
  1
ELKAY CUSTOMER SERVICE
 72
1
 73
2
 11
0.0
 21
-3.7125
  0
ENDBLK
  0
BLOCK
  2
*TX32
  3
*TX
 10
0.0
 20
0.0
 70
65
  0
TEXT
  8
126
  6
CONTINUOUS
 62
3
 10
9.0E-001
 20
5.0E-002
 40
1.0E-001
  1
24 LB COATED PAPER
 72
1
 73
2
 11
0.0
 21
0.0
  0
TEXT
  8
126
  6
CONTINUOUS
 62
3
 10
2.5E-001
 20
-1.0E-001
 40
1.0E-001
  1
WHITE
 72
1
 73
2
 11
0.0
 21
-1.5E-001
  0
ENDBLK
  0
BLOCK
  2
*TX33
  3
*TX
 10
0.0
 20
0.0
 70
65
  0
TEXT
  8
1
  6
CONTINUOUS
 62
3
 10
9.0E-001
 20
1.5E-001
 40
3.0E-001
  1
D11719
 72
1
 73
2
 11
0.0
 21
0.0
  0
TEXT
  8
1
  6
CONTINUOUS
 62
3
 10
1.05
 20
-3.0E-001
 40
3.0E-001
  1
K511719
 72
1
 73
2
 11
0.0
 21
-4.5E-001
  0
TEXT
  8
1
  6
CONTINUOUS
 62
3
 10
1.05
 20
-7.5E-001
 40
3.0E-001
  1
NS11719
 72
1
 73
2
 11
0.0
 21
-9.0E-001
  0
TEXT
  8
1
  6
CONTINUOUS
 62
3
 10
1.05
 20
-1.2
 40
3.0E-001
  1
SDB1719
 72
1
 73
2
 11
0.0
 21
-1.35
  0
ENDBLK
  0
BLOCK
  2
*D76
  3
*D
 10
0.0
 20
0.0
 70
65
  0
LINE
  8
1
  6
CONTINUOUS
 62
3
 10
1.8495497E+001
 20
2.1152682E+001
 11
2.2337193E+001
 21
2.1152682E+001
  0
LINE
  8
1
  6
CONTINUOUS
 62
3
 10
1.8495497E+001
 20
2.7776816
 11
2.2337193E+001
 21
2.7776816
  0
LINE
  8
1
  6
CONTINUOUS
 62
3
 10
2.2087193E+001
 20
2.1152682E+001
 11
2.200386E+001
 21
2.0652682E+001
  0
LINE
  8
1
  6
CONTINUOUS
 62
3
 10
2.2087193E+001
 20
2.1152682E+001
 11
2.2170526E+001
 21
2.0652682E+001
  0
LINE
  8
1
  6
CONTINUOUS
 62
3
 10
2.200386E+001
 20
2.0652682E+001
 11
2.2170526E+001
 21
2.0652682E+001
  0
LINE
  8
1
  6
CONTINUOUS
 62
3
 10
2.2087193E+001
 20
2.7776816
 11
2.200386E+001
 21
3.2776816
  0
LINE
  8
1
  6
CONTINUOUS
 62
3
 10
2.2087193E+001
 20
2.7776816
 11
2.2170526E+001
 21
3.2776816
  0
LINE
  8
1
  6
CONTINUOUS
 62
3
 10
2.200386E+001
 20
3.2776816
 11
2.2170526E+001
 21
3.2776816
  0
LINE
  8
1
  6
CONTINUOUS
 62
3
 10
2.2087193E+001
 20
2.1152682E+001
 11
2.2087193E+001
 21
1.2402682E+001
  0
LINE
  8
1
  6
CONTINUOUS
 62
3
 10
2.2087193E+001
 20
2.7776816
 11
2.2087193E+001
 21
1.1527682E+001
  0
TEXT
  8
1
  6
CONTINUOUS
 62
3
 10
2.0962193E+001
 20
1.1777682E+001
 40
3.75E-001
  1
18 3/8
  0
ENDBLK
  0
BLOCK
  2
*D77
  3
*D
 10
0.0
 20
0.0
 70
65
  0
LINE
  8
1
  6
CONTINUOUS
 62
3
 10
1.9895498E+001
 20
4.1776816
 11
1.9895498E+001
 21
1.2337846
  0
LINE
  8
1
  6
CONTINUOUS
 62
3
 10
3.5204975
 20
4.1776816
 11
3.5204975
 21
1.2337846
  0
LINE
  8
1
  6
CONTINUOUS
 62
3
 10
1.9895498E+001
 20
1.4837846
 11
1.9395498E+001
 21
1.5671179
  0
LINE
  8
1
  6
CONTINUOUS
 62
3
 10
1.9895498E+001
 20
1.4837846
 11
1.9395498E+001
 21
1.4004513
  0
LINE
  8
1
  6
CONTINUOUS
 62
3
 10
1.9395498E+001
 20
1.5671179
 11
1.9395498E+001
 21
1.4004513
  0
LINE
  8
1
  6
CONTINUOUS
 62
3
 10
3.5204975
 20
1.4837846
 11
4.0204975
 21
1.5671179
  0
LINE
  8
1
  6
CONTINUOUS
 62
3
 10
3.5204975
 20
1.4837846
 11
4.0204975
 21
1.4004513
  0
LINE
  8
1
  6
CONTINUOUS
 62
3
 10
4.0204975
 20
1.5671179
 11
4.0204975
 21
1.4004513
  0
LINE
  8
1
  6
CONTINUOUS
 62
3
 10
1.9895498E+001
 20
1.4837846
 11
1.3082997E+001
 21
1.4837846
  0
LINE
  8
1
  6
CONTINUOUS
 62
3
 10
3.5204975
 20
1.4837846
 11
1.0332997E+001
 21
1.4837846
  0
TEXT
  8
1
  6
CONTINUOUS
 62
3
 10
1.0582997E+001
 20
1.2962846
 40
3.75E-001
  1
16 3/8
  0
ENDBLK
  0
BLOCK
  2
*D89
  3
*D
 10
0.0
 20
0.0
 70
65
  0
LINE
  8
1
  6
CONTINUOUS
 62
3
 10
4.0581157
 20
2.0803256E+001
 11
5.1836512
 21
1.9775906E+001
  0
LINE
  8
1
  6
CONTINUOUS
 62
3
 10
4.0581157
 20
2.0803256E+001
 11
4.3712297
 21
2.0404628E+001
  0
LINE
  8
1
  6
CONTINUOUS
 62
3
 10
4.0581157
 20
2.0803256E+001
 11
4.4835893
 21
2.0527726E+001
  0
LINE
  8
1
  6
CONTINUOUS
 62
3
 10
4.3712297
 20
2.0404628E+001
 11
4.4835893
 21
2.0527726E+001
  0
LINE
  8
1
  6
CONTINUOUS
 62
3
 10
5.3086512
 20
1.9775906E+001
 11
5.1836512
 21
1.9775906E+001
  0
TEXT
  8
1
  6
CONTINUOUS
 62
3
 10
5.3711512
 20
1.9588406E+001
 40
3.75E-001
  1
R 1 1/2
  0
ENDBLK
  0
ENDSEC
  0
SECTION
  2
ENTITIES
  0
LINE
  8
1
  6
CONTINUOUS
 62
1
 10
5.0204975
 20
2.7776816
 11
1.8395498E+001
 21
2.7776816
  0
LINE
  8
1
  6
CONTINUOUS
 62
1
 10
1.9895498E+001
 20
4.2776816
 11
1.9895498E+001
 21
1.9652682E+001
  0
LINE
  8
1
  6
CONTINUOUS
 62
1
 10
1.8395498E+001
 20
2.1152682E+001
 11
5.0204975
 21
2.1152682E+001
  0
LINE
  8
1
  6
CONTINUOUS
 62
1
 10
3.5204975
 20
1.9652682E+001
 11
3.5204975
 21
4.2776816
  0
ARC
  8
1
  6
CONTINUOUS
 62
1
 10
5.0204975
 20
4.2776816
 40
1.5
 50
1.8E+002
 51
2.7E+002
  0
ARC
  8
1
  6
CONTINUOUS
 62
1
 10
1.8395498E+001
 20
4.2776816
 40
1.5
 50
2.7E+002
 51
3.6E+002
  0
ARC
  8
1
  6
CONTINUOUS
 62
1
 10
1.8395498E+001
 20
1.9652682E+001
 40
1.5
 50
0.0
 51
9.0E+001
  0
ARC
  8
1
  6
CONTINUOUS
 62
1
 10
5.0204975
 20
1.9652682E+001
 40
1.5
 50
9.0E+001
 51
1.8E+002
  0
TEXT
  8
126
  6
CONTINUOUS
 62
3
 10
2.9824134E+001
 20
5.761997E-001
 40
8.0E-002
  1
REL - ECNBV03397 01JUN04
  0
TEXT
  8
1
  6
CONTINUOUS
 62
3
 10
1.4084524E+001
 20
1.9149128E+001
 40
4.0E-001
  1
TEMPLATE FOR
 72
1
 73
2
 11
1.1684524E+001
 21
1.8949128E+001
  0
INSERT
  2
*TX32
  8
126
 10
2.7720546E+001
 20
1.2922402
  0
POLYLINE
  8
1
  6
CONTINUOUS
 62
3
 66
1
 40
2.0E-002
 41
2.0E-002
 70
0
  0
VERTEX
  8
1
 42
0.0
 10
7.0502309
 20
4.2776816
 70
0
  0
VERTEX
  8
1
 42
0.0
 10
1.6365764E+001
 20
4.2776816
 70
0
  0
SEQEND
  0
DIMENSION
  8
1
  6
CONTINUOUS
 62
3
  2
*D76
  3
DSTYLE1
 10
2.2087193E+001
 20
2.7776816
 11
2.2087193E+001
 21
1.1965182E+001
 70
128
 13
1.8395498E+001
 23
2.1152682E+001
 14
1.8395498E+001
 24
2.7776816
 40
1.25E-001
 50
9.0E+001
  0
DIMENSION
  8
1
  6
CONTINUOUS
 62
3
  2
*D77
  3
DSTYLE1
 10
3.5204975
 20
1.4837846
 11
1.1707997E+001
 21
1.4837846
 70
128
 13
1.9895498E+001
 23
4.2776816
 14
3.5204975
 24
4.2776816
 40
1.25E-001
 50
0.0
  0
POLYLINE
  8
1
  6
CONTINUOUS
 62
3
 66
1
 40
2.0E-002
 41
2.0E-002
 70
0
  0
VERTEX
  8
1
 42
0.0
 10
7.0502309
 20
9.2169999
 70
0
  0
VERTEX
  8
1
 42
0.0
 10
7.0502309
 20
4.2776816
 70
0
  0
SEQEND
  0
POLYLINE
  8
1
  6
CONTINUOUS
 62
3
 66
1
 40
2.0E-002
 41
2.0E-002
 70
0
  0
VERTEX
  8
1
 42
0.0
 10
7.0502309
 20
9.2169999
 70
0
  0
VERTEX
  8
1
 42
0.0
 10
1.1707997E+001
 20
1.098927E+001
 70
0
  0
SEQEND
  0
POLYLINE
  8
1
  6
CONTINUOUS
 62
3
 66
1
 40
2.0E-002
 41
2.0E-002
 70
0
  0
VERTEX
  8
1
 42
0.0
 10
1.1707997E+001
 20
1.098927E+001
 70
0
  0
VERTEX
  8
1
 42
0.0
 10
1.6365764E+001
 20
9.2169999
 70
0
  0
SEQEND
  0
POLYLINE
  8
1
  6
CONTINUOUS
 62
3
 66
1
 40
2.0E-002
 41
2.0E-002
 70
0
  0
VERTEX
  8
1
 42
0.0
 10
1.6365764E+001
 20
4.2776816
 70
0
  0
VERTEX
  8
1
 42
0.0
 10
1.6365764E+001
 20
9.2169999
 70
0
  0
SEQEND
  0
TEXT
  8
1
  6
CONTINUOUS
 62
3
 10
1.4296091E+001
 20
9.7128317
 40
4.0E-001
  1
**IMPORTANT**
 51
-4.1943E-006
 72
1
 73
2
 11
1.1696091E+001
 21
9.5128317
  0
TEXT
  8
1
  6
CONTINUOUS
 62
3
 10
1.2897244E+001
 20
3.6765916
 40
3.0E-001
  1
74180413
 72
1
 73
2
 11
1.1697244E+001
 21
3.5265916
  0
INSERT
  2
*D89
  8
1
 10
0.0
 20
0.0
  0
LINE
  8
1
  6
CONTINUOUS
 62
3
 10
1.4139288E+001
 20
1.8692651E+001
 11
9.2492189
 21
1.8692651E+001
  0
INSERT
  2
*TX33
  8
1
 10
1.1679577E+001
 20
1.8033319E+001
  0
TEXT
  8
126
  6
CONTINUOUS
 62
3
 10
3.1419033E+001
 20
1.0557581
 40
1.0E-001
  1
JAS
  0
INSERT
  2
*TX28
  8
1
 10
1.1718345E+001
 20
8.5151867
  0
TEXT
  8
180
  6
CONTINUOUS
 62
1
 10
3.1374666E+001
 20
1.9215003
 40
1.25E-001
  1
MANUFACTURING COMPANY
 41
9.0E-001
  0
TEXT
  8
126
  6
CONTINUOUS
 62
3
 10
3.2504287E+001
 20
1.8415585
 40
7.5E-002
  1
BROADVIEW, ILLINOIS
 72
1
 73
2
 11
3.1791787E+001
 21
1.8040585
  0
LINE
  8
126
  6
CONTINUOUS
 62
3
 10
3.0185445E+001
 20
1.9231932
 11
3.0375076E+001
 21
1.9231932
  0
LINE
  8
126
  6
CONTINUOUS
 62
3
 10
2.985902E+001
 20
2.0842476
 11
3.0121327E+001
 21
2.0842476
  0
LINE
  8
126
  6
CONTINUOUS
 62
3
 10
2.9825794E+001
 20
1.8958182
 11
3.0100794E+001
 21
1.8958182
  0
LINE
  8
126
  6
CONTINUOUS
 62
3
 10
2.9825794E+001
 20
1.8958182
 11
2.985902E+001
 21
2.0842476
  0
LINE
  8
126
  6
CONTINUOUS
 62
3
 10
2.9906334E+001
 20
2.0568726
 11
3.01165E+001
 21
2.0568726
  0
LINE
  8
126
  6
CONTINUOUS
 62
3
 10
3.0128451E+001
 20
1.8958182
 11
3.0161676E+001
 21
2.0842476
  0
LINE
  8
126
  6
CONTINUOUS
 62
3
 10
3.0161676E+001
 20
2.0842476
 11
3.0213843E+001
 21
2.0842476
  0
LINE
  8
126
  6
CONTINUOUS
 62
3
 10
3.0128451E+001
 20
1.8958182
 11
3.0370249E+001
 21
1.8958182
  0
LINE
  8
126
  6
CONTINUOUS
 62
3
 10
3.0185445E+001
 20
1.9231932
 11
3.0213843E+001
 21
2.0842476
  0
LINE
  8
126
  6
CONTINUOUS
 62
3
 10
2.9896972E+001
 20
2.0037829
 11
2.9906334E+001
 21
2.0568726
  0
LINE
  8
126
  6
CONTINUOUS
 62
3
 10
3.01165E+001
 20
2.0568726
 11
3.0121327E+001
 21
2.0842476
  0
LINE
  8
126
  6
CONTINUOUS
 62
3
 10
3.0089597E+001
 20
1.9762829
 11
3.0094446E+001
 21
2.0037829
  0
LINE
  8
126
  6
CONTINUOUS
 62
3
 10
3.1323375E+001
 20
2.0842476
 11
3.1169099E+001
 21
1.9690682
  0
LINE
  8
126
  6
CONTINUOUS
 62
3
 10
3.1323375E+001
 20
2.0842476
 11
3.1262155E+001
 21
2.0842476
  0
LINE
  8
126
  6
CONTINUOUS
 62
3
 10
3.1262155E+001
 20
2.0842476
 11
3.1148803E+001
 21
1.9996217
  0
LINE
  8
126
  6
CONTINUOUS
 62
3
 10
3.0100794E+001
 20
1.8958182
 11
3.0105621E+001
 21
1.9231932
  0
LINE
  8
126
  6
CONTINUOUS
 62
3
 10
2.9886343E+001
 20
1.9231932
 11
2.9895704E+001
 21
1.9762829
  0
LINE
  8
126
  6
CONTINUOUS
 62
3
 10
3.0094446E+001
 20
2.0037829
 11
2.9896972E+001
 21
2.0037829
  0
LINE
  8
126
  6
CONTINUOUS
 62
3
 10
2.9895704E+001
 20
1.9762829
 11
3.0089597E+001
 21
1.9762829
  0
LINE
  8
126
  6
CONTINUOUS
 62
3
 10
3.0723949E+001
 20
2.0842476
 11
3.0580825E+001
 21
2.0030559
  0
LINE
  8
126
  6
CONTINUOUS
 62
3
 10
2.9886343E+001
 20
1.9231932
 11
3.0105621E+001
 21
1.9231932
  0
LINE
  8
126
  6
CONTINUOUS
 62
3
 10
3.0370249E+001
 20
1.8958182
 11
3.0375076E+001
 21
1.9231932
  0
LINE
  8
126
  6
CONTINUOUS
 62
3
 10
3.0649722E+001
 20
2.0842476
 11
3.0723949E+001
 21
2.0842476
  0
LINE
  8
126
  6
CONTINUOUS
 62
3
 10
3.0616328E+001
 20
1.8958182
 11
3.0697549E+001
 21
1.8958182
  0
LINE
  8
126
  6
CONTINUOUS
 62
3
 10
3.045635E+001
 20
1.9324432
 11
3.0449892E+001
 21
1.8958182
  0
LINE
  8
126
  6
CONTINUOUS
 62
3
 10
3.0483117E+001
 20
2.0842476
 11
3.04646E+001
 21
1.979231
  0
LINE
  8
126
  6
CONTINUOUS
 62
3
 10
3.0871587E+001
 20
2.0842476
 11
3.0963087E+001
 21
2.0842476
  0
LINE
  8
126
  6
CONTINUOUS
 62
3
 10
3.0993693E+001
 20
1.8958182
 11
3.1054712E+001
 21
1.8958182
  0
LINE
  8
126
  6
CONTINUOUS
 62
3
 10
3.053061E+001
 20
1.9745698
 11
3.045635E+001
 21
1.9324432
  0
LINE
  8
126
  6
CONTINUOUS
 62
3
 10
3.0649722E+001
 20
2.0842476
 11
3.04646E+001
 21
1.979231
  0
LINE
  8
126
  6
CONTINUOUS
 62
3
 10
3.0483117E+001
 20
2.0842476
 11
3.0430949E+001
 21
2.0842476
  0
LINE
  8
126
  6
CONTINUOUS
 62
3
 10
3.0397724E+001
 20
1.8958182
 11
3.0430949E+001
 21
2.0842476
  0
LINE
  8
126
  6
CONTINUOUS
 62
3
 10
3.0697549E+001
 20
1.8958182
 11
3.0580825E+001
 21
2.0030559
  0
LINE
  8
126
  6
CONTINUOUS
 62
3
 10
3.0616328E+001
 20
1.8958182
 11
3.053061E+001
 21
1.9745698
  0
LINE
  8
126
  6
CONTINUOUS
 62
3
 10
3.0449892E+001
 20
1.8958182
 11
3.0397724E+001
 21
1.8958182
  0
LINE
  8
126
  6
CONTINUOUS
 62
3
 10
3.0706712E+001
 20
1.8958182
 11
3.0755378E+001
 21
1.8958182
  0
LINE
  8
126
  6
CONTINUOUS
 62
3
 10
3.0810503E+001
 20
1.9588182
 11
3.0908564E+001
 21
2.0708888
  0
LINE
  8
126
  6
CONTINUOUS
 62
3
 10
3.0963059E+001
 20
1.9588182
 11
3.0908564E+001
 21
2.0708888
  0
LINE
  8
126
  6
CONTINUOUS
 62
3
 10
3.0706712E+001
 20
1.8958182
 11
3.0871587E+001
 21
2.0842476
  0
LINE
  8
126
  6
CONTINUOUS
 62
3
 10
3.0787425E+001
 20
1.9324432
 11
3.0975884E+001
 21
1.9324432
  0
LINE
  8
126
  6
CONTINUOUS
 62
3
 10
3.1054712E+001
 20
1.8958182
 11
3.0963087E+001
 21
2.0842476
  0
LINE
  8
126
  6
CONTINUOUS
 62
3
 10
3.0810503E+001
 20
1.9588182
 11
3.0963059E+001
 21
1.9588182
  0
LINE
  8
126
  6
CONTINUOUS
 62
3
 10
3.0755378E+001
 20
1.8958182
 11
3.0787425E+001
 21
1.9324432
  0
LINE
  8
126
  6
CONTINUOUS
 62
3
 10
3.0993693E+001
 20
1.8958182
 11
3.0975884E+001
 21
1.9324432
  0
LINE
  8
126
  6
CONTINUOUS
 62
3
 10
3.1262155E+001
 20
2.0842476
 11
3.1323375E+001
 21
2.0842476
  0
LINE
  8
126
  6
CONTINUOUS
 62
3
 10
3.1100462E+001
 20
1.8958182
 11
3.1156183E+001
 21
1.8958182
  0
LINE
  8
126
  6
CONTINUOUS
 62
3
 10
3.1100462E+001
 20
1.8958182
 11
3.1111597E+001
 21
1.958969
  0
LINE
  8
126
  6
CONTINUOUS
 62
3
 10
3.1156183E+001
 20
1.8958182
 11
3.1169099E+001
 21
1.9690682
  0
LINE
  8
126
  6
CONTINUOUS
 62
3
 10
3.1069121E+001
 20
2.0842476
 11
3.1148803E+001
 21
1.9996217
  0
LINE
  8
126
  6
CONTINUOUS
 62
3
 10
3.1111597E+001
 20
1.958969
 11
3.0993638E+001
 21
2.0842476
  0
LINE
  8
126
  6
CONTINUOUS
 62
3
 10
3.0993638E+001
 20
2.0842476
 11
3.1069121E+001
 21
2.0842476
  0
LINE
  8
126
  6
CONTINUOUS
 62
3
 10
3.1312327E+001
 20
2.0842476
 11
3.131705E+001
 21
2.0795248
  0
LINE
  8
126
  6
CONTINUOUS
 62
3
 10
3.1301278E+001
 20
2.0842476
 11
3.1310724E+001
 21
2.0748021
  0
LINE
  8
126
  6
CONTINUOUS
 62
3
 10
3.129023E+001
 20
2.0842476
 11
3.1304398E+001
 21
2.0700794
  0
LINE
  8
126
  6
CONTINUOUS
 62
3
 10
3.1279181E+001
 20
2.0842476
 11
3.1298072E+001
 21
2.0653567
  0
LINE
  8
126
  6
CONTINUOUS
 62
3
 10
3.1268133E+001
 20
2.0842476
 11
3.1291746E+001
 21
2.0606339
  0
LINE
  8
126
  6
CONTINUOUS
 62
3
 10
3.1259251E+001
 20
2.0820802
 11
3.128542E+001
 21
2.0559112
  0
LINE
  8
126
  6
CONTINUOUS
 62
3
 10
3.1252926E+001
 20
2.0773575
 11
3.1279095E+001
 21
2.0511885
  0
LINE
  8
126
  6
CONTINUOUS
 62
3
 10
3.12466E+001
 20
2.0726347
 11
3.1272769E+001
 21
2.0464658
  0
LINE
  8
126
  6
CONTINUOUS
 62
3
 10
3.1240274E+001
 20
2.067912
 11
3.1266443E+001
 21
2.041743
  0
LINE
  8
126
  6
CONTINUOUS
 62
3
 10
3.1233948E+001
 20
2.0631893
 11
3.1260117E+001
 21
2.0370203
  0
LINE
  8
126
  6
CONTINUOUS
 62
3
 10
3.1227622E+001
 20
2.0584665
 11
3.1253791E+001
 21
2.0322976
  0
LINE
  8
126
  6
CONTINUOUS
 62
3
 10
3.1221297E+001
 20
2.0537438
 11
3.1247466E+001
 21
2.0275749
  0
LINE
  8
126
  6
CONTINUOUS
 62
3
 10
3.1214971E+001
 20
2.0490211
 11
3.124114E+001
 21
2.0228521
  0
LINE
  8
126
  6
CONTINUOUS
 62
3
 10
3.1208645E+001
 20
2.0442984
 11
3.1234814E+001
 21
2.0181294
  0
LINE
  8
126
  6
CONTINUOUS
 62
3
 10
3.1202319E+001
 20
2.0395756
 11
3.1228488E+001
 21
2.0134067
  0
LINE
  8
126
  6
CONTINUOUS
 62
3
 10
3.1195993E+001
 20
2.0348529
 11
3.1222162E+001
 21
2.0086839
  0
LINE
  8
126
  6
CONTINUOUS
 62
3
 10
3.1189667E+001
 20
2.0301302
 11
3.1215836E+001
 21
2.0039612
  0
LINE
  8
126
  6
CONTINUOUS
 62
3
 10
3.1183342E+001
 20
2.0254075
 11
3.1209511E+001
 21
1.9992385
  0
LINE
  8
126
  6
CONTINUOUS
 62
3
 10
3.1177016E+001
 20
2.0206847
 11
3.1203185E+001
 21
1.9945158
  0
LINE
  8
126
  6
CONTINUOUS
 62
3
 10
3.117069E+001
 20
2.015962
 11
3.1196859E+001
 21
1.989793
  0
LINE
  8
126
  6
CONTINUOUS
 62
3
 10
3.1164364E+001
 20
2.0112393
 11
3.1190533E+001
 21
1.9850703
  0
LINE
  8
126
  6
CONTINUOUS
 62
3
 10
3.1158038E+001
 20
2.0065166
 11
3.1184207E+001
 21
1.9803476
  0
LINE
  8
126
  6
CONTINUOUS
 62
3
 10
3.1151713E+001
 20
2.0017938
 11
3.1177882E+001
 21
1.9756249
  0
LINE
  8
126
  6
CONTINUOUS
 62
3
 10
3.105821E+001
 20
2.0842476
 11
3.1171556E+001
 21
1.9709021
  0
LINE
  8
126
  6
CONTINUOUS
 62
3
 10
3.1047162E+001
 20
2.0842476
 11
3.1168086E+001
 21
1.963323
  0
LINE
  8
126
  6
CONTINUOUS
 62
3
 10
3.1036113E+001
 20
2.0842476
 11
3.116643E+001
 21
1.9539306
  0
LINE
  8
126
  6
CONTINUOUS
 62
3
 10
3.1025065E+001
 20
2.0842476
 11
3.1164774E+001
 21
1.9445382
  0
LINE
  8
126
  6
CONTINUOUS
 62
3
 10
3.1014016E+001
 20
2.0842476
 11
3.1163118E+001
 21
1.9351458
  0
LINE
  8
126
  6
CONTINUOUS
 62
3
 10
3.1002968E+001
 20
2.0842476
 11
3.1161462E+001
 21
1.9257534
  0
LINE
  8
126
  6
CONTINUOUS
 62
3
 10
3.1021338E+001
 20
2.0548284
 11
3.1159806E+001
 21
1.916361
  0
LINE
  8
126
  6
CONTINUOUS
 62
3
 10
3.111078E+001
 20
1.9543377
 11
3.1158149E+001
 21
1.9069686
  0
LINE
  8
126
  6
CONTINUOUS
 62
3
 10
3.1109124E+001
 20
1.9449453
 11
3.1156493E+001
 21
1.8975762
  0
LINE
  8
126
  6
CONTINUOUS
 62
3
 10
3.0958773E+001
 20
2.0842476
 11
3.096717E+001
 21
2.0758515
  0
LINE
  8
126
  6
CONTINUOUS
 62
3
 10
3.1107468E+001
 20
1.9355528
 11
3.1147203E+001
 21
1.8958182
  0
LINE
  8
126
  6
CONTINUOUS
 62
3
 10
3.0947725E+001
 20
2.0842476
 11
3.0977627E+001
 21
2.0543455
  0
LINE
  8
126
  6
CONTINUOUS
 62
3
 10
3.1105812E+001
 20
1.9261604
 11
3.1136154E+001
 21
1.8958182
  0
LINE
  8
126
  6
CONTINUOUS
 62
3
 10
3.0936676E+001
 20
2.0842476
 11
3.0988084E+001
 21
2.0328395
  0
LINE
  8
126
  6
CONTINUOUS
 62
3
 10
3.1104156E+001
 20
1.916768
 11
3.1125106E+001
 21
1.8958182
  0
LINE
  8
126
  6
CONTINUOUS
 62
3
 10
3.0925628E+001
 20
2.0842476
 11
3.0998542E+001
 21
2.0113336
  0
LINE
  8
126
  6
CONTINUOUS
 62
3
 10
3.11025E+001
 20
1.9073756
 11
3.1114057E+001
 21
1.8958182
  0
LINE
  8
126
  6
CONTINUOUS
 62
3
 10
3.0914579E+001
 20
2.0842476
 11
3.1008999E+001
 21
1.9898277
  0
LINE
  8
126
  6
CONTINUOUS
 62
3
 10
3.1100844E+001
 20
1.8979832
 11
3.1103009E+001
 21
1.8958182
  0
LINE
  8
126
  6
CONTINUOUS
 62
3
 10
3.0903531E+001
 20
2.0842476
 11
3.1019457E+001
 21
1.9683217
  0
LINE
  8
126
  6
CONTINUOUS
 62
3
 10
3.0892482E+001
 20
2.0842476
 11
3.0907293E+001
 21
2.0694365
  0
LINE
  8
126
  6
CONTINUOUS
 62
3
 10
3.0911142E+001
 20
2.0655882
 11
3.1029914E+001
 21
1.9468157
  0
LINE
  8
126
  6
CONTINUOUS
 62
3
 10
3.0881434E+001
 20
2.0842476
 11
3.0902137E+001
 21
2.0635439
  0
TEXT
  8
126
  6
CONTINUOUS
 62
3
 10
2.9862294E+001
 20
1.0587193
 40
9.375E-002
  1
DR.BY
 41
9.0E-001
  0
TEXT
  8
126
  6
CONTINUOUS
 62
3
 10
2.5854556E+001
 20
1.5483538
 40
8.0E-002
  1
MATERIAL
  0
TEXT
  8
126
  6
CONTINUOUS
 62
3
 10
2.5838161E+001
 20
2.0022244
 40
8.0E-002
  1
FINISH
  0
TEXT
  8
126
  6
CONTINUOUS
 62
3
 10
3.0857184E+001
 20
1.0571219
 40
9.375E-002
  1
CH.BY
 41
9.0E-001
  0
TEXT
  8
126
  6
CONTINUOUS
 62
3
 10
2.986505E+001
 20
8.54745E-001
 40
9.375E-002
  1
SCALE
 41
1.04
  0
TEXT
  8
1
  6
CONTINUOUS
 62
1
 10
3.1868336E+001
 20
4.710837E-001
 40
1.875E-001
  1
REV-REL
 51
-4.1943E-006
  0
TEXT
  8
126
  6
CONTINUOUS
 62
3
 10
3.1859604E+001
 20
1.0397982
 40
9.375E-002
  1
DATE
 41
1.025
  0
LINE
  8
180
  6
CONTINUOUS
 62
6
 10
2.5789291E+001
 20
7.81881E-002
 11
2.5789291E+001
 21
2.1406884
  0
LINE
  8
180
  6
CONTINUOUS
 62
6
 10
2.5789291E+001
 20
2.1406884
 11
3.3789294E+001
 21
2.1406884
  0
LINE
  8
180
  6
CONTINUOUS
 62
6
 10
2.9789292E+001
 20
2.1406884
 11
2.9789292E+001
 21
7.81881E-002
  0
LINE
  8
180
  6
CONTINUOUS
 62
6
 10
2.9789292E+001
 20
3.906881E-001
 11
3.3789294E+001
 21
3.906881E-001
  0
LINE
  8
180
  6
CONTINUOUS
 62
6
 10
3.3789294E+001
 20
7.031882E-001
 11
2.9789292E+001
 21
7.031882E-001
  0
LINE
  8
180
  6
CONTINUOUS
 62
6
 10
2.9789292E+001
 20
1.2031882
 11
3.3789294E+001
 21
1.2031882
  0
LINE
  8
180
  6
CONTINUOUS
 62
6
 10
2.9789292E+001
 20
2.1406884
 11
2.9789292E+001
 21
1.7031882
  0
LINE
  8
180
  6
CONTINUOUS
 62
6
 10
2.9789292E+001
 20
1.7031882
 11
3.3789294E+001
 21
1.7031882
  0
LINE
  8
180
  6
CONTINUOUS
 62
6
 10
3.1789292E+001
 20
1.2031882
 11
3.1789292E+001
 21
3.906881E-001
  0
LINE
  8
180
  6
CONTINUOUS
 62
6
 10
2.9789292E+001
 20
1.0156882
 11
3.1789292E+001
 21
1.0156882
  0
LINE
  8
180
  6
CONTINUOUS
 62
6
 10
3.0789292E+001
 20
1.0156882
 11
3.0789292E+001
 21
1.2031882
  0
LINE
  8
180
  6
CONTINUOUS
 62
6
 10
2.9789292E+001
 20
1.7031882
 11
2.5789291E+001
 21
1.7031882
  0
LINE
  8
180
  6
CONTINUOUS
 62
6
 10
2.9789292E+001
 20
7.031882E-001
 11
2.5789291E+001
 21
7.031882E-001
  0
LINE
  8
126
  6
CONTINUOUS
 62
3
 10
3.0921599E+001
 20
2.0440822
 11
3.1040371E+001
 21
1.9253098
  0
LINE
  8
126
  6
CONTINUOUS
 62
3
 10
3.0871026E+001
 20
2.0836066
 11
3.0896981E+001
 21
2.0576513
  0
LINE
  8
126
  6
CONTINUOUS
 62
3
 10
3.0932056E+001
 20
2.0225763
 11
3.1050829E+001
 21
1.9038038
  0
LINE
  8
126
  6
CONTINUOUS
 62
3
 10
3.086587E+001
 20
2.0777141
 11
3.0891825E+001
 21
2.0517588
  0
LINE
  8
126
  6
CONTINUOUS
 62
3
 10
3.0942514E+001
 20
2.0010703
 11
3.1047766E+001
 21
1.8958182
  0
LINE
  8
126
  6
CONTINUOUS
 62
3
 10
3.0860714E+001
 20
2.0718215
 11
3.0886669E+001
 21
2.0458662
  0
LINE
  8
126
  6
CONTINUOUS
 62
3
 10
3.0952971E+001
 20
1.9795644
 11
3.1036717E+001
 21
1.8958182
  0
LINE
  8
126
  6
CONTINUOUS
 62
3
 10
3.0855558E+001
 20
2.0659289
 11
3.0881513E+001
 21
2.0399736
  0
LINE
  8
126
  6
CONTINUOUS
 62
3
 10
3.0962669E+001
 20
1.9588182
 11
3.1025669E+001
 21
1.8958182
  0
LINE
  8
126
  6
CONTINUOUS
 62
3
 10
3.0850402E+001
 20
2.0600363
 11
3.0876357E+001
 21
2.0340811
  0
LINE
  8
126
  6
CONTINUOUS
 62
3
 10
3.095162E+001
 20
1.9588182
 11
3.101462E+001
 21
1.8958182
  0
LINE
  8
126
  6
CONTINUOUS
 62
3
 10
3.0845246E+001
 20
2.0541438
 11
3.0871201E+001
 21
2.0281885
  0
LINE
  8
126
  6
CONTINUOUS
 62
3
 10
3.0940572E+001
 20
1.9588182
 11
3.0966947E+001
 21
1.9324432
  0
LINE
  8
126
  6
CONTINUOUS
 62
3
 10
3.0984343E+001
 20
1.9150465
 11
3.1003572E+001
 21
1.8958182
  0
LINE
  8
126
  6
CONTINUOUS
 62
3
 10
3.084009E+001
 20
2.0482512
 11
3.0866045E+001
 21
2.0222959
  0
LINE
  8
126
  6
CONTINUOUS
 62
3
 10
3.0929523E+001
 20
1.9588182
 11
3.0955898E+001
 21
1.9324432
  0
LINE
  8
126
  6
CONTINUOUS
 62
3
 10
3.0834934E+001
 20
2.0423586
 11
3.0860889E+001
 21
2.0164034
  0
LINE
  8
126
  6
CONTINUOUS
 62
3
 10
3.0918475E+001
 20
1.9588182
 11
3.094485E+001
 21
1.9324432
  0
LINE
  8
126
  6
CONTINUOUS
 62
3
 10
3.0829778E+001
 20
2.0364661
 11
3.0855733E+001
 21
2.0105108
  0
LINE
  8
126
  6
CONTINUOUS
 62
3
 10
3.0907426E+001
 20
1.9588182
 11
3.0933801E+001
 21
1.9324432
  0
LINE
  8
126
  6
CONTINUOUS
 62
3
 10
3.0824622E+001
 20
2.0305735
 11
3.0850578E+001
 21
2.0046182
  0
LINE
  8
126
  6
CONTINUOUS
 62
3
 10
3.0896378E+001
 20
1.9588182
 11
3.0922753E+001
 21
1.9324432
  0
LINE
  8
126
  6
CONTINUOUS
 62
3
 10
3.0819466E+001
 20
2.0246809
 11
3.0845422E+001
 21
1.9987257
  0
LINE
  8
126
  6
CONTINUOUS
 62
3
 10
3.0885329E+001
 20
1.9588182
 11
3.0911704E+001
 21
1.9324432
  0
LINE
  8
126
  6
CONTINUOUS
 62
3
 10
3.081431E+001
 20
2.0187884
 11
3.0840266E+001
 21
1.9928331
  0
LINE
  8
126
  6
CONTINUOUS
 62
3
 10
3.087428E+001
 20
1.9588182
 11
3.0900655E+001
 21
1.9324432
  0
LINE
  8
126
  6
CONTINUOUS
 62
3
 10
3.0809154E+001
 20
2.0128958
 11
3.083511E+001
 21
1.9869405
  0
LINE
  8
126
  6
CONTINUOUS
 62
3
 10
3.0863232E+001
 20
1.9588182
 11
3.0889607E+001
 21
1.9324432
  0
LINE
  8
126
  6
CONTINUOUS
 62
3
 10
3.0803998E+001
 20
2.0070032
 11
3.0829954E+001
 21
1.981048
  0
LINE
  8
126
  6
CONTINUOUS
 62
3
 10
3.0852183E+001
 20
1.9588182
 11
3.0878558E+001
 21
1.9324432
  0
LINE
  8
126
  6
CONTINUOUS
 62
3
 10
3.0715705E+001
 20
2.0842476
 11
3.0718689E+001
 21
2.0812637
  0
LINE
  8
126
  6
CONTINUOUS
 62
3
 10
3.0798842E+001
 20
2.0011107
 11
3.0824798E+001
 21
1.9751554
  0
LINE
  8
126
  6
CONTINUOUS
 62
3
 10
3.0841135E+001
 20
1.9588182
 11
3.086751E+001
 21
1.9324432
  0
LINE
  8
126
  6
CONTINUOUS
 62
3
 10
3.0704657E+001
 20
2.0842476
 11
3.071164E+001
 21
2.0772647
  0
LINE
  8
126
  6
CONTINUOUS
 62
3
 10
3.0793686E+001
 20
1.9952181
 11
3.0819642E+001
 21
1.9692628
  0
LINE
  8
126
  6
CONTINUOUS
 62
3
 10
3.0830086E+001
 20
1.9588182
 11
3.0856461E+001
 21
1.9324432
  0
LINE
  8
126
  6
CONTINUOUS
 62
3
 10
3.0693608E+001
 20
2.0842476
 11
3.070459E+001
 21
2.0732656
  0
LINE
  8
126
  6
CONTINUOUS
 62
3
 10
3.078853E+001
 20
1.9893255
 11
3.0814486E+001
 21
1.9633703
  0
LINE
  8
126
  6
CONTINUOUS
 62
3
 10
3.0819038E+001
 20
1.9588182
 11
3.0845413E+001
 21
1.9324432
  0
LINE
  8
126
  6
CONTINUOUS
 62
3
 10
3.068256E+001
 20
2.0842476
 11
3.0697541E+001
 21
2.0692666
  0
LINE
  8
126
  6
CONTINUOUS
 62
3
 10
3.0783374E+001
 20
1.983433
 11
3.0834364E+001
 21
1.9324432
  0
LINE
  8
126
  6
CONTINUOUS
 62
3
 10
3.0671511E+001
 20
2.0842476
 11
3.0690491E+001
 21
2.0652675
  0
LINE
  8
126
  6
CONTINUOUS
 62
3
 10
3.0778218E+001
 20
1.9775404
 11
3.0823316E+001
 21
1.9324432
  0
LINE
  8
126
  6
CONTINUOUS
 62
3
 10
3.0660463E+001
 20
2.0842476
 11
3.0683442E+001
 21
2.0612685
  0
LINE
  8
126
  6
CONTINUOUS
 62
3
 10
3.0773062E+001
 20
1.9716478
 11
3.0812267E+001
 21
1.9324432
  0
LINE
  8
126
  6
CONTINUOUS
 62
3
 10
3.0649526E+001
 20
2.0841362
 11
3.0676392E+001
 21
2.0572694
  0
LINE
  8
126
  6
CONTINUOUS
 62
3
 10
3.0767907E+001
 20
1.9657553
 11
3.0801219E+001
 21
1.9324432
  0
LINE
  8
126
  6
CONTINUOUS
 62
3
 10
3.0642476E+001
 20
2.0801371
 11
3.0669343E+001
 21
2.0532704
  0
LINE
  8
126
  6
CONTINUOUS
 62
3
 10
3.0762751E+001
 20
1.9598627
 11
3.079017E+001
 21
1.9324432
  0
LINE
  8
126
  6
CONTINUOUS
 62
3
 10
3.0635427E+001
 20
2.0761381
 11
3.0662293E+001
 21
2.0492713
  0
LINE
  8
126
  6
CONTINUOUS
 62
3
 10
3.0757595E+001
 20
1.9539701
 11
3.078355E+001
 21
1.9280149
  0
LINE
  8
126
  6
CONTINUOUS
 62
3
 10
3.0628377E+001
 20
2.072139
 11
3.0655244E+001
 21
2.0452723
  0
LINE
  8
126
  6
CONTINUOUS
 62
3
 10
3.0752439E+001
 20
1.9480776
 11
3.0778394E+001
 21
1.9221223
  0
LINE
  8
126
  6
CONTINUOUS
 62
3
 10
3.0621328E+001
 20
2.06814
 11
3.0648194E+001
 21
2.0412732
  0
LINE
  8
126
  6
CONTINUOUS
 62
3
 10
3.0747283E+001
 20
1.942185
 11
3.0773238E+001
 21
1.9162297
  0
LINE
  8
126
  6
CONTINUOUS
 62
3
 10
3.0614278E+001
 20
2.0641409
 11
3.0641145E+001
 21
2.0372742
  0
LINE
  8
126
  6
CONTINUOUS
 62
3
 10
3.0742127E+001
 20
1.9362924
 11
3.0768082E+001
 21
1.9103371
  0
LINE
  8
126
  6
CONTINUOUS
 62
3
 10
3.0607229E+001
 20
2.0601419
 11
3.0634095E+001
 21
2.0332751
  0
LINE
  8
126
  6
CONTINUOUS
 62
3
 10
3.0736971E+001
 20
1.9303998
 11
3.0762926E+001
 21
1.9044446
  0
LINE
  8
126
  6
CONTINUOUS
 62
3
 10
3.0600179E+001
 20
2.0561428
 11
3.0627046E+001
 21
2.0292761
  0
LINE
  8
126
  6
CONTINUOUS
 62
3
 10
3.0731815E+001
 20
1.9245073
 11
3.075777E+001
 21
1.898552
  0
LINE
  8
126
  6
CONTINUOUS
 62
3
 10
3.059313E+001
 20
2.0521438
 11
3.0619996E+001
 21
2.025277
  0
LINE
  8
126
  6
CONTINUOUS
 62
3
 10
3.0726659E+001
 20
1.9186147
 11
3.0749455E+001
 21
1.8958182
  0
LINE
  8
126
  6
CONTINUOUS
 62
3
 10
3.058608E+001
 20
2.0481447
 11
3.0612947E+001
 21
2.021278
  0
LINE
  8
126
  6
CONTINUOUS
 62
3
 10
3.0721503E+001
 20
1.9127222
 11
3.0738407E+001
 21
1.8958182
  0
LINE
  8
126
  6
CONTINUOUS
 62
3
 10
3.0579031E+001
 20
2.0441457
 11
3.0605897E+001
 21
2.0172789
  0
LINE
  8
126
  6
CONTINUOUS
 62
3
 10
3.0716347E+001
 20
1.9068296
 11
3.0727358E+001
 21
1.8958182
  0
LINE
  8
126
  6
CONTINUOUS
 62
3
 10
3.0571981E+001
 20
2.0401466
 11
3.0598848E+001
 21
2.0132799
  0
LINE
  8
126
  6
CONTINUOUS
 62
3
 10
3.0711191E+001
 20
1.900937
 11
3.071631E+001
 21
1.8958182
  0
LINE
  8
126
  6
CONTINUOUS
 62
3
 10
3.0564932E+001
 20
2.0361476
 11
3.0591798E+001
 21
2.0092808
  0
LINE
  8
126
  6
CONTINUOUS
 62
3
 10
3.0557882E+001
 20
2.0321485
 11
3.0584749E+001
 21
2.0052818
  0
LINE
  8
126
  6
CONTINUOUS
 62
3
 10
3.0656492E+001
 20
1.933539
 11
3.0694212E+001
 21
1.8958182
  0
LINE
  8
126
  6
CONTINUOUS
 62
3
 10
3.0550833E+001
 20
2.0281495
 11
3.0683164E+001
 21
1.8958182
  0
LINE
  8
126
  6
CONTINUOUS
 62
3
 10
3.0543783E+001
 20
2.0241504
 11
3.0672115E+001
 21
1.8958182
  0
LINE
  8
126
  6
CONTINUOUS
 62
3
 10
3.0472637E+001
 20
2.0842476
 11
3.0481546E+001
 21
2.0753391
  0
LINE
  8
126
  6
CONTINUOUS
 62
3
 10
3.0536734E+001
 20
2.0201514
 11
3.0661067E+001
 21
1.8958182
  0
LINE
  8
126
  6
CONTINUOUS
 62
3
 10
3.0461589E+001
 20
2.0842476
 11
3.047989E+001
 21
2.0659467
  0
LINE
  8
126
  6
CONTINUOUS
 62
3
 10
3.0529684E+001
 20
2.0161523
 11
3.0650018E+001
 21
1.8958182
  0
LINE
  8
126
  6
CONTINUOUS
 62
3
 10
3.045054E+001
 20
2.0842476
 11
3.0478234E+001
 21
2.0565543
  0
LINE
  8
126
  6
CONTINUOUS
 62
3
 10
3.0522635E+001
 20
2.0121533
 11
3.063897E+001
 21
1.8958182
  0
LINE
  8
126
  6
CONTINUOUS
 62
3
 10
3.0439492E+001
 20
2.0842476
 11
3.0476578E+001
 21
2.0471619
  0
LINE
  8
126
  6
CONTINUOUS
 62
3
 10
3.0515585E+001
 20
2.0081542
 11
3.0627921E+001
 21
1.8958182
  0
LINE
  8
126
  6
CONTINUOUS
 62
3
 10
3.0430574E+001
 20
2.0821173
 11
3.0474921E+001
 21
2.0377695
  0
LINE
  8
126
  6
CONTINUOUS
 62
3
 10
3.0508536E+001
 20
2.0041552
 11
3.0616873E+001
 21
1.8958182
  0
LINE
  8
126
  6
CONTINUOUS
 62
3
 10
3.0428917E+001
 20
2.0727249
 11
3.0473265E+001
 21
2.0283771
  0
LINE
  8
126
  6
CONTINUOUS
 62
3
 10
3.0501486E+001
 20
2.0001561
 11
3.0528353E+001
 21
1.9732894
  0
LINE
  8
126
  6
CONTINUOUS
 62
3
 10
3.0427261E+001
 20
2.0633325
 11
3.0471609E+001
 21
2.0189846
  0
LINE
  8
126
  6
CONTINUOUS
 62
3
 10
3.0494437E+001
 20
1.9961571
 11
3.0521303E+001
 21
1.9692904
  0
LINE
  8
126
  6
CONTINUOUS
 62
3
 10
3.0425605E+001
 20
2.0539401
 11
3.0469953E+001
 21
2.0095922
  0
LINE
  8
126
  6
CONTINUOUS
 62
3
 10
3.0487387E+001
 20
1.992158
 11
3.0514254E+001
 21
1.9652913
  0
LINE
  8
126
  6
CONTINUOUS
 62
3
 10
3.0423949E+001
 20
2.0445477
 11
3.0468297E+001
 21
2.0001998
  0
LINE
  8
126
  6
CONTINUOUS
 62
3
 10
3.0480338E+001
 20
1.988159
 11
3.0507204E+001
 21
1.9612923
  0
LINE
  8
126
  6
CONTINUOUS
 62
3
 10
3.0422293E+001
 20
2.0351552
 11
3.0466641E+001
 21
1.9908074
  0
LINE
  8
126
  6
CONTINUOUS
 62
3
 10
3.0473288E+001
 20
1.9841599
 11
3.0500155E+001
 21
1.9572932
  0
LINE
  8
126
  6
CONTINUOUS
 62
3
 10
3.0420637E+001
 20
2.0257628
 11
3.0464985E+001
 21
1.981415
  0
LINE
  8
126
  6
CONTINUOUS
 62
3
 10
3.0466239E+001
 20
1.9801609
 11
3.0493105E+001
 21
1.9532942
  0
LINE
  8
126
  6
CONTINUOUS
 62
3
 10
3.0418981E+001
 20
2.0163704
 11
3.0486056E+001
 21
1.9492951
  0
LINE
  8
126
  6
CONTINUOUS
 62
3
 10
3.0417325E+001
 20
2.006978
 11
3.0479006E+001
 21
1.9452961
  0
LINE
  8
126
  6
CONTINUOUS
 62
3
 10
3.0415668E+001
 20
1.9975856
 11
3.0471957E+001
 21
1.941297
  0
LINE
  8
126
  6
CONTINUOUS
 62
3
 10
3.0414012E+001
 20
1.9881932
 11
3.0464907E+001
 21
1.937298
  0
LINE
  8
126
  6
CONTINUOUS
 62
3
 10
3.0412356E+001
 20
1.9788008
 11
3.0457858E+001
 21
1.9332989
  0
LINE
  8
126
  6
CONTINUOUS
 62
3
 10
3.04107E+001
 20
1.9694084
 11
3.0455048E+001
 21
1.9250606
  0
LINE
  8
126
  6
CONTINUOUS
 62
3
 10
3.0409044E+001
 20
1.960016
 11
3.0453392E+001
 21
1.9156681
  0
LINE
  8
126
  6
CONTINUOUS
 62
3
 10
3.0407388E+001
 20
1.9506236
 11
3.0451736E+001
 21
1.9062757
  0
LINE
  8
126
  6
CONTINUOUS
 62
3
 10
3.0405732E+001
 20
1.9412311
 11
3.0450079E+001
 21
1.8968833
  0
LINE
  8
126
  6
CONTINUOUS
 62
3
 10
3.0404075E+001
 20
1.9318388
 11
3.0440096E+001
 21
1.8958182
  0
LINE
  8
126
  6
CONTINUOUS
 62
3
 10
3.0402419E+001
 20
1.9224463
 11
3.0429047E+001
 21
1.8958182
  0
TEXT
  8
1
  6
CONTINUOUS
 62
1
 10
3.286469E+001
 20
1.5180028
 40
1.25E-001
  1
TEMPLATE FOR 1719
 72
1
 73
2
 11
3.180219E+001
 21
1.4555028
  0
TEXT
  8
126
  6
CONTINUOUS
 62
3
 10
3.328916E+001
 20
1.0218897
 40
1.0E-001
  1
10NOV03
 72
1
 73
2
 11
3.293916E+001
 21
9.718897E-001
  0
TEXT
  8
126
  6
CONTINUOUS
 62
3
 10
3.0419033E+001
 20
1.0557581
 40
1.0E-001
  1
KAB
  0
TEXT
  8
126
  6
CONTINUOUS
 62
3
 10
3.066973E+001
 20
8.137056E-001
 40
1.0E-001
  1
FULL
  0
TEXT
  8
1
  6
CONTINUOUS
 62
1
 10
3.25349E+001
 20
3.282587E-001
 40
1.875E-001
  1
74180413
 72
1
 73
2
 11
3.17849E+001
 21
2.345087E-001
  0
LINE
  8
126
  6
CONTINUOUS
 62
3
 10
3.0400763E+001
 20
1.9130539
 11
3.0417999E+001
 21
1.8958182
  0
LINE
  8
126
  6
CONTINUOUS
 62
3
 10
3.0399107E+001
 20
1.9036615
 11
3.040695E+001
 21
1.8958182
  0
LINE
  8
126
  6
CONTINUOUS
 62
3
 10
3.0207472E+001
 20
2.0842476
 11
3.0212888E+001
 21
2.0788317
  0
LINE
  8
126
  6
CONTINUOUS
 62
3
 10
3.0368527E+001
 20
1.9231932
 11
3.0374094E+001
 21
1.9176257
  0
LINE
  8
126
  6
CONTINUOUS
 62
3
 10
3.0196424E+001
 20
2.0842476
 11
3.0211232E+001
 21
2.0694393
  0
LINE
  8
126
  6
CONTINUOUS
 62
3
 10
3.0357478E+001
 20
1.9231932
 11
3.0372438E+001
 21
1.9082333
  0
LINE
  8
126
  6
CONTINUOUS
 62
3
 10
3.0185375E+001
 20
2.0842476
 11
3.0209576E+001
 21
2.0600469
  0
LINE
  8
126
  6
CONTINUOUS
 62
3
 10
3.034643E+001
 20
1.9231932
 11
3.0370782E+001
 21
1.8988409
  0
LINE
  8
126
  6
CONTINUOUS
 62
3
 10
3.0174327E+001
 20
2.0842476
 11
3.020792E+001
 21
2.0506545
  0
LINE
  8
126
  6
CONTINUOUS
 62
3
 10
3.0335381E+001
 20
1.9231932
 11
3.0362756E+001
 21
1.8958182
  0
LINE
  8
126
  6
CONTINUOUS
 62
3
 10
3.0163278E+001
 20
2.0842476
 11
3.0206264E+001
 21
2.041262
  0
LINE
  8
126
  6
CONTINUOUS
 62
3
 10
3.0324333E+001
 20
1.9231932
 11
3.0351708E+001
 21
1.8958182
  0
LINE
  8
126
  6
CONTINUOUS
 62
3
 10
3.016026E+001
 20
2.0762175
 11
3.0204608E+001
 21
2.0318696
  0
LINE
  8
126
  6
CONTINUOUS
 62
3
 10
3.0313284E+001
 20
1.9231932
 11
3.0340659E+001
 21
1.8958182
  0
LINE
  8
126
  6
CONTINUOUS
 62
3
 10
3.0158604E+001
 20
2.066825
 11
3.0202952E+001
 21
2.0224772
  0
LINE
  8
126
  6
CONTINUOUS
 62
3
 10
3.0302236E+001
 20
1.9231932
 11
3.0329611E+001
 21
1.8958182
  0
LINE
  8
126
  6
CONTINUOUS
 62
3
 10
3.0156948E+001
 20
2.0574326
 11
3.0201295E+001
 21
2.0130848
  0
LINE
  8
126
  6
CONTINUOUS
 62
3
 10
3.0291187E+001
 20
1.9231932
 11
3.0318562E+001
 21
1.8958182
  0
LINE
  8
126
  6
CONTINUOUS
 62
3
 10
3.0119084E+001
 20
2.0842476
 11
3.0120991E+001
 21
2.0823411
  0
LINE
  8
126
  6
CONTINUOUS
 62
3
 10
3.0155291E+001
 20
2.0480402
 11
3.0199639E+001
 21
2.0036924
  0
LINE
  8
126
  6
CONTINUOUS
 62
3
 10
3.0280138E+001
 20
1.9231932
 11
3.0307513E+001
 21
1.8958182
  0
LINE
  8
126
  6
CONTINUOUS
 62
3
 10
3.0108036E+001
 20
2.0842476
 11
3.0119334E+001
 21
2.0729487
  0
LINE
  8
126
  6
CONTINUOUS
 62
3
 10
3.0153635E+001
 20
2.0386478
 11
3.0197983E+001
 21
1.9943
  0
LINE
  8
126
  6
CONTINUOUS
 62
3
 10
3.026909E+001
 20
1.9231932
 11
3.0296465E+001
 21
1.8958182
  0
LINE
  8
126
  6
CONTINUOUS
 62
3
 10
3.0096987E+001
 20
2.0842476
 11
3.0117678E+001
 21
2.0635563
  0
LINE
  8
126
  6
CONTINUOUS
 62
3
 10
3.0151979E+001
 20
2.0292554
 11
3.0196327E+001
 21
1.9849076
  0
LINE
  8
126
  6
CONTINUOUS
 62
3
 10
3.0258041E+001
 20
1.9231932
 11
3.0285416E+001
 21
1.8958182
  0
LINE
  8
126
  6
CONTINUOUS
 62
3
 10
3.0085938E+001
 20
2.0842476
 11
3.0113313E+001
 21
2.0568726
  0
LINE
  8
126
  6
CONTINUOUS
 62
3
 10
3.0150323E+001
 20
2.019863
 11
3.0194671E+001
 21
1.9755152
  0
LINE
  8
126
  6
CONTINUOUS
 62
3
 10
3.0246993E+001
 20
1.9231932
 11
3.0274368E+001
 21
1.8958182
  0
LINE
  8
126
  6
CONTINUOUS
 62
3
 10
3.007489E+001
 20
2.0842476
 11
3.0102265E+001
 21
2.0568726
  0
LINE
  8
126
  6
CONTINUOUS
 62
3
 10
3.0148667E+001
 20
2.0104706
 11
3.0193015E+001
 21
1.9661228
  0
LINE
  8
126
  6
CONTINUOUS
 62
3
 10
3.0235944E+001
 20
1.9231932
 11
3.0263319E+001
 21
1.8958182
  0
LINE
  8
126
  6
CONTINUOUS
 62
3
 10
3.0063841E+001
 20
2.0842476
 11
3.0091216E+001
 21
2.0568726
  0
LINE
  8
126
  6
CONTINUOUS
 62
3
 10
3.0147011E+001
 20
2.0010782
 11
3.0191359E+001
 21
1.9567304
  0
LINE
  8
126
  6
CONTINUOUS
 62
3
 10
3.0224896E+001
 20
1.9231932
 11
3.0252271E+001
 21
1.8958182
  0
LINE
  8
126
  6
CONTINUOUS
 62
3
 10
3.0052793E+001
 20
2.0842476
 11
3.0080168E+001
 21
2.0568726
  0
LINE
  8
126
  6
CONTINUOUS
 62
3
 10
3.0145355E+001
 20
1.9916858
 11
3.0189702E+001
 21
1.947338
  0
LINE
  8
126
  6
CONTINUOUS
 62
3
 10
3.0213847E+001
 20
1.9231932
 11
3.0241222E+001
 21
1.8958182
  0
LINE
  8
126
  6
CONTINUOUS
 62
3
 10
3.0041744E+001
 20
2.0842476
 11
3.0069119E+001
 21
2.0568726
  0
LINE
  8
126
  6
CONTINUOUS
 62
3
 10
3.0143699E+001
 20
1.9822934
 11
3.0188046E+001
 21
1.9379456
  0
LINE
  8
126
  6
CONTINUOUS
 62
3
 10
3.0202799E+001
 20
1.9231932
 11
3.0230174E+001
 21
1.8958182
  0
LINE
  8
126
  6
CONTINUOUS
 62
3
 10
3.0030696E+001
 20
2.0842476
 11
3.0058071E+001
 21
2.0568726
  0
LINE
  8
126
  6
CONTINUOUS
 62
3
 10
3.0142042E+001
 20
1.972901
 11
3.018639E+001
 21
1.9285531
  0
LINE
  8
126
  6
CONTINUOUS
 62
3
 10
3.019175E+001
 20
1.9231932
 11
3.0219125E+001
 21
1.8958182
  0
LINE
  8
126
  6
CONTINUOUS
 62
3
 10
3.0019647E+001
 20
2.0842476
 11
3.0047022E+001
 21
2.0568726
  0
LINE
  8
126
  6
CONTINUOUS
 62
3
 10
3.0140386E+001
 20
1.9635086
 11
3.0208077E+001
 21
1.8958182
  0
LINE
  8
126
  6
CONTINUOUS
 62
3
 10
3.0008599E+001
 20
2.0842476
 11
3.0035974E+001
 21
2.0568726
  0
LINE
  8
126
  6
CONTINUOUS
 62
3
 10
3.0089063E+001
 20
2.0037829
 11
3.0093639E+001
 21
1.9992073
  0
LINE
  8
126
  6
CONTINUOUS
 62
3
 10
3.013873E+001
 20
1.9541161
 11
3.0197028E+001
 21
1.8958182
  0
LINE
  8
126
  6
CONTINUOUS
 62
3
 10
2.999755E+001
 20
2.0842476
 11
3.0024925E+001
 21
2.0568726
  0
LINE
  8
126
  6
CONTINUOUS
 62
3
 10
3.0078015E+001
 20
2.0037829
 11
3.0091983E+001
 21
1.9898149
  0
LINE
  8
126
  6
CONTINUOUS
 62
3
 10
3.0137074E+001
 20
1.9447237
 11
3.0185979E+001
 21
1.8958182
  0
LINE
  8
126
  6
CONTINUOUS
 62
3
 10
2.9986502E+001
 20
2.0842476
 11
3.0013877E+001
 21
2.0568726
  0
LINE
  8
126
  6
CONTINUOUS
 62
3
 10
3.0066966E+001
 20
2.0037829
 11
3.0090327E+001
 21
1.9804225
  0
LINE
  8
126
  6
CONTINUOUS
 62
3
 10
3.0135418E+001
 20
1.9353313
 11
3.0174931E+001
 21
1.8958182
  0
LINE
  8
126
  6
CONTINUOUS
 62
3
 10
2.9975453E+001
 20
2.0842476
 11
3.0002828E+001
 21
2.0568726
  0
LINE
  8
126
  6
CONTINUOUS
 62
3
 10
3.0055918E+001
 20
2.0037829
 11
3.0083418E+001
 21
1.9762829
  0
LINE
  8
126
  6
CONTINUOUS
 62
3
 10
3.0133762E+001
 20
1.9259389
 11
3.0163882E+001
 21
1.8958182
  0
LINE
  8
126
  6
CONTINUOUS
 62
3
 10
2.9964404E+001
 20
2.0842476
 11
2.9991779E+001
 21
2.0568726
  0
LINE
  8
126
  6
CONTINUOUS
 62
3
 10
3.0044869E+001
 20
2.0037829
 11
3.0072369E+001
 21
1.9762829
  0
LINE
  8
126
  6
CONTINUOUS
 62
3
 10
3.0132106E+001
 20
1.9165465
 11
3.0152834E+001
 21
1.8958182
  0
LINE
  8
126
  6
CONTINUOUS
 62
3
 10
2.9953356E+001
 20
2.0842476
 11
2.9980731E+001
 21
2.0568726
  0
LINE
  8
126
  6
CONTINUOUS
 62
3
 10
3.0033821E+001
 20
2.0037829
 11
3.0061321E+001
 21
1.9762829
  0
LINE
  8
126
  6
CONTINUOUS
 62
3
 10
3.0130449E+001
 20
1.9071541
 11
3.0141785E+001
 21
1.8958182
  0
LINE
  8
126
  6
CONTINUOUS
 62
3
 10
2.9942307E+001
 20
2.0842476
 11
2.9969682E+001
 21
2.0568726
  0
LINE
  8
126
  6
CONTINUOUS
 62
3
 10
3.0022772E+001
 20
2.0037829
 11
3.0050272E+001
 21
1.9762829
  0
LINE
  8
126
  6
CONTINUOUS
 62
3
 10
3.0103362E+001
 20
1.9231932
 11
3.0105283E+001
 21
1.9212724
  0
LINE
  8
126
  6
CONTINUOUS
 62
3
 10
3.0128793E+001
 20
1.8977617
 11
3.0130737E+001
 21
1.8958182
  0
LINE
  8
126
  6
CONTINUOUS
 62
3
 10
2.9931259E+001
 20
2.0842476
 11
2.9958634E+001
 21
2.0568726
  0
LINE
  8
126
  6
CONTINUOUS
 62
3
 10
3.0011724E+001
 20
2.0037829
 11
3.0039224E+001
 21
1.9762829
  0
LINE
  8
126
  6
CONTINUOUS
 62
3
 10
3.0092313E+001
 20
1.9231932
 11
3.0103626E+001
 21
1.91188
  0
LINE
  8
126
  6
CONTINUOUS
 62
3
 10
2.992021E+001
 20
2.0842476
 11
2.9947585E+001
 21
2.0568726
  0
LINE
  8
126
  6
CONTINUOUS
 62
3
 10
3.0000675E+001
 20
2.0037829
 11
3.0028175E+001
 21
1.9762829
  0
LINE
  8
126
  6
CONTINUOUS
 62
3
 10
3.0081265E+001
 20
1.9231932
 11
3.010197E+001
 21
1.9024876
  0
LINE
  8
126
  6
CONTINUOUS
 62
3
 10
2.9909162E+001
 20
2.0842476
 11
2.9936537E+001
 21
2.0568726
  0
LINE
  8
126
  6
CONTINUOUS
 62
3
 10
2.9989626E+001
 20
2.0037829
 11
3.0017126E+001
 21
1.9762829
  0
LINE
  8
126
  6
CONTINUOUS
 62
3
 10
3.0070216E+001
 20
1.9231932
 11
3.0097591E+001
 21
1.8958182
  0
LINE
  8
126
  6
CONTINUOUS
 62
3
 10
2.9898113E+001
 20
2.0842476
 11
2.9925488E+001
 21
2.0568726
  0
LINE
  8
126
  6
CONTINUOUS
 62
3
 10
2.9978578E+001
 20
2.0037829
 11
3.0006078E+001
 21
1.9762829
  0
LINE
  8
126
  6
CONTINUOUS
 62
3
 10
3.0059168E+001
 20
1.9231932
 11
3.0086543E+001
 21
1.8958182
  0
LINE
  8
126
  6
CONTINUOUS
 62
3
 10
2.9887065E+001
 20
2.0842476
 11
2.991444E+001
 21
2.0568726
  0
LINE
  8
126
  6
CONTINUOUS
 62
3
 10
2.9967529E+001
 20
2.0037829
 11
2.9995029E+001
 21
1.9762829
  0
LINE
  8
126
  6
CONTINUOUS
 62
3
 10
3.0048119E+001
 20
1.9231932
 11
3.0075494E+001
 21
1.8958182
  0
LINE
  8
126
  6
CONTINUOUS
 62
3
 10
2.9876016E+001
 20
2.0842476
 11
2.9905893E+001
 21
2.0543712
  0
LINE
  8
126
  6
CONTINUOUS
 62
3
 10
2.9956481E+001
 20
2.0037829
 11
2.9983981E+001
 21
1.9762829
  0
LINE
  8
126
  6
CONTINUOUS
 62
3
 10
3.0037071E+001
 20
1.9231932
 11
3.0064445E+001
 21
1.8958182
  0
LINE
  8
126
  6
CONTINUOUS
 62
3
 10
2.9864968E+001
 20
2.0842476
 11
2.9904236E+001
 21
2.0449788
  0
LINE
  8
126
  6
CONTINUOUS
 62
3
 10
2.9945432E+001
 20
2.0037829
 11
2.9972932E+001
 21
1.9762829
  0
LINE
  8
126
  6
CONTINUOUS
 62
3
 10
3.0026022E+001
 20
1.9231932
 11
3.0053397E+001
 21
1.8958182
  0
LINE
  8
126
  6
CONTINUOUS
 62
3
 10
2.9858255E+001
 20
2.0799117
 11
2.990258E+001
 21
2.0355864
  0
LINE
  8
126
  6
CONTINUOUS
 62
3
 10
2.9934384E+001
 20
2.0037829
 11
2.9961884E+001
 21
1.9762829
  0
LINE
  8
126
  6
CONTINUOUS
 62
3
 10
3.0014973E+001
 20
1.9231932
 11
3.0042348E+001
 21
1.8958182
  0
LINE
  8
126
  6
CONTINUOUS
 62
3
 10
2.9856599E+001
 20
2.0705192
 11
2.9900924E+001
 21
2.026194
  0
LINE
  8
126
  6
CONTINUOUS
 62
3
 10
2.9923335E+001
 20
2.0037829
 11
2.9950835E+001
 21
1.9762829
  0
LINE
  8
126
  6
CONTINUOUS
 62
3
 10
3.0003925E+001
 20
1.9231932
 11
3.00313E+001
 21
1.8958182
  0
LINE
  8
126
  6
CONTINUOUS
 62
3
 10
2.9854943E+001
 20
2.0611268
 11
2.9899268E+001
 21
2.0168016
  0
LINE
  8
126
  6
CONTINUOUS
 62
3
 10
2.9912287E+001
 20
2.0037829
 11
2.9939787E+001
 21
1.9762829
  0
LINE
  8
126
  6
CONTINUOUS
 62
3
 10
2.9992876E+001
 20
1.9231932
 11
3.0020251E+001
 21
1.8958182
  0
LINE
  8
126
  6
CONTINUOUS
 62
3
 10
2.9853287E+001
 20
2.0517344
 11
2.9897612E+001
 21
2.0074092
  0
LINE
  8
126
  6
CONTINUOUS
 62
3
 10
2.9901238E+001
 20
2.0037829
 11
2.9928738E+001
 21
1.9762829
  0
LINE
  8
126
  6
CONTINUOUS
 62
3
 10
2.9981828E+001
 20
1.9231932
 11
3.0009203E+001
 21
1.8958182
  0
LINE
  8
126
  6
CONTINUOUS
 62
3
 10
2.985163E+001
 20
2.042342
 11
2.991769E+001
 21
1.9762829
  0
LINE
  8
126
  6
CONTINUOUS
 62
3
 10
2.9970779E+001
 20
1.9231932
 11
2.9998154E+001
 21
1.8958182
  0
LINE
  8
126
  6
CONTINUOUS
 62
3
 10
2.9849974E+001
 20
2.0329496
 11
2.9906641E+001
 21
1.9762829
  0
LINE
  8
126
  6
CONTINUOUS
 62
3
 10
2.9959731E+001
 20
1.9231932
 11
2.9987106E+001
 21
1.8958182
  0
LINE
  8
126
  6
CONTINUOUS
 62
3
 10
2.9848318E+001
 20
2.0235572
 11
2.9895687E+001
 21
1.9761881
  0
LINE
  8
126
  6
CONTINUOUS
 62
3
 10
2.9948682E+001
 20
1.9231932
 11
2.9976057E+001
 21
1.8958182
  0
LINE
  8
126
  6
CONTINUOUS
 62
3
 10
2.9846662E+001
 20
2.0141648
 11
2.9894031E+001
 21
1.9667957
  0
LINE
  8
126
  6
CONTINUOUS
 62
3
 10
2.9937634E+001
 20
1.9231932
 11
2.9965009E+001
 21
1.8958182
  0
LINE
  8
126
  6
CONTINUOUS
 62
3
 10
2.9845006E+001
 20
2.0047724
 11
2.9892375E+001
 21
1.9574033
  0
LINE
  8
126
  6
CONTINUOUS
 62
3
 10
2.9926585E+001
 20
1.9231932
 11
2.995396E+001
 21
1.8958182
  0
LINE
  8
126
  6
CONTINUOUS
 62
3
 10
2.984335E+001
 20
1.99538
 11
2.9890719E+001
 21
1.9480109
  0
LINE
  8
126
  6
CONTINUOUS
 62
3
 10
2.9915537E+001
 20
1.9231932
 11
2.9942912E+001
 21
1.8958182
  0
LINE
  8
126
  6
CONTINUOUS
 62
3
 10
2.9841694E+001
 20
1.9859876
 11
2.9889063E+001
 21
1.9386185
  0
LINE
  8
126
  6
CONTINUOUS
 62
3
 10
2.9904488E+001
 20
1.9231932
 11
2.9931863E+001
 21
1.8958182
  0
LINE
  8
126
  6
CONTINUOUS
 62
3
 10
2.9840037E+001
 20
1.9765952
 11
2.9887407E+001
 21
1.9292261
  0
LINE
  8
126
  6
CONTINUOUS
 62
3
 10
2.9893439E+001
 20
1.9231932
 11
2.9920814E+001
 21
1.8958182
  0
LINE
  8
126
  6
CONTINUOUS
 62
3
 10
2.9838381E+001
 20
1.9672028
 11
2.9909766E+001
 21
1.8958182
  0
LINE
  8
126
  6
CONTINUOUS
 62
3
 10
2.9836725E+001
 20
1.9578103
 11
2.9898717E+001
 21
1.8958182
  0
LINE
  8
126
  6
CONTINUOUS
 62
3
 10
2.9835069E+001
 20
1.9484179
 11
2.9887669E+001
 21
1.8958182
  0
LINE
  8
126
  6
CONTINUOUS
 62
3
 10
2.9833413E+001
 20
1.9390255
 11
2.987662E+001
 21
1.8958182
  0
LINE
  8
126
  6
CONTINUOUS
 62
3
 10
2.9831757E+001
 20
1.9296331
 11
2.9865572E+001
 21
1.8958182
  0
LINE
  8
126
  6
CONTINUOUS
 62
3
 10
2.9830101E+001
 20
1.9202407
 11
2.9854523E+001
 21
1.8958182
  0
LINE
  8
126
  6
CONTINUOUS
 62
3
 10
2.9828445E+001
 20
1.9108483
 11
2.9843475E+001
 21
1.8958182
  0
LINE
  8
126
  6
CONTINUOUS
 62
3
 10
2.9826788E+001
 20
1.9014559
 11
2.9832426E+001
 21
1.8958182
  0
INSERT
  2
*TX27
  8
126
 10
2.5890017E+001
 20
5.948251E-001
  0
LINE
  8
1
  6
CONTINUOUS
 62
6
 10
2.527877E-001
 20
7.81881E-002
 11
3.3789294E+001
 21
7.81881E-002
  0
LINE
  8
1
  6
CONTINUOUS
 62
6
 10
3.3789294E+001
 20
7.81881E-002
 11
3.3789294E+001
 21
2.1909058E+001
  0
LINE
  8
1
  6
CONTINUOUS
 62
6
 10
3.3789294E+001
 20
2.1909058E+001
 11
2.527877E-001
 21
2.1909058E+001
  0
LINE
  8
1
  6
CONTINUOUS
 62
6
 10
2.527877E-001
 20
2.1909058E+001
 11
2.527877E-001
 21
7.81881E-002
  0
ENDSEC
  0
EOF
