  0
SECTION
  2
HEADER
  9
$ACADVER
  1
AC1009
999
I-DEAS Drafting Master Series 7m1 Not Encoded
  9
$EXTMIN
 10
0.0
 20
0.0
  9
$EXTMAX
 10
3.4E+001
 20
2.2E+001
  9
$TEXTSIZE
 40
1.25E-001
  9
$LTSCALE
 40
1.0
  9
$CLAYER
  8
1
  9
$CECOLOR
 62
1
  9
$DIMASZ
 40
1.25E-001
  9
$DIMEXO
 40
6.25E-002
  9
$DIMDLI
 40
2.5E-001
  9
$DIMEXE
 40
1.25E-001
  9
$DIMTP
 40
5.0E-003
  9
$DIMTM
 40
-5.0E-003
  9
$DIMTXT
 40
1.25E-001
  9
$DIMLIM
 70
0
  9
$DIMTIH
 70
1
  9
$DIMTOH
 70
1
  9
$DIMSE1
 70
0
  9
$DIMSE2
 70
0
  9
$DIMTAD
 70
0
  9
$DIMASO
 70
1
  9
$DIMALT
 70
0
  9
$DIMALTD
 70
0
  9
$DIMTOFL
 70
1
  9
$DIMTIX
 70
0
  9
$DIMSAH
 70
0
  9
$DIMTFAC
 40
1.0
  9
$DIMGAP
 40
6.25E-002
  9
$LUNITS
 70
2
  9
$LUPREC
 70
3
  9
$FILLETRAD
 40
5.0E-001
  9
$AUNITS
 70
0
  9
$AUPREC
 70
1
  9
$CHAMFERA
 40
2.5E-001
  9
$CHAMFERB
 40
2.5E-001
  9
$ANGBASE
 50
0.0
  9
$ANGDIR
 70
0
  9
$PDMODE
 70
2
  9
$PDSIZE
 40
-1.0E-002
  9
$SPLINETYPE
 70
6
  0
ENDSEC
  0
SECTION
  2
TABLES
  0
TABLE
  2
LTYPE
 70
7
  0
LTYPE
  2
HIDDENNEW00
  3
_ 
 70
64
 72
65
 73
2
 40
1.875E-001
 49
1.25E-001
 49
-6.25E-002
  0
LTYPE
  2
HIDDENNEW01
  3
_ 
 70
64
 72
65
 73
2
 40
1.875E-001
 49
1.25E-001
 49
-6.25E-002
  0
LTYPE
  2
HIDDEN
  3
_ 
 70
64
 72
65
 73
2
 40
1.875E-001
 49
1.25E-001
 49
-6.25E-002
  0
LTYPE
  2
CENTERLINE
  3
_ 
 70
64
 72
65
 73
4
 40
1.25
 49
1.0
 49
-6.25E-002
 49
1.25E-001
 49
-6.25E-002
  0
LTYPE
  2
PHANTOM
  3
_ 
 70
64
 72
65
 73
6
 40
1.1875
 49
7.5E-001
 49
-6.25E-002
 49
1.25E-001
 49
-6.25E-002
 49
1.25E-001
 49
-6.25E-002
  0
LTYPE
  2
SHORT_DASH
  3
_ 
 70
64
 72
65
 73
2
 40
1.25E-001
 49
6.25E-002
 49
-6.25E-002
  0
LTYPE
  2
LONG_DASH
  3
_ 
 70
64
 72
65
 73
2
 40
3.75E-001
 49
1.875E-001
 49
-1.875E-001
  0
ENDTAB
  0
TABLE
  2
LAYER
 70
258
  0
LAYER
  2
1
 70
0
 62
7
  6
CONTINUOUS
  0
LAYER
  2
2
 70
0
 62
7
  6
CONTINUOUS
  0
LAYER
  2
3
 70
0
 62
7
  6
CONTINUOUS
  0
LAYER
  2
4
 70
0
 62
7
  6
CONTINUOUS
  0
LAYER
  2
5
 70
0
 62
7
  6
CONTINUOUS
  0
LAYER
  2
6
 70
0
 62
7
  6
CONTINUOUS
  0
LAYER
  2
7
 70
0
 62
7
  6
CONTINUOUS
  0
LAYER
  2
8
 70
0
 62
7
  6
CONTINUOUS
  0
LAYER
  2
9
 70
0
 62
7
  6
CONTINUOUS
  0
LAYER
  2
10
 70
0
 62
7
  6
CONTINUOUS
  0
LAYER
  2
11
 70
0
 62
7
  6
CONTINUOUS
  0
LAYER
  2
12
 70
0
 62
7
  6
CONTINUOUS
  0
LAYER
  2
13
 70
0
 62
7
  6
CONTINUOUS
  0
LAYER
  2
14
 70
0
 62
7
  6
CONTINUOUS
  0
LAYER
  2
15
 70
0
 62
7
  6
CONTINUOUS
  0
LAYER
  2
16
 70
0
 62
7
  6
CONTINUOUS
  0
LAYER
  2
17
 70
0
 62
7
  6
CONTINUOUS
  0
LAYER
  2
18
 70
0
 62
7
  6
CONTINUOUS
  0
LAYER
  2
19
 70
0
 62
7
  6
CONTINUOUS
  0
LAYER
  2
20
 70
0
 62
7
  6
CONTINUOUS
  0
LAYER
  2
21
 70
0
 62
7
  6
CONTINUOUS
  0
LAYER
  2
22
 70
0
 62
7
  6
CONTINUOUS
  0
LAYER
  2
23
 70
0
 62
7
  6
CONTINUOUS
  0
LAYER
  2
24
 70
0
 62
7
  6
CONTINUOUS
  0
LAYER
  2
25
 70
0
 62
7
  6
CONTINUOUS
  0
LAYER
  2
26
 70
0
 62
7
  6
CONTINUOUS
  0
LAYER
  2
27
 70
0
 62
7
  6
CONTINUOUS
  0
LAYER
  2
28
 70
0
 62
7
  6
CONTINUOUS
  0
LAYER
  2
29
 70
0
 62
7
  6
CONTINUOUS
  0
LAYER
  2
30
 70
0
 62
7
  6
CONTINUOUS
  0
LAYER
  2
31
 70
0
 62
7
  6
CONTINUOUS
  0
LAYER
  2
32
 70
0
 62
7
  6
CONTINUOUS
  0
LAYER
  2
33
 70
0
 62
7
  6
CONTINUOUS
  0
LAYER
  2
34
 70
0
 62
7
  6
CONTINUOUS
  0
LAYER
  2
35
 70
0
 62
7
  6
CONTINUOUS
  0
LAYER
  2
36
 70
0
 62
7
  6
CONTINUOUS
  0
LAYER
  2
37
 70
0
 62
7
  6
CONTINUOUS
  0
LAYER
  2
38
 70
0
 62
7
  6
CONTINUOUS
  0
LAYER
  2
39
 70
0
 62
7
  6
CONTINUOUS
  0
LAYER
  2
40
 70
0
 62
7
  6
CONTINUOUS
  0
LAYER
  2
41
 70
0
 62
7
  6
CONTINUOUS
  0
LAYER
  2
42
 70
0
 62
7
  6
CONTINUOUS
  0
LAYER
  2
43
 70
0
 62
7
  6
CONTINUOUS
  0
LAYER
  2
44
 70
0
 62
7
  6
CONTINUOUS
  0
LAYER
  2
45
 70
0
 62
7
  6
CONTINUOUS
  0
LAYER
  2
46
 70
0
 62
7
  6
CONTINUOUS
  0
LAYER
  2
47
 70
0
 62
7
  6
CONTINUOUS
  0
LAYER
  2
48
 70
0
 62
7
  6
CONTINUOUS
  0
LAYER
  2
49
 70
0
 62
7
  6
CONTINUOUS
  0
LAYER
  2
50
 70
0
 62
7
  6
CONTINUOUS
  0
LAYER
  2
51
 70
0
 62
7
  6
CONTINUOUS
  0
LAYER
  2
52
 70
0
 62
7
  6
CONTINUOUS
  0
LAYER
  2
53
 70
0
 62
7
  6
CONTINUOUS
  0
LAYER
  2
54
 70
0
 62
7
  6
CONTINUOUS
  0
LAYER
  2
55
 70
0
 62
7
  6
CONTINUOUS
  0
LAYER
  2
56
 70
0
 62
7
  6
CONTINUOUS
  0
LAYER
  2
57
 70
0
 62
7
  6
CONTINUOUS
  0
LAYER
  2
58
 70
0
 62
7
  6
CONTINUOUS
  0
LAYER
  2
59
 70
0
 62
7
  6
CONTINUOUS
  0
LAYER
  2
60
 70
0
 62
7
  6
CONTINUOUS
  0
LAYER
  2
61
 70
0
 62
7
  6
CONTINUOUS
  0
LAYER
  2
62
 70
0
 62
7
  6
CONTINUOUS
  0
LAYER
  2
63
 70
0
 62
7
  6
CONTINUOUS
  0
LAYER
  2
64
 70
0
 62
7
  6
CONTINUOUS
  0
LAYER
  2
65
 70
0
 62
7
  6
CONTINUOUS
  0
LAYER
  2
66
 70
0
 62
7
  6
CONTINUOUS
  0
LAYER
  2
67
 70
0
 62
7
  6
CONTINUOUS
  0
LAYER
  2
68
 70
0
 62
7
  6
CONTINUOUS
  0
LAYER
  2
69
 70
0
 62
7
  6
CONTINUOUS
  0
LAYER
  2
70
 70
0
 62
7
  6
CONTINUOUS
  0
LAYER
  2
71
 70
0
 62
7
  6
CONTINUOUS
  0
LAYER
  2
72
 70
0
 62
7
  6
CONTINUOUS
  0
LAYER
  2
73
 70
0
 62
7
  6
CONTINUOUS
  0
LAYER
  2
74
 70
0
 62
7
  6
CONTINUOUS
  0
LAYER
  2
75
 70
0
 62
7
  6
CONTINUOUS
  0
LAYER
  2
76
 70
0
 62
7
  6
CONTINUOUS
  0
LAYER
  2
77
 70
0
 62
7
  6
CONTINUOUS
  0
LAYER
  2
78
 70
0
 62
7
  6
CONTINUOUS
  0
LAYER
  2
79
 70
0
 62
7
  6
CONTINUOUS
  0
LAYER
  2
80
 70
0
 62
7
  6
CONTINUOUS
  0
LAYER
  2
81
 70
0
 62
7
  6
CONTINUOUS
  0
LAYER
  2
82
 70
0
 62
7
  6
CONTINUOUS
  0
LAYER
  2
83
 70
0
 62
7
  6
CONTINUOUS
  0
LAYER
  2
84
 70
0
 62
7
  6
CONTINUOUS
  0
LAYER
  2
85
 70
0
 62
7
  6
CONTINUOUS
  0
LAYER
  2
86
 70
0
 62
7
  6
CONTINUOUS
  0
LAYER
  2
87
 70
0
 62
7
  6
CONTINUOUS
  0
LAYER
  2
88
 70
0
 62
7
  6
CONTINUOUS
  0
LAYER
  2
89
 70
0
 62
7
  6
CONTINUOUS
  0
LAYER
  2
90
 70
0
 62
7
  6
CONTINUOUS
  0
LAYER
  2
91
 70
0
 62
7
  6
CONTINUOUS
  0
LAYER
  2
92
 70
0
 62
7
  6
CONTINUOUS
  0
LAYER
  2
93
 70
0
 62
7
  6
CONTINUOUS
  0
LAYER
  2
94
 70
0
 62
7
  6
CONTINUOUS
  0
LAYER
  2
95
 70
0
 62
7
  6
CONTINUOUS
  0
LAYER
  2
96
 70
0
 62
7
  6
CONTINUOUS
  0
LAYER
  2
97
 70
0
 62
7
  6
CONTINUOUS
  0
LAYER
  2
98
 70
0
 62
7
  6
CONTINUOUS
  0
LAYER
  2
99
 70
0
 62
7
  6
CONTINUOUS
  0
LAYER
  2
100
 70
0
 62
7
  6
CONTINUOUS
  0
LAYER
  2
101
 70
0
 62
7
  6
CONTINUOUS
  0
LAYER
  2
102
 70
0
 62
7
  6
CONTINUOUS
  0
LAYER
  2
103
 70
0
 62
7
  6
CONTINUOUS
  0
LAYER
  2
104
 70
0
 62
7
  6
CONTINUOUS
  0
LAYER
  2
105
 70
0
 62
7
  6
CONTINUOUS
  0
LAYER
  2
106
 70
0
 62
7
  6
CONTINUOUS
  0
LAYER
  2
107
 70
0
 62
7
  6
CONTINUOUS
  0
LAYER
  2
108
 70
0
 62
7
  6
CONTINUOUS
  0
LAYER
  2
109
 70
0
 62
7
  6
CONTINUOUS
  0
LAYER
  2
110
 70
0
 62
7
  6
CONTINUOUS
  0
LAYER
  2
111
 70
0
 62
7
  6
CONTINUOUS
  0
LAYER
  2
112
 70
0
 62
7
  6
CONTINUOUS
  0
LAYER
  2
113
 70
0
 62
7
  6
CONTINUOUS
  0
LAYER
  2
114
 70
0
 62
7
  6
CONTINUOUS
  0
LAYER
  2
115
 70
0
 62
7
  6
CONTINUOUS
  0
LAYER
  2
116
 70
0
 62
7
  6
CONTINUOUS
  0
LAYER
  2
117
 70
0
 62
7
  6
CONTINUOUS
  0
LAYER
  2
118
 70
0
 62
7
  6
CONTINUOUS
  0
LAYER
  2
119
 70
0
 62
7
  6
CONTINUOUS
  0
LAYER
  2
120
 70
0
 62
7
  6
CONTINUOUS
  0
LAYER
  2
121
 70
0
 62
7
  6
CONTINUOUS
  0
LAYER
  2
122
 70
0
 62
7
  6
CONTINUOUS
  0
LAYER
  2
123
 70
0
 62
7
  6
CONTINUOUS
  0
LAYER
  2
124
 70
0
 62
7
  6
CONTINUOUS
  0
LAYER
  2
125
 70
0
 62
7
  6
CONTINUOUS
  0
LAYER
  2
126
 70
0
 62
7
  6
CONTINUOUS
  0
LAYER
  2
127
 70
0
 62
7
  6
CONTINUOUS
  0
LAYER
  2
128
 70
0
 62
7
  6
CONTINUOUS
  0
LAYER
  2
129
 70
0
 62
7
  6
CONTINUOUS
  0
LAYER
  2
130
 70
0
 62
7
  6
CONTINUOUS
  0
LAYER
  2
131
 70
0
 62
7
  6
CONTINUOUS
  0
LAYER
  2
132
 70
0
 62
7
  6
CONTINUOUS
  0
LAYER
  2
133
 70
0
 62
7
  6
CONTINUOUS
  0
LAYER
  2
134
 70
0
 62
7
  6
CONTINUOUS
  0
LAYER
  2
135
 70
0
 62
7
  6
CONTINUOUS
  0
LAYER
  2
136
 70
0
 62
7
  6
CONTINUOUS
  0
LAYER
  2
137
 70
0
 62
7
  6
CONTINUOUS
  0
LAYER
  2
138
 70
0
 62
7
  6
CONTINUOUS
  0
LAYER
  2
139
 70
0
 62
7
  6
CONTINUOUS
  0
LAYER
  2
140
 70
0
 62
7
  6
CONTINUOUS
  0
LAYER
  2
141
 70
0
 62
7
  6
CONTINUOUS
  0
LAYER
  2
142
 70
0
 62
7
  6
CONTINUOUS
  0
LAYER
  2
143
 70
0
 62
7
  6
CONTINUOUS
  0
LAYER
  2
144
 70
0
 62
7
  6
CONTINUOUS
  0
LAYER
  2
145
 70
0
 62
7
  6
CONTINUOUS
  0
LAYER
  2
146
 70
0
 62
7
  6
CONTINUOUS
  0
LAYER
  2
147
 70
0
 62
7
  6
CONTINUOUS
  0
LAYER
  2
148
 70
0
 62
7
  6
CONTINUOUS
  0
LAYER
  2
149
 70
0
 62
7
  6
CONTINUOUS
  0
LAYER
  2
150
 70
0
 62
7
  6
CONTINUOUS
  0
LAYER
  2
151
 70
0
 62
7
  6
CONTINUOUS
  0
LAYER
  2
152
 70
0
 62
7
  6
CONTINUOUS
  0
LAYER
  2
153
 70
0
 62
7
  6
CONTINUOUS
  0
LAYER
  2
154
 70
0
 62
7
  6
CONTINUOUS
  0
LAYER
  2
155
 70
0
 62
7
  6
CONTINUOUS
  0
LAYER
  2
156
 70
0
 62
7
  6
CONTINUOUS
  0
LAYER
  2
157
 70
0
 62
7
  6
CONTINUOUS
  0
LAYER
  2
158
 70
0
 62
7
  6
CONTINUOUS
  0
LAYER
  2
159
 70
0
 62
7
  6
CONTINUOUS
  0
LAYER
  2
160
 70
0
 62
7
  6
CONTINUOUS
  0
LAYER
  2
161
 70
0
 62
7
  6
CONTINUOUS
  0
LAYER
  2
162
 70
0
 62
7
  6
CONTINUOUS
  0
LAYER
  2
163
 70
0
 62
7
  6
CONTINUOUS
  0
LAYER
  2
164
 70
0
 62
7
  6
CONTINUOUS
  0
LAYER
  2
165
 70
0
 62
7
  6
CONTINUOUS
  0
LAYER
  2
166
 70
0
 62
7
  6
CONTINUOUS
  0
LAYER
  2
167
 70
0
 62
7
  6
CONTINUOUS
  0
LAYER
  2
168
 70
0
 62
7
  6
CONTINUOUS
  0
LAYER
  2
169
 70
0
 62
7
  6
CONTINUOUS
  0
LAYER
  2
170
 70
0
 62
7
  6
CONTINUOUS
  0
LAYER
  2
171
 70
0
 62
7
  6
CONTINUOUS
  0
LAYER
  2
172
 70
0
 62
7
  6
CONTINUOUS
  0
LAYER
  2
173
 70
0
 62
7
  6
CONTINUOUS
  0
LAYER
  2
174
 70
0
 62
7
  6
CONTINUOUS
  0
LAYER
  2
175
 70
0
 62
7
  6
CONTINUOUS
  0
LAYER
  2
176
 70
0
 62
7
  6
CONTINUOUS
  0
LAYER
  2
177
 70
0
 62
7
  6
CONTINUOUS
  0
LAYER
  2
178
 70
0
 62
7
  6
CONTINUOUS
  0
LAYER
  2
179
 70
0
 62
7
  6
CONTINUOUS
  0
LAYER
  2
180
 70
0
 62
7
  6
CONTINUOUS
  0
LAYER
  2
Drafting_Hidden_Entities
 70
1
 62
7
  6
CONTINUOUS
  0
ENDTAB
  0
TABLE
  2
STYLE
 70
1
  0
STYLE
  2
STANDARD
 70
64
 40
0.0
 41
1.0
 50
0.0
 71
0
 42
1.0
  3
monotxt.shx
  4

  0
ENDTAB
  0
TABLE
  2
VIEW
 70
0
  0
ENDTAB
  0
TABLE
  2
DIMSTYLE
 70
2
  0
DIMSTYLE
  2
DSTYLE1
 70
0
  3

  4

  5

  6

  7

 40
1.0
 41
5.0E-001
 42
1.0E-001
 43
3.8E-001
 44
2.5E-001
 45
1.0E-003
 46
0.0
 47
5.0E-003
 48
5.0E-003
 71
0
 72
0
 73
1
 74
1
 75
0
 76
0
 77
0
 78
7
140
3.75E-001
141
9.0E-002
142
0.0
143
1.0
144
1.0
145
0.0
146
1.0
147
2.5E-001
170
0
171
2
172
0
173
0
174
0
175
0
176
0
177
0
178
0
  0
DIMSTYLE
  2
DSTYLE2
 70
0
  3

  4

  5

  6

  7

 40
1.0
 41
5.0E-001
 42
6.25E-002
 43
3.8E-001
 44
1.25E-001
 45
1.0E-003
 46
0.0
 47
5.0E-003
 48
5.0E-003
 71
0
 72
0
 73
1
 74
1
 75
1
 76
0
 77
0
 78
7
140
3.75E-001
141
9.0E-002
142
0.0
143
2.54E+001
144
1.0
145
0.0
146
1.0
147
6.25E-002
170
0
171
2
172
0
173
0
174
0
175
0
176
0
177
0
178
0
  0
ENDTAB
  0
ENDSEC
  0
SECTION
  2
BLOCKS
  0
BLOCK
  2
*TX27
  3
*TX
 10
0.0
 20
0.0
 70
65
  0
TEXT
  8
126
  6
CONTINUOUS
 62
3
 10
0.0
 20
0.0
 40
6.053E-002
  1
THIS PRINT IS THE PROPERTY OF ELKAY MANUFACTURING COMPANY
 41
1.0344828
  0
TEXT
  8
126
  6
CONTINUOUS
 62
3
 10
0.0
 20
-1.0553E-001
 40
6.053E-002
  1
AND IS LOANED SUBJECT TO RETURN UPON DEMAND AND UPON THE
 41
1.0344828
  0
TEXT
  8
126
  6
CONTINUOUS
 62
3
 10
0.0
 20
-2.1106E-001
 40
6.053E-002
  1
EXPRESS CONDITION THAT IT IS NOT TO BE USED DIRECTLY OR
 41
1.0344828
  0
TEXT
  8
126
  6
CONTINUOUS
 62
3
 10
0.0
 20
-3.1659E-001
 40
6.053E-002
  1
INDIRECTLY WITHOUT OUR PERMISSION FOR PURPOSES OTHER THAN
 41
1.0344828
  0
TEXT
  8
126
  6
CONTINUOUS
 62
3
 10
0.0
 20
-4.2212E-001
 40
6.053E-002
  1
THOSE FOR WHICH IT WAS FURNISHED.
 41
1.0344828
  0
ENDBLK
  0
BLOCK
  2
*TX28
  3
*TX
 10
0.0
 20
0.0
 70
65
  0
TEXT
  8
1
  6
CONTINUOUS
 62
3
 10
3.7125
 20
1.375E-001
 40
2.75E-001
  1
VERIFY THAT THE MODEL BEING
 72
1
 73
2
 11
0.0
 21
0.0
  0
TEXT
  8
1
  6
CONTINUOUS
 62
3
 10
3.4375
 20
-2.75E-001
 40
2.75E-001
  1
INSTALLED IS LISTED ABOVE
 72
1
 73
2
 11
0.0
 21
-4.125E-001
  0
TEXT
  8
1
  6
CONTINUOUS
 62
3
 10
3.575
 20
-6.875E-001
 40
2.75E-001
  1
BEFORE USING THIS TEMPLATE
 72
1
 73
2
 11
0.0
 21
-8.25E-001
  0
TEXT
  8
1
  6
CONTINUOUS
 62
3
 10
2.75E-001
 20
-1.1
 40
2.75E-001
  1
  
 72
1
 73
2
 11
0.0
 21
-1.2375
  0
TEXT
  8
1
  6
CONTINUOUS
 62
3
 10
2.8875
 20
-1.5125
 40
2.75E-001
  1
CHECK THE TEMPLATE BY
 72
1
 73
2
 11
0.0
 21
-1.65
  0
TEXT
  8
1
  6
CONTINUOUS
 62
3
 10
2.475
 20
-1.925
 40
2.75E-001
  1
LAYING IT OVER THE
 72
1
 73
2
 11
0.0
 21
-2.0625
  0
TEXT
  8
1
  6
CONTINUOUS
 62
3
 10
3.575
 20
-2.3375
 40
2.75E-001
  1
SINK PRIOR TO INSTALLATION
 72
1
 73
2
 11
0.0
 21
-2.475
  0
TEXT
  8
1
  6
CONTINUOUS
 62
3
 10
1.375E-001
 20
-2.75
 40
2.75E-001
  1
 
 72
1
 73
2
 11
0.0
 21
-2.8875
  0
TEXT
  8
1
  6
CONTINUOUS
 62
3
 10
3.85
 20
-3.1625
 40
2.75E-001
  1
FOR QUESTIONS PLEASE CONTACT
 72
1
 73
2
 11
0.0
 21
-3.3
  0
TEXT
  8
1
  6
CONTINUOUS
 62
3
 10
3.025
 20
-3.575
 40
2.75E-001
  1
ELKAY CUSTOMER SERVICE
 72
1
 73
2
 11
0.0
 21
-3.7125
  0
ENDBLK
  0
BLOCK
  2
*TX32
  3
*TX
 10
0.0
 20
0.0
 70
65
  0
TEXT
  8
126
  6
CONTINUOUS
 62
3
 10
9.0E-001
 20
5.0E-002
 40
1.0E-001
  1
24 LB COATED PAPER
 72
1
 73
2
 11
0.0
 21
0.0
  0
TEXT
  8
126
  6
CONTINUOUS
 62
3
 10
2.5E-001
 20
-1.0E-001
 40
1.0E-001
  1
WHITE
 72
1
 73
2
 11
0.0
 21
-1.5E-001
  0
ENDBLK
  0
BLOCK
  2
*TX33
  3
*TX
 10
0.0
 20
0.0
 70
65
  0
TEXT
  8
1
  6
CONTINUOUS
 62
3
 10
1.28
 20
1.6E-001
 40
3.2E-001
  1
BCFR1315
 72
1
 73
2
 11
0.0
 21
0.0
  0
TEXT
  8
1
  6
CONTINUOUS
 62
3
 10
9.6E-001
 20
-3.2E-001
 40
3.2E-001
  1
D11315
 72
1
 73
2
 11
0.0
 21
-4.8E-001
  0
TEXT
  8
1
  6
CONTINUOUS
 62
3
 10
9.6E-001
 20
-8.0E-001
 40
3.2E-001
  1
K11315
 72
1
 73
2
 11
0.0
 21
-9.6E-001
  0
TEXT
  8
1
  6
CONTINUOUS
 62
3
 10
9.6E-001
 20
-1.28
 40
3.2E-001
  1
M11315
 72
1
 73
2
 11
0.0
 21
-1.44
  0
TEXT
  8
1
  6
CONTINUOUS
 62
3
 10
1.28
 20
-1.76
 40
3.2E-001
  1
WIN11315
 72
1
 73
2
 11
0.0
 21
-1.92
  0
ENDBLK
  0
BLOCK
  2
*D76
  3
*D
 10
0.0
 20
0.0
 70
65
  0
LINE
  8
1
  6
CONTINUOUS
 62
3
 10
1.7827159E+001
 20
1.9072257E+001
 11
2.112701E+001
 21
1.9072257E+001
  0
LINE
  8
1
  6
CONTINUOUS
 62
3
 10
1.7827159E+001
 20
4.697257
 11
2.112701E+001
 21
4.697257
  0
LINE
  8
1
  6
CONTINUOUS
 62
3
 10
2.087701E+001
 20
1.9072257E+001
 11
2.0793677E+001
 21
1.8572257E+001
  0
LINE
  8
1
  6
CONTINUOUS
 62
3
 10
2.087701E+001
 20
1.9072257E+001
 11
2.0960344E+001
 21
1.8572257E+001
  0
LINE
  8
1
  6
CONTINUOUS
 62
3
 10
2.0793677E+001
 20
1.8572257E+001
 11
2.0960344E+001
 21
1.8572257E+001
  0
LINE
  8
1
  6
CONTINUOUS
 62
3
 10
2.087701E+001
 20
4.697257
 11
2.0793677E+001
 21
5.197257
  0
LINE
  8
1
  6
CONTINUOUS
 62
3
 10
2.087701E+001
 20
4.697257
 11
2.0960344E+001
 21
5.197257
  0
LINE
  8
1
  6
CONTINUOUS
 62
3
 10
2.0793677E+001
 20
5.197257
 11
2.0960344E+001
 21
5.197257
  0
LINE
  8
1
  6
CONTINUOUS
 62
3
 10
2.087701E+001
 20
1.9072257E+001
 11
2.087701E+001
 21
1.2322257E+001
  0
LINE
  8
1
  6
CONTINUOUS
 62
3
 10
2.087701E+001
 20
4.697257
 11
2.087701E+001
 21
1.1447257E+001
  0
TEXT
  8
1
  6
CONTINUOUS
 62
3
 10
1.975201E+001
 20
1.1697257E+001
 40
3.75E-001
  1
14 3/8
  0
ENDBLK
  0
BLOCK
  2
*D77
  3
*D
 10
0.0
 20
0.0
 70
65
  0
LINE
  8
1
  6
CONTINUOUS
 62
3
 10
1.9227159E+001
 20
6.097257
 11
1.9227159E+001
 21
3.0783718
  0
LINE
  8
1
  6
CONTINUOUS
 62
3
 10
6.8521588
 20
6.097257
 11
6.8521588
 21
3.0783718
  0
LINE
  8
1
  6
CONTINUOUS
 62
3
 10
1.9227159E+001
 20
3.3283718
 11
1.8727159E+001
 21
3.4117051
  0
LINE
  8
1
  6
CONTINUOUS
 62
3
 10
1.9227159E+001
 20
3.3283718
 11
1.8727159E+001
 21
3.2450385
  0
LINE
  8
1
  6
CONTINUOUS
 62
3
 10
1.8727159E+001
 20
3.4117051
 11
1.8727159E+001
 21
3.2450385
  0
LINE
  8
1
  6
CONTINUOUS
 62
3
 10
6.8521588
 20
3.3283718
 11
7.3521588
 21
3.4117051
  0
LINE
  8
1
  6
CONTINUOUS
 62
3
 10
6.8521588
 20
3.3283718
 11
7.3521588
 21
3.2450385
  0
LINE
  8
1
  6
CONTINUOUS
 62
3
 10
7.3521588
 20
3.4117051
 11
7.3521588
 21
3.2450385
  0
LINE
  8
1
  6
CONTINUOUS
 62
3
 10
1.9227159E+001
 20
3.3283718
 11
1.4414659E+001
 21
3.3283718
  0
LINE
  8
1
  6
CONTINUOUS
 62
3
 10
6.8521588
 20
3.3283718
 11
1.1664659E+001
 21
3.3283718
  0
TEXT
  8
1
  6
CONTINUOUS
 62
3
 10
1.1914659E+001
 20
3.1408718
 40
3.75E-001
  1
12 3/8
  0
ENDBLK
  0
BLOCK
  2
*D89
  3
*D
 10
0.0
 20
0.0
 70
65
  0
LINE
  8
1
  6
CONTINUOUS
 62
3
 10
7.389777
 20
1.8722831E+001
 11
8.0864596
 21
1.7967403E+001
  0
LINE
  8
1
  6
CONTINUOUS
 62
3
 10
7.389777
 20
1.8722831E+001
 11
7.6674907
 21
1.829878E+001
  0
LINE
  8
1
  6
CONTINUOUS
 62
3
 10
7.389777
 20
1.8722831E+001
 11
7.7900093
 21
1.8411771E+001
  0
LINE
  8
1
  6
CONTINUOUS
 62
3
 10
7.6674907
 20
1.829878E+001
 11
7.7900093
 21
1.8411771E+001
  0
LINE
  8
1
  6
CONTINUOUS
 62
3
 10
8.2114596
 20
1.7967403E+001
 11
8.0864596
 21
1.7967403E+001
  0
TEXT
  8
1
  6
CONTINUOUS
 62
3
 10
8.2739596
 20
1.7779903E+001
 40
3.75E-001
  1
R 1 1/2
  0
ENDBLK
  0
ENDSEC
  0
SECTION
  2
ENTITIES
  0
LINE
  8
1
  6
CONTINUOUS
 62
1
 10
8.3521588
 20
4.697257
 11
1.7727159E+001
 21
4.697257
  0
LINE
  8
1
  6
CONTINUOUS
 62
1
 10
1.9227159E+001
 20
6.197257
 11
1.9227159E+001
 21
1.7572257E+001
  0
LINE
  8
1
  6
CONTINUOUS
 62
1
 10
1.7727159E+001
 20
1.9072257E+001
 11
8.3521588
 21
1.9072257E+001
  0
LINE
  8
1
  6
CONTINUOUS
 62
1
 10
6.8521588
 20
1.7572257E+001
 11
6.8521588
 21
6.197257
  0
ARC
  8
1
  6
CONTINUOUS
 62
1
 10
8.3521588
 20
6.197257
 40
1.5
 50
1.8E+002
 51
2.7E+002
  0
ARC
  8
1
  6
CONTINUOUS
 62
1
 10
1.7727159E+001
 20
6.197257
 40
1.5
 50
2.7E+002
 51
3.6E+002
  0
ARC
  8
1
  6
CONTINUOUS
 62
1
 10
1.7727159E+001
 20
1.7572257E+001
 40
1.5
 50
0.0
 51
9.0E+001
  0
ARC
  8
1
  6
CONTINUOUS
 62
1
 10
8.3521588
 20
1.7572257E+001
 40
1.5
 50
9.0E+001
 51
1.8E+002
  0
TEXT
  8
126
  6
CONTINUOUS
 62
3
 10
3.1419033E+001
 20
1.1882264
 40
1.0E-001
  1
JAS
  0
TEXT
  8
126
  6
CONTINUOUS
 62
3
 10
2.9824134E+001
 20
7.08668E-001
 40
8.0E-002
  1
REL - ECNBV03397 01JUN04
  0
INSERT
  2
*TX32
  8
126
 10
2.7720546E+001
 20
1.4247085
  0
TEXT
  8
1
  6
CONTINUOUS
 62
3
 10
1.5416185E+001
 20
1.6985155E+001
 40
4.0E-001
  1
TEMPLATE FOR
 72
1
 73
2
 11
1.3016185E+001
 21
1.6785155E+001
  0
DIMENSION
  8
1
  6
CONTINUOUS
 62
3
  2
*D76
  3
DSTYLE1
 10
2.087701E+001
 20
4.697257
 11
2.087701E+001
 21
1.1884757E+001
 70
128
 13
1.7727159E+001
 23
1.9072257E+001
 14
1.7727159E+001
 24
4.697257
 40
1.25E-001
 50
9.0E+001
  0
DIMENSION
  8
1
  6
CONTINUOUS
 62
3
  2
*D77
  3
DSTYLE1
 10
6.8521588
 20
3.3283718
 11
1.3039659E+001
 21
3.3283718
 70
128
 13
1.9227159E+001
 23
6.197257
 14
6.8521588
 24
6.197257
 40
1.25E-001
 50
0.0
  0
POLYLINE
  8
1
  6
CONTINUOUS
 62
3
 66
1
 40
2.0E-002
 41
2.0E-002
 70
0
  0
VERTEX
  8
1
 42
0.0
 10
8.3818922
 20
6.197257
 70
0
  0
VERTEX
  8
1
 42
0.0
 10
1.7697425E+001
 20
6.197257
 70
0
  0
SEQEND
  0
POLYLINE
  8
1
  6
CONTINUOUS
 62
3
 66
1
 40
2.0E-002
 41
2.0E-002
 70
0
  0
VERTEX
  8
1
 42
0.0
 10
8.3818922
 20
1.1136575E+001
 70
0
  0
VERTEX
  8
1
 42
0.0
 10
8.3818922
 20
6.197257
 70
0
  0
SEQEND
  0
POLYLINE
  8
1
  6
CONTINUOUS
 62
3
 66
1
 40
2.0E-002
 41
2.0E-002
 70
0
  0
VERTEX
  8
1
 42
0.0
 10
8.3818922
 20
1.1136575E+001
 70
0
  0
VERTEX
  8
1
 42
0.0
 10
1.3039659E+001
 20
1.2908845E+001
 70
0
  0
SEQEND
  0
POLYLINE
  8
1
  6
CONTINUOUS
 62
3
 66
1
 40
2.0E-002
 41
2.0E-002
 70
0
  0
VERTEX
  8
1
 42
0.0
 10
1.3039659E+001
 20
1.2908845E+001
 70
0
  0
VERTEX
  8
1
 42
0.0
 10
1.7697425E+001
 20
1.1136575E+001
 70
0
  0
SEQEND
  0
POLYLINE
  8
1
  6
CONTINUOUS
 62
3
 66
1
 40
2.0E-002
 41
2.0E-002
 70
0
  0
VERTEX
  8
1
 42
0.0
 10
1.7697425E+001
 20
6.197257
 70
0
  0
VERTEX
  8
1
 42
0.0
 10
1.7697425E+001
 20
1.1136575E+001
 70
0
  0
SEQEND
  0
TEXT
  8
1
  6
CONTINUOUS
 62
3
 10
1.5627752E+001
 20
1.1632407E+001
 40
4.0E-001
  1
**IMPORTANT**
 51
-4.1943E-006
 72
1
 73
2
 11
1.3027752E+001
 21
1.1432407E+001
  0
TEXT
  8
1
  6
CONTINUOUS
 62
3
 10
1.4228905E+001
 20
5.596167
 40
3.0E-001
  1
74180405
 72
1
 73
2
 11
1.3028905E+001
 21
5.446167
  0
INSERT
  2
*D89
  8
1
 10
0.0
 20
0.0
  0
LINE
  8
1
  6
CONTINUOUS
 62
3
 10
1.552655E+001
 20
1.6459227E+001
 11
1.0515558E+001
 21
1.6459227E+001
  0
INSERT
  2
*TX33
  8
1
 10
1.3035847E+001
 20
1.5791462E+001
  0
INSERT
  2
*TX28
  8
1
 10
1.3050007E+001
 20
1.0434762E+001
  0
TEXT
  8
180
  6
CONTINUOUS
 62
1
 10
3.1374666E+001
 20
2.0539686
 40
1.25E-001
  1
MANUFACTURING COMPANY
 41
9.0E-001
  0
TEXT
  8
126
  6
CONTINUOUS
 62
3
 10
3.2504287E+001
 20
1.9740268
 40
7.5E-002
  1
BROADVIEW, ILLINOIS
 72
1
 73
2
 11
3.1791787E+001
 21
1.9365268
  0
LINE
  8
126
  6
CONTINUOUS
 62
3
 10
3.0185445E+001
 20
2.0556615
 11
3.0375076E+001
 21
2.0556615
  0
LINE
  8
126
  6
CONTINUOUS
 62
3
 10
2.985902E+001
 20
2.2167159
 11
3.0121327E+001
 21
2.2167159
  0
LINE
  8
126
  6
CONTINUOUS
 62
3
 10
2.9825794E+001
 20
2.0282865
 11
3.0100794E+001
 21
2.0282865
  0
LINE
  8
126
  6
CONTINUOUS
 62
3
 10
2.9825794E+001
 20
2.0282865
 11
2.985902E+001
 21
2.2167159
  0
LINE
  8
126
  6
CONTINUOUS
 62
3
 10
2.9906334E+001
 20
2.1893409
 11
3.01165E+001
 21
2.1893409
  0
LINE
  8
126
  6
CONTINUOUS
 62
3
 10
3.0128451E+001
 20
2.0282865
 11
3.0161676E+001
 21
2.2167159
  0
LINE
  8
126
  6
CONTINUOUS
 62
3
 10
3.0161676E+001
 20
2.2167159
 11
3.0213843E+001
 21
2.2167159
  0
LINE
  8
126
  6
CONTINUOUS
 62
3
 10
3.0128451E+001
 20
2.0282865
 11
3.0370249E+001
 21
2.0282865
  0
LINE
  8
126
  6
CONTINUOUS
 62
3
 10
3.0185445E+001
 20
2.0556615
 11
3.0213843E+001
 21
2.2167159
  0
LINE
  8
126
  6
CONTINUOUS
 62
3
 10
2.9896972E+001
 20
2.1362512
 11
2.9906334E+001
 21
2.1893409
  0
LINE
  8
126
  6
CONTINUOUS
 62
3
 10
3.01165E+001
 20
2.1893409
 11
3.0121327E+001
 21
2.2167159
  0
LINE
  8
126
  6
CONTINUOUS
 62
3
 10
3.0089597E+001
 20
2.1087512
 11
3.0094446E+001
 21
2.1362512
  0
LINE
  8
126
  6
CONTINUOUS
 62
3
 10
3.1323375E+001
 20
2.2167159
 11
3.1169099E+001
 21
2.1015365
  0
LINE
  8
126
  6
CONTINUOUS
 62
3
 10
3.1323375E+001
 20
2.2167159
 11
3.1262155E+001
 21
2.2167159
  0
LINE
  8
126
  6
CONTINUOUS
 62
3
 10
3.1262155E+001
 20
2.2167159
 11
3.1148803E+001
 21
2.13209
  0
LINE
  8
126
  6
CONTINUOUS
 62
3
 10
3.0100794E+001
 20
2.0282865
 11
3.0105621E+001
 21
2.0556615
  0
LINE
  8
126
  6
CONTINUOUS
 62
3
 10
2.9886343E+001
 20
2.0556615
 11
2.9895704E+001
 21
2.1087512
  0
LINE
  8
126
  6
CONTINUOUS
 62
3
 10
3.0094446E+001
 20
2.1362512
 11
2.9896972E+001
 21
2.1362512
  0
LINE
  8
126
  6
CONTINUOUS
 62
3
 10
2.9895704E+001
 20
2.1087512
 11
3.0089597E+001
 21
2.1087512
  0
LINE
  8
126
  6
CONTINUOUS
 62
3
 10
3.0723949E+001
 20
2.2167159
 11
3.0580825E+001
 21
2.1355242
  0
LINE
  8
126
  6
CONTINUOUS
 62
3
 10
2.9886343E+001
 20
2.0556615
 11
3.0105621E+001
 21
2.0556615
  0
LINE
  8
126
  6
CONTINUOUS
 62
3
 10
3.0370249E+001
 20
2.0282865
 11
3.0375076E+001
 21
2.0556615
  0
LINE
  8
126
  6
CONTINUOUS
 62
3
 10
3.0649722E+001
 20
2.2167159
 11
3.0723949E+001
 21
2.2167159
  0
LINE
  8
126
  6
CONTINUOUS
 62
3
 10
3.0616328E+001
 20
2.0282865
 11
3.0697549E+001
 21
2.0282865
  0
LINE
  8
126
  6
CONTINUOUS
 62
3
 10
3.045635E+001
 20
2.0649115
 11
3.0449892E+001
 21
2.0282865
  0
LINE
  8
126
  6
CONTINUOUS
 62
3
 10
3.0483117E+001
 20
2.2167159
 11
3.04646E+001
 21
2.1116993
  0
LINE
  8
126
  6
CONTINUOUS
 62
3
 10
3.0871587E+001
 20
2.2167159
 11
3.0963087E+001
 21
2.2167159
  0
LINE
  8
126
  6
CONTINUOUS
 62
3
 10
3.0993693E+001
 20
2.0282865
 11
3.1054712E+001
 21
2.0282865
  0
LINE
  8
126
  6
CONTINUOUS
 62
3
 10
3.053061E+001
 20
2.1070381
 11
3.045635E+001
 21
2.0649115
  0
LINE
  8
126
  6
CONTINUOUS
 62
3
 10
3.0649722E+001
 20
2.2167159
 11
3.04646E+001
 21
2.1116993
  0
LINE
  8
126
  6
CONTINUOUS
 62
3
 10
3.0483117E+001
 20
2.2167159
 11
3.0430949E+001
 21
2.2167159
  0
LINE
  8
126
  6
CONTINUOUS
 62
3
 10
3.0397724E+001
 20
2.0282865
 11
3.0430949E+001
 21
2.2167159
  0
LINE
  8
126
  6
CONTINUOUS
 62
3
 10
3.0697549E+001
 20
2.0282865
 11
3.0580825E+001
 21
2.1355242
  0
LINE
  8
126
  6
CONTINUOUS
 62
3
 10
3.0616328E+001
 20
2.0282865
 11
3.053061E+001
 21
2.1070381
  0
LINE
  8
126
  6
CONTINUOUS
 62
3
 10
3.0449892E+001
 20
2.0282865
 11
3.0397724E+001
 21
2.0282865
  0
LINE
  8
126
  6
CONTINUOUS
 62
3
 10
3.0706712E+001
 20
2.0282865
 11
3.0755378E+001
 21
2.0282865
  0
LINE
  8
126
  6
CONTINUOUS
 62
3
 10
3.0810503E+001
 20
2.0912865
 11
3.0908564E+001
 21
2.2033571
  0
LINE
  8
126
  6
CONTINUOUS
 62
3
 10
3.0963059E+001
 20
2.0912865
 11
3.0908564E+001
 21
2.2033571
  0
LINE
  8
126
  6
CONTINUOUS
 62
3
 10
3.0706712E+001
 20
2.0282865
 11
3.0871587E+001
 21
2.2167159
  0
LINE
  8
126
  6
CONTINUOUS
 62
3
 10
3.0787425E+001
 20
2.0649115
 11
3.0975884E+001
 21
2.0649115
  0
LINE
  8
126
  6
CONTINUOUS
 62
3
 10
3.1054712E+001
 20
2.0282865
 11
3.0963087E+001
 21
2.2167159
  0
LINE
  8
126
  6
CONTINUOUS
 62
3
 10
3.0810503E+001
 20
2.0912865
 11
3.0963059E+001
 21
2.0912865
  0
LINE
  8
126
  6
CONTINUOUS
 62
3
 10
3.0755378E+001
 20
2.0282865
 11
3.0787425E+001
 21
2.0649115
  0
LINE
  8
126
  6
CONTINUOUS
 62
3
 10
3.0993693E+001
 20
2.0282865
 11
3.0975884E+001
 21
2.0649115
  0
LINE
  8
126
  6
CONTINUOUS
 62
3
 10
3.1262155E+001
 20
2.2167159
 11
3.1323375E+001
 21
2.2167159
  0
LINE
  8
126
  6
CONTINUOUS
 62
3
 10
3.1100462E+001
 20
2.0282865
 11
3.1156183E+001
 21
2.0282865
  0
LINE
  8
126
  6
CONTINUOUS
 62
3
 10
3.1100462E+001
 20
2.0282865
 11
3.1111597E+001
 21
2.0914373
  0
LINE
  8
126
  6
CONTINUOUS
 62
3
 10
3.1156183E+001
 20
2.0282865
 11
3.1169099E+001
 21
2.1015365
  0
LINE
  8
126
  6
CONTINUOUS
 62
3
 10
3.1069121E+001
 20
2.2167159
 11
3.1148803E+001
 21
2.13209
  0
LINE
  8
126
  6
CONTINUOUS
 62
3
 10
3.1111597E+001
 20
2.0914373
 11
3.0993638E+001
 21
2.2167159
  0
LINE
  8
126
  6
CONTINUOUS
 62
3
 10
3.0993638E+001
 20
2.2167159
 11
3.1069121E+001
 21
2.2167159
  0
LINE
  8
126
  6
CONTINUOUS
 62
3
 10
3.1312327E+001
 20
2.2167159
 11
3.131705E+001
 21
2.2119932
  0
LINE
  8
126
  6
CONTINUOUS
 62
3
 10
3.1301278E+001
 20
2.2167159
 11
3.1310724E+001
 21
2.2072704
  0
LINE
  8
126
  6
CONTINUOUS
 62
3
 10
3.129023E+001
 20
2.2167159
 11
3.1304398E+001
 21
2.2025477
  0
LINE
  8
126
  6
CONTINUOUS
 62
3
 10
3.1279181E+001
 20
2.2167159
 11
3.1298072E+001
 21
2.197825
  0
LINE
  8
126
  6
CONTINUOUS
 62
3
 10
3.1268133E+001
 20
2.2167159
 11
3.1291746E+001
 21
2.1931022
  0
LINE
  8
126
  6
CONTINUOUS
 62
3
 10
3.1259251E+001
 20
2.2145485
 11
3.128542E+001
 21
2.1883795
  0
LINE
  8
126
  6
CONTINUOUS
 62
3
 10
3.1252926E+001
 20
2.2098258
 11
3.1279095E+001
 21
2.1836568
  0
LINE
  8
126
  6
CONTINUOUS
 62
3
 10
3.12466E+001
 20
2.205103
 11
3.1272769E+001
 21
2.1789341
  0
LINE
  8
126
  6
CONTINUOUS
 62
3
 10
3.1240274E+001
 20
2.2003803
 11
3.1266443E+001
 21
2.1742113
  0
LINE
  8
126
  6
CONTINUOUS
 62
3
 10
3.1233948E+001
 20
2.1956576
 11
3.1260117E+001
 21
2.1694886
  0
LINE
  8
126
  6
CONTINUOUS
 62
3
 10
3.1227622E+001
 20
2.1909349
 11
3.1253791E+001
 21
2.1647659
  0
LINE
  8
126
  6
CONTINUOUS
 62
3
 10
3.1221297E+001
 20
2.1862121
 11
3.1247466E+001
 21
2.1600431
  0
LINE
  8
126
  6
CONTINUOUS
 62
3
 10
3.1214971E+001
 20
2.1814894
 11
3.124114E+001
 21
2.1553204
  0
LINE
  8
126
  6
CONTINUOUS
 62
3
 10
3.1208645E+001
 20
2.1767667
 11
3.1234814E+001
 21
2.1505977
  0
LINE
  8
126
  6
CONTINUOUS
 62
3
 10
3.1202319E+001
 20
2.1720439
 11
3.1228488E+001
 21
2.145875
  0
LINE
  8
126
  6
CONTINUOUS
 62
3
 10
3.1195993E+001
 20
2.1673212
 11
3.1222162E+001
 21
2.1411522
  0
LINE
  8
126
  6
CONTINUOUS
 62
3
 10
3.1189667E+001
 20
2.1625985
 11
3.1215836E+001
 21
2.1364295
  0
LINE
  8
126
  6
CONTINUOUS
 62
3
 10
3.1183342E+001
 20
2.1578758
 11
3.1209511E+001
 21
2.1317068
  0
LINE
  8
126
  6
CONTINUOUS
 62
3
 10
3.1177016E+001
 20
2.153153
 11
3.1203185E+001
 21
2.1269841
  0
LINE
  8
126
  6
CONTINUOUS
 62
3
 10
3.117069E+001
 20
2.1484303
 11
3.1196859E+001
 21
2.1222613
  0
LINE
  8
126
  6
CONTINUOUS
 62
3
 10
3.1164364E+001
 20
2.1437076
 11
3.1190533E+001
 21
2.1175386
  0
LINE
  8
126
  6
CONTINUOUS
 62
3
 10
3.1158038E+001
 20
2.1389848
 11
3.1184207E+001
 21
2.1128159
  0
LINE
  8
126
  6
CONTINUOUS
 62
3
 10
3.1151713E+001
 20
2.1342621
 11
3.1177882E+001
 21
2.1080932
  0
LINE
  8
126
  6
CONTINUOUS
 62
3
 10
3.105821E+001
 20
2.2167159
 11
3.1171556E+001
 21
2.1033704
  0
LINE
  8
126
  6
CONTINUOUS
 62
3
 10
3.1047162E+001
 20
2.2167159
 11
3.1168086E+001
 21
2.0957913
  0
LINE
  8
126
  6
CONTINUOUS
 62
3
 10
3.1036113E+001
 20
2.2167159
 11
3.116643E+001
 21
2.0863989
  0
LINE
  8
126
  6
CONTINUOUS
 62
3
 10
3.1025065E+001
 20
2.2167159
 11
3.1164774E+001
 21
2.0770065
  0
LINE
  8
126
  6
CONTINUOUS
 62
3
 10
3.1014016E+001
 20
2.2167159
 11
3.1163118E+001
 21
2.0676141
  0
LINE
  8
126
  6
CONTINUOUS
 62
3
 10
3.1002968E+001
 20
2.2167159
 11
3.1161462E+001
 21
2.0582217
  0
LINE
  8
126
  6
CONTINUOUS
 62
3
 10
3.1021338E+001
 20
2.1872967
 11
3.1159806E+001
 21
2.0488293
  0
LINE
  8
126
  6
CONTINUOUS
 62
3
 10
3.111078E+001
 20
2.086806
 11
3.1158149E+001
 21
2.0394369
  0
LINE
  8
126
  6
CONTINUOUS
 62
3
 10
3.1109124E+001
 20
2.0774136
 11
3.1156493E+001
 21
2.0300445
  0
LINE
  8
126
  6
CONTINUOUS
 62
3
 10
3.0958773E+001
 20
2.2167159
 11
3.096717E+001
 21
2.2083198
  0
LINE
  8
126
  6
CONTINUOUS
 62
3
 10
3.1107468E+001
 20
2.0680211
 11
3.1147203E+001
 21
2.0282865
  0
LINE
  8
126
  6
CONTINUOUS
 62
3
 10
3.0947725E+001
 20
2.2167159
 11
3.0977627E+001
 21
2.1868138
  0
LINE
  8
126
  6
CONTINUOUS
 62
3
 10
3.1105812E+001
 20
2.0586287
 11
3.1136154E+001
 21
2.0282865
  0
LINE
  8
126
  6
CONTINUOUS
 62
3
 10
3.0936676E+001
 20
2.2167159
 11
3.0988084E+001
 21
2.1653079
  0
LINE
  8
126
  6
CONTINUOUS
 62
3
 10
3.1104156E+001
 20
2.0492363
 11
3.1125106E+001
 21
2.0282865
  0
LINE
  8
126
  6
CONTINUOUS
 62
3
 10
3.0925628E+001
 20
2.2167159
 11
3.0998542E+001
 21
2.1438019
  0
LINE
  8
126
  6
CONTINUOUS
 62
3
 10
3.11025E+001
 20
2.0398439
 11
3.1114057E+001
 21
2.0282865
  0
LINE
  8
126
  6
CONTINUOUS
 62
3
 10
3.0914579E+001
 20
2.2167159
 11
3.1008999E+001
 21
2.1222959
  0
LINE
  8
126
  6
CONTINUOUS
 62
3
 10
3.1100844E+001
 20
2.0304515
 11
3.1103009E+001
 21
2.0282865
  0
LINE
  8
126
  6
CONTINUOUS
 62
3
 10
3.0903531E+001
 20
2.2167159
 11
3.1019457E+001
 21
2.10079
  0
LINE
  8
126
  6
CONTINUOUS
 62
3
 10
3.0892482E+001
 20
2.2167159
 11
3.0907293E+001
 21
2.2019048
  0
LINE
  8
126
  6
CONTINUOUS
 62
3
 10
3.0911142E+001
 20
2.1980565
 11
3.1029914E+001
 21
2.079284
  0
LINE
  8
126
  6
CONTINUOUS
 62
3
 10
3.0881434E+001
 20
2.2167159
 11
3.0902137E+001
 21
2.1960122
  0
TEXT
  8
126
  6
CONTINUOUS
 62
3
 10
2.9862294E+001
 20
1.1911876
 40
9.375E-002
  1
DR.BY
 41
9.0E-001
  0
TEXT
  8
126
  6
CONTINUOUS
 62
3
 10
2.5854556E+001
 20
1.6808221
 40
8.0E-002
  1
MATERIAL
  0
TEXT
  8
126
  6
CONTINUOUS
 62
3
 10
2.5838161E+001
 20
2.1346927
 40
8.0E-002
  1
FINISH
  0
TEXT
  8
126
  6
CONTINUOUS
 62
3
 10
3.0857184E+001
 20
1.1895902
 40
9.375E-002
  1
CH.BY
 41
9.0E-001
  0
TEXT
  8
126
  6
CONTINUOUS
 62
3
 10
2.986505E+001
 20
9.872133E-001
 40
9.375E-002
  1
SCALE
 41
1.04
  0
TEXT
  8
1
  6
CONTINUOUS
 62
1
 10
3.1868336E+001
 20
6.03552E-001
 40
1.875E-001
  1
REV-REL
 51
-4.1943E-006
  0
TEXT
  8
126
  6
CONTINUOUS
 62
3
 10
3.1859604E+001
 20
1.1722665
 40
9.375E-002
  1
DATE
 41
1.025
  0
LINE
  8
180
  6
CONTINUOUS
 62
6
 10
2.5789291E+001
 20
2.106564E-001
 11
2.5789291E+001
 21
2.2731567
  0
LINE
  8
180
  6
CONTINUOUS
 62
6
 10
2.5789291E+001
 20
2.2731567
 11
3.3789294E+001
 21
2.2731567
  0
LINE
  8
180
  6
CONTINUOUS
 62
6
 10
2.9789292E+001
 20
2.2731567
 11
2.9789292E+001
 21
2.106564E-001
  0
LINE
  8
180
  6
CONTINUOUS
 62
6
 10
2.9789292E+001
 20
5.231564E-001
 11
3.3789294E+001
 21
5.231564E-001
  0
LINE
  8
180
  6
CONTINUOUS
 62
6
 10
3.3789294E+001
 20
8.356565E-001
 11
2.9789292E+001
 21
8.356565E-001
  0
LINE
  8
180
  6
CONTINUOUS
 62
6
 10
2.9789292E+001
 20
1.3356565
 11
3.3789294E+001
 21
1.3356565
  0
LINE
  8
180
  6
CONTINUOUS
 62
6
 10
2.9789292E+001
 20
2.2731567
 11
2.9789292E+001
 21
1.8356565
  0
LINE
  8
180
  6
CONTINUOUS
 62
6
 10
2.9789292E+001
 20
1.8356565
 11
3.3789294E+001
 21
1.8356565
  0
LINE
  8
180
  6
CONTINUOUS
 62
6
 10
3.1789292E+001
 20
1.3356565
 11
3.1789292E+001
 21
5.231564E-001
  0
LINE
  8
180
  6
CONTINUOUS
 62
6
 10
2.9789292E+001
 20
1.1481565
 11
3.1789292E+001
 21
1.1481565
  0
LINE
  8
180
  6
CONTINUOUS
 62
6
 10
3.0789292E+001
 20
1.1481565
 11
3.0789292E+001
 21
1.3356565
  0
LINE
  8
180
  6
CONTINUOUS
 62
6
 10
2.9789292E+001
 20
1.8356565
 11
2.5789291E+001
 21
1.8356565
  0
LINE
  8
180
  6
CONTINUOUS
 62
6
 10
2.9789292E+001
 20
8.356565E-001
 11
2.5789291E+001
 21
8.356565E-001
  0
LINE
  8
126
  6
CONTINUOUS
 62
3
 10
3.0921599E+001
 20
2.1765505
 11
3.1040371E+001
 21
2.0577781
  0
LINE
  8
126
  6
CONTINUOUS
 62
3
 10
3.0871026E+001
 20
2.2160749
 11
3.0896981E+001
 21
2.1901196
  0
LINE
  8
126
  6
CONTINUOUS
 62
3
 10
3.0932056E+001
 20
2.1550446
 11
3.1050829E+001
 21
2.0362721
  0
LINE
  8
126
  6
CONTINUOUS
 62
3
 10
3.086587E+001
 20
2.2101824
 11
3.0891825E+001
 21
2.1842271
  0
LINE
  8
126
  6
CONTINUOUS
 62
3
 10
3.0942514E+001
 20
2.1335386
 11
3.1047766E+001
 21
2.0282865
  0
LINE
  8
126
  6
CONTINUOUS
 62
3
 10
3.0860714E+001
 20
2.2042898
 11
3.0886669E+001
 21
2.1783345
  0
LINE
  8
126
  6
CONTINUOUS
 62
3
 10
3.0952971E+001
 20
2.1120327
 11
3.1036717E+001
 21
2.0282865
  0
LINE
  8
126
  6
CONTINUOUS
 62
3
 10
3.0855558E+001
 20
2.1983972
 11
3.0881513E+001
 21
2.1724419
  0
LINE
  8
126
  6
CONTINUOUS
 62
3
 10
3.0962669E+001
 20
2.0912865
 11
3.1025669E+001
 21
2.0282865
  0
LINE
  8
126
  6
CONTINUOUS
 62
3
 10
3.0850402E+001
 20
2.1925046
 11
3.0876357E+001
 21
2.1665494
  0
LINE
  8
126
  6
CONTINUOUS
 62
3
 10
3.095162E+001
 20
2.0912865
 11
3.101462E+001
 21
2.0282865
  0
LINE
  8
126
  6
CONTINUOUS
 62
3
 10
3.0845246E+001
 20
2.1866121
 11
3.0871201E+001
 21
2.1606568
  0
LINE
  8
126
  6
CONTINUOUS
 62
3
 10
3.0940572E+001
 20
2.0912865
 11
3.0966947E+001
 21
2.0649115
  0
LINE
  8
126
  6
CONTINUOUS
 62
3
 10
3.0984343E+001
 20
2.0475148
 11
3.1003572E+001
 21
2.0282865
  0
LINE
  8
126
  6
CONTINUOUS
 62
3
 10
3.084009E+001
 20
2.1807195
 11
3.0866045E+001
 21
2.1547642
  0
LINE
  8
126
  6
CONTINUOUS
 62
3
 10
3.0929523E+001
 20
2.0912865
 11
3.0955898E+001
 21
2.0649115
  0
LINE
  8
126
  6
CONTINUOUS
 62
3
 10
3.0834934E+001
 20
2.1748269
 11
3.0860889E+001
 21
2.1488717
  0
LINE
  8
126
  6
CONTINUOUS
 62
3
 10
3.0918475E+001
 20
2.0912865
 11
3.094485E+001
 21
2.0649115
  0
LINE
  8
126
  6
CONTINUOUS
 62
3
 10
3.0829778E+001
 20
2.1689344
 11
3.0855733E+001
 21
2.1429791
  0
LINE
  8
126
  6
CONTINUOUS
 62
3
 10
3.0907426E+001
 20
2.0912865
 11
3.0933801E+001
 21
2.0649115
  0
LINE
  8
126
  6
CONTINUOUS
 62
3
 10
3.0824622E+001
 20
2.1630418
 11
3.0850578E+001
 21
2.1370865
  0
LINE
  8
126
  6
CONTINUOUS
 62
3
 10
3.0896378E+001
 20
2.0912865
 11
3.0922753E+001
 21
2.0649115
  0
LINE
  8
126
  6
CONTINUOUS
 62
3
 10
3.0819466E+001
 20
2.1571492
 11
3.0845422E+001
 21
2.131194
  0
LINE
  8
126
  6
CONTINUOUS
 62
3
 10
3.0885329E+001
 20
2.0912865
 11
3.0911704E+001
 21
2.0649115
  0
LINE
  8
126
  6
CONTINUOUS
 62
3
 10
3.081431E+001
 20
2.1512567
 11
3.0840266E+001
 21
2.1253014
  0
LINE
  8
126
  6
CONTINUOUS
 62
3
 10
3.087428E+001
 20
2.0912865
 11
3.0900655E+001
 21
2.0649115
  0
LINE
  8
126
  6
CONTINUOUS
 62
3
 10
3.0809154E+001
 20
2.1453641
 11
3.083511E+001
 21
2.1194088
  0
LINE
  8
126
  6
CONTINUOUS
 62
3
 10
3.0863232E+001
 20
2.0912865
 11
3.0889607E+001
 21
2.0649115
  0
LINE
  8
126
  6
CONTINUOUS
 62
3
 10
3.0803998E+001
 20
2.1394715
 11
3.0829954E+001
 21
2.1135163
  0
LINE
  8
126
  6
CONTINUOUS
 62
3
 10
3.0852183E+001
 20
2.0912865
 11
3.0878558E+001
 21
2.0649115
  0
LINE
  8
126
  6
CONTINUOUS
 62
3
 10
3.0715705E+001
 20
2.2167159
 11
3.0718689E+001
 21
2.213732
  0
LINE
  8
126
  6
CONTINUOUS
 62
3
 10
3.0798842E+001
 20
2.133579
 11
3.0824798E+001
 21
2.1076237
  0
LINE
  8
126
  6
CONTINUOUS
 62
3
 10
3.0841135E+001
 20
2.0912865
 11
3.086751E+001
 21
2.0649115
  0
LINE
  8
126
  6
CONTINUOUS
 62
3
 10
3.0704657E+001
 20
2.2167159
 11
3.071164E+001
 21
2.209733
  0
LINE
  8
126
  6
CONTINUOUS
 62
3
 10
3.0793686E+001
 20
2.1276864
 11
3.0819642E+001
 21
2.1017311
  0
LINE
  8
126
  6
CONTINUOUS
 62
3
 10
3.0830086E+001
 20
2.0912865
 11
3.0856461E+001
 21
2.0649115
  0
LINE
  8
126
  6
CONTINUOUS
 62
3
 10
3.0693608E+001
 20
2.2167159
 11
3.070459E+001
 21
2.2057339
  0
LINE
  8
126
  6
CONTINUOUS
 62
3
 10
3.078853E+001
 20
2.1217938
 11
3.0814486E+001
 21
2.0958385
  0
LINE
  8
126
  6
CONTINUOUS
 62
3
 10
3.0819038E+001
 20
2.0912865
 11
3.0845413E+001
 21
2.0649115
  0
LINE
  8
126
  6
CONTINUOUS
 62
3
 10
3.068256E+001
 20
2.2167159
 11
3.0697541E+001
 21
2.2017349
  0
LINE
  8
126
  6
CONTINUOUS
 62
3
 10
3.0783374E+001
 20
2.1159013
 11
3.0834364E+001
 21
2.0649115
  0
LINE
  8
126
  6
CONTINUOUS
 62
3
 10
3.0671511E+001
 20
2.2167159
 11
3.0690491E+001
 21
2.1977358
  0
LINE
  8
126
  6
CONTINUOUS
 62
3
 10
3.0778218E+001
 20
2.1100087
 11
3.0823316E+001
 21
2.0649115
  0
LINE
  8
126
  6
CONTINUOUS
 62
3
 10
3.0660463E+001
 20
2.2167159
 11
3.0683442E+001
 21
2.1937368
  0
LINE
  8
126
  6
CONTINUOUS
 62
3
 10
3.0773062E+001
 20
2.1041161
 11
3.0812267E+001
 21
2.0649115
  0
LINE
  8
126
  6
CONTINUOUS
 62
3
 10
3.0649526E+001
 20
2.2166045
 11
3.0676392E+001
 21
2.1897377
  0
LINE
  8
126
  6
CONTINUOUS
 62
3
 10
3.0767907E+001
 20
2.0982236
 11
3.0801219E+001
 21
2.0649115
  0
LINE
  8
126
  6
CONTINUOUS
 62
3
 10
3.0642476E+001
 20
2.2126054
 11
3.0669343E+001
 21
2.1857387
  0
LINE
  8
126
  6
CONTINUOUS
 62
3
 10
3.0762751E+001
 20
2.092331
 11
3.079017E+001
 21
2.0649115
  0
LINE
  8
126
  6
CONTINUOUS
 62
3
 10
3.0635427E+001
 20
2.2086064
 11
3.0662293E+001
 21
2.1817396
  0
LINE
  8
126
  6
CONTINUOUS
 62
3
 10
3.0757595E+001
 20
2.0864384
 11
3.078355E+001
 21
2.0604832
  0
LINE
  8
126
  6
CONTINUOUS
 62
3
 10
3.0628377E+001
 20
2.2046073
 11
3.0655244E+001
 21
2.1777406
  0
LINE
  8
126
  6
CONTINUOUS
 62
3
 10
3.0752439E+001
 20
2.0805459
 11
3.0778394E+001
 21
2.0545906
  0
LINE
  8
126
  6
CONTINUOUS
 62
3
 10
3.0621328E+001
 20
2.2006083
 11
3.0648194E+001
 21
2.1737415
  0
LINE
  8
126
  6
CONTINUOUS
 62
3
 10
3.0747283E+001
 20
2.0746533
 11
3.0773238E+001
 21
2.048698
  0
LINE
  8
126
  6
CONTINUOUS
 62
3
 10
3.0614278E+001
 20
2.1966092
 11
3.0641145E+001
 21
2.1697425
  0
LINE
  8
126
  6
CONTINUOUS
 62
3
 10
3.0742127E+001
 20
2.0687607
 11
3.0768082E+001
 21
2.0428054
  0
LINE
  8
126
  6
CONTINUOUS
 62
3
 10
3.0607229E+001
 20
2.1926102
 11
3.0634095E+001
 21
2.1657434
  0
LINE
  8
126
  6
CONTINUOUS
 62
3
 10
3.0736971E+001
 20
2.0628681
 11
3.0762926E+001
 21
2.0369129
  0
LINE
  8
126
  6
CONTINUOUS
 62
3
 10
3.0600179E+001
 20
2.1886111
 11
3.0627046E+001
 21
2.1617444
  0
LINE
  8
126
  6
CONTINUOUS
 62
3
 10
3.0731815E+001
 20
2.0569756
 11
3.075777E+001
 21
2.0310203
  0
LINE
  8
126
  6
CONTINUOUS
 62
3
 10
3.059313E+001
 20
2.1846121
 11
3.0619996E+001
 21
2.1577453
  0
LINE
  8
126
  6
CONTINUOUS
 62
3
 10
3.0726659E+001
 20
2.051083
 11
3.0749455E+001
 21
2.0282865
  0
LINE
  8
126
  6
CONTINUOUS
 62
3
 10
3.058608E+001
 20
2.180613
 11
3.0612947E+001
 21
2.1537463
  0
LINE
  8
126
  6
CONTINUOUS
 62
3
 10
3.0721503E+001
 20
2.0451905
 11
3.0738407E+001
 21
2.0282865
  0
LINE
  8
126
  6
CONTINUOUS
 62
3
 10
3.0579031E+001
 20
2.176614
 11
3.0605897E+001
 21
2.1497472
  0
LINE
  8
126
  6
CONTINUOUS
 62
3
 10
3.0716347E+001
 20
2.0392979
 11
3.0727358E+001
 21
2.0282865
  0
LINE
  8
126
  6
CONTINUOUS
 62
3
 10
3.0571981E+001
 20
2.1726149
 11
3.0598848E+001
 21
2.1457482
  0
LINE
  8
126
  6
CONTINUOUS
 62
3
 10
3.0711191E+001
 20
2.0334053
 11
3.071631E+001
 21
2.0282865
  0
LINE
  8
126
  6
CONTINUOUS
 62
3
 10
3.0564932E+001
 20
2.1686159
 11
3.0591798E+001
 21
2.1417491
  0
LINE
  8
126
  6
CONTINUOUS
 62
3
 10
3.0557882E+001
 20
2.1646168
 11
3.0584749E+001
 21
2.1377501
  0
LINE
  8
126
  6
CONTINUOUS
 62
3
 10
3.0656492E+001
 20
2.0660073
 11
3.0694212E+001
 21
2.0282865
  0
LINE
  8
126
  6
CONTINUOUS
 62
3
 10
3.0550833E+001
 20
2.1606178
 11
3.0683164E+001
 21
2.0282865
  0
LINE
  8
126
  6
CONTINUOUS
 62
3
 10
3.0543783E+001
 20
2.1566187
 11
3.0672115E+001
 21
2.0282865
  0
LINE
  8
126
  6
CONTINUOUS
 62
3
 10
3.0472637E+001
 20
2.2167159
 11
3.0481546E+001
 21
2.2078074
  0
LINE
  8
126
  6
CONTINUOUS
 62
3
 10
3.0536734E+001
 20
2.1526197
 11
3.0661067E+001
 21
2.0282865
  0
LINE
  8
126
  6
CONTINUOUS
 62
3
 10
3.0461589E+001
 20
2.2167159
 11
3.047989E+001
 21
2.198415
  0
LINE
  8
126
  6
CONTINUOUS
 62
3
 10
3.0529684E+001
 20
2.1486206
 11
3.0650018E+001
 21
2.0282865
  0
LINE
  8
126
  6
CONTINUOUS
 62
3
 10
3.045054E+001
 20
2.2167159
 11
3.0478234E+001
 21
2.1890226
  0
LINE
  8
126
  6
CONTINUOUS
 62
3
 10
3.0522635E+001
 20
2.1446216
 11
3.063897E+001
 21
2.0282865
  0
LINE
  8
126
  6
CONTINUOUS
 62
3
 10
3.0439492E+001
 20
2.2167159
 11
3.0476578E+001
 21
2.1796302
  0
LINE
  8
126
  6
CONTINUOUS
 62
3
 10
3.0515585E+001
 20
2.1406225
 11
3.0627921E+001
 21
2.0282865
  0
LINE
  8
126
  6
CONTINUOUS
 62
3
 10
3.0430574E+001
 20
2.2145856
 11
3.0474921E+001
 21
2.1702378
  0
LINE
  8
126
  6
CONTINUOUS
 62
3
 10
3.0508536E+001
 20
2.1366235
 11
3.0616873E+001
 21
2.0282865
  0
LINE
  8
126
  6
CONTINUOUS
 62
3
 10
3.0428917E+001
 20
2.2051932
 11
3.0473265E+001
 21
2.1608454
  0
LINE
  8
126
  6
CONTINUOUS
 62
3
 10
3.0501486E+001
 20
2.1326244
 11
3.0528353E+001
 21
2.1057577
  0
LINE
  8
126
  6
CONTINUOUS
 62
3
 10
3.0427261E+001
 20
2.1958008
 11
3.0471609E+001
 21
2.1514529
  0
LINE
  8
126
  6
CONTINUOUS
 62
3
 10
3.0494437E+001
 20
2.1286254
 11
3.0521303E+001
 21
2.1017587
  0
LINE
  8
126
  6
CONTINUOUS
 62
3
 10
3.0425605E+001
 20
2.1864084
 11
3.0469953E+001
 21
2.1420605
  0
LINE
  8
126
  6
CONTINUOUS
 62
3
 10
3.0487387E+001
 20
2.1246263
 11
3.0514254E+001
 21
2.0977596
  0
LINE
  8
126
  6
CONTINUOUS
 62
3
 10
3.0423949E+001
 20
2.1770159
 11
3.0468297E+001
 21
2.1326681
  0
LINE
  8
126
  6
CONTINUOUS
 62
3
 10
3.0480338E+001
 20
2.1206273
 11
3.0507204E+001
 21
2.0937606
  0
LINE
  8
126
  6
CONTINUOUS
 62
3
 10
3.0422293E+001
 20
2.1676235
 11
3.0466641E+001
 21
2.1232757
  0
LINE
  8
126
  6
CONTINUOUS
 62
3
 10
3.0473288E+001
 20
2.1166282
 11
3.0500155E+001
 21
2.0897615
  0
LINE
  8
126
  6
CONTINUOUS
 62
3
 10
3.0420637E+001
 20
2.1582311
 11
3.0464985E+001
 21
2.1138833
  0
LINE
  8
126
  6
CONTINUOUS
 62
3
 10
3.0466239E+001
 20
2.1126292
 11
3.0493105E+001
 21
2.0857625
  0
LINE
  8
126
  6
CONTINUOUS
 62
3
 10
3.0418981E+001
 20
2.1488387
 11
3.0486056E+001
 21
2.0817634
  0
LINE
  8
126
  6
CONTINUOUS
 62
3
 10
3.0417325E+001
 20
2.1394463
 11
3.0479006E+001
 21
2.0777644
  0
LINE
  8
126
  6
CONTINUOUS
 62
3
 10
3.0415668E+001
 20
2.1300539
 11
3.0471957E+001
 21
2.0737653
  0
LINE
  8
126
  6
CONTINUOUS
 62
3
 10
3.0414012E+001
 20
2.1206615
 11
3.0464907E+001
 21
2.0697663
  0
LINE
  8
126
  6
CONTINUOUS
 62
3
 10
3.0412356E+001
 20
2.1112691
 11
3.0457858E+001
 21
2.0657672
  0
LINE
  8
126
  6
CONTINUOUS
 62
3
 10
3.04107E+001
 20
2.1018767
 11
3.0455048E+001
 21
2.0575289
  0
LINE
  8
126
  6
CONTINUOUS
 62
3
 10
3.0409044E+001
 20
2.0924843
 11
3.0453392E+001
 21
2.0481364
  0
LINE
  8
126
  6
CONTINUOUS
 62
3
 10
3.0407388E+001
 20
2.0830919
 11
3.0451736E+001
 21
2.038744
  0
LINE
  8
126
  6
CONTINUOUS
 62
3
 10
3.0405732E+001
 20
2.0736994
 11
3.0450079E+001
 21
2.0293516
  0
LINE
  8
126
  6
CONTINUOUS
 62
3
 10
3.0404075E+001
 20
2.0643071
 11
3.0440096E+001
 21
2.0282865
  0
LINE
  8
126
  6
CONTINUOUS
 62
3
 10
3.0402419E+001
 20
2.0549146
 11
3.0429047E+001
 21
2.0282865
  0
TEXT
  8
1
  6
CONTINUOUS
 62
1
 10
3.286469E+001
 20
1.6504711
 40
1.25E-001
  1
TEMPLATE FOR 1315
 72
1
 73
2
 11
3.180219E+001
 21
1.5879711
  0
TEXT
  8
126
  6
CONTINUOUS
 62
3
 10
3.328916E+001
 20
1.154358
 40
1.0E-001
  1
10NOV03
 72
1
 73
2
 11
3.293916E+001
 21
1.104358
  0
TEXT
  8
126
  6
CONTINUOUS
 62
3
 10
3.0419033E+001
 20
1.1882264
 40
1.0E-001
  1
KAB
  0
TEXT
  8
126
  6
CONTINUOUS
 62
3
 10
3.066973E+001
 20
9.461739E-001
 40
1.0E-001
  1
FULL
  0
TEXT
  8
1
  6
CONTINUOUS
 62
1
 10
3.25349E+001
 20
4.60727E-001
 40
1.875E-001
  1
74180405
 72
1
 73
2
 11
3.17849E+001
 21
3.66977E-001
  0
LINE
  8
126
  6
CONTINUOUS
 62
3
 10
3.0400763E+001
 20
2.0455222
 11
3.0417999E+001
 21
2.0282865
  0
LINE
  8
126
  6
CONTINUOUS
 62
3
 10
3.0399107E+001
 20
2.0361298
 11
3.040695E+001
 21
2.0282865
  0
LINE
  8
126
  6
CONTINUOUS
 62
3
 10
3.0207472E+001
 20
2.2167159
 11
3.0212888E+001
 21
2.2113
  0
LINE
  8
126
  6
CONTINUOUS
 62
3
 10
3.0368527E+001
 20
2.0556615
 11
3.0374094E+001
 21
2.050094
  0
LINE
  8
126
  6
CONTINUOUS
 62
3
 10
3.0196424E+001
 20
2.2167159
 11
3.0211232E+001
 21
2.2019076
  0
LINE
  8
126
  6
CONTINUOUS
 62
3
 10
3.0357478E+001
 20
2.0556615
 11
3.0372438E+001
 21
2.0407016
  0
LINE
  8
126
  6
CONTINUOUS
 62
3
 10
3.0185375E+001
 20
2.2167159
 11
3.0209576E+001
 21
2.1925152
  0
LINE
  8
126
  6
CONTINUOUS
 62
3
 10
3.034643E+001
 20
2.0556615
 11
3.0370782E+001
 21
2.0313092
  0
LINE
  8
126
  6
CONTINUOUS
 62
3
 10
3.0174327E+001
 20
2.2167159
 11
3.020792E+001
 21
2.1831227
  0
LINE
  8
126
  6
CONTINUOUS
 62
3
 10
3.0335381E+001
 20
2.0556615
 11
3.0362756E+001
 21
2.0282865
  0
LINE
  8
126
  6
CONTINUOUS
 62
3
 10
3.0163278E+001
 20
2.2167159
 11
3.0206264E+001
 21
2.1737303
  0
LINE
  8
126
  6
CONTINUOUS
 62
3
 10
3.0324333E+001
 20
2.0556615
 11
3.0351708E+001
 21
2.0282865
  0
LINE
  8
126
  6
CONTINUOUS
 62
3
 10
3.016026E+001
 20
2.2086857
 11
3.0204608E+001
 21
2.1643379
  0
LINE
  8
126
  6
CONTINUOUS
 62
3
 10
3.0313284E+001
 20
2.0556615
 11
3.0340659E+001
 21
2.0282865
  0
LINE
  8
126
  6
CONTINUOUS
 62
3
 10
3.0158604E+001
 20
2.1992934
 11
3.0202952E+001
 21
2.1549455
  0
LINE
  8
126
  6
CONTINUOUS
 62
3
 10
3.0302236E+001
 20
2.0556615
 11
3.0329611E+001
 21
2.0282865
  0
LINE
  8
126
  6
CONTINUOUS
 62
3
 10
3.0156948E+001
 20
2.1899009
 11
3.0201295E+001
 21
2.1455531
  0
LINE
  8
126
  6
CONTINUOUS
 62
3
 10
3.0291187E+001
 20
2.0556615
 11
3.0318562E+001
 21
2.0282865
  0
LINE
  8
126
  6
CONTINUOUS
 62
3
 10
3.0119084E+001
 20
2.2167159
 11
3.0120991E+001
 21
2.2148094
  0
LINE
  8
126
  6
CONTINUOUS
 62
3
 10
3.0155291E+001
 20
2.1805085
 11
3.0199639E+001
 21
2.1361607
  0
LINE
  8
126
  6
CONTINUOUS
 62
3
 10
3.0280138E+001
 20
2.0556615
 11
3.0307513E+001
 21
2.0282865
  0
LINE
  8
126
  6
CONTINUOUS
 62
3
 10
3.0108036E+001
 20
2.2167159
 11
3.0119334E+001
 21
2.205417
  0
LINE
  8
126
  6
CONTINUOUS
 62
3
 10
3.0153635E+001
 20
2.1711161
 11
3.0197983E+001
 21
2.1267683
  0
LINE
  8
126
  6
CONTINUOUS
 62
3
 10
3.026909E+001
 20
2.0556615
 11
3.0296465E+001
 21
2.0282865
  0
LINE
  8
126
  6
CONTINUOUS
 62
3
 10
3.0096987E+001
 20
2.2167159
 11
3.0117678E+001
 21
2.1960246
  0
LINE
  8
126
  6
CONTINUOUS
 62
3
 10
3.0151979E+001
 20
2.1617237
 11
3.0196327E+001
 21
2.1173759
  0
LINE
  8
126
  6
CONTINUOUS
 62
3
 10
3.0258041E+001
 20
2.0556615
 11
3.0285416E+001
 21
2.0282865
  0
LINE
  8
126
  6
CONTINUOUS
 62
3
 10
3.0085938E+001
 20
2.2167159
 11
3.0113313E+001
 21
2.1893409
  0
LINE
  8
126
  6
CONTINUOUS
 62
3
 10
3.0150323E+001
 20
2.1523313
 11
3.0194671E+001
 21
2.1079835
  0
LINE
  8
126
  6
CONTINUOUS
 62
3
 10
3.0246993E+001
 20
2.0556615
 11
3.0274368E+001
 21
2.0282865
  0
LINE
  8
126
  6
CONTINUOUS
 62
3
 10
3.007489E+001
 20
2.2167159
 11
3.0102265E+001
 21
2.1893409
  0
LINE
  8
126
  6
CONTINUOUS
 62
3
 10
3.0148667E+001
 20
2.1429389
 11
3.0193015E+001
 21
2.0985911
  0
LINE
  8
126
  6
CONTINUOUS
 62
3
 10
3.0235944E+001
 20
2.0556615
 11
3.0263319E+001
 21
2.0282865
  0
LINE
  8
126
  6
CONTINUOUS
 62
3
 10
3.0063841E+001
 20
2.2167159
 11
3.0091216E+001
 21
2.1893409
  0
LINE
  8
126
  6
CONTINUOUS
 62
3
 10
3.0147011E+001
 20
2.1335465
 11
3.0191359E+001
 21
2.0891987
  0
LINE
  8
126
  6
CONTINUOUS
 62
3
 10
3.0224896E+001
 20
2.0556615
 11
3.0252271E+001
 21
2.0282865
  0
LINE
  8
126
  6
CONTINUOUS
 62
3
 10
3.0052793E+001
 20
2.2167159
 11
3.0080168E+001
 21
2.1893409
  0
LINE
  8
126
  6
CONTINUOUS
 62
3
 10
3.0145355E+001
 20
2.1241541
 11
3.0189702E+001
 21
2.0798062
  0
LINE
  8
126
  6
CONTINUOUS
 62
3
 10
3.0213847E+001
 20
2.0556615
 11
3.0241222E+001
 21
2.0282865
  0
LINE
  8
126
  6
CONTINUOUS
 62
3
 10
3.0041744E+001
 20
2.2167159
 11
3.0069119E+001
 21
2.1893409
  0
LINE
  8
126
  6
CONTINUOUS
 62
3
 10
3.0143699E+001
 20
2.1147617
 11
3.0188046E+001
 21
2.0704139
  0
LINE
  8
126
  6
CONTINUOUS
 62
3
 10
3.0202799E+001
 20
2.0556615
 11
3.0230174E+001
 21
2.0282865
  0
LINE
  8
126
  6
CONTINUOUS
 62
3
 10
3.0030696E+001
 20
2.2167159
 11
3.0058071E+001
 21
2.1893409
  0
LINE
  8
126
  6
CONTINUOUS
 62
3
 10
3.0142042E+001
 20
2.1053693
 11
3.018639E+001
 21
2.0610214
  0
LINE
  8
126
  6
CONTINUOUS
 62
3
 10
3.019175E+001
 20
2.0556615
 11
3.0219125E+001
 21
2.0282865
  0
LINE
  8
126
  6
CONTINUOUS
 62
3
 10
3.0019647E+001
 20
2.2167159
 11
3.0047022E+001
 21
2.1893409
  0
LINE
  8
126
  6
CONTINUOUS
 62
3
 10
3.0140386E+001
 20
2.0959769
 11
3.0208077E+001
 21
2.0282865
  0
LINE
  8
126
  6
CONTINUOUS
 62
3
 10
3.0008599E+001
 20
2.2167159
 11
3.0035974E+001
 21
2.1893409
  0
LINE
  8
126
  6
CONTINUOUS
 62
3
 10
3.0089063E+001
 20
2.1362512
 11
3.0093639E+001
 21
2.1316756
  0
LINE
  8
126
  6
CONTINUOUS
 62
3
 10
3.013873E+001
 20
2.0865845
 11
3.0197028E+001
 21
2.0282865
  0
LINE
  8
126
  6
CONTINUOUS
 62
3
 10
2.999755E+001
 20
2.2167159
 11
3.0024925E+001
 21
2.1893409
  0
LINE
  8
126
  6
CONTINUOUS
 62
3
 10
3.0078015E+001
 20
2.1362512
 11
3.0091983E+001
 21
2.1222832
  0
LINE
  8
126
  6
CONTINUOUS
 62
3
 10
3.0137074E+001
 20
2.077192
 11
3.0185979E+001
 21
2.0282865
  0
LINE
  8
126
  6
CONTINUOUS
 62
3
 10
2.9986502E+001
 20
2.2167159
 11
3.0013877E+001
 21
2.1893409
  0
LINE
  8
126
  6
CONTINUOUS
 62
3
 10
3.0066966E+001
 20
2.1362512
 11
3.0090327E+001
 21
2.1128908
  0
LINE
  8
126
  6
CONTINUOUS
 62
3
 10
3.0135418E+001
 20
2.0677996
 11
3.0174931E+001
 21
2.0282865
  0
LINE
  8
126
  6
CONTINUOUS
 62
3
 10
2.9975453E+001
 20
2.2167159
 11
3.0002828E+001
 21
2.1893409
  0
LINE
  8
126
  6
CONTINUOUS
 62
3
 10
3.0055918E+001
 20
2.1362512
 11
3.0083418E+001
 21
2.1087512
  0
LINE
  8
126
  6
CONTINUOUS
 62
3
 10
3.0133762E+001
 20
2.0584072
 11
3.0163882E+001
 21
2.0282865
  0
LINE
  8
126
  6
CONTINUOUS
 62
3
 10
2.9964404E+001
 20
2.2167159
 11
2.9991779E+001
 21
2.1893409
  0
LINE
  8
126
  6
CONTINUOUS
 62
3
 10
3.0044869E+001
 20
2.1362512
 11
3.0072369E+001
 21
2.1087512
  0
LINE
  8
126
  6
CONTINUOUS
 62
3
 10
3.0132106E+001
 20
2.0490148
 11
3.0152834E+001
 21
2.0282865
  0
LINE
  8
126
  6
CONTINUOUS
 62
3
 10
2.9953356E+001
 20
2.2167159
 11
2.9980731E+001
 21
2.1893409
  0
LINE
  8
126
  6
CONTINUOUS
 62
3
 10
3.0033821E+001
 20
2.1362512
 11
3.0061321E+001
 21
2.1087512
  0
LINE
  8
126
  6
CONTINUOUS
 62
3
 10
3.0130449E+001
 20
2.0396224
 11
3.0141785E+001
 21
2.0282865
  0
LINE
  8
126
  6
CONTINUOUS
 62
3
 10
2.9942307E+001
 20
2.2167159
 11
2.9969682E+001
 21
2.1893409
  0
LINE
  8
126
  6
CONTINUOUS
 62
3
 10
3.0022772E+001
 20
2.1362512
 11
3.0050272E+001
 21
2.1087512
  0
LINE
  8
126
  6
CONTINUOUS
 62
3
 10
3.0103362E+001
 20
2.0556615
 11
3.0105283E+001
 21
2.0537407
  0
LINE
  8
126
  6
CONTINUOUS
 62
3
 10
3.0128793E+001
 20
2.03023
 11
3.0130737E+001
 21
2.0282865
  0
LINE
  8
126
  6
CONTINUOUS
 62
3
 10
2.9931259E+001
 20
2.2167159
 11
2.9958634E+001
 21
2.1893409
  0
LINE
  8
126
  6
CONTINUOUS
 62
3
 10
3.0011724E+001
 20
2.1362512
 11
3.0039224E+001
 21
2.1087512
  0
LINE
  8
126
  6
CONTINUOUS
 62
3
 10
3.0092313E+001
 20
2.0556615
 11
3.0103626E+001
 21
2.0443483
  0
LINE
  8
126
  6
CONTINUOUS
 62
3
 10
2.992021E+001
 20
2.2167159
 11
2.9947585E+001
 21
2.1893409
  0
LINE
  8
126
  6
CONTINUOUS
 62
3
 10
3.0000675E+001
 20
2.1362512
 11
3.0028175E+001
 21
2.1087512
  0
LINE
  8
126
  6
CONTINUOUS
 62
3
 10
3.0081265E+001
 20
2.0556615
 11
3.010197E+001
 21
2.0349559
  0
LINE
  8
126
  6
CONTINUOUS
 62
3
 10
2.9909162E+001
 20
2.2167159
 11
2.9936537E+001
 21
2.1893409
  0
LINE
  8
126
  6
CONTINUOUS
 62
3
 10
2.9989626E+001
 20
2.1362512
 11
3.0017126E+001
 21
2.1087512
  0
LINE
  8
126
  6
CONTINUOUS
 62
3
 10
3.0070216E+001
 20
2.0556615
 11
3.0097591E+001
 21
2.0282865
  0
LINE
  8
126
  6
CONTINUOUS
 62
3
 10
2.9898113E+001
 20
2.2167159
 11
2.9925488E+001
 21
2.1893409
  0
LINE
  8
126
  6
CONTINUOUS
 62
3
 10
2.9978578E+001
 20
2.1362512
 11
3.0006078E+001
 21
2.1087512
  0
LINE
  8
126
  6
CONTINUOUS
 62
3
 10
3.0059168E+001
 20
2.0556615
 11
3.0086543E+001
 21
2.0282865
  0
LINE
  8
126
  6
CONTINUOUS
 62
3
 10
2.9887065E+001
 20
2.2167159
 11
2.991444E+001
 21
2.1893409
  0
LINE
  8
126
  6
CONTINUOUS
 62
3
 10
2.9967529E+001
 20
2.1362512
 11
2.9995029E+001
 21
2.1087512
  0
LINE
  8
126
  6
CONTINUOUS
 62
3
 10
3.0048119E+001
 20
2.0556615
 11
3.0075494E+001
 21
2.0282865
  0
LINE
  8
126
  6
CONTINUOUS
 62
3
 10
2.9876016E+001
 20
2.2167159
 11
2.9905893E+001
 21
2.1868395
  0
LINE
  8
126
  6
CONTINUOUS
 62
3
 10
2.9956481E+001
 20
2.1362512
 11
2.9983981E+001
 21
2.1087512
  0
LINE
  8
126
  6
CONTINUOUS
 62
3
 10
3.0037071E+001
 20
2.0556615
 11
3.0064445E+001
 21
2.0282865
  0
LINE
  8
126
  6
CONTINUOUS
 62
3
 10
2.9864968E+001
 20
2.2167159
 11
2.9904236E+001
 21
2.1774471
  0
LINE
  8
126
  6
CONTINUOUS
 62
3
 10
2.9945432E+001
 20
2.1362512
 11
2.9972932E+001
 21
2.1087512
  0
LINE
  8
126
  6
CONTINUOUS
 62
3
 10
3.0026022E+001
 20
2.0556615
 11
3.0053397E+001
 21
2.0282865
  0
LINE
  8
126
  6
CONTINUOUS
 62
3
 10
2.9858255E+001
 20
2.2123799
 11
2.990258E+001
 21
2.1680547
  0
LINE
  8
126
  6
CONTINUOUS
 62
3
 10
2.9934384E+001
 20
2.1362512
 11
2.9961884E+001
 21
2.1087512
  0
LINE
  8
126
  6
CONTINUOUS
 62
3
 10
3.0014973E+001
 20
2.0556615
 11
3.0042348E+001
 21
2.0282865
  0
LINE
  8
126
  6
CONTINUOUS
 62
3
 10
2.9856599E+001
 20
2.2029875
 11
2.9900924E+001
 21
2.1586623
  0
LINE
  8
126
  6
CONTINUOUS
 62
3
 10
2.9923335E+001
 20
2.1362512
 11
2.9950835E+001
 21
2.1087512
  0
LINE
  8
126
  6
CONTINUOUS
 62
3
 10
3.0003925E+001
 20
2.0556615
 11
3.00313E+001
 21
2.0282865
  0
LINE
  8
126
  6
CONTINUOUS
 62
3
 10
2.9854943E+001
 20
2.1935951
 11
2.9899268E+001
 21
2.1492699
  0
LINE
  8
126
  6
CONTINUOUS
 62
3
 10
2.9912287E+001
 20
2.1362512
 11
2.9939787E+001
 21
2.1087512
  0
LINE
  8
126
  6
CONTINUOUS
 62
3
 10
2.9992876E+001
 20
2.0556615
 11
3.0020251E+001
 21
2.0282865
  0
LINE
  8
126
  6
CONTINUOUS
 62
3
 10
2.9853287E+001
 20
2.1842027
 11
2.9897612E+001
 21
2.1398775
  0
LINE
  8
126
  6
CONTINUOUS
 62
3
 10
2.9901238E+001
 20
2.1362512
 11
2.9928738E+001
 21
2.1087512
  0
LINE
  8
126
  6
CONTINUOUS
 62
3
 10
2.9981828E+001
 20
2.0556615
 11
3.0009203E+001
 21
2.0282865
  0
LINE
  8
126
  6
CONTINUOUS
 62
3
 10
2.985163E+001
 20
2.1748103
 11
2.991769E+001
 21
2.1087512
  0
LINE
  8
126
  6
CONTINUOUS
 62
3
 10
2.9970779E+001
 20
2.0556615
 11
2.9998154E+001
 21
2.0282865
  0
LINE
  8
126
  6
CONTINUOUS
 62
3
 10
2.9849974E+001
 20
2.1654179
 11
2.9906641E+001
 21
2.1087512
  0
LINE
  8
126
  6
CONTINUOUS
 62
3
 10
2.9959731E+001
 20
2.0556615
 11
2.9987106E+001
 21
2.0282865
  0
LINE
  8
126
  6
CONTINUOUS
 62
3
 10
2.9848318E+001
 20
2.1560255
 11
2.9895687E+001
 21
2.1086564
  0
LINE
  8
126
  6
CONTINUOUS
 62
3
 10
2.9948682E+001
 20
2.0556615
 11
2.9976057E+001
 21
2.0282865
  0
LINE
  8
126
  6
CONTINUOUS
 62
3
 10
2.9846662E+001
 20
2.1466331
 11
2.9894031E+001
 21
2.099264
  0
LINE
  8
126
  6
CONTINUOUS
 62
3
 10
2.9937634E+001
 20
2.0556615
 11
2.9965009E+001
 21
2.0282865
  0
LINE
  8
126
  6
CONTINUOUS
 62
3
 10
2.9845006E+001
 20
2.1372407
 11
2.9892375E+001
 21
2.0898716
  0
LINE
  8
126
  6
CONTINUOUS
 62
3
 10
2.9926585E+001
 20
2.0556615
 11
2.995396E+001
 21
2.0282865
  0
LINE
  8
126
  6
CONTINUOUS
 62
3
 10
2.984335E+001
 20
2.1278483
 11
2.9890719E+001
 21
2.0804792
  0
LINE
  8
126
  6
CONTINUOUS
 62
3
 10
2.9915537E+001
 20
2.0556615
 11
2.9942912E+001
 21
2.0282865
  0
LINE
  8
126
  6
CONTINUOUS
 62
3
 10
2.9841694E+001
 20
2.1184559
 11
2.9889063E+001
 21
2.0710868
  0
LINE
  8
126
  6
CONTINUOUS
 62
3
 10
2.9904488E+001
 20
2.0556615
 11
2.9931863E+001
 21
2.0282865
  0
LINE
  8
126
  6
CONTINUOUS
 62
3
 10
2.9840037E+001
 20
2.1090634
 11
2.9887407E+001
 21
2.0616944
  0
LINE
  8
126
  6
CONTINUOUS
 62
3
 10
2.9893439E+001
 20
2.0556615
 11
2.9920814E+001
 21
2.0282865
  0
LINE
  8
126
  6
CONTINUOUS
 62
3
 10
2.9838381E+001
 20
2.0996711
 11
2.9909766E+001
 21
2.0282865
  0
LINE
  8
126
  6
CONTINUOUS
 62
3
 10
2.9836725E+001
 20
2.0902786
 11
2.9898717E+001
 21
2.0282865
  0
LINE
  8
126
  6
CONTINUOUS
 62
3
 10
2.9835069E+001
 20
2.0808862
 11
2.9887669E+001
 21
2.0282865
  0
LINE
  8
126
  6
CONTINUOUS
 62
3
 10
2.9833413E+001
 20
2.0714938
 11
2.987662E+001
 21
2.0282865
  0
LINE
  8
126
  6
CONTINUOUS
 62
3
 10
2.9831757E+001
 20
2.0621014
 11
2.9865572E+001
 21
2.0282865
  0
LINE
  8
126
  6
CONTINUOUS
 62
3
 10
2.9830101E+001
 20
2.052709
 11
2.9854523E+001
 21
2.0282865
  0
LINE
  8
126
  6
CONTINUOUS
 62
3
 10
2.9828445E+001
 20
2.0433166
 11
2.9843475E+001
 21
2.0282865
  0
LINE
  8
126
  6
CONTINUOUS
 62
3
 10
2.9826788E+001
 20
2.0339242
 11
2.9832426E+001
 21
2.0282865
  0
INSERT
  2
*TX27
  8
126
 10
2.5890017E+001
 20
7.272934E-001
  0
LINE
  8
1
  6
CONTINUOUS
 62
6
 10
2.527877E-001
 20
2.106564E-001
 11
3.3789294E+001
 21
2.106564E-001
  0
LINE
  8
1
  6
CONTINUOUS
 62
6
 10
3.3789294E+001
 20
2.106564E-001
 11
3.3789294E+001
 21
2.1781876E+001
  0
LINE
  8
1
  6
CONTINUOUS
 62
6
 10
3.3789294E+001
 20
2.1781876E+001
 11
2.527877E-001
 21
2.1781876E+001
  0
LINE
  8
1
  6
CONTINUOUS
 62
6
 10
2.527877E-001
 20
2.1781876E+001
 11
2.527877E-001
 21
2.106564E-001
  0
ENDSEC
  0
EOF
