  0
SECTION
  2
HEADER
  9
$ACADVER
  1
AC1015
  9
$ACADMAINTVER
 70
    20
  9
$DWGCODEPAGE
  3
ANSI_1252
  9
$INSBASE
 10
0.0
 20
0.0
 30
0.0
  9
$EXTMIN
 10
0.2869273326847832
 20
0.2315915989198558
 30
-0.0000000349181948
  9
$EXTMAX
 10
21.78984962516645
 20
16.73398337706795
 30
0.0000000814935747
  9
$LIMMIN
 10
0.0
 20
0.0
  9
$LIMMAX
 10
12.0
 20
9.0
  9
$ORTHOMODE
 70
     0
  9
$REGENMODE
 70
     1
  9
$FILLMODE
 70
     1
  9
$QTEXTMODE
 70
     0
  9
$MIRRTEXT
 70
     0
  9
$LTSCALE
 40
1.0
  9
$ATTMODE
 70
     1
  9
$TEXTSIZE
 40
1.0
  9
$TRACEWID
 40
0.05
  9
$TEXTSTYLE
  7
STANDARD
  9
$CLAYER
  8
1
  9
$CELTYPE
  6
Continuous
  9
$CECOLOR
 62
     1
  9
$CELTSCALE
 40
1.0
  9
$DISPSILH
 70
     0
  9
$DIMSCALE
 40
1.0
  9
$DIMASZ
 40
0.125
  9
$DIMEXO
 40
0.0625
  9
$DIMDLI
 40
0.25
  9
$DIMRND
 40
0.0
  9
$DIMDLE
 40
0.0
  9
$DIMEXE
 40
0.125
  9
$DIMTP
 40
0.005
  9
$DIMTM
 40
-0.005
  9
$DIMTXT
 40
0.125
  9
$DIMCEN
 40
0.09
  9
$DIMTSZ
 40
0.0
  9
$DIMTOL
 70
     0
  9
$DIMLIM
 70
     0
  9
$DIMTIH
 70
     1
  9
$DIMTOH
 70
     1
  9
$DIMSE1
 70
     0
  9
$DIMSE2
 70
     0
  9
$DIMTAD
 70
     0
  9
$DIMZIN
 70
     0
  9
$DIMBLK
  1

  9
$DIMASO
 70
     1
  9
$DIMSHO
 70
     1
  9
$DIMPOST
  1

  9
$DIMAPOST
  1

  9
$DIMALT
 70
     0
  9
$DIMALTD
 70
     0
  9
$DIMALTF
 40
25.4
  9
$DIMLFAC
 40
1.0
  9
$DIMTOFL
 70
     1
  9
$DIMTVP
 40
0.0
  9
$DIMTIX
 70
     0
  9
$DIMSOXD
 70
     0
  9
$DIMSAH
 70
     0
  9
$DIMBLK1
  1

  9
$DIMBLK2
  1

  9
$DIMSTYLE
  2
DSTYLE1
  9
$DIMCLRD
 70
     0
  9
$DIMCLRE
 70
     0
  9
$DIMCLRT
 70
     0
  9
$DIMTFAC
 40
1.0
  9
$DIMGAP
 40
0.0625
  9
$DIMJUST
 70
     0
  9
$DIMSD1
 70
     0
  9
$DIMSD2
 70
     0
  9
$DIMTOLJ
 70
     1
  9
$DIMTZIN
 70
     0
  9
$DIMALTZ
 70
     0
  9
$DIMALTTZ
 70
     0
  9
$DIMUPT
 70
     0
  9
$DIMDEC
 70
     4
  9
$DIMTDEC
 70
     4
  9
$DIMALTU
 70
     2
  9
$DIMALTTD
 70
     2
  9
$DIMTXSTY
  7
STANDARD
  9
$DIMAUNIT
 70
     0
  9
$DIMADEC
 70
     0
  9
$DIMALTRND
 40
0.0
  9
$DIMAZIN
 70
     0
  9
$DIMDSEP
 70
    46
  9
$DIMATFIT
 70
     3
  9
$DIMFRAC
 70
     0
  9
$DIMLDRBLK
  1

  9
$DIMLUNIT
 70
     2
  9
$DIMLWD
 70
    -2
  9
$DIMLWE
 70
    -2
  9
$DIMTMOVE
 70
     0
  9
$LUNITS
 70
     2
  9
$LUPREC
 70
     3
  9
$SKETCHINC
 40
0.1
  9
$FILLETRAD
 40
0.25
  9
$AUNITS
 70
     0
  9
$AUPREC
 70
     1
  9
$MENU
  1
.
  9
$ELEVATION
 40
0.0
  9
$PELEVATION
 40
0.0
  9
$THICKNESS
 40
0.0
  9
$LIMCHECK
 70
     0
  9
$CHAMFERA
 40
0.25
  9
$CHAMFERB
 40
0.25
  9
$CHAMFERC
 40
0.0
  9
$CHAMFERD
 40
0.0
  9
$SKPOLY
 70
     0
  9
$TDCREATE
 40
2454959.519021007
  9
$TDUCREATE
 40
2454959.769021007
  9
$TDUPDATE
 40
2456645.413734595
  9
$TDUUPDATE
 40
2456645.663734595
  9
$TDINDWG
 40
0.0013687963
  9
$TDUSRTIMER
 40
0.0013680787
  9
$USRTIMER
 70
     1
  9
$ANGBASE
 50
0.0
  9
$ANGDIR
 70
     0
  9
$PDMODE
 70
     2
  9
$PDSIZE
 40
-0.01
  9
$PLINEWID
 40
0.0
  9
$SPLFRAME
 70
     0
  9
$SPLINETYPE
 70
     6
  9
$SPLINESEGS
 70
     8
  9
$HANDSEED
  5
557
  9
$SURFTAB1
 70
     6
  9
$SURFTAB2
 70
     6
  9
$SURFTYPE
 70
     6
  9
$SURFU
 70
     6
  9
$SURFV
 70
     6
  9
$UCSBASE
  2

  9
$UCSNAME
  2

  9
$UCSORG
 10
0.0
 20
0.0
 30
0.0
  9
$UCSXDIR
 10
1.0
 20
0.0
 30
0.0
  9
$UCSYDIR
 10
0.0
 20
1.0
 30
0.0
  9
$UCSORTHOREF
  2

  9
$UCSORTHOVIEW
 70
     0
  9
$UCSORGTOP
 10
0.0
 20
0.0
 30
0.0
  9
$UCSORGBOTTOM
 10
0.0
 20
0.0
 30
0.0
  9
$UCSORGLEFT
 10
0.0
 20
0.0
 30
0.0
  9
$UCSORGRIGHT
 10
0.0
 20
0.0
 30
0.0
  9
$UCSORGFRONT
 10
0.0
 20
0.0
 30
0.0
  9
$UCSORGBACK
 10
0.0
 20
0.0
 30
0.0
  9
$PUCSBASE
  2

  9
$PUCSNAME
  2

  9
$PUCSORG
 10
0.0
 20
0.0
 30
0.0
  9
$PUCSXDIR
 10
1.0
 20
0.0
 30
0.0
  9
$PUCSYDIR
 10
0.0
 20
1.0
 30
0.0
  9
$PUCSORTHOREF
  2

  9
$PUCSORTHOVIEW
 70
     0
  9
$PUCSORGTOP
 10
0.0
 20
0.0
 30
0.0
  9
$PUCSORGBOTTOM
 10
0.0
 20
0.0
 30
0.0
  9
$PUCSORGLEFT
 10
0.0
 20
0.0
 30
0.0
  9
$PUCSORGRIGHT
 10
0.0
 20
0.0
 30
0.0
  9
$PUCSORGFRONT
 10
0.0
 20
0.0
 30
0.0
  9
$PUCSORGBACK
 10
0.0
 20
0.0
 30
0.0
  9
$USERI1
 70
     0
  9
$USERI2
 70
     0
  9
$USERI3
 70
     0
  9
$USERI4
 70
     0
  9
$USERI5
 70
     0
  9
$USERR1
 40
0.0
  9
$USERR2
 40
0.0
  9
$USERR3
 40
0.0
  9
$USERR4
 40
0.0
  9
$USERR5
 40
0.0
  9
$WORLDVIEW
 70
     1
  9
$SHADEDGE
 70
     3
  9
$SHADEDIF
 70
    70
  9
$TILEMODE
 70
     1
  9
$MAXACTVP
 70
    64
  9
$PINSBASE
 10
0.0
 20
0.0
 30
0.0
  9
$PLIMCHECK
 70
     0
  9
$PEXTMIN
 10
1.000000000000000E+20
 20
1.000000000000000E+20
 30
1.000000000000000E+20
  9
$PEXTMAX
 10
-1.000000000000000E+20
 20
-1.000000000000000E+20
 30
-1.000000000000000E+20
  9
$PLIMMIN
 10
0.0
 20
0.0
  9
$PLIMMAX
 10
12.0
 20
9.0
  9
$UNITMODE
 70
     0
  9
$VISRETAIN
 70
     1
  9
$PLINEGEN
 70
     0
  9
$PSLTSCALE
 70
     1
  9
$TREEDEPTH
 70
  3020
  9
$CMLSTYLE
  2
Standard
  9
$CMLJUST
 70
     0
  9
$CMLSCALE
 40
1.0
  9
$PROXYGRAPHICS
 70
     1
  9
$MEASUREMENT
 70
     0
  9
$CELWEIGHT
370
    -1
  9
$ENDCAPS
280
     0
  9
$JOINSTYLE
280
     0
  9
$LWDISPLAY
290
     0
  9
$INSUNITS
 70
     0
  9
$HYPERLINKBASE
  1

  9
$STYLESHEET
  1

  9
$XEDIT
290
     1
  9
$CEPSNTYPE
380
     0
  9
$PSTYLEMODE
290
     1
  9
$FINGERPRINTGUID
  2
{33CFF758-C3D6-409A-8D64-85C687A80AA4}
  9
$VERSIONGUID
  2
{2CBDB97C-A858-4083-B972-579CA59CD749}
  9
$EXTNAMES
290
     1
  9
$PSVPSCALE
 40
0.0
  9
$OLESTARTUP
290
     0
  0
ENDSEC
  0
SECTION
  2
CLASSES
  0
CLASS
  1
ACDBDICTIONARYWDFLT
  2
AcDbDictionaryWithDefault
  3
ObjectDBX Classes
 90
        0
280
     0
281
     0
  0
CLASS
  1
TABLESTYLE
  2
AcDbTableStyle
  3
ObjectDBX Classes
 90
     4095
280
     0
281
     0
  0
CLASS
  1
DICTIONARYVAR
  2
AcDbDictionaryVar
  3
ObjectDBX Classes
 90
        0
280
     0
281
     0
  0
CLASS
  1
ACDBPLACEHOLDER
  2
AcDbPlaceHolder
  3
ObjectDBX Classes
 90
        0
280
     0
281
     0
  0
CLASS
  1
LAYOUT
  2
AcDbLayout
  3
ObjectDBX Classes
 90
        0
280
     0
281
     0
  0
CLASS
  1
MATERIAL
  2
AcDbMaterial
  3
ObjectDBX Classes
 90
     1153
280
     0
281
     0
  0
CLASS
  1
VISUALSTYLE
  2
AcDbVisualStyle
  3
ObjectDBX Classes
 90
     4095
280
     0
281
     0
  0
CLASS
  1
SCALE
  2
AcDbScale
  3
ObjectDBX Classes
 90
     1153
280
     0
281
     0
  0
CLASS
  1
MLEADERSTYLE
  2
AcDbMLeaderStyle
  3
ACDB_MLEADERSTYLE_CLASS
 90
     4095
280
     0
281
     0
  0
CLASS
  1
ACME_DOCUMENT
  2
AcMeDbDoc
  3
AcMeServices
 90
     1024
280
     0
281
     0
  0
CLASS
  1
ACMESCOPE
  2
AcMeScope
  3
AcMeServices
 90
     1024
280
     0
281
     0
  0
CLASS
  1
ACMECOMMANDHISTORY
  2
AcMeCommandHistory
  3
AcMeServices
 90
     1024
280
     0
281
     0
  0
CLASS
  1
ACIMSYSVARMAN
  2
AcImSysVarManager
  3
AcMeServices
 90
     1024
280
     0
281
     0
  0
CLASS
  1
ACIMINTSYSVAR
  2
AcImIntSysVar
  3
AcMeServices
 90
     1024
280
     0
281
     0
  0
CLASS
  1
ACMEDRAWINGMAN
  2
AcMeDrawingMan
  3
AcMeServices
 90
     1024
280
     0
281
     0
  0
CLASS
  1
ACMEVIEW
  2
AcMeView
  3
AcMeServices
 90
     1024
280
     0
281
     0
  0
CLASS
  1
ACDBENTITYCACHE
  2
AcMeEntityCache
  3
AcMeServices
 90
     1024
280
     0
281
     0
  0
CLASS
  1
ACMESTATEMGR
  2
AcMeStateMgr
  3
AcMeServices
 90
     1024
280
     0
281
     0
  0
CLASS
  1
ACGREFMASTER
  2
AcGrefMaster
  3
AcAttribServices
 90
     1024
280
     0
281
     0
  0
CLASS
  1
AM_DRAWING_MGR
  2
AcDmDwgMgr
  3
AcMechDwgViewMgmt
 90
     1024
280
     0
281
     0
  0
CLASS
  1
AM_DWG_DOCUMENT
  2
AcDmDwgDocument
  3
AcMechDwgViewMgmt
 90
     1024
280
     0
281
     0
  0
CLASS
  1
AM_DWG_SHEET
  2
AcDmSheet
  3
AcMechDwgViewMgmt
 90
     1024
280
     0
281
     0
  0
CLASS
  1
AM_VIEWDIMPARMAP
  2
AcDmViewDimParMap
  3
AcMechDwgViewMgmt
 90
     1024
280
     0
281
     0
  0
CLASS
  1
AMDTINTERNALREACTOR
  2
AmdtInternalReactor
  3
AcMeServices
 90
     1024
280
     0
281
     0
  0
CLASS
  1
ACIMREALSYSVAR
  2
AcImRealSysVar
  3
AcMeServices
 90
     1024
280
     0
281
     0
  0
CLASS
  1
AM_DWGMGR_NAME
  2
AcDmDwgMgrName
  3
AcMechDwgViewMgmt
 90
     1024
280
     0
281
     0
  0
CLASS
  1
ACME_DATABASE
  2
AcMeDbDatabase
  3
AcMeServices
 90
     1024
280
     0
281
     0
  0
CLASS
  1
ACRFINSADJUSTERMGR
  2
AcRfInsAdjusterMgr
  3
AcMeServices
 90
     1024
280
     0
281
     0
  0
CLASS
  1
ACGREFACADMASTER
  2
AcGrefacadMaster
  3
AcGrefServices
 90
     1024
280
     0
281
     0
  0
CLASS
  1
AMDTMENUSTATEMGR
  2
AmdtMenuStateMgr
  3
McadcomServices
 90
     1024
280
     0
281
     0
  0
CLASS
  1
AMDTMCOMMENUSTATE
  2
AmdtMcomMenuState
  3
McadcomServices
 90
     1024
280
     0
281
     0
  0
CLASS
  1
AMIMASTER
  2
AmiMaster
  3
AmiServices
 90
     1024
280
     0
281
     0
  0
CLASS
  1
AMGSETTINGSOBJ
  2
AmgSettingsObj
  3
"AcadM|Product Description: AutoCAD Mechanical|Company: Autodesk, Inc."
 90
     1024
280
     0
281
     0
  0
CLASS
  1
MAPIAMMOUDLE
  2
MApiAmModule
  3
MApiAmServices
 90
     1024
280
     0
281
     0
  0
CLASS
  1
ACIMSTRSYSVAR
  2
AcImStrSysVar
  3
AcMeServices
 90
     1024
280
     0
281
     0
  0
CLASS
  1
AMDTADMENUSTATE
  2
AmdtAdMenuState
  3
DesignerServices
 90
     1024
280
     0
281
     0
  0
CLASS
  1
ADAPPL
  2
AcAdAppl
  3
DesignerServices
 90
     1024
280
     0
281
     0
  0
CLASS
  1
DEPMGR
  2
AcAdDepMgr
  3
DesignerServices
 90
     1024
280
     0
281
     0
  0
CLASS
  1
PARAMMGR
  2
AcAdParamMgr
  3
DesignerServices
 90
     1024
280
     0
281
     0
  0
CLASS
  1
PARAMSCOPE
  2
AcAdParamScope
  3
DesignerServices
 90
     1024
280
     0
281
     0
  0
CLASS
  1
NAMEDAPPL
  2
AcAdNamedAppl
  3
DesignerServices
 90
     1024
280
     0
281
     0
  0
CLASS
  1
AMDTDMMENUSTATE
  2
AmdtDmMenuState
  3
AcMechDwgViewMgmt
 90
     1024
280
     0
281
     0
  0
CLASS
  1
AMDTAMMENUSTATE
  2
AmdtAmMenuState
  3
DesignerAssemblies
 90
     1024
280
     0
281
     0
  0
CLASS
  1
ACAMPROJECT
  2
AcAmProject
  3
DesignerAssemblies
 90
     1024
280
     0
281
     0
  0
CLASS
  1
ACAMGRCOMPDEF
  2
AcAmGrCompDef
  3
DesignerAssemblies
 90
     1024
280
     0
281
     0
  0
CLASS
  1
ACAMCOMPDEF
  2
AcAmCompDef
  3
DesignerAssemblies
 90
     1024
280
     0
281
     0
  0
CLASS
  1
ACAMCOMPDEFMGR
  2
AcAmCompDefMgr
  3
DesignerAssemblies
 90
     1024
280
     0
281
     0
  0
CLASS
  1
AMCONTEXTMGR
  2
AcAmContextMgr
  3
DesignerAssemblies
 90
     1024
280
     0
281
     0
  0
CLASS
  1
ACAMCONTEXTMODELER
  2
AcAmContextModeler
  3
DesignerAssemblies
 90
     1024
280
     0
281
     0
  0
CLASS
  1
ACMDATADICTIONARY
  2
AcmDataDictionary
  3
"AcmSymBB|Product Description: AutoCAD Mechanical|Company: Autodesk, Inc."
 90
     1024
280
     0
281
     0
  0
CLASS
  1
CATALOGSTATE
  2
AcAmCatalogState
  3
DesignerAssemblies
 90
     1024
280
     0
281
     0
  0
CLASS
  1
ACAMGRCOMPDEFSET
  2
AcAmGrCompDefSet
  3
DesignerAssemblies
 90
     1024
280
     0
281
     0
  0
CLASS
  1
AMDTBROWSERDBTAB
  2
AmdtBrowserDbTab
  3
McadcomServices
 90
     1024
280
     0
281
     0
  0
CLASS
  1
CBROWSERAPPOBJECT
  2
CBrowserAppObject
  3
McadcomServices
 90
     1024
280
     0
281
     0
  0
CLASS
  1
DM_PLACEHOLDER
  2
AcDmSelsetPlaceholder
  3
AcMechDwgViewMgmt
 90
     1024
280
     0
281
     0
  0
CLASS
  1
ACMSTANDARDANSI
  2
AcmStandardANSI
  3
"Amdt_StdImp|Product Description: AutoCAD Mechanical|Company: Autodesk, Inc."
 90
     1024
280
     0
281
     0
  0
CLASS
  1
ACMSURFSTANDARDANSI
  2
AcmSurfTextStdANSI
  3
"Amdt_StdImp|Product Description: AutoCAD Mechanical|Company: Autodesk, Inc."
 90
     1024
280
     0
281
     0
  0
CLASS
  1
ACMFCFSTANDARDANSI
  2
AcmFCFStdANSI
  3
"Amdt_StdImp|Product Description: AutoCAD Mechanical|Company: Autodesk, Inc."
 90
     1024
280
     0
281
     0
  0
CLASS
  1
ACMWELDSTANDARDANSI
  2
AcmWeldingStdANSI
  3
"Amdt_StdImp|Product Description: AutoCAD Mechanical|Company: Autodesk, Inc."
 90
     1024
280
     0
281
     0
  0
CLASS
  1
ACMIDSTANDARDANSI
  2
AcmIdStdANSI
  3
"Amdt_StdImp|Product Description: AutoCAD Mechanical|Company: Autodesk, Inc."
 90
     1024
280
     0
281
     0
  0
CLASS
  1
ACMDATUMSTANDARDANSI
  2
AcmDatumStdANSI
  3
"Amdt_StdImp|Product Description: AutoCAD Mechanical|Company: Autodesk, Inc."
 90
     1024
280
     0
281
     0
  0
CLASS
  1
ACMBOMSTANDARDANSI
  2
AcmBOMStdANSI
  3
"Amdt_StdImp|Product Description: AutoCAD Mechanical|Company: Autodesk, Inc."
 90
     1024
280
     0
281
     0
  0
CLASS
  1
ACMDETAILSTANDARDANSI
  2
AmdtDetailSymStdANSI
  3
"Amdt_StdImp|Product Description: AutoCAD Mechanical|Company: Autodesk, Inc."
 90
     1024
280
     0
281
     0
  0
CLASS
  1
ACMSECTIONSTANDARDANSI
  2
AmdtSectionSymStdANSI
  3
"Amdt_StdImp|Product Description: AutoCAD Mechanical|Company: Autodesk, Inc."
 90
     1024
280
     0
281
     0
  0
CLASS
  1
ACMCENTERLINESTANDARDANSI
  2
AmdtCenterLineStdANSI
  3
"Amdt_StdImp|Product Description: AutoCAD Mechanical|Company: Autodesk, Inc."
 90
     1024
280
     0
281
     0
  0
CLASS
  1
ACMTHREADLINESTANDARDANSI
  2
AmdtThreadLineStdANSI
  3
"Amdt_StdImp|Product Description: AutoCAD Mechanical|Company: Autodesk, Inc."
 90
     1024
280
     0
281
     0
  0
CLASS
  1
ACMNOTESTANDARDANSI
  2
AmdtNoteStdANSI
  3
"Amdt_StdImp|Product Description: AutoCAD Mechanical|Company: Autodesk, Inc."
 90
     1024
280
     0
281
     0
  0
CLASS
  1
ACMTAPERSTANDARDANSI
  2
AcmTaperStdANSI
  3
"Amdt_StdImp|Product Description: AutoCAD Mechanical|Company: Autodesk, Inc."
 90
     1024
280
     0
281
     0
  0
CLASS
  1
ACMANOOTATIONVIEWSTANDARDANSI
  2
AmdtAnViewStdANSI
  3
"Amdt_StdImp|Product Description: AutoCAD Mechanical|Company: Autodesk, Inc."
 90
     1024
280
     0
281
     0
  0
CLASS
  1
ACAMGLAYSTD
  2
AcAmgLayStd
  3
"AmgLay|Product Description: AutoCAD Mechanical|Company: Autodesk, Inc."
 90
     1024
280
     0
281
     0
  0
CLASS
  1
ACAMGDIMSTD
  2
AcAmgDimStd
  3
"AmgDim|Product Description: AutoCAD Mechanical|Company: Autodesk, Inc."
 90
     1024
280
     0
281
     0
  0
CLASS
  1
AMGOBJPROPCFG
  2
AmgObjPropCfg
  3
"AmgLay|Product Description: AutoCAD Mechanical|Company: Autodesk, Inc."
 90
     1025
280
     0
281
     0
  0
CLASS
  1
ACAMGHOLECHARTSTDANSI
  2
AcAmgHoleChartStdANSI
  3
AmgDim|Product Description: AutoCAD Mechanical|Company: Autodesk, Inc.
 90
     1024
280
     0
281
     0
  0
CLASS
  1
ACAMGTITLESTD
  2
AcAmgTitleStd
  3
"AmgTitle|Product Description: AutoCAD Mechanical|Company: Autodesk, Inc."
 90
     4095
280
     0
281
     0
  0
CLASS
  1
AMDTNOTETEMPLATEDB
  2
AmdtNoteTemplateDB
  3
AcmSymBB|Product Description: AutoCAD Mechanical|Company: Autodesk, Inc.
 90
     1024
280
     0
281
     0
  0
CLASS
  1
ACAMGFILTERDAT
  2
AcAmgFilterDat
  3
"AcadM|Product Description: AutoCAD Mechanical|Company: Autodesk, Inc."
 90
     1024
280
     0
281
     0
  0
CLASS
  1
CELLSTYLEMAP
  2
AcDbCellStyleMap
  3
ObjectDBX Classes
 90
     1152
280
     0
281
     0
  0
ENDSEC
  0
SECTION
  2
TABLES
  0
TABLE
  2
VPORT
  5
8
330
0
100
AcDbSymbolTable
 70
     1
  0
VPORT
  5
2B6
330
8
100
AcDbSymbolTableRecord
100
AcDbViewportTableRecord
  2
*Active
 70
     0
 10
0.0
 20
0.0
 11
1.0
 21
1.0
 12
11.03838847892562
 22
8.482787487993903
 13
0.0
 23
0.0
 14
1.0
 24
1.0
 15
0.0
 25
0.0
 16
0.0
 26
0.0
 36
1.0
 17
0.0
 27
0.0
 37
0.0
 40
16.61956852450181
 41
1.892180094786729
 42
50.0
 43
0.0
 44
0.0
 50
0.0
 51
0.0
 71
     0
 72
   100
 73
     1
 74
     1
 75
     0
 76
     0
 77
     0
 78
     0
281
     0
 65
     0
110
0.0
120
0.0
130
0.0
111
1.0
121
0.0
131
0.0
112
0.0
122
1.0
132
0.0
 79
     0
146
0.0
  0
ENDTAB
  0
TABLE
  2
LTYPE
  5
5
330
0
100
AcDbSymbolTable
 70
    22
  0
LTYPE
  5
13
330
5
100
AcDbSymbolTableRecord
100
AcDbLinetypeTableRecord
  2
ByBlock
 70
     0
  3

 72
    65
 73
     0
 40
0.0
  0
LTYPE
  5
14
330
5
100
AcDbSymbolTableRecord
100
AcDbLinetypeTableRecord
  2
ByLayer
 70
     0
  3

 72
    65
 73
     0
 40
0.0
  0
LTYPE
  5
15
330
5
100
AcDbSymbolTableRecord
100
AcDbLinetypeTableRecord
  2
Continuous
 70
     0
  3
Solid line
 72
    65
 73
     0
 40
0.0
  0
LTYPE
  5
27
330
5
100
AcDbSymbolTableRecord
100
AcDbLinetypeTableRecord
  2
HIDDENNEW00
 70
     0
  3
_ 
 72
    65
 73
     2
 40
0.1875
 49
0.125
 74
     0
 49
-0.0625
 74
     0
  0
LTYPE
  5
28
330
5
100
AcDbSymbolTableRecord
100
AcDbLinetypeTableRecord
  2
HIDDENNEW01
 70
     0
  3
_ 
 72
    65
 73
     2
 40
0.1875
 49
0.125
 74
     0
 49
-0.0625
 74
     0
  0
LTYPE
  5
29
330
5
100
AcDbSymbolTableRecord
100
AcDbLinetypeTableRecord
  2
HIDDEN
 70
     0
  3
_ 
 72
    65
 73
     2
 40
0.1875
 49
0.125
 74
     0
 49
-0.0625
 74
     0
  0
LTYPE
  5
2A
330
5
100
AcDbSymbolTableRecord
100
AcDbLinetypeTableRecord
  2
CENTERLINE
 70
     0
  3
_ 
 72
    65
 73
     4
 40
1.25
 49
1.0
 74
     0
 49
-0.0625
 74
     0
 49
0.125
 74
     0
 49
-0.0625
 74
     0
  0
LTYPE
  5
2B
330
5
100
AcDbSymbolTableRecord
100
AcDbLinetypeTableRecord
  2
PHANTOM
 70
     0
  3
_ 
 72
    65
 73
     6
 40
1.1875
 49
0.75
 74
     0
 49
-0.0625
 74
     0
 49
0.125
 74
     0
 49
-0.0625
 74
     0
 49
0.125
 74
     0
 49
-0.0625
 74
     0
  0
LTYPE
  5
2C
330
5
100
AcDbSymbolTableRecord
100
AcDbLinetypeTableRecord
  2
SHORT_DASH
 70
     0
  3
_ 
 72
    65
 73
     2
 40
0.125
 49
0.0625
 74
     0
 49
-0.0625
 74
     0
  0
LTYPE
  5
2D
330
5
100
AcDbSymbolTableRecord
100
AcDbLinetypeTableRecord
  2
LONG_DASH
 70
     0
  3
_ 
 72
    65
 73
     2
 40
0.375
 49
0.1875
 74
     0
 49
-0.1875
 74
     0
  0
LTYPE
  5
33D
330
5
100
AcDbSymbolTableRecord
100
AcDbLinetypeTableRecord
  2
PHANTOM2
 70
     0
  3
Phantom (.5x) ___ _ _ ___ _ _ ___ _ _ ___ _ _
 72
    65
 73
     6
 40
1.25
 49
0.625
 74
     0
 49
-0.125
 74
     0
 49
0.125
 74
     0
 49
-0.125
 74
     0
 49
0.125
 74
     0
 49
-0.125
 74
     0
  0
LTYPE
  5
33E
330
5
100
AcDbSymbolTableRecord
100
AcDbLinetypeTableRecord
  2
CENTER
 70
     0
  3
Center ____ _ ____ _ ____ _ ____ _ ____ _ ____
 72
    65
 73
     4
 40
2.0
 49
1.25
 74
     0
 49
-0.25
 74
     0
 49
0.25
 74
     0
 49
-0.25
 74
     0
  0
LTYPE
  5
387
330
5
100
AcDbSymbolTableRecord
100
AcDbLinetypeTableRecord
  2
AM_ISO02W050
 70
     0
  3
__ __ __ __ __ __ __ __ __ __ __ __ __ __ __
 72
    65
 73
     2
 40
7.5
 49
6.0
 74
     0
 49
-1.5
 74
     0
  0
LTYPE
  5
388
330
5
100
AcDbSymbolTableRecord
100
AcDbLinetypeTableRecord
  2
AM_ISO08W050
 70
     0
  3
____ . ____ . ____ . ____ . ____ . ____ . ____
 72
    65
 73
     4
 40
18.0
 49
12.0
 74
     0
 49
-1.5
 74
     0
 49
3.0
 74
     0
 49
-1.5
 74
     0
  0
LTYPE
  5
389
330
5
100
AcDbSymbolTableRecord
100
AcDbLinetypeTableRecord
  2
AM_ISO09W050
 70
     0
  3
_____ . . _____ . . _____ . . ____ .. ____
 72
    65
 73
     6
 40
22.5
 49
12.0
 74
     0
 49
-1.5
 74
     0
 49
3.0
 74
     0
 49
-1.5
 74
     0
 49
3.0
 74
     0
 49
-1.5
 74
     0
  0
LTYPE
  5
38A
330
5
100
AcDbSymbolTableRecord
100
AcDbLinetypeTableRecord
  2
Amconstr
 70
     0
  3
_______________________
 72
    65
 73
     2
 40
9999.0
 49
9999.0
 74
     0
 49
0.0
 74
     0
  0
LTYPE
  5
38B
330
5
100
AcDbSymbolTableRecord
100
AcDbLinetypeTableRecord
  2
AM_ISO08W050x2
 70
     0
  3
__ . __ . __ . __ . __ . __
 72
    65
 73
     4
 40
9.0
 49
6.0
 74
     0
 49
-0.75
 74
     0
 49
1.5
 74
     0
 49
-0.75
 74
     0
  0
LTYPE
  5
38C
330
5
100
AcDbSymbolTableRecord
100
AcDbLinetypeTableRecord
  2
AM_ISO02W050x2
 70
     0
  3
 _ _ _ _ _ _ _ _ _ _ _ _
 72
    65
 73
     2
 40
3.75
 49
3.0
 74
     0
 49
-0.75
 74
     0
  0
LTYPE
  5
38F
330
5
100
AcDbSymbolTableRecord
100
AcDbLinetypeTableRecord
  2
Amzigzag
 70
     0
  3
/\/-/\/-/\/-/\/-/\/-/\/
 72
    65
 73
     2
 40
11.0001
 49
0.0001
 74
     4
 75
   136
340
38E
 46
0.04
 50
0.0
 44
0.0
 45
0.0
 49
-11.0
 74
     0
  0
LTYPE
  5
390
330
5
100
AcDbSymbolTableRecord
100
AcDbLinetypeTableRecord
  2
CENTER2
 70
     0
  3
Center (.5x) ___ _ ___ _ ___ _ ___ _ ___ _ ___
 72
    65
 73
     4
 40
1.125
 49
0.75
 74
     0
 49
-0.125
 74
     0
 49
0.125
 74
     0
 49
-0.125
 74
     0
  0
LTYPE
  5
391
330
5
100
AcDbSymbolTableRecord
100
AcDbLinetypeTableRecord
  2
HIDDEN2
 70
     0
  3
Hidden (.5x) _ _ _ _ _ _ _ _ _ _ _ _ _ _ _ _ _
 72
    65
 73
     2
 40
0.1875
 49
0.125
 74
     0
 49
-0.0625
 74
     0
  0
LTYPE
  5
392
330
5
100
AcDbSymbolTableRecord
100
AcDbLinetypeTableRecord
  2
Amzigzag2
 70
     0
  3
/\/-/\/-/\/-/\/-/\/-/\/
 72
    65
 73
     2
 40
0.4401
 49
0.0001
 74
     4
 75
   136
340
38E
 46
0.0016
 50
0.0
 44
0.0
 45
0.0
 49
-0.4400000000000001
 74
     0
  0
LTYPE
  5
3A0
330
5
100
AcDbSymbolTableRecord
100
AcDbLinetypeTableRecord
  2
ACANSTGB
 70
     0
  3
__ . . __ . .
 72
    65
 73
     6
 40
0.35433070866
 49
0.15748031496
 74
     0
 49
-0.03937007874
 74
     0
 49
0.03937007874
 74
     0
 49
-0.03937007874
 74
     0
 49
0.03937007874
 74
     0
 49
-0.03937007874
 74
     0
  0
LTYPE
  5
3A1
330
5
100
AcDbSymbolTableRecord
100
AcDbLinetypeTableRecord
  2
ACANSTGL
 70
     0
  3
_ _ _ _ _
 72
    65
 73
     2
 40
0.11811023622
 49
0.07874015748
 74
     0
 49
-0.03937007874
 74
     0
  0
ENDTAB
  0
TABLE
  2
LAYER
  5
2
330
0
100
AcDbSymbolTable
 70
   182
  0
LAYER
  5
10
102
{ACAD_XDICTIONARY
360
3AF
102
}
330
2
100
AcDbSymbolTableRecord
100
AcDbLayerTableRecord
  2
0
 70
     0
 62
     7
  6
Continuous
370
    -3
390
F
  0
LAYER
  5
26
102
{ACAD_XDICTIONARY
360
3B1
102
}
330
2
100
AcDbSymbolTableRecord
100
AcDbLayerTableRecord
  2
1
 70
     0
 62
     7
  6
Continuous
370
    -3
390
F
  0
LAYER
  5
2E
102
{ACAD_XDICTIONARY
360
3B3
102
}
330
2
100
AcDbSymbolTableRecord
100
AcDbLayerTableRecord
  2
2
 70
     0
 62
     7
  6
Continuous
370
    -3
390
F
  0
LAYER
  5
2F
102
{ACAD_XDICTIONARY
360
3B5
102
}
330
2
100
AcDbSymbolTableRecord
100
AcDbLayerTableRecord
  2
3
 70
     0
 62
     7
  6
Continuous
370
    -3
390
F
  0
LAYER
  5
30
102
{ACAD_XDICTIONARY
360
3B7
102
}
330
2
100
AcDbSymbolTableRecord
100
AcDbLayerTableRecord
  2
4
 70
     0
 62
     7
  6
Continuous
370
    -3
390
F
  0
LAYER
  5
31
102
{ACAD_XDICTIONARY
360
3B9
102
}
330
2
100
AcDbSymbolTableRecord
100
AcDbLayerTableRecord
  2
5
 70
     0
 62
     7
  6
Continuous
370
    -3
390
F
  0
LAYER
  5
32
102
{ACAD_XDICTIONARY
360
3BB
102
}
330
2
100
AcDbSymbolTableRecord
100
AcDbLayerTableRecord
  2
6
 70
     0
 62
     7
  6
Continuous
370
    -3
390
F
  0
LAYER
  5
33
102
{ACAD_XDICTIONARY
360
3BD
102
}
330
2
100
AcDbSymbolTableRecord
100
AcDbLayerTableRecord
  2
7
 70
     0
 62
     7
  6
Continuous
370
    -3
390
F
  0
LAYER
  5
34
102
{ACAD_XDICTIONARY
360
3BF
102
}
330
2
100
AcDbSymbolTableRecord
100
AcDbLayerTableRecord
  2
8
 70
     0
 62
     7
  6
Continuous
370
    -3
390
F
  0
LAYER
  5
35
102
{ACAD_XDICTIONARY
360
3C1
102
}
330
2
100
AcDbSymbolTableRecord
100
AcDbLayerTableRecord
  2
9
 70
     0
 62
     7
  6
Continuous
370
    -3
390
F
  0
LAYER
  5
36
102
{ACAD_XDICTIONARY
360
3C3
102
}
330
2
100
AcDbSymbolTableRecord
100
AcDbLayerTableRecord
  2
10
 70
     0
 62
     7
  6
Continuous
370
    -3
390
F
  0
LAYER
  5
37
102
{ACAD_XDICTIONARY
360
3C5
102
}
330
2
100
AcDbSymbolTableRecord
100
AcDbLayerTableRecord
  2
11
 70
     0
 62
     7
  6
Continuous
370
    -3
390
F
  0
LAYER
  5
38
102
{ACAD_XDICTIONARY
360
3C7
102
}
330
2
100
AcDbSymbolTableRecord
100
AcDbLayerTableRecord
  2
12
 70
     0
 62
     7
  6
Continuous
370
    -3
390
F
  0
LAYER
  5
39
102
{ACAD_XDICTIONARY
360
3C9
102
}
330
2
100
AcDbSymbolTableRecord
100
AcDbLayerTableRecord
  2
13
 70
     0
 62
     7
  6
Continuous
370
    -3
390
F
  0
LAYER
  5
3A
102
{ACAD_XDICTIONARY
360
3CB
102
}
330
2
100
AcDbSymbolTableRecord
100
AcDbLayerTableRecord
  2
14
 70
     0
 62
     7
  6
Continuous
370
    -3
390
F
  0
LAYER
  5
3B
102
{ACAD_XDICTIONARY
360
3CD
102
}
330
2
100
AcDbSymbolTableRecord
100
AcDbLayerTableRecord
  2
15
 70
     0
 62
     7
  6
Continuous
370
    -3
390
F
  0
LAYER
  5
3C
102
{ACAD_XDICTIONARY
360
3CF
102
}
330
2
100
AcDbSymbolTableRecord
100
AcDbLayerTableRecord
  2
16
 70
     0
 62
     7
  6
Continuous
370
    -3
390
F
  0
LAYER
  5
3D
102
{ACAD_XDICTIONARY
360
3D1
102
}
330
2
100
AcDbSymbolTableRecord
100
AcDbLayerTableRecord
  2
17
 70
     0
 62
     7
  6
Continuous
370
    -3
390
F
  0
LAYER
  5
3E
102
{ACAD_XDICTIONARY
360
3D3
102
}
330
2
100
AcDbSymbolTableRecord
100
AcDbLayerTableRecord
  2
18
 70
     0
 62
     7
  6
Continuous
370
    -3
390
F
  0
LAYER
  5
3F
102
{ACAD_XDICTIONARY
360
3D5
102
}
330
2
100
AcDbSymbolTableRecord
100
AcDbLayerTableRecord
  2
19
 70
     0
 62
     7
  6
Continuous
370
    -3
390
F
  0
LAYER
  5
40
102
{ACAD_XDICTIONARY
360
3D7
102
}
330
2
100
AcDbSymbolTableRecord
100
AcDbLayerTableRecord
  2
20
 70
     0
 62
     7
  6
Continuous
370
    -3
390
F
  0
LAYER
  5
41
102
{ACAD_XDICTIONARY
360
3D9
102
}
330
2
100
AcDbSymbolTableRecord
100
AcDbLayerTableRecord
  2
21
 70
     0
 62
     7
  6
Continuous
370
    -3
390
F
  0
LAYER
  5
42
102
{ACAD_XDICTIONARY
360
3DB
102
}
330
2
100
AcDbSymbolTableRecord
100
AcDbLayerTableRecord
  2
22
 70
     0
 62
     7
  6
Continuous
370
    -3
390
F
  0
LAYER
  5
43
102
{ACAD_XDICTIONARY
360
3DD
102
}
330
2
100
AcDbSymbolTableRecord
100
AcDbLayerTableRecord
  2
23
 70
     0
 62
     7
  6
Continuous
370
    -3
390
F
  0
LAYER
  5
44
102
{ACAD_XDICTIONARY
360
3DF
102
}
330
2
100
AcDbSymbolTableRecord
100
AcDbLayerTableRecord
  2
24
 70
     0
 62
     7
  6
Continuous
370
    -3
390
F
  0
LAYER
  5
45
102
{ACAD_XDICTIONARY
360
3E1
102
}
330
2
100
AcDbSymbolTableRecord
100
AcDbLayerTableRecord
  2
25
 70
     0
 62
     7
  6
Continuous
370
    -3
390
F
  0
LAYER
  5
46
102
{ACAD_XDICTIONARY
360
3E3
102
}
330
2
100
AcDbSymbolTableRecord
100
AcDbLayerTableRecord
  2
26
 70
     0
 62
     7
  6
Continuous
370
    -3
390
F
  0
LAYER
  5
47
102
{ACAD_XDICTIONARY
360
3E5
102
}
330
2
100
AcDbSymbolTableRecord
100
AcDbLayerTableRecord
  2
27
 70
     0
 62
     7
  6
Continuous
370
    -3
390
F
  0
LAYER
  5
48
102
{ACAD_XDICTIONARY
360
3E7
102
}
330
2
100
AcDbSymbolTableRecord
100
AcDbLayerTableRecord
  2
28
 70
     0
 62
     7
  6
Continuous
370
    -3
390
F
  0
LAYER
  5
49
102
{ACAD_XDICTIONARY
360
3E9
102
}
330
2
100
AcDbSymbolTableRecord
100
AcDbLayerTableRecord
  2
29
 70
     0
 62
     7
  6
Continuous
370
    -3
390
F
  0
LAYER
  5
4A
102
{ACAD_XDICTIONARY
360
3EB
102
}
330
2
100
AcDbSymbolTableRecord
100
AcDbLayerTableRecord
  2
30
 70
     0
 62
     7
  6
Continuous
370
    -3
390
F
  0
LAYER
  5
4B
102
{ACAD_XDICTIONARY
360
3ED
102
}
330
2
100
AcDbSymbolTableRecord
100
AcDbLayerTableRecord
  2
31
 70
     0
 62
     7
  6
Continuous
370
    -3
390
F
  0
LAYER
  5
4C
102
{ACAD_XDICTIONARY
360
3EF
102
}
330
2
100
AcDbSymbolTableRecord
100
AcDbLayerTableRecord
  2
32
 70
     0
 62
     7
  6
Continuous
370
    -3
390
F
  0
LAYER
  5
4D
102
{ACAD_XDICTIONARY
360
3F1
102
}
330
2
100
AcDbSymbolTableRecord
100
AcDbLayerTableRecord
  2
33
 70
     0
 62
     7
  6
Continuous
370
    -3
390
F
  0
LAYER
  5
4E
102
{ACAD_XDICTIONARY
360
3F3
102
}
330
2
100
AcDbSymbolTableRecord
100
AcDbLayerTableRecord
  2
34
 70
     0
 62
     7
  6
Continuous
370
    -3
390
F
  0
LAYER
  5
4F
102
{ACAD_XDICTIONARY
360
3F5
102
}
330
2
100
AcDbSymbolTableRecord
100
AcDbLayerTableRecord
  2
35
 70
     0
 62
     7
  6
Continuous
370
    -3
390
F
  0
LAYER
  5
50
102
{ACAD_XDICTIONARY
360
3F7
102
}
330
2
100
AcDbSymbolTableRecord
100
AcDbLayerTableRecord
  2
36
 70
     0
 62
     7
  6
Continuous
370
    -3
390
F
  0
LAYER
  5
51
102
{ACAD_XDICTIONARY
360
3F9
102
}
330
2
100
AcDbSymbolTableRecord
100
AcDbLayerTableRecord
  2
37
 70
     0
 62
     7
  6
Continuous
370
    -3
390
F
  0
LAYER
  5
52
102
{ACAD_XDICTIONARY
360
3FB
102
}
330
2
100
AcDbSymbolTableRecord
100
AcDbLayerTableRecord
  2
38
 70
     0
 62
     7
  6
Continuous
370
    -3
390
F
  0
LAYER
  5
53
102
{ACAD_XDICTIONARY
360
3FD
102
}
330
2
100
AcDbSymbolTableRecord
100
AcDbLayerTableRecord
  2
39
 70
     0
 62
     7
  6
Continuous
370
    -3
390
F
  0
LAYER
  5
54
102
{ACAD_XDICTIONARY
360
3FF
102
}
330
2
100
AcDbSymbolTableRecord
100
AcDbLayerTableRecord
  2
40
 70
     0
 62
     7
  6
Continuous
370
    -3
390
F
  0
LAYER
  5
55
102
{ACAD_XDICTIONARY
360
401
102
}
330
2
100
AcDbSymbolTableRecord
100
AcDbLayerTableRecord
  2
41
 70
     0
 62
     7
  6
Continuous
370
    -3
390
F
  0
LAYER
  5
56
102
{ACAD_XDICTIONARY
360
403
102
}
330
2
100
AcDbSymbolTableRecord
100
AcDbLayerTableRecord
  2
42
 70
     0
 62
     7
  6
Continuous
370
    -3
390
F
  0
LAYER
  5
57
102
{ACAD_XDICTIONARY
360
405
102
}
330
2
100
AcDbSymbolTableRecord
100
AcDbLayerTableRecord
  2
43
 70
     0
 62
     7
  6
Continuous
370
    -3
390
F
  0
LAYER
  5
58
102
{ACAD_XDICTIONARY
360
407
102
}
330
2
100
AcDbSymbolTableRecord
100
AcDbLayerTableRecord
  2
44
 70
     0
 62
     7
  6
Continuous
370
    -3
390
F
  0
LAYER
  5
59
102
{ACAD_XDICTIONARY
360
409
102
}
330
2
100
AcDbSymbolTableRecord
100
AcDbLayerTableRecord
  2
45
 70
     0
 62
     7
  6
Continuous
370
    -3
390
F
  0
LAYER
  5
5A
102
{ACAD_XDICTIONARY
360
40B
102
}
330
2
100
AcDbSymbolTableRecord
100
AcDbLayerTableRecord
  2
46
 70
     0
 62
     7
  6
Continuous
370
    -3
390
F
  0
LAYER
  5
5B
102
{ACAD_XDICTIONARY
360
40D
102
}
330
2
100
AcDbSymbolTableRecord
100
AcDbLayerTableRecord
  2
47
 70
     0
 62
     7
  6
Continuous
370
    -3
390
F
  0
LAYER
  5
5C
102
{ACAD_XDICTIONARY
360
40F
102
}
330
2
100
AcDbSymbolTableRecord
100
AcDbLayerTableRecord
  2
48
 70
     0
 62
     7
  6
Continuous
370
    -3
390
F
  0
LAYER
  5
5D
102
{ACAD_XDICTIONARY
360
411
102
}
330
2
100
AcDbSymbolTableRecord
100
AcDbLayerTableRecord
  2
49
 70
     0
 62
     7
  6
Continuous
370
    -3
390
F
  0
LAYER
  5
5E
102
{ACAD_XDICTIONARY
360
413
102
}
330
2
100
AcDbSymbolTableRecord
100
AcDbLayerTableRecord
  2
50
 70
     0
 62
     7
  6
Continuous
370
    -3
390
F
  0
LAYER
  5
5F
102
{ACAD_XDICTIONARY
360
415
102
}
330
2
100
AcDbSymbolTableRecord
100
AcDbLayerTableRecord
  2
51
 70
     0
 62
     7
  6
Continuous
370
    -3
390
F
  0
LAYER
  5
60
102
{ACAD_XDICTIONARY
360
417
102
}
330
2
100
AcDbSymbolTableRecord
100
AcDbLayerTableRecord
  2
52
 70
     0
 62
     7
  6
Continuous
370
    -3
390
F
  0
LAYER
  5
61
102
{ACAD_XDICTIONARY
360
419
102
}
330
2
100
AcDbSymbolTableRecord
100
AcDbLayerTableRecord
  2
53
 70
     0
 62
     7
  6
Continuous
370
    -3
390
F
  0
LAYER
  5
62
102
{ACAD_XDICTIONARY
360
41B
102
}
330
2
100
AcDbSymbolTableRecord
100
AcDbLayerTableRecord
  2
54
 70
     0
 62
     7
  6
Continuous
370
    -3
390
F
  0
LAYER
  5
63
102
{ACAD_XDICTIONARY
360
41D
102
}
330
2
100
AcDbSymbolTableRecord
100
AcDbLayerTableRecord
  2
55
 70
     0
 62
     7
  6
Continuous
370
    -3
390
F
  0
LAYER
  5
64
102
{ACAD_XDICTIONARY
360
41F
102
}
330
2
100
AcDbSymbolTableRecord
100
AcDbLayerTableRecord
  2
56
 70
     0
 62
     7
  6
Continuous
370
    -3
390
F
  0
LAYER
  5
65
102
{ACAD_XDICTIONARY
360
421
102
}
330
2
100
AcDbSymbolTableRecord
100
AcDbLayerTableRecord
  2
57
 70
     0
 62
     7
  6
Continuous
370
    -3
390
F
  0
LAYER
  5
66
102
{ACAD_XDICTIONARY
360
423
102
}
330
2
100
AcDbSymbolTableRecord
100
AcDbLayerTableRecord
  2
58
 70
     0
 62
     7
  6
Continuous
370
    -3
390
F
  0
LAYER
  5
67
102
{ACAD_XDICTIONARY
360
425
102
}
330
2
100
AcDbSymbolTableRecord
100
AcDbLayerTableRecord
  2
59
 70
     0
 62
     7
  6
Continuous
370
    -3
390
F
  0
LAYER
  5
68
102
{ACAD_XDICTIONARY
360
427
102
}
330
2
100
AcDbSymbolTableRecord
100
AcDbLayerTableRecord
  2
60
 70
     0
 62
     7
  6
Continuous
370
    -3
390
F
  0
LAYER
  5
69
102
{ACAD_XDICTIONARY
360
429
102
}
330
2
100
AcDbSymbolTableRecord
100
AcDbLayerTableRecord
  2
61
 70
     0
 62
     7
  6
Continuous
370
    -3
390
F
  0
LAYER
  5
6A
102
{ACAD_XDICTIONARY
360
42B
102
}
330
2
100
AcDbSymbolTableRecord
100
AcDbLayerTableRecord
  2
62
 70
     0
 62
     7
  6
Continuous
370
    -3
390
F
  0
LAYER
  5
6B
102
{ACAD_XDICTIONARY
360
42D
102
}
330
2
100
AcDbSymbolTableRecord
100
AcDbLayerTableRecord
  2
63
 70
     0
 62
     7
  6
Continuous
370
    -3
390
F
  0
LAYER
  5
6C
102
{ACAD_XDICTIONARY
360
42F
102
}
330
2
100
AcDbSymbolTableRecord
100
AcDbLayerTableRecord
  2
64
 70
     0
 62
     7
  6
Continuous
370
    -3
390
F
  0
LAYER
  5
6D
102
{ACAD_XDICTIONARY
360
431
102
}
330
2
100
AcDbSymbolTableRecord
100
AcDbLayerTableRecord
  2
65
 70
     0
 62
     7
  6
Continuous
370
    -3
390
F
  0
LAYER
  5
6E
102
{ACAD_XDICTIONARY
360
433
102
}
330
2
100
AcDbSymbolTableRecord
100
AcDbLayerTableRecord
  2
66
 70
     0
 62
     7
  6
Continuous
370
    -3
390
F
  0
LAYER
  5
6F
102
{ACAD_XDICTIONARY
360
435
102
}
330
2
100
AcDbSymbolTableRecord
100
AcDbLayerTableRecord
  2
67
 70
     0
 62
     7
  6
Continuous
370
    -3
390
F
  0
LAYER
  5
70
102
{ACAD_XDICTIONARY
360
437
102
}
330
2
100
AcDbSymbolTableRecord
100
AcDbLayerTableRecord
  2
68
 70
     0
 62
     7
  6
Continuous
370
    -3
390
F
  0
LAYER
  5
71
102
{ACAD_XDICTIONARY
360
439
102
}
330
2
100
AcDbSymbolTableRecord
100
AcDbLayerTableRecord
  2
69
 70
     0
 62
     7
  6
Continuous
370
    -3
390
F
  0
LAYER
  5
72
102
{ACAD_XDICTIONARY
360
43B
102
}
330
2
100
AcDbSymbolTableRecord
100
AcDbLayerTableRecord
  2
70
 70
     0
 62
     7
  6
Continuous
370
    -3
390
F
  0
LAYER
  5
73
102
{ACAD_XDICTIONARY
360
43D
102
}
330
2
100
AcDbSymbolTableRecord
100
AcDbLayerTableRecord
  2
71
 70
     0
 62
     7
  6
Continuous
370
    -3
390
F
  0
LAYER
  5
74
102
{ACAD_XDICTIONARY
360
43F
102
}
330
2
100
AcDbSymbolTableRecord
100
AcDbLayerTableRecord
  2
72
 70
     0
 62
     7
  6
Continuous
370
    -3
390
F
  0
LAYER
  5
75
102
{ACAD_XDICTIONARY
360
441
102
}
330
2
100
AcDbSymbolTableRecord
100
AcDbLayerTableRecord
  2
73
 70
     0
 62
     7
  6
Continuous
370
    -3
390
F
  0
LAYER
  5
76
102
{ACAD_XDICTIONARY
360
443
102
}
330
2
100
AcDbSymbolTableRecord
100
AcDbLayerTableRecord
  2
74
 70
     0
 62
     7
  6
Continuous
370
    -3
390
F
  0
LAYER
  5
77
102
{ACAD_XDICTIONARY
360
445
102
}
330
2
100
AcDbSymbolTableRecord
100
AcDbLayerTableRecord
  2
75
 70
     0
 62
     7
  6
Continuous
370
    -3
390
F
  0
LAYER
  5
78
102
{ACAD_XDICTIONARY
360
447
102
}
330
2
100
AcDbSymbolTableRecord
100
AcDbLayerTableRecord
  2
76
 70
     0
 62
     7
  6
Continuous
370
    -3
390
F
  0
LAYER
  5
79
102
{ACAD_XDICTIONARY
360
449
102
}
330
2
100
AcDbSymbolTableRecord
100
AcDbLayerTableRecord
  2
77
 70
     0
 62
     7
  6
Continuous
370
    -3
390
F
  0
LAYER
  5
7A
102
{ACAD_XDICTIONARY
360
44B
102
}
330
2
100
AcDbSymbolTableRecord
100
AcDbLayerTableRecord
  2
78
 70
     0
 62
     7
  6
Continuous
370
    -3
390
F
  0
LAYER
  5
7B
102
{ACAD_XDICTIONARY
360
44D
102
}
330
2
100
AcDbSymbolTableRecord
100
AcDbLayerTableRecord
  2
79
 70
     0
 62
     7
  6
Continuous
370
    -3
390
F
  0
LAYER
  5
7C
102
{ACAD_XDICTIONARY
360
44F
102
}
330
2
100
AcDbSymbolTableRecord
100
AcDbLayerTableRecord
  2
80
 70
     0
 62
     7
  6
Continuous
370
    -3
390
F
  0
LAYER
  5
7D
102
{ACAD_XDICTIONARY
360
451
102
}
330
2
100
AcDbSymbolTableRecord
100
AcDbLayerTableRecord
  2
81
 70
     0
 62
     7
  6
Continuous
370
    -3
390
F
  0
LAYER
  5
7E
102
{ACAD_XDICTIONARY
360
453
102
}
330
2
100
AcDbSymbolTableRecord
100
AcDbLayerTableRecord
  2
82
 70
     0
 62
     7
  6
Continuous
370
    -3
390
F
  0
LAYER
  5
7F
102
{ACAD_XDICTIONARY
360
455
102
}
330
2
100
AcDbSymbolTableRecord
100
AcDbLayerTableRecord
  2
83
 70
     0
 62
     7
  6
Continuous
370
    -3
390
F
  0
LAYER
  5
80
102
{ACAD_XDICTIONARY
360
457
102
}
330
2
100
AcDbSymbolTableRecord
100
AcDbLayerTableRecord
  2
84
 70
     0
 62
     7
  6
Continuous
370
    -3
390
F
  0
LAYER
  5
81
102
{ACAD_XDICTIONARY
360
459
102
}
330
2
100
AcDbSymbolTableRecord
100
AcDbLayerTableRecord
  2
85
 70
     0
 62
     7
  6
Continuous
370
    -3
390
F
  0
LAYER
  5
82
102
{ACAD_XDICTIONARY
360
45B
102
}
330
2
100
AcDbSymbolTableRecord
100
AcDbLayerTableRecord
  2
86
 70
     0
 62
     7
  6
Continuous
370
    -3
390
F
  0
LAYER
  5
83
102
{ACAD_XDICTIONARY
360
45D
102
}
330
2
100
AcDbSymbolTableRecord
100
AcDbLayerTableRecord
  2
87
 70
     0
 62
     7
  6
Continuous
370
    -3
390
F
  0
LAYER
  5
84
102
{ACAD_XDICTIONARY
360
45F
102
}
330
2
100
AcDbSymbolTableRecord
100
AcDbLayerTableRecord
  2
88
 70
     0
 62
     7
  6
Continuous
370
    -3
390
F
  0
LAYER
  5
85
102
{ACAD_XDICTIONARY
360
461
102
}
330
2
100
AcDbSymbolTableRecord
100
AcDbLayerTableRecord
  2
89
 70
     0
 62
     7
  6
Continuous
370
    -3
390
F
  0
LAYER
  5
86
102
{ACAD_XDICTIONARY
360
463
102
}
330
2
100
AcDbSymbolTableRecord
100
AcDbLayerTableRecord
  2
90
 70
     0
 62
     7
  6
Continuous
370
    -3
390
F
  0
LAYER
  5
87
102
{ACAD_XDICTIONARY
360
465
102
}
330
2
100
AcDbSymbolTableRecord
100
AcDbLayerTableRecord
  2
91
 70
     0
 62
     7
  6
Continuous
370
    -3
390
F
  0
LAYER
  5
88
102
{ACAD_XDICTIONARY
360
467
102
}
330
2
100
AcDbSymbolTableRecord
100
AcDbLayerTableRecord
  2
92
 70
     0
 62
     7
  6
Continuous
370
    -3
390
F
  0
LAYER
  5
89
102
{ACAD_XDICTIONARY
360
469
102
}
330
2
100
AcDbSymbolTableRecord
100
AcDbLayerTableRecord
  2
93
 70
     0
 62
     7
  6
Continuous
370
    -3
390
F
  0
LAYER
  5
8A
102
{ACAD_XDICTIONARY
360
46B
102
}
330
2
100
AcDbSymbolTableRecord
100
AcDbLayerTableRecord
  2
94
 70
     0
 62
     7
  6
Continuous
370
    -3
390
F
  0
LAYER
  5
8B
102
{ACAD_XDICTIONARY
360
46D
102
}
330
2
100
AcDbSymbolTableRecord
100
AcDbLayerTableRecord
  2
95
 70
     0
 62
     7
  6
Continuous
370
    -3
390
F
  0
LAYER
  5
8C
102
{ACAD_XDICTIONARY
360
46F
102
}
330
2
100
AcDbSymbolTableRecord
100
AcDbLayerTableRecord
  2
96
 70
     0
 62
     7
  6
Continuous
370
    -3
390
F
  0
LAYER
  5
8D
102
{ACAD_XDICTIONARY
360
471
102
}
330
2
100
AcDbSymbolTableRecord
100
AcDbLayerTableRecord
  2
97
 70
     0
 62
     7
  6
Continuous
370
    -3
390
F
  0
LAYER
  5
8E
102
{ACAD_XDICTIONARY
360
473
102
}
330
2
100
AcDbSymbolTableRecord
100
AcDbLayerTableRecord
  2
98
 70
     0
 62
     7
  6
Continuous
370
    -3
390
F
  0
LAYER
  5
8F
102
{ACAD_XDICTIONARY
360
475
102
}
330
2
100
AcDbSymbolTableRecord
100
AcDbLayerTableRecord
  2
99
 70
     0
 62
     7
  6
Continuous
370
    -3
390
F
  0
LAYER
  5
90
102
{ACAD_XDICTIONARY
360
477
102
}
330
2
100
AcDbSymbolTableRecord
100
AcDbLayerTableRecord
  2
100
 70
     0
 62
     7
  6
Continuous
370
    -3
390
F
  0
LAYER
  5
91
102
{ACAD_XDICTIONARY
360
479
102
}
330
2
100
AcDbSymbolTableRecord
100
AcDbLayerTableRecord
  2
101
 70
     0
 62
     7
  6
Continuous
370
    -3
390
F
  0
LAYER
  5
92
102
{ACAD_XDICTIONARY
360
47B
102
}
330
2
100
AcDbSymbolTableRecord
100
AcDbLayerTableRecord
  2
102
 70
     0
 62
     7
  6
Continuous
370
    -3
390
F
  0
LAYER
  5
93
102
{ACAD_XDICTIONARY
360
47D
102
}
330
2
100
AcDbSymbolTableRecord
100
AcDbLayerTableRecord
  2
103
 70
     0
 62
     7
  6
Continuous
370
    -3
390
F
  0
LAYER
  5
94
102
{ACAD_XDICTIONARY
360
47F
102
}
330
2
100
AcDbSymbolTableRecord
100
AcDbLayerTableRecord
  2
104
 70
     0
 62
     7
  6
Continuous
370
    -3
390
F
  0
LAYER
  5
95
102
{ACAD_XDICTIONARY
360
481
102
}
330
2
100
AcDbSymbolTableRecord
100
AcDbLayerTableRecord
  2
105
 70
     0
 62
     7
  6
Continuous
370
    -3
390
F
  0
LAYER
  5
96
102
{ACAD_XDICTIONARY
360
483
102
}
330
2
100
AcDbSymbolTableRecord
100
AcDbLayerTableRecord
  2
106
 70
     0
 62
     7
  6
Continuous
370
    -3
390
F
  0
LAYER
  5
97
102
{ACAD_XDICTIONARY
360
485
102
}
330
2
100
AcDbSymbolTableRecord
100
AcDbLayerTableRecord
  2
107
 70
     0
 62
     7
  6
Continuous
370
    -3
390
F
  0
LAYER
  5
98
102
{ACAD_XDICTIONARY
360
487
102
}
330
2
100
AcDbSymbolTableRecord
100
AcDbLayerTableRecord
  2
108
 70
     0
 62
     7
  6
Continuous
370
    -3
390
F
  0
LAYER
  5
99
102
{ACAD_XDICTIONARY
360
489
102
}
330
2
100
AcDbSymbolTableRecord
100
AcDbLayerTableRecord
  2
109
 70
     0
 62
     7
  6
Continuous
370
    -3
390
F
  0
LAYER
  5
9A
102
{ACAD_XDICTIONARY
360
48B
102
}
330
2
100
AcDbSymbolTableRecord
100
AcDbLayerTableRecord
  2
110
 70
     0
 62
     7
  6
Continuous
370
    -3
390
F
  0
LAYER
  5
9B
102
{ACAD_XDICTIONARY
360
48D
102
}
330
2
100
AcDbSymbolTableRecord
100
AcDbLayerTableRecord
  2
111
 70
     0
 62
     7
  6
Continuous
370
    -3
390
F
  0
LAYER
  5
9C
102
{ACAD_XDICTIONARY
360
48F
102
}
330
2
100
AcDbSymbolTableRecord
100
AcDbLayerTableRecord
  2
112
 70
     0
 62
     7
  6
Continuous
370
    -3
390
F
  0
LAYER
  5
9D
102
{ACAD_XDICTIONARY
360
491
102
}
330
2
100
AcDbSymbolTableRecord
100
AcDbLayerTableRecord
  2
113
 70
     0
 62
     7
  6
Continuous
370
    -3
390
F
  0
LAYER
  5
9E
102
{ACAD_XDICTIONARY
360
493
102
}
330
2
100
AcDbSymbolTableRecord
100
AcDbLayerTableRecord
  2
114
 70
     0
 62
     7
  6
Continuous
370
    -3
390
F
  0
LAYER
  5
9F
102
{ACAD_XDICTIONARY
360
495
102
}
330
2
100
AcDbSymbolTableRecord
100
AcDbLayerTableRecord
  2
115
 70
     0
 62
     7
  6
Continuous
370
    -3
390
F
  0
LAYER
  5
A0
102
{ACAD_XDICTIONARY
360
497
102
}
330
2
100
AcDbSymbolTableRecord
100
AcDbLayerTableRecord
  2
116
 70
     0
 62
     7
  6
Continuous
370
    -3
390
F
  0
LAYER
  5
A1
102
{ACAD_XDICTIONARY
360
499
102
}
330
2
100
AcDbSymbolTableRecord
100
AcDbLayerTableRecord
  2
117
 70
     0
 62
     7
  6
Continuous
370
    -3
390
F
  0
LAYER
  5
A2
102
{ACAD_XDICTIONARY
360
49B
102
}
330
2
100
AcDbSymbolTableRecord
100
AcDbLayerTableRecord
  2
118
 70
     0
 62
     7
  6
Continuous
370
    -3
390
F
  0
LAYER
  5
A3
102
{ACAD_XDICTIONARY
360
49D
102
}
330
2
100
AcDbSymbolTableRecord
100
AcDbLayerTableRecord
  2
119
 70
     0
 62
     7
  6
Continuous
370
    -3
390
F
  0
LAYER
  5
A4
102
{ACAD_XDICTIONARY
360
49F
102
}
330
2
100
AcDbSymbolTableRecord
100
AcDbLayerTableRecord
  2
120
 70
     0
 62
     7
  6
Continuous
370
    -3
390
F
  0
LAYER
  5
A5
102
{ACAD_XDICTIONARY
360
4A1
102
}
330
2
100
AcDbSymbolTableRecord
100
AcDbLayerTableRecord
  2
121
 70
     0
 62
     7
  6
Continuous
370
    -3
390
F
  0
LAYER
  5
A6
102
{ACAD_XDICTIONARY
360
4A3
102
}
330
2
100
AcDbSymbolTableRecord
100
AcDbLayerTableRecord
  2
122
 70
     0
 62
     7
  6
Continuous
370
    -3
390
F
  0
LAYER
  5
A7
102
{ACAD_XDICTIONARY
360
4A5
102
}
330
2
100
AcDbSymbolTableRecord
100
AcDbLayerTableRecord
  2
123
 70
     0
 62
     7
  6
Continuous
370
    -3
390
F
  0
LAYER
  5
A8
102
{ACAD_XDICTIONARY
360
4A7
102
}
330
2
100
AcDbSymbolTableRecord
100
AcDbLayerTableRecord
  2
124
 70
     0
 62
     7
  6
Continuous
370
    -3
390
F
  0
LAYER
  5
A9
102
{ACAD_XDICTIONARY
360
4A9
102
}
330
2
100
AcDbSymbolTableRecord
100
AcDbLayerTableRecord
  2
125
 70
     0
 62
     7
  6
Continuous
370
    -3
390
F
  0
LAYER
  5
AA
102
{ACAD_XDICTIONARY
360
4AB
102
}
330
2
100
AcDbSymbolTableRecord
100
AcDbLayerTableRecord
  2
126
 70
     0
 62
     7
  6
Continuous
370
    -3
390
F
  0
LAYER
  5
AB
102
{ACAD_XDICTIONARY
360
4AD
102
}
330
2
100
AcDbSymbolTableRecord
100
AcDbLayerTableRecord
  2
127
 70
     0
 62
     7
  6
Continuous
370
    -3
390
F
  0
LAYER
  5
AC
102
{ACAD_XDICTIONARY
360
4AF
102
}
330
2
100
AcDbSymbolTableRecord
100
AcDbLayerTableRecord
  2
128
 70
     0
 62
     7
  6
Continuous
370
    -3
390
F
  0
LAYER
  5
AD
102
{ACAD_XDICTIONARY
360
4B1
102
}
330
2
100
AcDbSymbolTableRecord
100
AcDbLayerTableRecord
  2
129
 70
     0
 62
     7
  6
Continuous
370
    -3
390
F
  0
LAYER
  5
AE
102
{ACAD_XDICTIONARY
360
4B3
102
}
330
2
100
AcDbSymbolTableRecord
100
AcDbLayerTableRecord
  2
130
 70
     0
 62
     7
  6
Continuous
370
    -3
390
F
  0
LAYER
  5
AF
102
{ACAD_XDICTIONARY
360
4B5
102
}
330
2
100
AcDbSymbolTableRecord
100
AcDbLayerTableRecord
  2
131
 70
     0
 62
     7
  6
Continuous
370
    -3
390
F
  0
LAYER
  5
B0
102
{ACAD_XDICTIONARY
360
4B7
102
}
330
2
100
AcDbSymbolTableRecord
100
AcDbLayerTableRecord
  2
132
 70
     0
 62
     7
  6
Continuous
370
    -3
390
F
  0
LAYER
  5
B1
102
{ACAD_XDICTIONARY
360
4B9
102
}
330
2
100
AcDbSymbolTableRecord
100
AcDbLayerTableRecord
  2
133
 70
     0
 62
     7
  6
Continuous
370
    -3
390
F
  0
LAYER
  5
B2
102
{ACAD_XDICTIONARY
360
4BB
102
}
330
2
100
AcDbSymbolTableRecord
100
AcDbLayerTableRecord
  2
134
 70
     0
 62
     7
  6
Continuous
370
    -3
390
F
  0
LAYER
  5
B3
102
{ACAD_XDICTIONARY
360
4BD
102
}
330
2
100
AcDbSymbolTableRecord
100
AcDbLayerTableRecord
  2
135
 70
     0
 62
     7
  6
Continuous
370
    -3
390
F
  0
LAYER
  5
B4
102
{ACAD_XDICTIONARY
360
4BF
102
}
330
2
100
AcDbSymbolTableRecord
100
AcDbLayerTableRecord
  2
136
 70
     0
 62
     7
  6
Continuous
370
    -3
390
F
  0
LAYER
  5
B5
102
{ACAD_XDICTIONARY
360
4C1
102
}
330
2
100
AcDbSymbolTableRecord
100
AcDbLayerTableRecord
  2
137
 70
     0
 62
     7
  6
Continuous
370
    -3
390
F
  0
LAYER
  5
B6
102
{ACAD_XDICTIONARY
360
4C3
102
}
330
2
100
AcDbSymbolTableRecord
100
AcDbLayerTableRecord
  2
138
 70
     0
 62
     7
  6
Continuous
370
    -3
390
F
  0
LAYER
  5
B7
102
{ACAD_XDICTIONARY
360
4C5
102
}
330
2
100
AcDbSymbolTableRecord
100
AcDbLayerTableRecord
  2
139
 70
     0
 62
     7
  6
Continuous
370
    -3
390
F
  0
LAYER
  5
B8
102
{ACAD_XDICTIONARY
360
4C7
102
}
330
2
100
AcDbSymbolTableRecord
100
AcDbLayerTableRecord
  2
140
 70
     0
 62
     7
  6
Continuous
370
    -3
390
F
  0
LAYER
  5
B9
102
{ACAD_XDICTIONARY
360
4C9
102
}
330
2
100
AcDbSymbolTableRecord
100
AcDbLayerTableRecord
  2
141
 70
     0
 62
     7
  6
Continuous
370
    -3
390
F
  0
LAYER
  5
BA
102
{ACAD_XDICTIONARY
360
4CB
102
}
330
2
100
AcDbSymbolTableRecord
100
AcDbLayerTableRecord
  2
142
 70
     0
 62
     7
  6
Continuous
370
    -3
390
F
  0
LAYER
  5
BB
102
{ACAD_XDICTIONARY
360
4CD
102
}
330
2
100
AcDbSymbolTableRecord
100
AcDbLayerTableRecord
  2
143
 70
     0
 62
     7
  6
Continuous
370
    -3
390
F
  0
LAYER
  5
BC
102
{ACAD_XDICTIONARY
360
4CF
102
}
330
2
100
AcDbSymbolTableRecord
100
AcDbLayerTableRecord
  2
144
 70
     0
 62
     7
  6
Continuous
370
    -3
390
F
  0
LAYER
  5
BD
102
{ACAD_XDICTIONARY
360
4D1
102
}
330
2
100
AcDbSymbolTableRecord
100
AcDbLayerTableRecord
  2
145
 70
     0
 62
     7
  6
Continuous
370
    -3
390
F
  0
LAYER
  5
BE
102
{ACAD_XDICTIONARY
360
4D3
102
}
330
2
100
AcDbSymbolTableRecord
100
AcDbLayerTableRecord
  2
146
 70
     0
 62
     7
  6
Continuous
370
    -3
390
F
  0
LAYER
  5
BF
102
{ACAD_XDICTIONARY
360
4D5
102
}
330
2
100
AcDbSymbolTableRecord
100
AcDbLayerTableRecord
  2
147
 70
     0
 62
     7
  6
Continuous
370
    -3
390
F
  0
LAYER
  5
C0
102
{ACAD_XDICTIONARY
360
4D7
102
}
330
2
100
AcDbSymbolTableRecord
100
AcDbLayerTableRecord
  2
148
 70
     0
 62
     7
  6
Continuous
370
    -3
390
F
  0
LAYER
  5
C1
102
{ACAD_XDICTIONARY
360
4D9
102
}
330
2
100
AcDbSymbolTableRecord
100
AcDbLayerTableRecord
  2
149
 70
     0
 62
     7
  6
Continuous
370
    -3
390
F
  0
LAYER
  5
C2
102
{ACAD_XDICTIONARY
360
4DB
102
}
330
2
100
AcDbSymbolTableRecord
100
AcDbLayerTableRecord
  2
150
 70
     0
 62
     7
  6
Continuous
370
    -3
390
F
  0
LAYER
  5
C3
102
{ACAD_XDICTIONARY
360
4DD
102
}
330
2
100
AcDbSymbolTableRecord
100
AcDbLayerTableRecord
  2
151
 70
     0
 62
     7
  6
Continuous
370
    -3
390
F
  0
LAYER
  5
C4
102
{ACAD_XDICTIONARY
360
4DF
102
}
330
2
100
AcDbSymbolTableRecord
100
AcDbLayerTableRecord
  2
152
 70
     0
 62
     7
  6
Continuous
370
    -3
390
F
  0
LAYER
  5
C5
102
{ACAD_XDICTIONARY
360
4E1
102
}
330
2
100
AcDbSymbolTableRecord
100
AcDbLayerTableRecord
  2
153
 70
     0
 62
     7
  6
Continuous
370
    -3
390
F
  0
LAYER
  5
C6
102
{ACAD_XDICTIONARY
360
4E3
102
}
330
2
100
AcDbSymbolTableRecord
100
AcDbLayerTableRecord
  2
154
 70
     0
 62
     7
  6
Continuous
370
    -3
390
F
  0
LAYER
  5
C7
102
{ACAD_XDICTIONARY
360
4E5
102
}
330
2
100
AcDbSymbolTableRecord
100
AcDbLayerTableRecord
  2
155
 70
     0
 62
     7
  6
Continuous
370
    -3
390
F
  0
LAYER
  5
C8
102
{ACAD_XDICTIONARY
360
4E7
102
}
330
2
100
AcDbSymbolTableRecord
100
AcDbLayerTableRecord
  2
156
 70
     0
 62
     7
  6
Continuous
370
    -3
390
F
  0
LAYER
  5
C9
102
{ACAD_XDICTIONARY
360
4E9
102
}
330
2
100
AcDbSymbolTableRecord
100
AcDbLayerTableRecord
  2
157
 70
     0
 62
     7
  6
Continuous
370
    -3
390
F
  0
LAYER
  5
CA
102
{ACAD_XDICTIONARY
360
4EB
102
}
330
2
100
AcDbSymbolTableRecord
100
AcDbLayerTableRecord
  2
158
 70
     0
 62
     7
  6
Continuous
370
    -3
390
F
  0
LAYER
  5
CB
102
{ACAD_XDICTIONARY
360
4ED
102
}
330
2
100
AcDbSymbolTableRecord
100
AcDbLayerTableRecord
  2
159
 70
     0
 62
     7
  6
Continuous
370
    -3
390
F
  0
LAYER
  5
CC
102
{ACAD_XDICTIONARY
360
4EF
102
}
330
2
100
AcDbSymbolTableRecord
100
AcDbLayerTableRecord
  2
160
 70
     0
 62
     7
  6
Continuous
370
    -3
390
F
  0
LAYER
  5
CD
102
{ACAD_XDICTIONARY
360
4F1
102
}
330
2
100
AcDbSymbolTableRecord
100
AcDbLayerTableRecord
  2
161
 70
     0
 62
     7
  6
Continuous
370
    -3
390
F
  0
LAYER
  5
CE
102
{ACAD_XDICTIONARY
360
4F3
102
}
330
2
100
AcDbSymbolTableRecord
100
AcDbLayerTableRecord
  2
162
 70
     0
 62
     7
  6
Continuous
370
    -3
390
F
  0
LAYER
  5
CF
102
{ACAD_XDICTIONARY
360
4F5
102
}
330
2
100
AcDbSymbolTableRecord
100
AcDbLayerTableRecord
  2
163
 70
     0
 62
     7
  6
Continuous
370
    -3
390
F
  0
LAYER
  5
D0
102
{ACAD_XDICTIONARY
360
4F7
102
}
330
2
100
AcDbSymbolTableRecord
100
AcDbLayerTableRecord
  2
164
 70
     0
 62
     7
  6
Continuous
370
    -3
390
F
  0
LAYER
  5
D1
102
{ACAD_XDICTIONARY
360
4F9
102
}
330
2
100
AcDbSymbolTableRecord
100
AcDbLayerTableRecord
  2
165
 70
     0
 62
     7
  6
Continuous
370
    -3
390
F
  0
LAYER
  5
D2
102
{ACAD_XDICTIONARY
360
4FB
102
}
330
2
100
AcDbSymbolTableRecord
100
AcDbLayerTableRecord
  2
166
 70
     0
 62
     7
  6
Continuous
370
    -3
390
F
  0
LAYER
  5
D3
102
{ACAD_XDICTIONARY
360
4FD
102
}
330
2
100
AcDbSymbolTableRecord
100
AcDbLayerTableRecord
  2
167
 70
     0
 62
     7
  6
Continuous
370
    -3
390
F
  0
LAYER
  5
D4
102
{ACAD_XDICTIONARY
360
4FF
102
}
330
2
100
AcDbSymbolTableRecord
100
AcDbLayerTableRecord
  2
168
 70
     0
 62
     7
  6
Continuous
370
    -3
390
F
  0
LAYER
  5
D5
102
{ACAD_XDICTIONARY
360
501
102
}
330
2
100
AcDbSymbolTableRecord
100
AcDbLayerTableRecord
  2
169
 70
     0
 62
     7
  6
Continuous
370
    -3
390
F
  0
LAYER
  5
D6
102
{ACAD_XDICTIONARY
360
503
102
}
330
2
100
AcDbSymbolTableRecord
100
AcDbLayerTableRecord
  2
170
 70
     0
 62
     7
  6
Continuous
370
    -3
390
F
  0
LAYER
  5
D7
102
{ACAD_XDICTIONARY
360
505
102
}
330
2
100
AcDbSymbolTableRecord
100
AcDbLayerTableRecord
  2
171
 70
     0
 62
     7
  6
Continuous
370
    -3
390
F
  0
LAYER
  5
D8
102
{ACAD_XDICTIONARY
360
507
102
}
330
2
100
AcDbSymbolTableRecord
100
AcDbLayerTableRecord
  2
172
 70
     0
 62
     7
  6
Continuous
370
    -3
390
F
  0
LAYER
  5
D9
102
{ACAD_XDICTIONARY
360
509
102
}
330
2
100
AcDbSymbolTableRecord
100
AcDbLayerTableRecord
  2
173
 70
     0
 62
     7
  6
Continuous
370
    -3
390
F
  0
LAYER
  5
DA
102
{ACAD_XDICTIONARY
360
50B
102
}
330
2
100
AcDbSymbolTableRecord
100
AcDbLayerTableRecord
  2
174
 70
     0
 62
     7
  6
Continuous
370
    -3
390
F
  0
LAYER
  5
DB
102
{ACAD_XDICTIONARY
360
50D
102
}
330
2
100
AcDbSymbolTableRecord
100
AcDbLayerTableRecord
  2
175
 70
     0
 62
     7
  6
Continuous
370
    -3
390
F
  0
LAYER
  5
DC
102
{ACAD_XDICTIONARY
360
50F
102
}
330
2
100
AcDbSymbolTableRecord
100
AcDbLayerTableRecord
  2
176
 70
     0
 62
     7
  6
Continuous
370
    -3
390
F
  0
LAYER
  5
DD
102
{ACAD_XDICTIONARY
360
511
102
}
330
2
100
AcDbSymbolTableRecord
100
AcDbLayerTableRecord
  2
177
 70
     0
 62
     7
  6
Continuous
370
    -3
390
F
  0
LAYER
  5
DE
102
{ACAD_XDICTIONARY
360
513
102
}
330
2
100
AcDbSymbolTableRecord
100
AcDbLayerTableRecord
  2
178
 70
     0
 62
     7
  6
Continuous
370
    -3
390
F
  0
LAYER
  5
DF
102
{ACAD_XDICTIONARY
360
515
102
}
330
2
100
AcDbSymbolTableRecord
100
AcDbLayerTableRecord
  2
179
 70
     0
 62
     7
  6
Continuous
370
    -3
390
F
  0
LAYER
  5
E0
102
{ACAD_XDICTIONARY
360
517
102
}
330
2
100
AcDbSymbolTableRecord
100
AcDbLayerTableRecord
  2
180
 70
     0
 62
     7
  6
Continuous
370
    -3
390
F
  0
LAYER
  5
E1
102
{ACAD_XDICTIONARY
360
519
102
}
330
2
100
AcDbSymbolTableRecord
100
AcDbLayerTableRecord
  2
DRAFTING_HIDDEN_ENTITIES
 70
     1
 62
     7
  6
Continuous
370
    -3
390
F
  0
ENDTAB
  0
TABLE
  2
STYLE
  5
3
330
0
100
AcDbSymbolTable
 70
     4
  0
STYLE
  5
11
330
3
100
AcDbSymbolTableRecord
100
AcDbTextStyleTableRecord
  2
STANDARD
 70
     0
 40
0.0
 41
1.0
 50
0.0
 71
     0
 42
1.0
  3
monotxt.shx
  4
bigfont.shx
  0
STYLE
  5
38E
330
3
100
AcDbSymbolTableRecord
100
AcDbTextStyleTableRecord
  2

 70
     1
 40
0.0
 41
1.0
 50
0.0
 71
     0
 42
1.0
  3
genltshp.shx
  4

  0
STYLE
  5
39E
330
3
100
AcDbSymbolTableRecord
100
AcDbTextStyleTableRecord
  2
ACANSTS
 70
     0
 40
1.0
 41
1.0
 50
0.0
 71
     0
 42
1.0
  3
romans.shx
  4

  0
STYLE
  5
39F
330
3
100
AcDbSymbolTableRecord
100
AcDbTextStyleTableRecord
  2
ACANSGDT
 70
     0
 40
0.0
 41
1.0
 50
0.0
 71
     0
 42
1.0
  3
amgdt.shx
  4

  0
ENDTAB
  0
TABLE
  2
VIEW
  5
6
330
0
100
AcDbSymbolTable
 70
     0
  0
ENDTAB
  0
TABLE
  2
UCS
  5
7
330
0
100
AcDbSymbolTable
 70
     0
  0
ENDTAB
  0
TABLE
  2
APPID
  5
9
330
0
100
AcDbSymbolTable
 70
    15
  0
APPID
  5
12
330
9
100
AcDbSymbolTableRecord
100
AcDbRegAppTableRecord
  2
ACAD
 70
     0
  0
APPID
  5
312
330
9
100
AcDbSymbolTableRecord
100
AcDbRegAppTableRecord
  2
MCAD_NO_VIS
 70
     0
  0
APPID
  5
313
330
9
100
AcDbSymbolTableRecord
100
AcDbRegAppTableRecord
  2
ACAD_TEMP_GRAPHIC
 70
     0
  0
APPID
  5
340
330
9
100
AcDbSymbolTableRecord
100
AcDbRegAppTableRecord
  2
AD_DRAW
 70
     0
  0
APPID
  5
343
330
9
100
AcDbSymbolTableRecord
100
AcDbRegAppTableRecord
  2
ACATTRIBSERVICES
 70
     0
  0
APPID
  5
367
330
9
100
AcDbSymbolTableRecord
100
AcDbRegAppTableRecord
  2
DESIGNERASSEMBLIES
 70
     0
  0
APPID
  5
36D
330
9
100
AcDbSymbolTableRecord
100
AcDbRegAppTableRecord
  2
ACADM_DIM_EDIT
 70
     0
  0
APPID
  5
36E
330
9
100
AcDbSymbolTableRecord
100
AcDbRegAppTableRecord
  2
AMDT_DM_ADJ
 70
     0
  0
APPID
  5
384
330
9
100
AcDbSymbolTableRecord
100
AcDbRegAppTableRecord
  2
ACAD_DSTYLE_DIMJAG
 70
     0
  0
APPID
  5
385
330
9
100
AcDbSymbolTableRecord
100
AcDbRegAppTableRecord
  2
ACAD_DSTYLE_DIMBREAK
 70
     0
  0
APPID
  5
552
330
9
100
AcDbSymbolTableRecord
100
AcDbRegAppTableRecord
  2
ACAD_MLEADERVER
 70
     0
  0
APPID
  5
553
330
9
100
AcDbSymbolTableRecord
100
AcDbRegAppTableRecord
  2
ACAD_DSTYLE_DIMARC_LENGTH_SYMBOL
 70
     0
  0
APPID
  5
554
330
9
100
AcDbSymbolTableRecord
100
AcDbRegAppTableRecord
  2
ACAD_DSTYLE_DIM_LINETYPE
 70
     0
  0
APPID
  5
555
330
9
100
AcDbSymbolTableRecord
100
AcDbRegAppTableRecord
  2
ACAD_DSTYLE_DIM_EXT1_LINETYPE
 70
     0
  0
APPID
  5
556
330
9
100
AcDbSymbolTableRecord
100
AcDbRegAppTableRecord
  2
ACAD_DSTYLE_DIM_EXT2_LINETYPE
 70
     0
  0
ENDTAB
  0
TABLE
  2
DIMSTYLE
  5
A
330
0
100
AcDbSymbolTable
 70
     9
100
AcDbDimStyleTable
 71
     0
  0
DIMSTYLE
105
E2
330
A
100
AcDbSymbolTableRecord
100
AcDbDimStyleTableRecord
  2
DSTYLE1
 70
     0
 41
0.125
 42
0.075
 44
0.125
 45
0.001
 47
0.005
 48
0.005
 75
     1
 76
     1
 78
     7
140
0.125
147
0.075
271
     3
272
     3
274
     0
279
     2
340
11
  0
DIMSTYLE
105
E3
330
A
100
AcDbSymbolTableRecord
100
AcDbDimStyleTableRecord
  2
DSTYLE2
 70
     0
 41
0.125
 44
0.125
 45
0.001
 47
0.005
 48
0.005
 75
     1
 78
     7
140
0.125
147
0.0625
271
     3
272
     3
274
     0
279
     2
340
11
  0
DIMSTYLE
105
E4
102
{ACAD_REACTORS
330
13E
102
}
330
A
100
AcDbSymbolTableRecord
100
AcDbDimStyleTableRecord
  2
DSTYLE3
 70
     0
 41
0.125
 44
0.125
 45
0.001
 47
0.031
 48
0.062
 71
     1
 78
     7
140
0.125
147
0.0625
271
     3
272
     3
274
     0
279
     2
340
11
  0
DIMSTYLE
105
383
102
{ACAD_REACTORS
330
373
102
}
330
A
100
AcDbSymbolTableRecord
100
AcDbDimStyleTableRecord
  2
AM_ANSI
 70
     0
  4
mm
 41
0.12
 42
0.05
 43
0.5
 44
0.1
 47
0.1
 48
0.1
 78
     7
 79
     2
140
0.12
141
0.0
146
0.71
147
0.06
176
   256
177
   256
178
     2
274
     4
284
     7
340
11
371
    -1
372
    -1
1001
ACAD_DSTYLE_DIMJAG
1070
   388
1040
1.5
1001
ACAD_DSTYLE_DIMBREAK
1070
   391
1040
0.125
1001
ACAD_DSTYLE_DIMARC_LENGTH_SYMBOL
1070
   379
1070
     1
1001
ACAD_DSTYLE_DIM_LINETYPE
1070
   380
1005
13
1001
ACAD_DSTYLE_DIM_EXT1_LINETYPE
1070
   381
1005
13
1001
ACAD_DSTYLE_DIM_EXT2_LINETYPE
1070
   382
1005
13
  0
DIMSTYLE
105
393
330
A
100
AcDbSymbolTableRecord
100
AcDbDimStyleTableRecord
  2
AM_ANSI$3
 70
     0
  4
mm
 41
0.12
 42
0.05
 43
0.5
 44
0.1
 47
0.1
 48
0.1
 78
     7
 79
     2
140
0.12
141
0.0
146
0.71
147
0.06
176
   256
177
   256
178
     2
274
     4
284
     7
288
     1
289
     0
340
11
371
    -1
372
    -1
1001
ACAD_DSTYLE_DIMBREAK
1070
   391
1040
0.125
1001
ACAD_DSTYLE_DIMJAG
1070
   388
1040
1.5
1001
ACAD_DSTYLE_DIMARC_LENGTH_SYMBOL
1070
   379
1070
     1
1001
ACAD_DSTYLE_DIM_LINETYPE
1070
   380
1005
13
1001
ACAD_DSTYLE_DIM_EXT1_LINETYPE
1070
   381
1005
13
1001
ACAD_DSTYLE_DIM_EXT2_LINETYPE
1070
   382
1005
13
  0
DIMSTYLE
105
394
330
A
100
AcDbSymbolTableRecord
100
AcDbDimStyleTableRecord
  2
AM_ANSI$4
 70
     0
  4
mm
 41
0.12
 42
0.05
 43
0.5
 44
0.1
 47
0.1
 48
0.1
 78
     7
 79
     2
140
0.12
141
0.0
146
0.71
147
0.06
176
   256
177
   256
178
     2
274
     4
284
     7
288
     1
289
     0
340
11
371
    -1
372
    -1
1001
ACAD_DSTYLE_DIMBREAK
1070
   391
1040
0.125
1001
ACAD_DSTYLE_DIMJAG
1070
   388
1040
1.5
1001
ACAD_DSTYLE_DIMARC_LENGTH_SYMBOL
1070
   379
1070
     1
1001
ACAD_DSTYLE_DIM_LINETYPE
1070
   380
1005
13
1001
ACAD_DSTYLE_DIM_EXT1_LINETYPE
1070
   381
1005
13
1001
ACAD_DSTYLE_DIM_EXT2_LINETYPE
1070
   382
1005
13
  0
DIMSTYLE
105
395
330
A
100
AcDbSymbolTableRecord
100
AcDbDimStyleTableRecord
  2
AM_ANSI$7
 70
     0
  4
mm
 41
0.12
 42
0.05
 43
0.5
 44
0.1
 47
0.1
 48
0.1
 78
     7
 79
     2
140
0.12
141
0.0
146
0.71
147
0.06
176
   256
177
   256
178
     2
274
     4
284
     7
340
11
371
    -1
372
    -1
1001
ACAD_DSTYLE_DIMBREAK
1070
   391
1040
0.125
1001
ACAD_DSTYLE_DIMJAG
1070
   388
1040
1.5
1001
ACAD_DSTYLE_DIMARC_LENGTH_SYMBOL
1070
   379
1070
     1
1001
ACAD_DSTYLE_DIM_LINETYPE
1070
   380
1005
13
1001
ACAD_DSTYLE_DIM_EXT1_LINETYPE
1070
   381
1005
13
1001
ACAD_DSTYLE_DIM_EXT2_LINETYPE
1070
   382
1005
13
  0
DIMSTYLE
105
396
330
A
100
AcDbSymbolTableRecord
100
AcDbDimStyleTableRecord
  2
AM_ANSI$SF
 70
     0
  4
mm
 41
0.12
 42
0.05
 43
0.5
 44
0.1
 47
0.1
 48
0.1
 75
     1
 76
     1
 78
     7
 79
     2
140
0.12
141
0.0
146
0.71
147
0.06
176
   256
177
   256
178
     2
274
     4
284
     7
340
11
371
    -1
372
    -1
1001
ACAD_DSTYLE_DIMBREAK
1070
   391
1040
0.125
1001
ACAD_DSTYLE_DIMJAG
1070
   388
1040
1.5
1001
ACAD_DSTYLE_DIMARC_LENGTH_SYMBOL
1070
   379
1070
     1
1001
ACAD_DSTYLE_DIM_LINETYPE
1070
   380
1005
13
1001
ACAD_DSTYLE_DIM_EXT1_LINETYPE
1070
   381
1005
13
1001
ACAD_DSTYLE_DIM_EXT2_LINETYPE
1070
   382
1005
13
  0
DIMSTYLE
105
39B
330
A
100
AcDbSymbolTableRecord
100
AcDbDimStyleTableRecord
  2
AM_ANSI$SH
 70
     0
  4
mm
 41
0.12
 42
0.05
 43
0.5
 44
0.1
 47
0.1
 48
0.1
 75
     1
 76
     1
 78
     7
 79
     2
140
0.12
141
0.0
146
0.71
147
0.06
173
     1
176
   256
177
   256
178
     2
274
     4
284
     7
340
11
343
397
371
    -1
372
    -1
1001
ACAD_DSTYLE_DIMBREAK
1070
   391
1040
0.125
1001
ACAD_DSTYLE_DIMJAG
1070
   388
1040
1.5
1001
ACAD_DSTYLE_DIMARC_LENGTH_SYMBOL
1070
   379
1070
     1
1001
ACAD_DSTYLE_DIM_LINETYPE
1070
   380
1005
13
1001
ACAD_DSTYLE_DIM_EXT1_LINETYPE
1070
   381
1005
13
1001
ACAD_DSTYLE_DIM_EXT2_LINETYPE
1070
   382
1005
13
  0
ENDTAB
  0
TABLE
  2
BLOCK_RECORD
  5
1
330
0
100
AcDbSymbolTable
 70
    12
  0
BLOCK_RECORD
  5
22
330
1
100
AcDbSymbolTableRecord
100
AcDbBlockTableRecord
  2
*Model_Space
340
25
  0
BLOCK_RECORD
  5
1E
330
1
100
AcDbSymbolTableRecord
100
AcDbBlockTableRecord
  2
*Paper_Space
340
21
  0
BLOCK_RECORD
  5
E8
330
1
100
AcDbSymbolTableRecord
100
AcDbBlockTableRecord
  2
*U0
340
0
102
{BLKREFS
331
138
102
}
  0
BLOCK_RECORD
  5
F0
330
1
100
AcDbSymbolTableRecord
100
AcDbBlockTableRecord
  2
*U1
340
0
102
{BLKREFS
331
13A
102
}
  0
BLOCK_RECORD
  5
F5
330
1
100
AcDbSymbolTableRecord
100
AcDbBlockTableRecord
  2
*U2
340
0
102
{BLKREFS
331
1C3
102
}
  0
BLOCK_RECORD
  5
FD
330
1
100
AcDbSymbolTableRecord
100
AcDbBlockTableRecord
  2
*U3
340
0
102
{BLKREFS
331
13B
102
}
  0
BLOCK_RECORD
  5
102
330
1
100
AcDbSymbolTableRecord
100
AcDbBlockTableRecord
  2
*U4
340
0
102
{BLKREFS
331
10C
102
}
  0
BLOCK_RECORD
  5
10A
330
1
100
AcDbSymbolTableRecord
100
AcDbBlockTableRecord
  2
FIT
340
0
  0
BLOCK_RECORD
  5
10E
330
1
100
AcDbSymbolTableRecord
100
AcDbBlockTableRecord
  2
*U6
340
0
102
{BLKREFS
331
22E
102
}
  0
BLOCK_RECORD
  5
113
330
1
100
AcDbSymbolTableRecord
100
AcDbBlockTableRecord
  2
*D7
340
0
102
{BLKREFS
331
139
102
}
  0
BLOCK_RECORD
  5
118
330
1
100
AcDbSymbolTableRecord
100
AcDbBlockTableRecord
  2
*D8
340
0
102
{BLKREFS
331
13D
102
}
  0
BLOCK_RECORD
  5
121
330
1
100
AcDbSymbolTableRecord
100
AcDbBlockTableRecord
  2
*D9
340
0
  0
BLOCK_RECORD
  5
397
330
1
100
AcDbSymbolTableRecord
100
AcDbBlockTableRecord
  2
GENAXEH
340
0
  0
ENDTAB
  0
ENDSEC
  0
SECTION
  2
BLOCKS
  0
BLOCK
  5
23
330
22
100
AcDbEntity
  8
0
100
AcDbBlockBegin
  2
*Model_Space
 70
     0
 10
0.0
 20
0.0
 30
0.0
  3
*Model_Space
  1

  0
ENDBLK
  5
24
330
22
100
AcDbEntity
  8
0
100
AcDbBlockEnd
  0
BLOCK
  5
1F
330
1E
100
AcDbEntity
 67
     1
  8
0
100
AcDbBlockBegin
  2
*Paper_Space
 70
     0
 10
0.0
 20
0.0
 30
0.0
  3
*Paper_Space
  1

  0
ENDBLK
  5
20
330
1E
100
AcDbEntity
 67
     1
  8
0
100
AcDbBlockEnd
  0
BLOCK
  5
E9
330
E8
100
AcDbEntity
  8
0
100
AcDbBlockBegin
  2
*U0
 70
     1
 10
0.0
 20
0.0
 30
0.0
  3
*U0
  1

  0
TEXT
  5
EA
330
E8
100
AcDbEntity
  8
126
  6
Continuous
 62
     3
100
AcDbText
 10
0.0
 20
0.0
 30
0.0
 40
0.175
  1
NOTE:
 41
0.9545454599999999
 51
359.9999958057
100
AcDbText
  0
TEXT
  5
EB
330
E8
100
AcDbEntity
  8
126
  6
Continuous
 62
     3
100
AcDbText
 10
0.0
 20
-0.2625
 30
0.0
 40
0.175
  1
 
 41
0.9545454599999999
 51
359.9999958057
100
AcDbText
  0
TEXT
  5
EC
330
E8
100
AcDbEntity
  8
126
  6
Continuous
 62
     3
100
AcDbText
 10
0.0
 20
-0.525
 30
0.0
 40
0.175
  1
DIMENSIONS ARE FOR COSTING ONLY.
 41
0.9545454599999999
 51
359.9999958057
100
AcDbText
  0
TEXT
  5
ED
330
E8
100
AcDbEntity
  8
126
  6
Continuous
 62
     3
100
AcDbText
 10
0.0
 20
-0.7875
 30
0.0
 40
0.175
  1
SAMPLES SHOULD BE CHECKED FOR
 41
0.9545454599999999
 51
359.9999958057
100
AcDbText
  0
TEXT
  5
EE
330
E8
100
AcDbEntity
  8
126
  6
Continuous
 62
     3
100
AcDbText
 10
0.0
 20
-1.05
 30
0.0
 40
0.175
  1
FINAL FIT.
 41
0.9545454599999999
 51
359.9999958057
100
AcDbText
  0
ENDBLK
  5
EF
330
E8
100
AcDbEntity
  8
0
100
AcDbBlockEnd
  0
BLOCK
  5
F1
330
F0
100
AcDbEntity
  8
0
100
AcDbBlockBegin
  2
*U1
 70
     1
 10
0.0
 20
0.0
 30
0.0
  3
*U1
  1

  0
TEXT
  5
F2
330
F0
100
AcDbEntity
  8
126
  6
Continuous
 62
     3
100
AcDbText
 10
-0.6633333333333333
 20
0.0
 30
0.0
 40
0.1
  1
32-ECT E-FLUTE
 72
     1
 11
0.0
 21
0.0
 31
0.0
100
AcDbText
  0
TEXT
  5
F3
330
F0
100
AcDbEntity
  8
126
  6
Continuous
 62
     3
100
AcDbText
 10
-0.7433333333333336
 20
-0.15
 30
0.0
 40
0.1
  1
KRAFT BOTH SIDES
 72
     1
 11
0.0
 21
-0.15
 31
0.0
100
AcDbText
  0
ENDBLK
  5
F4
330
F0
100
AcDbEntity
  8
0
100
AcDbBlockEnd
  0
BLOCK
  5
F6
330
F5
100
AcDbEntity
  8
0
100
AcDbBlockBegin
  2
*U2
 70
     1
 10
0.0
 20
0.0
 30
0.0
  3
*U2
  1

  0
TEXT
  5
F7
330
F5
100
AcDbEntity
  8
126
  6
Continuous
 62
     3
100
AcDbText
 10
0.0
 20
0.0
 30
0.0
 40
0.06053
  1
THIS PRINT IS THE PROPERTY OF ELKAY MANUFACTURING COMPANY
 41
1.0344828
 51
9.9999944
100
AcDbText
  0
TEXT
  5
F8
330
F5
100
AcDbEntity
  8
126
  6
Continuous
 62
     3
100
AcDbText
 10
0.0
 20
-0.10553
 30
0.0
 40
0.06053
  1
AND IS LOANED SUBJECT TO RETURN UPON DEMAND AND UPON THE
 41
1.0344828
 51
9.9999944
100
AcDbText
  0
TEXT
  5
F9
330
F5
100
AcDbEntity
  8
126
  6
Continuous
 62
     3
100
AcDbText
 10
0.0
 20
-0.21106
 30
0.0
 40
0.06053
  1
EXPRESS CONDITION THAT IT IS NOT TO BE USED DIRECTLY OR
 41
1.0344828
 51
9.9999944
100
AcDbText
  0
TEXT
  5
FA
330
F5
100
AcDbEntity
  8
126
  6
Continuous
 62
     3
100
AcDbText
 10
0.0
 20
-0.31659
 30
0.0
 40
0.06053
  1
INDIRECTLY WITHOUT OUR PERMISSION FOR PURPOSES OTHER THAN
 41
1.0344828
 51
9.9999944
100
AcDbText
  0
TEXT
  5
FB
330
F5
100
AcDbEntity
  8
126
  6
Continuous
 62
     3
100
AcDbText
 10
0.0
 20
-0.42212
 30
0.0
 40
0.06053
  1
THOSE FOR WHICH IT WAS FURNISHED.
 41
1.0344828
 51
9.9999944
100
AcDbText
  0
ENDBLK
  5
FC
330
F5
100
AcDbEntity
  8
0
100
AcDbBlockEnd
  0
BLOCK
  5
FE
330
FD
100
AcDbEntity
  8
0
100
AcDbBlockBegin
  2
*U3
 70
     1
 10
0.0
 20
0.0
 30
0.0
  3
*U3
  1

  0
TEXT
  5
FF
330
FD
100
AcDbEntity
  8
126
  6
Continuous
 62
     3
100
AcDbText
 10
0.0
 20
0.0
 30
0.0
 40
0.08
  1
REL - ECN8770 18MAR99
100
AcDbText
  0
TEXT
  5
100
330
FD
100
AcDbEntity
  8
126
  6
Continuous
 62
     3
100
AcDbText
 10
0.0
 20
-0.12
 30
0.0
 40
0.08
  1
 A - ECNBV07085 25MAY07
100
AcDbText
  0
ENDBLK
  5
101
330
FD
100
AcDbEntity
  8
0
100
AcDbBlockEnd
  0
BLOCK
  5
103
330
102
100
AcDbEntity
  8
0
100
AcDbBlockBegin
  2
*U4
 70
     1
 10
0.0
 20
0.0
 30
0.0
  3
*U4
  1

  0
TEXT
  5
104
330
102
100
AcDbEntity
  8
126
  6
Continuous
 62
     3
100
AcDbText
 10
0.0
 20
0.0
 30
0.0
 40
0.175
  1
NOTE:
 41
0.9545454599999999
 51
359.9999958057
100
AcDbText
  0
TEXT
  5
105
330
102
100
AcDbEntity
  8
126
  6
Continuous
 62
     3
100
AcDbText
 10
0.0
 20
-0.2625
 30
0.0
 40
0.175
  1
 
 41
0.9545454599999999
 51
359.9999958057
100
AcDbText
  0
TEXT
  5
106
330
102
100
AcDbEntity
  8
126
  6
Continuous
 62
     3
100
AcDbText
 10
0.0
 20
-0.525
 30
0.0
 40
0.175
  1
DIMENSION ARE FOR COSTING ONLY
 41
0.9545454599999999
 51
359.9999958057
100
AcDbText
  0
TEXT
  5
107
330
102
100
AcDbEntity
  8
126
  6
Continuous
 62
     3
100
AcDbText
 10
0.0
 20
-0.7875
 30
0.0
 40
0.175
  1
SAMPLES SHOULD BE CHECKED FOR
 41
0.9545454599999999
 51
359.9999958057
100
AcDbText
  0
TEXT
  5
108
330
102
100
AcDbEntity
  8
126
  6
Continuous
 62
     3
100
AcDbText
 10
0.0
 20
-1.05
 30
0.0
 40
0.175
  1
FINAL FIT.
 41
0.9545454599999999
 51
359.9999958057
100
AcDbText
  0
ENDBLK
  5
109
330
102
100
AcDbEntity
  8
0
100
AcDbBlockEnd
  0
BLOCK
  5
10B
330
10A
100
AcDbEntity
  8
0
100
AcDbBlockBegin
  2
FIT
 70
     0
 10
0.0
 20
0.0
 30
0.0
  3
FIT
  1

  0
INSERT
  5
10C
330
10A
100
AcDbEntity
  8
1
100
AcDbBlockReference
  2
*U4
 10
-2.2327769
 20
0.5332266
 30
0.0
  0
ENDBLK
  5
10D
330
10A
100
AcDbEntity
  8
0
100
AcDbBlockEnd
  0
BLOCK
  5
10F
330
10E
100
AcDbEntity
  8
0
100
AcDbBlockBegin
  2
*U6
 70
     1
 10
0.0
 20
0.0
 30
0.0
  3
*U6
  1

  0
TEXT
  5
110
330
10E
100
AcDbEntity
  8
1
  6
Continuous
 62
     1
100
AcDbText
 10
-0.7041666666666666
 20
-0.0625
 30
0.0
 40
0.125
  1
TEMPLATE FOR
 72
     1
 11
0.0
 21
0.0
 31
0.0
100
AcDbText
 73
     2
  0
TEXT
  5
111
330
10E
100
AcDbEntity
  8
1
  6
Continuous
 62
     1
100
AcDbText
 10
-0.2916666666666667
 20
-0.25
 30
0.0
 40
0.125
  1
ELUH9
 72
     1
 11
0.0
 21
-0.1875
 31
0.0
100
AcDbText
 73
     2
  0
ENDBLK
  5
112
330
10E
100
AcDbEntity
  8
0
100
AcDbBlockEnd
  0
BLOCK
  5
114
330
113
100
AcDbEntity
  8
0
100
AcDbBlockBegin
  2
*D7
 70
     1
 10
0.0
 20
0.0
 30
0.0
  3
*D7
  1

  0
CIRCLE
  5
115
330
113
100
AcDbEntity
  8
1
  6
Continuous
 62
     3
100
AcDbCircle
 10
15.054648
 20
1.313143199999998
 30
0.0
 40
0.125
  0
TEXT
  5
116
330
113
100
AcDbEntity
  8
1
  6
Continuous
 62
     3
100
AcDbText
 10
14.992148
 20
1.250643199999998
 30
0.0
 40
0.125
  1
A
100
AcDbText
  0
ENDBLK
  5
117
330
113
100
AcDbEntity
  8
0
100
AcDbBlockEnd
  0
BLOCK
  5
119
330
118
100
AcDbEntity
  8
0
100
AcDbBlockBegin
  2
*D8
 70
     1
 10
0.0
 20
0.0
 30
0.0
  3
*D8
  1

  0
LINE
  5
11A
330
118
100
AcDbEntity
  8
1
  6
Continuous
 62
     3
100
AcDbLine
 10
9.794230799999999
 20
9.0326923
 30
0.0
 11
14.245192
 21
4.5269231
 31
0.0
  0
LINE
  5
11B
330
118
100
AcDbEntity
  8
1
  6
Continuous
 62
     3
100
AcDbLine
 10
9.794230799999999
 20
9.0326923
 30
0.0
 11
9.867314699999999
 21
8.9291823
 31
0.0
  0
LINE
  5
11C
330
118
100
AcDbEntity
  8
1
  6
Continuous
 62
     3
100
AcDbLine
 10
9.794230799999999
 20
9.0326923
 30
0.0
 11
9.8968386
 21
8.958347199999996
 31
0.0
  0
LINE
  5
11D
330
118
100
AcDbEntity
  8
1
  6
Continuous
 62
     3
100
AcDbLine
 10
9.867314699999999
 20
8.9291823
 30
0.0
 11
9.8968386
 21
8.958347199999996
 31
0.0
  0
LINE
  5
11E
330
118
100
AcDbEntity
  8
1
  6
Continuous
 62
     3
100
AcDbLine
 10
14.370192
 20
4.5269231
 30
0.0
 11
14.245192
 21
4.5269231
 31
0.0
  0
TEXT
  5
11F
330
118
100
AcDbEntity
  8
1
  6
Continuous
 62
     3
100
AcDbText
 10
14.432692
 20
4.4644231
 30
0.0
 40
0.125
  1
EMBOSS
100
AcDbText
  0
ENDBLK
  5
120
330
118
100
AcDbEntity
  8
0
100
AcDbBlockEnd
  0
BLOCK
  5
122
330
121
100
AcDbEntity
  8
0
100
AcDbBlockBegin
  2
*D9
 70
     1
 10
0.0
 20
0.0
 30
0.0
  3
*D9
  1

  0
LINE
  5
123
330
121
100
AcDbEntity
  8
1
  6
Continuous
 62
     3
100
AcDbLine
 10
9.624038399999999
 20
14.836539
 30
0.0
 11
18.35961499999999
 21
14.836539
 31
0.0
  0
LINE
  5
124
330
121
100
AcDbEntity
  8
1
  6
Continuous
 62
     3
100
AcDbLine
 10
9.624038399999999
 20
4.8365385
 30
0.0
 11
18.35961499999999
 21
4.8365385
 31
0.0
  0
LINE
  5
125
330
121
100
AcDbEntity
  8
1
  6
Continuous
 62
     3
100
AcDbLine
 10
18.234615
 20
14.836539
 30
0.0
 11
18.213782
 21
14.711539
 31
0.0
  0
LINE
  5
126
330
121
100
AcDbEntity
  8
1
  6
Continuous
 62
     3
100
AcDbLine
 10
18.234615
 20
14.836539
 30
0.0
 11
18.255449
 21
14.711539
 31
0.0
  0
LINE
  5
127
330
121
100
AcDbEntity
  8
1
  6
Continuous
 62
     3
100
AcDbLine
 10
18.213782
 20
14.711539
 30
0.0
 11
18.255449
 21
14.711539
 31
0.0
  0
LINE
  5
128
330
121
100
AcDbEntity
  8
1
  6
Continuous
 62
     3
100
AcDbLine
 10
18.234615
 20
4.8365385
 30
0.0
 11
18.213782
 21
4.9615385
 31
0.0
  0
LINE
  5
129
330
121
100
AcDbEntity
  8
1
  6
Continuous
 62
     3
100
AcDbLine
 10
18.234615
 20
4.8365385
 30
0.0
 11
18.255449
 21
4.9615385
 31
0.0
  0
LINE
  5
12A
330
121
100
AcDbEntity
  8
1
  6
Continuous
 62
     3
100
AcDbLine
 10
18.213782
 20
4.9615385
 30
0.0
 11
18.255449
 21
4.9615385
 31
0.0
  0
LINE
  5
12B
330
121
100
AcDbEntity
  8
1
  6
Continuous
 62
     3
100
AcDbLine
 10
18.234615
 20
14.836539
 30
0.0
 11
18.234615
 21
10.055289
 31
0.0
  0
LINE
  5
12C
330
121
100
AcDbEntity
  8
1
  6
Continuous
 62
     3
100
AcDbLine
 10
18.234615
 20
4.8365385
 30
0.0
 11
18.234615
 21
9.617788499999999
 31
0.0
  0
TEXT
  5
12D
330
121
100
AcDbEntity
  8
1
  6
Continuous
 62
     3
100
AcDbText
 10
17.21899
 20
9.774038499999999
 30
0.0
 40
0.125
  1
10.000
100
AcDbText
  0
TEXT
  5
12E
330
121
100
AcDbEntity
  8
1
  6
Continuous
 62
     3
100
AcDbText
 10
17.96898999999999
 20
9.867788499999999
 30
0.0
 40
0.125
  1
+.031
100
AcDbText
  0
TEXT
  5
12F
330
121
100
AcDbEntity
  8
1
  6
Continuous
 62
     3
100
AcDbText
 10
17.96898999999999
 20
9.680288499999999
 30
0.0
 40
0.125
  1
-.062
100
AcDbText
  0
TEXT
  5
130
330
121
100
AcDbEntity
  8
1
  6
Continuous
 62
     3
100
AcDbText
 10
18.62524
 20
9.774038499999999
 30
0.0
 40
0.125
  1
 DIA.
100
AcDbText
  0
ENDBLK
  5
131
330
121
100
AcDbEntity
  8
0
100
AcDbBlockEnd
  0
BLOCK
  5
399
330
397
100
AcDbEntity
  8
0
 62
     1
100
AcDbBlockBegin
  2
GENAXEH
 70
     0
 10
0.0
 20
0.0
 30
0.0
  3
GENAXEH
  1

  0
LINE
  5
398
330
397
100
AcDbEntity
  8
0
100
AcDbLine
 10
-1.0
 20
0.0
 30
0.0
 11
1.0
 21
0.0
 31
0.0
  0
ENDBLK
  5
39A
330
397
100
AcDbEntity
  8
0
 62
     1
100
AcDbBlockEnd
  0
ENDSEC
  0
SECTION
  2
ENTITIES
  0
CIRCLE
  5
137
330
22
100
AcDbEntity
  8
1
  6
Continuous
 62
     6
100
AcDbCircle
 10
9.561538399999999
 20
9.836538499999999
 30
0.0
 40
5.0
  0
INSERT
  5
138
330
22
100
AcDbEntity
  8
1
100
AcDbBlockReference
  2
*U0
 10
1.088376899999998
 20
4.1505343
 30
0.0
  0
INSERT
  5
139
330
22
100
AcDbEntity
  8
1
100
AcDbBlockReference
  2
*D7
 10
0.0
 20
0.0
 30
0.0
  0
INSERT
  5
13A
330
22
100
AcDbEntity
  8
126
100
AcDbBlockReference
  2
*U1
 10
16.09158
 20
1.328598699999999
 30
0.0
  0
INSERT
  5
13B
330
22
100
AcDbEntity
  8
126
100
AcDbBlockReference
  2
*U3
 10
17.827928
 20
0.7340329000000001
 30
0.0
  0
TEXT
  5
13C
330
22
100
AcDbEntity
  8
1
  6
Continuous
 62
     1
100
AcDbText
 10
8.587276199999998
 20
9.9846154
 30
0.0
 40
0.375
  1
ELUH9
 72
     1
 11
9.462276199999998
 21
9.9846154
 31
0.0
100
AcDbText
  0
INSERT
  5
13D
330
22
100
AcDbEntity
  8
1
100
AcDbBlockReference
  2
*D8
 10
0.0
 20
0.0
 30
0.0
  0
DIMENSION
  5
13E
330
22
100
AcDbEntity
  8
1
  6
Continuous
 62
     3
100
AcDbDimension
  2
*D9
 10
18.234615
 20
4.8365385
 30
0.0
 11
18.234615
 21
9.836538499999999
 31
0.0
 70
   129
  1
<>
 71
     5
 42
-1.0
  3
DSTYLE3
100
AcDbAlignedDimension
 13
9.561538399999999
 23
14.836539
 33
0.0
 14
9.561538399999999
 24
4.8365385
 34
0.0
  0
TEXT
  5
13F
330
22
100
AcDbEntity
  8
180
  6
Continuous
 62
     1
100
AcDbText
 10
19.373834
 20
2.076004499999998
 30
0.0
 40
0.125
  1
MANUFACTURING COMPANY
 41
0.9
100
AcDbText
  0
TEXT
  5
140
330
22
100
AcDbEntity
  8
126
  6
Continuous
 62
     3
100
AcDbText
 10
19.105955
 20
1.9210627
 30
0.0
 40
0.075
  1
BROADVIEW, ILLINOIS
 72
     1
 11
19.790955
 21
1.9585627
 31
0.0
100
AcDbText
 73
     2
  0
LINE
  5
141
330
22
100
AcDbEntity
  8
126
  6
Continuous
 62
     3
100
AcDbLine
 10
18.184613
 20
2.077697399999999
 30
0.0
 11
18.374244
 21
2.077697399999999
 31
0.0
  0
LINE
  5
142
330
22
100
AcDbEntity
  8
126
  6
Continuous
 62
     3
100
AcDbLine
 10
17.858187
 20
2.238751799999999
 30
0.0
 11
18.120494
 21
2.238751799999999
 31
0.0
  0
LINE
  5
143
330
22
100
AcDbEntity
  8
126
  6
Continuous
 62
     3
100
AcDbLine
 10
17.824962
 20
2.050322399999999
 30
0.0
 11
18.099962
 21
2.050322399999999
 31
0.0
  0
LINE
  5
144
330
22
100
AcDbEntity
  8
126
  6
Continuous
 62
     3
100
AcDbLine
 10
17.824962
 20
2.050322399999999
 30
0.0
 11
17.858187
 21
2.238751799999999
 31
0.0
  0
LINE
  5
145
330
22
100
AcDbEntity
  8
126
  6
Continuous
 62
     3
100
AcDbLine
 10
17.905501
 20
2.211376799999999
 30
0.0
 11
18.115668
 21
2.211376799999999
 31
0.0
  0
LINE
  5
146
330
22
100
AcDbEntity
  8
126
  6
Continuous
 62
     3
100
AcDbLine
 10
18.127618
 20
2.050322399999999
 30
0.0
 11
18.160844
 21
2.238751799999999
 31
0.0
  0
LINE
  5
147
330
22
100
AcDbEntity
  8
126
  6
Continuous
 62
     3
100
AcDbLine
 10
18.160844
 20
2.238751799999999
 30
0.0
 11
18.213011
 21
2.238751799999999
 31
0.0
  0
LINE
  5
148
330
22
100
AcDbEntity
  8
126
  6
Continuous
 62
     3
100
AcDbLine
 10
18.127618
 20
2.050322399999999
 30
0.0
 11
18.369417
 21
2.050322399999999
 31
0.0
  0
LINE
  5
149
330
22
100
AcDbEntity
  8
126
  6
Continuous
 62
     3
100
AcDbLine
 10
18.184613
 20
2.077697399999999
 30
0.0
 11
18.213011
 21
2.238751799999999
 31
0.0
  0
LINE
  5
14A
330
22
100
AcDbEntity
  8
126
  6
Continuous
 62
     3
100
AcDbLine
 10
17.89614
 20
2.158287099999999
 30
0.0
 11
17.905501
 21
2.211376799999999
 31
0.0
  0
LINE
  5
14B
330
22
100
AcDbEntity
  8
126
  6
Continuous
 62
     3
100
AcDbLine
 10
18.115668
 20
2.211376799999999
 30
0.0
 11
18.120494
 21
2.238751799999999
 31
0.0
  0
LINE
  5
14C
330
22
100
AcDbEntity
  8
126
  6
Continuous
 62
     3
100
AcDbLine
 10
18.088765
 20
2.1307871
 30
0.0
 11
18.093614
 21
2.158287099999999
 31
0.0
  0
LINE
  5
14D
330
22
100
AcDbEntity
  8
126
  6
Continuous
 62
     3
100
AcDbLine
 10
19.322543
 20
2.238751799999999
 30
0.0
 11
19.168267
 21
2.1235724
 31
0.0
  0
LINE
  5
14E
330
22
100
AcDbEntity
  8
126
  6
Continuous
 62
     3
100
AcDbLine
 10
19.322543
 20
2.238751799999999
 30
0.0
 11
19.261322
 21
2.238751799999999
 31
0.0
  0
LINE
  5
14F
330
22
100
AcDbEntity
  8
126
  6
Continuous
 62
     3
100
AcDbLine
 10
19.261322
 20
2.238751799999999
 30
0.0
 11
19.147971
 21
2.154125899999999
 31
0.0
  0
LINE
  5
150
330
22
100
AcDbEntity
  8
126
  6
Continuous
 62
     3
100
AcDbLine
 10
18.099962
 20
2.050322399999999
 30
0.0
 11
18.104789
 21
2.077697399999999
 31
0.0
  0
LINE
  5
151
330
22
100
AcDbEntity
  8
126
  6
Continuous
 62
     3
100
AcDbLine
 10
17.885511
 20
2.077697399999999
 30
0.0
 11
17.894872
 21
2.1307871
 31
0.0
  0
LINE
  5
152
330
22
100
AcDbEntity
  8
126
  6
Continuous
 62
     3
100
AcDbLine
 10
18.093614
 20
2.158287099999999
 30
0.0
 11
17.89614
 21
2.158287099999999
 31
0.0
  0
LINE
  5
153
330
22
100
AcDbEntity
  8
126
  6
Continuous
 62
     3
100
AcDbLine
 10
17.894872
 20
2.1307871
 30
0.0
 11
18.088765
 21
2.1307871
 31
0.0
  0
LINE
  5
154
330
22
100
AcDbEntity
  8
126
  6
Continuous
 62
     3
100
AcDbLine
 10
18.723117
 20
2.238751799999999
 30
0.0
 11
18.579993
 21
2.1575601
 31
0.0
  0
LINE
  5
155
330
22
100
AcDbEntity
  8
126
  6
Continuous
 62
     3
100
AcDbLine
 10
17.885511
 20
2.077697399999999
 30
0.0
 11
18.104789
 21
2.077697399999999
 31
0.0
  0
LINE
  5
156
330
22
100
AcDbEntity
  8
126
  6
Continuous
 62
     3
100
AcDbLine
 10
18.369417
 20
2.050322399999999
 30
0.0
 11
18.374244
 21
2.077697399999999
 31
0.0
  0
LINE
  5
157
330
22
100
AcDbEntity
  8
126
  6
Continuous
 62
     3
100
AcDbLine
 10
18.64888999999999
 20
2.238751799999999
 30
0.0
 11
18.723117
 21
2.238751799999999
 31
0.0
  0
LINE
  5
158
330
22
100
AcDbEntity
  8
126
  6
Continuous
 62
     3
100
AcDbLine
 10
18.615496
 20
2.050322399999999
 30
0.0
 11
18.696717
 21
2.050322399999999
 31
0.0
  0
LINE
  5
159
330
22
100
AcDbEntity
  8
126
  6
Continuous
 62
     3
100
AcDbLine
 10
18.455517
 20
2.086947399999999
 30
0.0
 11
18.449059
 21
2.050322399999999
 31
0.0
  0
LINE
  5
15A
330
22
100
AcDbEntity
  8
126
  6
Continuous
 62
     3
100
AcDbLine
 10
18.482285
 20
2.238751799999999
 30
0.0
 11
18.463767
 21
2.1337352
 31
0.0
  0
LINE
  5
15B
330
22
100
AcDbEntity
  8
126
  6
Continuous
 62
     3
100
AcDbLine
 10
18.870755
 20
2.238751799999999
 30
0.0
 11
18.962255
 21
2.238751799999999
 31
0.0
  0
LINE
  5
15C
330
22
100
AcDbEntity
  8
126
  6
Continuous
 62
     3
100
AcDbLine
 10
18.992861
 20
2.050322399999999
 30
0.0
 11
19.05388
 21
2.050322399999999
 31
0.0
  0
LINE
  5
15D
330
22
100
AcDbEntity
  8
126
  6
Continuous
 62
     3
100
AcDbLine
 10
18.529778
 20
2.129074
 30
0.0
 11
18.455517
 21
2.086947399999999
 31
0.0
  0
LINE
  5
15E
330
22
100
AcDbEntity
  8
126
  6
Continuous
 62
     3
100
AcDbLine
 10
18.64888999999999
 20
2.238751799999999
 30
0.0
 11
18.463767
 21
2.1337352
 31
0.0
  0
LINE
  5
15F
330
22
100
AcDbEntity
  8
126
  6
Continuous
 62
     3
100
AcDbLine
 10
18.482285
 20
2.238751799999999
 30
0.0
 11
18.430117
 21
2.238751799999999
 31
0.0
  0
LINE
  5
160
330
22
100
AcDbEntity
  8
126
  6
Continuous
 62
     3
100
AcDbLine
 10
18.396892
 20
2.050322399999999
 30
0.0
 11
18.430117
 21
2.238751799999999
 31
0.0
  0
LINE
  5
161
330
22
100
AcDbEntity
  8
126
  6
Continuous
 62
     3
100
AcDbLine
 10
18.696717
 20
2.050322399999999
 30
0.0
 11
18.579993
 21
2.1575601
 31
0.0
  0
LINE
  5
162
330
22
100
AcDbEntity
  8
126
  6
Continuous
 62
     3
100
AcDbLine
 10
18.615496
 20
2.050322399999999
 30
0.0
 11
18.529778
 21
2.129074
 31
0.0
  0
LINE
  5
163
330
22
100
AcDbEntity
  8
126
  6
Continuous
 62
     3
100
AcDbLine
 10
18.449059
 20
2.050322399999999
 30
0.0
 11
18.396892
 21
2.050322399999999
 31
0.0
  0
LINE
  5
164
330
22
100
AcDbEntity
  8
126
  6
Continuous
 62
     3
100
AcDbLine
 10
18.70588
 20
2.050322399999999
 30
0.0
 11
18.754546
 21
2.050322399999999
 31
0.0
  0
LINE
  5
165
330
22
100
AcDbEntity
  8
126
  6
Continuous
 62
     3
100
AcDbLine
 10
18.80967
 20
2.113322399999999
 30
0.0
 11
18.907732
 21
2.225392999999999
 31
0.0
  0
LINE
  5
166
330
22
100
AcDbEntity
  8
126
  6
Continuous
 62
     3
100
AcDbLine
 10
18.962227
 20
2.113322399999999
 30
0.0
 11
18.907732
 21
2.225392999999999
 31
0.0
  0
LINE
  5
167
330
22
100
AcDbEntity
  8
126
  6
Continuous
 62
     3
100
AcDbLine
 10
18.70588
 20
2.050322399999999
 30
0.0
 11
18.870755
 21
2.238751799999999
 31
0.0
  0
LINE
  5
168
330
22
100
AcDbEntity
  8
126
  6
Continuous
 62
     3
100
AcDbLine
 10
18.786592
 20
2.086947399999999
 30
0.0
 11
18.975052
 21
2.086947399999999
 31
0.0
  0
LINE
  5
169
330
22
100
AcDbEntity
  8
126
  6
Continuous
 62
     3
100
AcDbLine
 10
19.05388
 20
2.050322399999999
 30
0.0
 11
18.962255
 21
2.238751799999999
 31
0.0
  0
LINE
  5
16A
330
22
100
AcDbEntity
  8
126
  6
Continuous
 62
     3
100
AcDbLine
 10
18.80967
 20
2.113322399999999
 30
0.0
 11
18.962227
 21
2.113322399999999
 31
0.0
  0
LINE
  5
16B
330
22
100
AcDbEntity
  8
126
  6
Continuous
 62
     3
100
AcDbLine
 10
18.754546
 20
2.050322399999999
 30
0.0
 11
18.786592
 21
2.086947399999999
 31
0.0
  0
LINE
  5
16C
330
22
100
AcDbEntity
  8
126
  6
Continuous
 62
     3
100
AcDbLine
 10
18.992861
 20
2.050322399999999
 30
0.0
 11
18.975052
 21
2.086947399999999
 31
0.0
  0
LINE
  5
16D
330
22
100
AcDbEntity
  8
126
  6
Continuous
 62
     3
100
AcDbLine
 10
19.261322
 20
2.238751799999999
 30
0.0
 11
19.322543
 21
2.238751799999999
 31
0.0
  0
LINE
  5
16E
330
22
100
AcDbEntity
  8
126
  6
Continuous
 62
     3
100
AcDbLine
 10
19.09963
 20
2.050322399999999
 30
0.0
 11
19.155351
 21
2.050322399999999
 31
0.0
  0
LINE
  5
16F
330
22
100
AcDbEntity
  8
126
  6
Continuous
 62
     3
100
AcDbLine
 10
19.09963
 20
2.050322399999999
 30
0.0
 11
19.110765
 21
2.1134732
 31
0.0
  0
LINE
  5
170
330
22
100
AcDbEntity
  8
126
  6
Continuous
 62
     3
100
AcDbLine
 10
19.155351
 20
2.050322399999999
 30
0.0
 11
19.168267
 21
2.1235724
 31
0.0
  0
LINE
  5
171
330
22
100
AcDbEntity
  8
126
  6
Continuous
 62
     3
100
AcDbLine
 10
19.068289
 20
2.238751799999999
 30
0.0
 11
19.147971
 21
2.154125899999999
 31
0.0
  0
LINE
  5
172
330
22
100
AcDbEntity
  8
126
  6
Continuous
 62
     3
100
AcDbLine
 10
19.110765
 20
2.1134732
 30
0.0
 11
18.992806
 21
2.238751799999999
 31
0.0
  0
LINE
  5
173
330
22
100
AcDbEntity
  8
126
  6
Continuous
 62
     3
100
AcDbLine
 10
18.992806
 20
2.238751799999999
 30
0.0
 11
19.068289
 21
2.238751799999999
 31
0.0
  0
LINE
  5
174
330
22
100
AcDbEntity
  8
126
  6
Continuous
 62
     3
100
AcDbLine
 10
19.311495
 20
2.238751799999999
 30
0.0
 11
19.316217
 21
2.2340291
 31
0.0
  0
LINE
  5
175
330
22
100
AcDbEntity
  8
126
  6
Continuous
 62
     3
100
AcDbLine
 10
19.300446
 20
2.238751799999999
 30
0.0
 11
19.309891
 21
2.229306299999999
 31
0.0
  0
LINE
  5
176
330
22
100
AcDbEntity
  8
126
  6
Continuous
 62
     3
100
AcDbLine
 10
19.289397
 20
2.238751799999999
 30
0.0
 11
19.303566
 21
2.224583599999998
 31
0.0
  0
LINE
  5
177
330
22
100
AcDbEntity
  8
126
  6
Continuous
 62
     3
100
AcDbLine
 10
19.278349
 20
2.238751799999999
 30
0.0
 11
19.29724
 21
2.2198609
 31
0.0
  0
LINE
  5
178
330
22
100
AcDbEntity
  8
126
  6
Continuous
 62
     3
100
AcDbLine
 10
19.2673
 20
2.238751799999999
 30
0.0
 11
19.290914
 21
2.2151381
 31
0.0
  0
LINE
  5
179
330
22
100
AcDbEntity
  8
126
  6
Continuous
 62
     3
100
AcDbLine
 10
19.258419
 20
2.236584399999999
 30
0.0
 11
19.284588
 21
2.2104154
 31
0.0
  0
LINE
  5
17A
330
22
100
AcDbEntity
  8
126
  6
Continuous
 62
     3
100
AcDbLine
 10
19.252093
 20
2.2318617
 30
0.0
 11
19.278262
 21
2.2056927
 31
0.0
  0
LINE
  5
17B
330
22
100
AcDbEntity
  8
126
  6
Continuous
 62
     3
100
AcDbLine
 10
19.245768
 20
2.227138899999999
 30
0.0
 11
19.271937
 21
2.200969999999998
 31
0.0
  0
LINE
  5
17C
330
22
100
AcDbEntity
  8
126
  6
Continuous
 62
     3
100
AcDbLine
 10
19.239442
 20
2.2224162
 30
0.0
 11
19.265611
 21
2.1962472
 31
0.0
  0
LINE
  5
17D
330
22
100
AcDbEntity
  8
126
  6
Continuous
 62
     3
100
AcDbLine
 10
19.233116
 20
2.2176935
 30
0.0
 11
19.259285
 21
2.191524499999998
 31
0.0
  0
LINE
  5
17E
330
22
100
AcDbEntity
  8
126
  6
Continuous
 62
     3
100
AcDbLine
 10
19.22679
 20
2.212970799999999
 30
0.0
 11
19.252959
 21
2.186801799999999
 31
0.0
  0
LINE
  5
17F
330
22
100
AcDbEntity
  8
126
  6
Continuous
 62
     3
100
AcDbLine
 10
19.220464
 20
2.208247999999999
 30
0.0
 11
19.246633
 21
2.1820791
 31
0.0
  0
LINE
  5
180
330
22
100
AcDbEntity
  8
126
  6
Continuous
 62
     3
100
AcDbLine
 10
19.214139
 20
2.203525299999999
 30
0.0
 11
19.240308
 21
2.1773563
 31
0.0
  0
LINE
  5
181
330
22
100
AcDbEntity
  8
126
  6
Continuous
 62
     3
100
AcDbLine
 10
19.207813
 20
2.1988026
 30
0.0
 11
19.233982
 21
2.172633599999999
 31
0.0
  0
LINE
  5
182
330
22
100
AcDbEntity
  8
126
  6
Continuous
 62
     3
100
AcDbLine
 10
19.201487
 20
2.194079799999999
 30
0.0
 11
19.227656
 21
2.167910899999998
 31
0.0
  0
LINE
  5
183
330
22
100
AcDbEntity
  8
126
  6
Continuous
 62
     3
100
AcDbLine
 10
19.195161
 20
2.1893571
 30
0.0
 11
19.22133
 21
2.1631881
 31
0.0
  0
LINE
  5
184
330
22
100
AcDbEntity
  8
126
  6
Continuous
 62
     3
100
AcDbLine
 10
19.188835
 20
2.184634399999999
 30
0.0
 11
19.215004
 21
2.158465399999998
 31
0.0
  0
LINE
  5
185
330
22
100
AcDbEntity
  8
126
  6
Continuous
 62
     3
100
AcDbLine
 10
19.182509
 20
2.1799117
 30
0.0
 11
19.208678
 21
2.1537427
 31
0.0
  0
LINE
  5
186
330
22
100
AcDbEntity
  8
126
  6
Continuous
 62
     3
100
AcDbLine
 10
19.176184
 20
2.175188899999999
 30
0.0
 11
19.202353
 21
2.14902
 31
0.0
  0
LINE
  5
187
330
22
100
AcDbEntity
  8
126
  6
Continuous
 62
     3
100
AcDbLine
 10
19.169858
 20
2.170466199999999
 30
0.0
 11
19.196027
 21
2.1442972
 31
0.0
  0
LINE
  5
188
330
22
100
AcDbEntity
  8
126
  6
Continuous
 62
     3
100
AcDbLine
 10
19.163532
 20
2.1657435
 30
0.0
 11
19.189701
 21
2.139574499999999
 31
0.0
  0
LINE
  5
189
330
22
100
AcDbEntity
  8
126
  6
Continuous
 62
     3
100
AcDbLine
 10
19.157206
 20
2.161020799999999
 30
0.0
 11
19.183375
 21
2.134851799999998
 31
0.0
  0
LINE
  5
18A
330
22
100
AcDbEntity
  8
126
  6
Continuous
 62
     3
100
AcDbLine
 10
19.15088
 20
2.156298
 30
0.0
 11
19.177049
 21
2.130129
 31
0.0
  0
LINE
  5
18B
330
22
100
AcDbEntity
  8
126
  6
Continuous
 62
     3
100
AcDbLine
 10
19.057378
 20
2.238751799999999
 30
0.0
 11
19.170724
 21
2.125406299999998
 31
0.0
  0
LINE
  5
18C
330
22
100
AcDbEntity
  8
126
  6
Continuous
 62
     3
100
AcDbLine
 10
19.04633
 20
2.238751799999999
 30
0.0
 11
19.167254
 21
2.1178272
 31
0.0
  0
LINE
  5
18D
330
22
100
AcDbEntity
  8
126
  6
Continuous
 62
     3
100
AcDbLine
 10
19.035281
 20
2.238751799999999
 30
0.0
 11
19.165598
 21
2.108434799999999
 31
0.0
  0
LINE
  5
18E
330
22
100
AcDbEntity
  8
126
  6
Continuous
 62
     3
100
AcDbLine
 10
19.024232
 20
2.238751799999999
 30
0.0
 11
19.163942
 21
2.0990424
 31
0.0
  0
LINE
  5
18F
330
22
100
AcDbEntity
  8
126
  6
Continuous
 62
     3
100
AcDbLine
 10
19.013184
 20
2.238751799999999
 30
0.0
 11
19.162286
 21
2.089649999999998
 31
0.0
  0
LINE
  5
190
330
22
100
AcDbEntity
  8
126
  6
Continuous
 62
     3
100
AcDbLine
 10
19.002135
 20
2.238751799999999
 30
0.0
 11
19.16063
 21
2.080257599999999
 31
0.0
  0
LINE
  5
191
330
22
100
AcDbEntity
  8
126
  6
Continuous
 62
     3
100
AcDbLine
 10
19.020506
 20
2.2093326
 30
0.0
 11
19.158973
 21
2.070865199999999
 31
0.0
  0
LINE
  5
192
330
22
100
AcDbEntity
  8
126
  6
Continuous
 62
     3
100
AcDbLine
 10
19.109948
 20
2.108841899999998
 30
0.0
 11
19.157317
 21
2.061472799999998
 31
0.0
  0
LINE
  5
193
330
22
100
AcDbEntity
  8
126
  6
Continuous
 62
     3
100
AcDbLine
 10
19.108292
 20
2.099449399999999
 30
0.0
 11
19.155661
 21
2.052080399999999
 31
0.0
  0
LINE
  5
194
330
22
100
AcDbEntity
  8
126
  6
Continuous
 62
     3
100
AcDbLine
 10
18.957941
 20
2.238751799999999
 30
0.0
 11
18.966337
 21
2.2303557
 31
0.0
  0
LINE
  5
195
330
22
100
AcDbEntity
  8
126
  6
Continuous
 62
     3
100
AcDbLine
 10
19.106636
 20
2.090056999999998
 30
0.0
 11
19.146371
 21
2.050322399999999
 31
0.0
  0
LINE
  5
196
330
22
100
AcDbEntity
  8
126
  6
Continuous
 62
     3
100
AcDbLine
 10
18.946893
 20
2.238751799999999
 30
0.0
 11
18.976795
 21
2.2088497
 31
0.0
  0
LINE
  5
197
330
22
100
AcDbEntity
  8
126
  6
Continuous
 62
     3
100
AcDbLine
 10
19.10498
 20
2.080664599999999
 30
0.0
 11
19.135322
 21
2.050322399999999
 31
0.0
  0
LINE
  5
198
330
22
100
AcDbEntity
  8
126
  6
Continuous
 62
     3
100
AcDbLine
 10
18.935844
 20
2.238751799999999
 30
0.0
 11
18.987252
 21
2.187343799999998
 31
0.0
  0
LINE
  5
199
330
22
100
AcDbEntity
  8
126
  6
Continuous
 62
     3
100
AcDbLine
 10
19.103324
 20
2.071272199999999
 30
0.0
 11
19.124273
 21
2.050322399999999
 31
0.0
  0
LINE
  5
19A
330
22
100
AcDbEntity
  8
126
  6
Continuous
 62
     3
100
AcDbLine
 10
18.924796
 20
2.238751799999999
 30
0.0
 11
18.99771
 21
2.165837799999998
 31
0.0
  0
LINE
  5
19B
330
22
100
AcDbEntity
  8
126
  6
Continuous
 62
     3
100
AcDbLine
 10
19.101668
 20
2.061879799999998
 30
0.0
 11
19.113225
 21
2.050322399999999
 31
0.0
  0
LINE
  5
19C
330
22
100
AcDbEntity
  8
126
  6
Continuous
 62
     3
100
AcDbLine
 10
18.913747
 20
2.238751799999999
 30
0.0
 11
19.008167
 21
2.144331799999998
 31
0.0
  0
LINE
  5
19D
330
22
100
AcDbEntity
  8
126
  6
Continuous
 62
     3
100
AcDbLine
 10
19.100011
 20
2.052487399999999
 30
0.0
 11
19.102176
 21
2.050322399999999
 31
0.0
  0
LINE
  5
19E
330
22
100
AcDbEntity
  8
126
  6
Continuous
 62
     3
100
AcDbLine
 10
18.902698
 20
2.238751799999999
 30
0.0
 11
19.018624
 21
2.122825899999999
 31
0.0
  0
LINE
  5
19F
330
22
100
AcDbEntity
  8
126
  6
Continuous
 62
     3
100
AcDbLine
 10
18.89165
 20
2.238751799999999
 30
0.0
 11
18.906461
 21
2.2239407
 31
0.0
  0
LINE
  5
1A0
330
22
100
AcDbEntity
  8
126
  6
Continuous
 62
     3
100
AcDbLine
 10
18.910309
 20
2.220092399999999
 30
0.0
 11
19.029082
 21
2.1013199
 31
0.0
  0
LINE
  5
1A1
330
22
100
AcDbEntity
  8
126
  6
Continuous
 62
     3
100
AcDbLine
 10
18.880601
 20
2.238751799999999
 30
0.0
 11
18.90130499999999
 21
2.218048099999998
 31
0.0
  0
TEXT
  5
1A2
330
22
100
AcDbEntity
  8
126
  6
Continuous
 62
     3
100
AcDbText
 10
17.861462
 20
1.2132235
 30
0.0
 40
0.09375
  1
DR.BY
 41
0.9
100
AcDbText
  0
TEXT
  5
1A3
330
22
100
AcDbEntity
  8
126
  6
Continuous
 62
     3
100
AcDbText
 10
13.853723
 20
1.640358
 30
0.0
 40
0.08
  1
MATERIAL
100
AcDbText
  0
TEXT
  5
1A4
330
22
100
AcDbEntity
  8
126
  6
Continuous
 62
     3
100
AcDbText
 10
13.837329
 20
2.1567286
 30
0.0
 40
0.08
  1
FINISH
100
AcDbText
  0
TEXT
  5
1A5
330
22
100
AcDbEntity
  8
126
  6
Continuous
 62
     3
100
AcDbText
 10
18.856352
 20
1.2116261
 30
0.0
 40
0.09375
  1
CH.BY
 41
0.9
100
AcDbText
  0
TEXT
  5
1A6
330
22
100
AcDbEntity
  8
126
  6
Continuous
 62
     3
100
AcDbText
 10
17.864218
 20
1.009249199999998
 30
0.0
 40
0.09375
  1
SCALE
 41
1.04
100
AcDbText
  0
TEXT
  5
1A7
330
22
100
AcDbEntity
  8
1
  6
Continuous
 62
     1
100
AcDbText
 10
19.867504
 20
0.6255879000000001
 30
0.0
 40
0.1875
  1
REV-A
 41
0.975
 51
359.9999958057
100
AcDbText
  0
TEXT
  5
1A8
330
22
100
AcDbEntity
  8
126
  6
Continuous
 62
     3
100
AcDbText
 10
19.858772
 20
1.194302399999998
 30
0.0
 40
0.09375
  1
DATE
 41
1.024999999999999
100
AcDbText
  0
LINE
  5
1A9
330
22
100
AcDbEntity
  8
180
  6
Continuous
 62
     6
100
AcDbLine
 10
0.2884595999999999
 20
0.2326923
 30
0.0
 11
21.788462
 21
0.2326923
 31
0.0
  0
LINE
  5
1AA
330
22
100
AcDbEntity
  8
180
  6
Continuous
 62
     6
100
AcDbLine
 10
21.788462
 20
0.2326923
 30
0.0
 11
21.788462
 21
16.732692
 31
0.0
  0
LINE
  5
1AB
330
22
100
AcDbEntity
  8
180
  6
Continuous
 62
     6
100
AcDbLine
 10
21.788462
 20
16.732692
 30
0.0
 11
0.2884595999999999
 21
16.732692
 31
0.0
  0
LINE
  5
1AC
330
22
100
AcDbEntity
  8
180
  6
Continuous
 62
     6
100
AcDbLine
 10
0.2884595999999999
 20
16.732692
 30
0.0
 11
0.2884595999999999
 21
0.2326923
 31
0.0
  0
LINE
  5
1AD
330
22
100
AcDbEntity
  8
180
  6
Continuous
 62
     6
100
AcDbLine
 10
13.788459
 20
0.2326923
 30
0.0
 11
13.788459
 21
2.2951926
 31
0.0
  0
LINE
  5
1AE
330
22
100
AcDbEntity
  8
180
  6
Continuous
 62
     6
100
AcDbLine
 10
13.788459
 20
2.2951926
 30
0.0
 11
21.788462
 21
2.2951926
 31
0.0
  0
LINE
  5
1AF
330
22
100
AcDbEntity
  8
180
  6
Continuous
 62
     6
100
AcDbLine
 10
17.78846
 20
2.2951926
 30
0.0
 11
17.78846
 21
0.2326923
 31
0.0
  0
LINE
  5
1B0
330
22
100
AcDbEntity
  8
180
  6
Continuous
 62
     6
100
AcDbLine
 10
17.78846
 20
0.5451923000000001
 30
0.0
 11
21.788462
 21
0.5451923000000001
 31
0.0
  0
LINE
  5
1B1
330
22
100
AcDbEntity
  8
180
  6
Continuous
 62
     6
100
AcDbLine
 10
21.788462
 20
0.8576924000000001
 30
0.0
 11
17.78846
 21
0.8576924000000001
 31
0.0
  0
LINE
  5
1B2
330
22
100
AcDbEntity
  8
180
  6
Continuous
 62
     6
100
AcDbLine
 10
17.78846
 20
1.357692399999999
 30
0.0
 11
21.788462
 21
1.357692399999999
 31
0.0
  0
LINE
  5
1B3
330
22
100
AcDbEntity
  8
180
  6
Continuous
 62
     6
100
AcDbLine
 10
17.78846
 20
2.2951926
 30
0.0
 11
17.78846
 21
1.857692399999999
 31
0.0
  0
LINE
  5
1B4
330
22
100
AcDbEntity
  8
180
  6
Continuous
 62
     6
100
AcDbLine
 10
17.78846
 20
1.857692399999999
 30
0.0
 11
21.788462
 21
1.857692399999999
 31
0.0
  0
LINE
  5
1B5
330
22
100
AcDbEntity
  8
180
  6
Continuous
 62
     6
100
AcDbLine
 10
19.78846
 20
1.357692399999999
 30
0.0
 11
19.78846
 21
0.5451923000000001
 31
0.0
  0
LINE
  5
1B6
330
22
100
AcDbEntity
  8
180
  6
Continuous
 62
     6
100
AcDbLine
 10
17.78846
 20
1.170192399999999
 30
0.0
 11
19.78846
 21
1.170192399999999
 31
0.0
  0
LINE
  5
1B7
330
22
100
AcDbEntity
  8
180
  6
Continuous
 62
     6
100
AcDbLine
 10
18.78846
 20
1.170192399999999
 30
0.0
 11
18.78846
 21
1.357692399999999
 31
0.0
  0
LINE
  5
1B8
330
22
100
AcDbEntity
  8
180
  6
Continuous
 62
     6
100
AcDbLine
 10
17.78846
 20
1.795192399999999
 30
0.0
 11
13.788459
 21
1.795192399999999
 31
0.0
  0
LINE
  5
1B9
330
22
100
AcDbEntity
  8
180
  6
Continuous
 62
     6
100
AcDbLine
 10
17.78846
 20
0.8576924000000001
 30
0.0
 11
13.788459
 21
0.8576924000000001
 31
0.0
  0
LINE
  5
1C0
330
22
100
AcDbEntity
  8
126
  6
Continuous
 62
     3
100
AcDbLine
 10
18.920767
 20
2.198586399999999
 30
0.0
 11
19.039539
 21
2.079813999999998
 31
0.0
  0
LINE
  5
1C1
330
22
100
AcDbEntity
  8
126
  6
Continuous
 62
     3
100
AcDbLine
 10
18.870194
 20
2.238110799999998
 30
0.0
 11
18.89614899999999
 21
2.2121555
 31
0.0
  0
LINE
  5
1C2
330
22
100
AcDbEntity
  8
126
  6
Continuous
 62
     3
100
AcDbLine
 10
18.931224
 20
2.1770805
 30
0.0
 11
19.049997
 21
2.058308
 31
0.0
  0
INSERT
  5
1C3
330
22
100
AcDbEntity
  8
126
100
AcDbBlockReference
  2
*U2
 10
13.889184
 20
0.7493293000000003
 30
0.0
  0
TEXT
  5
1C4
330
22
100
AcDbEntity
  8
1
  6
Continuous
 62
     1
100
AcDbText
 10
7.666025633333332
 20
9.248076899999999
 30
0.0
 40
0.5
  1
74180237
 72
     1
 11
9.582692299999999
 21
9.498076899999999
 31
0.0
100
AcDbText
 73
     2
  0
TEXT
  5
1C5
330
22
100
AcDbEntity
  8
1
  6
Continuous
 62
     1
100
AcDbText
 10
11.507692
 20
9.901923
 30
0.0
 40
0.25
  1
 
 72
     1
 11
11.582692
 21
10.026923
 31
0.0
100
AcDbText
 73
     2
  0
LINE
  5
1C6
330
22
100
AcDbEntity
  8
126
  6
Continuous
 62
     3
100
AcDbLine
 10
18.865038
 20
2.2322182
 30
0.0
 11
18.89099299999999
 21
2.206263
 31
0.0
  0
LINE
  5
1C7
330
22
100
AcDbEntity
  8
126
  6
Continuous
 62
     3
100
AcDbLine
 10
18.941682
 20
2.155574499999999
 30
0.0
 11
19.046934
 21
2.050322399999999
 31
0.0
  0
LINE
  5
1C8
330
22
100
AcDbEntity
  8
126
  6
Continuous
 62
     3
100
AcDbLine
 10
18.859882
 20
2.2263257
 30
0.0
 11
18.885837
 21
2.200370399999999
 31
0.0
  0
LINE
  5
1C9
330
22
100
AcDbEntity
  8
126
  6
Continuous
 62
     3
100
AcDbLine
 10
18.952139
 20
2.134068599999999
 30
0.0
 11
19.035885
 21
2.050322399999999
 31
0.0
  0
LINE
  5
1CA
330
22
100
AcDbEntity
  8
126
  6
Continuous
 62
     3
100
AcDbLine
 10
18.854726
 20
2.2204331
 30
0.0
 11
18.880681
 21
2.1944778
 31
0.0
  0
LINE
  5
1CB
330
22
100
AcDbEntity
  8
126
  6
Continuous
 62
     3
100
AcDbLine
 10
18.961837
 20
2.113322399999999
 30
0.0
 11
19.024837
 21
2.050322399999999
 31
0.0
  0
LINE
  5
1CC
330
22
100
AcDbEntity
  8
126
  6
Continuous
 62
     3
100
AcDbLine
 10
18.84957
 20
2.2145405
 30
0.0
 11
18.875525
 21
2.188585299999999
 31
0.0
  0
LINE
  5
1CD
330
22
100
AcDbEntity
  8
126
  6
Continuous
 62
     3
100
AcDbLine
 10
18.950788
 20
2.113322399999999
 30
0.0
 11
19.013788
 21
2.050322399999999
 31
0.0
  0
LINE
  5
1CE
330
22
100
AcDbEntity
  8
126
  6
Continuous
 62
     3
100
AcDbLine
 10
18.844414
 20
2.208648
 30
0.0
 11
18.870369
 21
2.1826927
 31
0.0
  0
LINE
  5
1CF
330
22
100
AcDbEntity
  8
126
  6
Continuous
 62
     3
100
AcDbLine
 10
18.939739
 20
2.113322399999999
 30
0.0
 11
18.966114
 21
2.086947399999999
 31
0.0
  0
LINE
  5
1D0
330
22
100
AcDbEntity
  8
126
  6
Continuous
 62
     3
100
AcDbLine
 10
18.983511
 20
2.069550699999999
 30
0.0
 11
19.00274
 21
2.050322399999999
 31
0.0
  0
LINE
  5
1D1
330
22
100
AcDbEntity
  8
126
  6
Continuous
 62
     3
100
AcDbLine
 10
18.839258
 20
2.2027554
 30
0.0
 11
18.865213
 21
2.176800099999999
 31
0.0
  0
LINE
  5
1D2
330
22
100
AcDbEntity
  8
126
  6
Continuous
 62
     3
100
AcDbLine
 10
18.928691
 20
2.113322399999999
 30
0.0
 11
18.955066
 21
2.086947399999999
 31
0.0
  0
LINE
  5
1D3
330
22
100
AcDbEntity
  8
126
  6
Continuous
 62
     3
100
AcDbLine
 10
18.834102
 20
2.196862799999999
 30
0.0
 11
18.860057
 21
2.1709076
 31
0.0
  0
LINE
  5
1D4
330
22
100
AcDbEntity
  8
126
  6
Continuous
 62
     3
100
AcDbLine
 10
18.917642
 20
2.113322399999999
 30
0.0
 11
18.944017
 21
2.086947399999999
 31
0.0
  0
LINE
  5
1D5
330
22
100
AcDbEntity
  8
126
  6
Continuous
 62
     3
100
AcDbLine
 10
18.828946
 20
2.190970299999999
 30
0.0
 11
18.854901
 21
2.165015
 31
0.0
  0
LINE
  5
1D6
330
22
100
AcDbEntity
  8
126
  6
Continuous
 62
     3
100
AcDbLine
 10
18.906594
 20
2.113322399999999
 30
0.0
 11
18.932969
 21
2.086947399999999
 31
0.0
  0
LINE
  5
1D7
330
22
100
AcDbEntity
  8
126
  6
Continuous
 62
     3
100
AcDbLine
 10
18.82379
 20
2.1850777
 30
0.0
 11
18.849745
 21
2.159122399999998
 31
0.0
  0
LINE
  5
1D8
330
22
100
AcDbEntity
  8
126
  6
Continuous
 62
     3
100
AcDbLine
 10
18.895545
 20
2.113322399999999
 30
0.0
 11
18.92192
 21
2.086947399999999
 31
0.0
  0
LINE
  5
1D9
330
22
100
AcDbEntity
  8
126
  6
Continuous
 62
     3
100
AcDbLine
 10
18.818634
 20
2.1791851
 30
0.0
 11
18.844589
 21
2.153229899999999
 31
0.0
  0
LINE
  5
1DA
330
22
100
AcDbEntity
  8
126
  6
Continuous
 62
     3
100
AcDbLine
 10
18.884497
 20
2.113322399999999
 30
0.0
 11
18.910872
 21
2.086947399999999
 31
0.0
  0
LINE
  5
1DB
330
22
100
AcDbEntity
  8
126
  6
Continuous
 62
     3
100
AcDbLine
 10
18.813478
 20
2.173292599999999
 30
0.0
 11
18.839433
 21
2.147337299999998
 31
0.0
  0
LINE
  5
1DC
330
22
100
AcDbEntity
  8
126
  6
Continuous
 62
     3
100
AcDbLine
 10
18.873448
 20
2.113322399999999
 30
0.0
 11
18.899823
 21
2.086947399999999
 31
0.0
  0
LINE
  5
1DD
330
22
100
AcDbEntity
  8
126
  6
Continuous
 62
     3
100
AcDbLine
 10
18.808322
 20
2.1674
 30
0.0
 11
18.834277
 21
2.1414447
 31
0.0
  0
LINE
  5
1DE
330
22
100
AcDbEntity
  8
126
  6
Continuous
 62
     3
100
AcDbLine
 10
18.8624
 20
2.113322399999999
 30
0.0
 11
18.888775
 21
2.086947399999999
 31
0.0
  0
LINE
  5
1DF
330
22
100
AcDbEntity
  8
126
  6
Continuous
 62
     3
100
AcDbLine
 10
18.803166
 20
2.1615074
 30
0.0
 11
18.829121
 21
2.1355522
 31
0.0
  0
LINE
  5
1E0
330
22
100
AcDbEntity
  8
126
  6
Continuous
 62
     3
100
AcDbLine
 10
18.851351
 20
2.113322399999999
 30
0.0
 11
18.877726
 21
2.086947399999999
 31
0.0
  0
LINE
  5
1E1
330
22
100
AcDbEntity
  8
126
  6
Continuous
 62
     3
100
AcDbLine
 10
18.714873
 20
2.238751799999999
 30
0.0
 11
18.717857
 21
2.235767899999999
 31
0.0
  0
LINE
  5
1E2
330
22
100
AcDbEntity
  8
126
  6
Continuous
 62
     3
100
AcDbLine
 10
18.79801
 20
2.155614899999998
 30
0.0
 11
18.823965
 21
2.1296596
 31
0.0
  0
LINE
  5
1E3
330
22
100
AcDbEntity
  8
126
  6
Continuous
 62
     3
100
AcDbLine
 10
18.840303
 20
2.113322399999999
 30
0.0
 11
18.866678
 21
2.086947399999999
 31
0.0
  0
LINE
  5
1E4
330
22
100
AcDbEntity
  8
126
  6
Continuous
 62
     3
100
AcDbLine
 10
18.703825
 20
2.238751799999999
 30
0.0
 11
18.710808
 21
2.2317689
 31
0.0
  0
LINE
  5
1E5
330
22
100
AcDbEntity
  8
126
  6
Continuous
 62
     3
100
AcDbLine
 10
18.792854
 20
2.149722299999999
 30
0.0
 11
18.818809
 21
2.123766999999999
 31
0.0
  0
LINE
  5
1E6
330
22
100
AcDbEntity
  8
126
  6
Continuous
 62
     3
100
AcDbLine
 10
18.829254
 20
2.113322399999999
 30
0.0
 11
18.855629
 21
2.086947399999999
 31
0.0
  0
LINE
  5
1E7
330
22
100
AcDbEntity
  8
126
  6
Continuous
 62
     3
100
AcDbLine
 10
18.692776
 20
2.238751799999999
 30
0.0
 11
18.70375799999998
 21
2.227769799999999
 31
0.0
  0
LINE
  5
1E8
330
22
100
AcDbEntity
  8
126
  6
Continuous
 62
     3
100
AcDbLine
 10
18.787698
 20
2.1438297
 30
0.0
 11
18.813653
 21
2.1178745
 31
0.0
  0
LINE
  5
1E9
330
22
100
AcDbEntity
  8
126
  6
Continuous
 62
     3
100
AcDbLine
 10
18.818206
 20
2.113322399999999
 30
0.0
 11
18.84458099999999
 21
2.086947399999999
 31
0.0
  0
LINE
  5
1EA
330
22
100
AcDbEntity
  8
126
  6
Continuous
 62
     3
100
AcDbLine
 10
18.681728
 20
2.238751799999999
 30
0.0
 11
18.696709
 21
2.2237708
 31
0.0
  0
LINE
  5
1EB
330
22
100
AcDbEntity
  8
126
  6
Continuous
 62
     3
100
AcDbLine
 10
18.782542
 20
2.1379372
 30
0.0
 11
18.833532
 21
2.086947399999999
 31
0.0
  0
LINE
  5
1EC
330
22
100
AcDbEntity
  8
126
  6
Continuous
 62
     3
100
AcDbLine
 10
18.670679
 20
2.238751799999999
 30
0.0
 11
18.689659
 21
2.219771699999999
 31
0.0
  0
LINE
  5
1ED
330
22
100
AcDbEntity
  8
126
  6
Continuous
 62
     3
100
AcDbLine
 10
18.777386
 20
2.132044599999999
 30
0.0
 11
18.822483
 21
2.086947399999999
 31
0.0
  0
LINE
  5
1EE
330
22
100
AcDbEntity
  8
126
  6
Continuous
 62
     3
100
AcDbLine
 10
18.659631
 20
2.238751799999999
 30
0.0
 11
18.68261
 21
2.2157727
 31
0.0
  0
LINE
  5
1EF
330
22
100
AcDbEntity
  8
126
  6
Continuous
 62
     3
100
AcDbLine
 10
18.77223
 20
2.126152
 30
0.0
 11
18.811435
 21
2.086947399999999
 31
0.0
  0
LINE
  5
1F0
330
22
100
AcDbEntity
  8
126
  6
Continuous
 62
     3
100
AcDbLine
 10
18.648693
 20
2.238640299999999
 30
0.0
 11
18.67556
 21
2.211773599999999
 31
0.0
  0
LINE
  5
1F1
330
22
100
AcDbEntity
  8
126
  6
Continuous
 62
     3
100
AcDbLine
 10
18.767074
 20
2.120259499999999
 30
0.0
 11
18.800386
 21
2.086947399999999
 31
0.0
  0
LINE
  5
1F2
330
22
100
AcDbEntity
  8
126
  6
Continuous
 62
     3
100
AcDbLine
 10
18.641644
 20
2.234641299999998
 30
0.0
 11
18.668511
 21
2.2077746
 31
0.0
  0
LINE
  5
1F3
330
22
100
AcDbEntity
  8
126
  6
Continuous
 62
     3
100
AcDbLine
 10
18.761918
 20
2.114366899999998
 30
0.0
 11
18.789338
 21
2.086947399999999
 31
0.0
  0
LINE
  5
1F4
330
22
100
AcDbEntity
  8
126
  6
Continuous
 62
     3
100
AcDbLine
 10
18.634594
 20
2.230642299999999
 30
0.0
 11
18.661461
 21
2.203775499999998
 31
0.0
  0
LINE
  5
1F5
330
22
100
AcDbEntity
  8
126
  6
Continuous
 62
     3
100
AcDbLine
 10
18.756762
 20
2.108474299999999
 30
0.0
 11
18.782718
 21
2.0825191
 31
0.0
  0
LINE
  5
1F6
330
22
100
AcDbEntity
  8
126
  6
Continuous
 62
     3
100
AcDbLine
 10
18.627545
 20
2.2266432
 30
0.0
 11
18.654412
 21
2.1997765
 31
0.0
  0
LINE
  5
1F7
330
22
100
AcDbEntity
  8
126
  6
Continuous
 62
     3
100
AcDbLine
 10
18.751606
 20
2.102581799999998
 30
0.0
 11
18.777562
 21
2.0766265
 31
0.0
  0
LINE
  5
1F8
330
22
100
AcDbEntity
  8
126
  6
Continuous
 62
     3
100
AcDbLine
 10
18.620495
 20
2.2226442
 30
0.0
 11
18.647362
 21
2.195777399999998
 31
0.0
  0
LINE
  5
1F9
330
22
100
AcDbEntity
  8
126
  6
Continuous
 62
     3
100
AcDbLine
 10
18.74645
 20
2.0966892
 30
0.0
 11
18.772406
 21
2.0707339
 31
0.0
  0
LINE
  5
1FA
330
22
100
AcDbEntity
  8
126
  6
Continuous
 62
     3
100
AcDbLine
 10
18.613446
 20
2.2186451
 30
0.0
 11
18.640313
 21
2.1917784
 31
0.0
  0
LINE
  5
1FB
330
22
100
AcDbEntity
  8
126
  6
Continuous
 62
     3
100
AcDbLine
 10
18.741294
 20
2.0907966
 30
0.0
 11
18.76725
 21
2.064841299999998
 31
0.0
  0
LINE
  5
1FC
330
22
100
AcDbEntity
  8
126
  6
Continuous
 62
     3
100
AcDbLine
 10
18.606396
 20
2.214646099999999
 30
0.0
 11
18.633263
 21
2.187779299999998
 31
0.0
  0
LINE
  5
1FD
330
22
100
AcDbEntity
  8
126
  6
Continuous
 62
     3
100
AcDbLine
 10
18.736138
 20
2.0849041
 30
0.0
 11
18.762094
 21
2.0589488
 31
0.0
  0
LINE
  5
1FE
330
22
100
AcDbEntity
  8
126
  6
Continuous
 62
     3
100
AcDbLine
 10
18.599347
 20
2.210647
 30
0.0
 11
18.626214
 21
2.1837803
 31
0.0
  0
LINE
  5
1FF
330
22
100
AcDbEntity
  8
126
  6
Continuous
 62
     3
100
AcDbLine
 10
18.730982
 20
2.0790115
 30
0.0
 11
18.756938
 21
2.053056199999998
 31
0.0
  0
LINE
  5
200
330
22
100
AcDbEntity
  8
126
  6
Continuous
 62
     3
100
AcDbLine
 10
18.592297
 20
2.206647999999999
 30
0.0
 11
18.619164
 21
2.1797812
 31
0.0
  0
LINE
  5
201
330
22
100
AcDbEntity
  8
126
  6
Continuous
 62
     3
100
AcDbLine
 10
18.725826
 20
2.073118899999998
 30
0.0
 11
18.748623
 21
2.050322399999999
 31
0.0
  0
LINE
  5
202
330
22
100
AcDbEntity
  8
126
  6
Continuous
 62
     3
100
AcDbLine
 10
18.585248
 20
2.202648899999998
 30
0.0
 11
18.612115
 21
2.175782199999999
 31
0.0
  0
LINE
  5
203
330
22
100
AcDbEntity
  8
126
  6
Continuous
 62
     3
100
AcDbLine
 10
18.720671
 20
2.067226299999999
 30
0.0
 11
18.737574
 21
2.050322399999999
 31
0.0
  0
LINE
  5
204
330
22
100
AcDbEntity
  8
126
  6
Continuous
 62
     3
100
AcDbLine
 10
18.578198
 20
2.198649899999999
 30
0.0
 11
18.605065
 21
2.1717831
 31
0.0
  0
LINE
  5
205
330
22
100
AcDbEntity
  8
126
  6
Continuous
 62
     3
100
AcDbLine
 10
18.715515
 20
2.061333799999998
 30
0.0
 11
18.726526
 21
2.050322399999999
 31
0.0
  0
LINE
  5
206
330
22
100
AcDbEntity
  8
126
  6
Continuous
 62
     3
100
AcDbLine
 10
18.571149
 20
2.194650799999998
 30
0.0
 11
18.598016
 21
2.167784099999999
 31
0.0
  0
LINE
  5
207
330
22
100
AcDbEntity
  8
126
  6
Continuous
 62
     3
100
AcDbLine
 10
18.710359
 20
2.0554412
 30
0.0
 11
18.715477
 21
2.050322399999999
 31
0.0
  0
LINE
  5
208
330
22
100
AcDbEntity
  8
126
  6
Continuous
 62
     3
100
AcDbLine
 10
18.564099
 20
2.190651799999999
 30
0.0
 11
18.590966
 21
2.163784999999998
 31
0.0
  0
LINE
  5
209
330
22
100
AcDbEntity
  8
126
  6
Continuous
 62
     3
100
AcDbLine
 10
18.55705
 20
2.1866527
 30
0.0
 11
18.583917
 21
2.159785999999999
 31
0.0
  0
LINE
  5
20A
330
22
100
AcDbEntity
  8
126
  6
Continuous
 62
     3
100
AcDbLine
 10
18.655659
 20
2.088043199999999
 30
0.0
 11
18.69338
 21
2.050322399999999
 31
0.0
  0
LINE
  5
20B
330
22
100
AcDbEntity
  8
126
  6
Continuous
 62
     3
100
AcDbLine
 10
18.55
 20
2.182653699999999
 30
0.0
 11
18.682332
 21
2.050322399999999
 31
0.0
  0
LINE
  5
20C
330
22
100
AcDbEntity
  8
126
  6
Continuous
 62
     3
100
AcDbLine
 10
18.542951
 20
2.1786546
 30
0.0
 11
18.671283
 21
2.050322399999999
 31
0.0
  0
LINE
  5
20D
330
22
100
AcDbEntity
  8
126
  6
Continuous
 62
     3
100
AcDbLine
 10
18.471805
 20
2.238751799999999
 30
0.0
 11
18.480714
 21
2.229843299999999
 31
0.0
  0
LINE
  5
20E
330
22
100
AcDbEntity
  8
126
  6
Continuous
 62
     3
100
AcDbLine
 10
18.535901
 20
2.174655599999999
 30
0.0
 11
18.660235
 21
2.050322399999999
 31
0.0
  0
LINE
  5
20F
330
22
100
AcDbEntity
  8
126
  6
Continuous
 62
     3
100
AcDbLine
 10
18.460757
 20
2.238751799999999
 30
0.0
 11
18.479058
 21
2.220450899999999
 31
0.0
  0
LINE
  5
210
330
22
100
AcDbEntity
  8
126
  6
Continuous
 62
     3
100
AcDbLine
 10
18.528852
 20
2.170656499999999
 30
0.0
 11
18.649186
 21
2.050322399999999
 31
0.0
  0
LINE
  5
211
330
22
100
AcDbEntity
  8
126
  6
Continuous
 62
     3
100
AcDbLine
 10
18.449708
 20
2.238751799999999
 30
0.0
 11
18.477402
 21
2.2110585
 31
0.0
  0
LINE
  5
212
330
22
100
AcDbEntity
  8
126
  6
Continuous
 62
     3
100
AcDbLine
 10
18.521802
 20
2.166657499999999
 30
0.0
 11
18.638138
 21
2.050322399999999
 31
0.0
  0
LINE
  5
213
330
22
100
AcDbEntity
  8
126
  6
Continuous
 62
     3
100
AcDbLine
 10
18.43866
 20
2.238751799999999
 30
0.0
 11
18.475745
 21
2.2016661
 31
0.0
  0
LINE
  5
214
330
22
100
AcDbEntity
  8
126
  6
Continuous
 62
     3
100
AcDbLine
 10
18.514753
 20
2.162658399999999
 30
0.0
 11
18.627089
 21
2.050322399999999
 31
0.0
  0
LINE
  5
215
330
22
100
AcDbEntity
  8
126
  6
Continuous
 62
     3
100
AcDbLine
 10
18.429741
 20
2.2366215
 30
0.0
 11
18.474089
 21
2.192273699999998
 31
0.0
  0
LINE
  5
216
330
22
100
AcDbEntity
  8
126
  6
Continuous
 62
     3
100
AcDbLine
 10
18.507704
 20
2.158659399999999
 30
0.0
 11
18.61603999999999
 21
2.050322399999999
 31
0.0
  0
LINE
  5
217
330
22
100
AcDbEntity
  8
126
  6
Continuous
 62
     3
100
AcDbLine
 10
18.428085
 20
2.2272291
 30
0.0
 11
18.472433
 21
2.1828812
 31
0.0
  0
LINE
  5
218
330
22
100
AcDbEntity
  8
126
  6
Continuous
 62
     3
100
AcDbLine
 10
18.500654
 20
2.154660299999999
 30
0.0
 11
18.527521
 21
2.127793599999999
 31
0.0
  0
LINE
  5
219
330
22
100
AcDbEntity
  8
126
  6
Continuous
 62
     3
100
AcDbLine
 10
18.426429
 20
2.2178367
 30
0.0
 11
18.470777
 21
2.173488799999998
 31
0.0
  0
LINE
  5
21A
330
22
100
AcDbEntity
  8
126
  6
Continuous
 62
     3
100
AcDbLine
 10
18.493605
 20
2.150661299999998
 30
0.0
 11
18.520471
 21
2.1237946
 31
0.0
  0
LINE
  5
21B
330
22
100
AcDbEntity
  8
126
  6
Continuous
 62
     3
100
AcDbLine
 10
18.424773
 20
2.2084443
 30
0.0
 11
18.469121
 21
2.1640964
 31
0.0
  0
LINE
  5
21C
330
22
100
AcDbEntity
  8
126
  6
Continuous
 62
     3
100
AcDbLine
 10
18.486555
 20
2.1466622
 30
0.0
 11
18.513422
 21
2.1197955
 31
0.0
  0
LINE
  5
21D
330
22
100
AcDbEntity
  8
126
  6
Continuous
 62
     3
100
AcDbLine
 10
18.423117
 20
2.1990519
 30
0.0
 11
18.467465
 21
2.154704
 31
0.0
  0
LINE
  5
21E
330
22
100
AcDbEntity
  8
126
  6
Continuous
 62
     3
100
AcDbLine
 10
18.479506
 20
2.1426632
 30
0.0
 11
18.506372
 21
2.1157965
 31
0.0
  0
LINE
  5
21F
330
22
100
AcDbEntity
  8
126
  6
Continuous
 62
     3
100
AcDbLine
 10
18.421461
 20
2.189659399999999
 30
0.0
 11
18.465809
 21
2.1453116
 31
0.0
  0
LINE
  5
220
330
22
100
AcDbEntity
  8
126
  6
Continuous
 62
     3
100
AcDbLine
 10
18.472456
 20
2.1386641
 30
0.0
 11
18.499323
 21
2.111797399999999
 31
0.0
  0
LINE
  5
221
330
22
100
AcDbEntity
  8
126
  6
Continuous
 62
     3
100
AcDbLine
 10
18.419805
 20
2.180266999999999
 30
0.0
 11
18.464152
 21
2.1359192
 31
0.0
  0
LINE
  5
222
330
22
100
AcDbEntity
  8
126
  6
Continuous
 62
     3
100
AcDbLine
 10
18.465407
 20
2.1346651
 30
0.0
 11
18.492273
 21
2.1077984
 31
0.0
  0
LINE
  5
223
330
22
100
AcDbEntity
  8
126
  6
Continuous
 62
     3
100
AcDbLine
 10
18.418148
 20
2.170874599999998
 30
0.0
 11
18.485224
 21
2.103799299999999
 31
0.0
  0
LINE
  5
224
330
22
100
AcDbEntity
  8
126
  6
Continuous
 62
     3
100
AcDbLine
 10
18.416492
 20
2.1614822
 30
0.0
 11
18.478174
 21
2.099800299999999
 31
0.0
  0
LINE
  5
225
330
22
100
AcDbEntity
  8
126
  6
Continuous
 62
     3
100
AcDbLine
 10
18.414836
 20
2.152089799999999
 30
0.0
 11
18.471125
 21
2.095801199999999
 31
0.0
  0
LINE
  5
226
330
22
100
AcDbEntity
  8
126
  6
Continuous
 62
     3
100
AcDbLine
 10
18.41318
 20
2.142697399999998
 30
0.0
 11
18.464075
 21
2.0918022
 31
0.0
  0
LINE
  5
227
330
22
100
AcDbEntity
  8
126
  6
Continuous
 62
     3
100
AcDbLine
 10
18.411524
 20
2.133305
 30
0.0
 11
18.457026
 21
2.0878031
 31
0.0
  0
LINE
  5
228
330
22
100
AcDbEntity
  8
126
  6
Continuous
 62
     3
100
AcDbLine
 10
18.409868
 20
2.1239126
 30
0.0
 11
18.454216
 21
2.079564799999999
 31
0.0
  0
LINE
  5
229
330
22
100
AcDbEntity
  8
126
  6
Continuous
 62
     3
100
AcDbLine
 10
18.408212
 20
2.1145202
 30
0.0
 11
18.452559
 21
2.070172399999999
 31
0.0
  0
LINE
  5
22A
330
22
100
AcDbEntity
  8
126
  6
Continuous
 62
     3
100
AcDbLine
 10
18.406556
 20
2.105127799999999
 30
0.0
 11
18.450903
 21
2.060779899999999
 31
0.0
  0
LINE
  5
22B
330
22
100
AcDbEntity
  8
126
  6
Continuous
 62
     3
100
AcDbLine
 10
18.404899
 20
2.0957354
 30
0.0
 11
18.449247
 21
2.0513875
 31
0.0
  0
LINE
  5
22C
330
22
100
AcDbEntity
  8
126
  6
Continuous
 62
     3
100
AcDbLine
 10
18.403243
 20
2.086342999999998
 30
0.0
 11
18.439264
 21
2.050322399999999
 31
0.0
  0
LINE
  5
22D
330
22
100
AcDbEntity
  8
126
  6
Continuous
 62
     3
100
AcDbLine
 10
18.401587
 20
2.0769505
 30
0.0
 11
18.428215
 21
2.050322399999999
 31
0.0
  0
INSERT
  5
22E
330
22
100
AcDbEntity
  8
1
100
AcDbBlockReference
  2
*U6
 10
19.801358
 20
1.703012
 30
0.0
  0
TEXT
  5
22F
330
22
100
AcDbEntity
  8
126
  6
Continuous
 62
     3
100
AcDbText
 10
20.490145
 20
1.062097699999998
 30
0.0
 40
0.1
  1
18MAR99
100
AcDbText
  0
TEXT
  5
230
330
22
100
AcDbEntity
  8
126
  6
Continuous
 62
     3
100
AcDbText
 10
18.418201
 20
1.210262299999999
 30
0.0
 40
0.1
  1
BJS
100
AcDbText
  0
TEXT
  5
231
330
22
100
AcDbEntity
  8
126
  6
Continuous
 62
     3
100
AcDbText
 10
18.668898
 20
0.9682097999999999
 30
0.0
 40
0.1
  1
FULL
100
AcDbText
  0
TEXT
  5
232
330
22
100
AcDbEntity
  8
1
  6
Continuous
 62
     1
100
AcDbText
 10
19.16115133333333
 20
0.3077629000000001
 30
0.0
 40
0.1625
  1
74180237
 72
     1
 11
19.784068
 21
0.3890129
 31
0.0
100
AcDbText
 73
     2
  0
LINE
  5
233
330
22
100
AcDbEntity
  8
126
  6
Continuous
 62
     3
100
AcDbLine
 10
18.399931
 20
2.0675581
 30
0.0
 11
18.417167
 21
2.050322399999999
 31
0.0
  0
LINE
  5
234
330
22
100
AcDbEntity
  8
126
  6
Continuous
 62
     3
100
AcDbLine
 10
18.398275
 20
2.058165699999999
 30
0.0
 11
18.406118
 21
2.050322399999999
 31
0.0
  0
LINE
  5
235
330
22
100
AcDbEntity
  8
126
  6
Continuous
 62
     3
100
AcDbLine
 10
18.20664
 20
2.238751799999999
 30
0.0
 11
18.212056
 21
2.2333359
 31
0.0
  0
LINE
  5
236
330
22
100
AcDbEntity
  8
126
  6
Continuous
 62
     3
100
AcDbLine
 10
18.367695
 20
2.077697399999999
 30
0.0
 11
18.373262
 21
2.072129899999999
 31
0.0
  0
LINE
  5
237
330
22
100
AcDbEntity
  8
126
  6
Continuous
 62
     3
100
AcDbLine
 10
18.195592
 20
2.238751799999999
 30
0.0
 11
18.2104
 21
2.2239435
 31
0.0
  0
LINE
  5
238
330
22
100
AcDbEntity
  8
126
  6
Continuous
 62
     3
100
AcDbLine
 10
18.356646
 20
2.077697399999999
 30
0.0
 11
18.371606
 21
2.062737499999999
 31
0.0
  0
LINE
  5
239
330
22
100
AcDbEntity
  8
126
  6
Continuous
 62
     3
100
AcDbLine
 10
18.184543
 20
2.238751799999999
 30
0.0
 11
18.208744
 21
2.214550999999999
 31
0.0
  0
LINE
  5
23A
330
22
100
AcDbEntity
  8
126
  6
Continuous
 62
     3
100
AcDbLine
 10
18.345598
 20
2.077697399999999
 30
0.0
 11
18.36995
 21
2.0533451
 31
0.0
  0
LINE
  5
23B
330
22
100
AcDbEntity
  8
126
  6
Continuous
 62
     3
100
AcDbLine
 10
18.173495
 20
2.238751799999999
 30
0.0
 11
18.207088
 21
2.2051587
 31
0.0
  0
LINE
  5
23C
330
22
100
AcDbEntity
  8
126
  6
Continuous
 62
     3
100
AcDbLine
 10
18.334549
 20
2.077697399999999
 30
0.0
 11
18.361924
 21
2.050322399999999
 31
0.0
  0
LINE
  5
23D
330
22
100
AcDbEntity
  8
126
  6
Continuous
 62
     3
100
AcDbLine
 10
18.162446
 20
2.238751799999999
 30
0.0
 11
18.205432
 21
2.1957662
 31
0.0
  0
LINE
  5
23E
330
22
100
AcDbEntity
  8
126
  6
Continuous
 62
     3
100
AcDbLine
 10
18.3235
 20
2.077697399999999
 30
0.0
 11
18.350875
 21
2.050322399999999
 31
0.0
  0
LINE
  5
23F
330
22
100
AcDbEntity
  8
126
  6
Continuous
 62
     3
100
AcDbLine
 10
18.159428
 20
2.2307217
 30
0.0
 11
18.203775
 21
2.186373799999999
 31
0.0
  0
LINE
  5
240
330
22
100
AcDbEntity
  8
126
  6
Continuous
 62
     3
100
AcDbLine
 10
18.312452
 20
2.077697399999999
 30
0.0
 11
18.339827
 21
2.050322399999999
 31
0.0
  0
LINE
  5
241
330
22
100
AcDbEntity
  8
126
  6
Continuous
 62
     3
100
AcDbLine
 10
18.157772
 20
2.221329299999998
 30
0.0
 11
18.202119
 21
2.176981399999998
 31
0.0
  0
LINE
  5
242
330
22
100
AcDbEntity
  8
126
  6
Continuous
 62
     3
100
AcDbLine
 10
18.301403
 20
2.077697399999999
 30
0.0
 11
18.328778
 21
2.050322399999999
 31
0.0
  0
LINE
  5
243
330
22
100
AcDbEntity
  8
126
  6
Continuous
 62
     3
100
AcDbLine
 10
18.156115
 20
2.211936799999999
 30
0.0
 11
18.200463
 21
2.167588999999999
 31
0.0
  0
LINE
  5
244
330
22
100
AcDbEntity
  8
126
  6
Continuous
 62
     3
100
AcDbLine
 10
18.29035499999999
 20
2.077697399999999
 30
0.0
 11
18.31773
 21
2.050322399999999
 31
0.0
  0
LINE
  5
245
330
22
100
AcDbEntity
  8
126
  6
Continuous
 62
     3
100
AcDbLine
 10
18.118252
 20
2.238751799999999
 30
0.0
 11
18.120158
 21
2.236845299999999
 31
0.0
  0
LINE
  5
246
330
22
100
AcDbEntity
  8
126
  6
Continuous
 62
     3
100
AcDbLine
 10
18.154459
 20
2.202544399999998
 30
0.0
 11
18.198807
 21
2.1581966
 31
0.0
  0
LINE
  5
247
330
22
100
AcDbEntity
  8
126
  6
Continuous
 62
     3
100
AcDbLine
 10
18.279306
 20
2.077697399999999
 30
0.0
 11
18.306681
 21
2.050322399999999
 31
0.0
  0
LINE
  5
248
330
22
100
AcDbEntity
  8
126
  6
Continuous
 62
     3
100
AcDbLine
 10
18.107203
 20
2.238751799999999
 30
0.0
 11
18.118502
 21
2.227452899999998
 31
0.0
  0
LINE
  5
249
330
22
100
AcDbEntity
  8
126
  6
Continuous
 62
     3
100
AcDbLine
 10
18.152803
 20
2.193151999999999
 30
0.0
 11
18.197151
 21
2.1488042
 31
0.0
  0
LINE
  5
24A
330
22
100
AcDbEntity
  8
126
  6
Continuous
 62
     3
100
AcDbLine
 10
18.268258
 20
2.077697399999999
 30
0.0
 11
18.295633
 21
2.050322399999999
 31
0.0
  0
LINE
  5
24B
330
22
100
AcDbEntity
  8
126
  6
Continuous
 62
     3
100
AcDbLine
 10
18.096155
 20
2.238751799999999
 30
0.0
 11
18.116846
 21
2.218060499999999
 31
0.0
  0
LINE
  5
24C
330
22
100
AcDbEntity
  8
126
  6
Continuous
 62
     3
100
AcDbLine
 10
18.151147
 20
2.1837596
 30
0.0
 11
18.195495
 21
2.139411799999999
 31
0.0
  0
LINE
  5
24D
330
22
100
AcDbEntity
  8
126
  6
Continuous
 62
     3
100
AcDbLine
 10
18.257209
 20
2.077697399999999
 30
0.0
 11
18.284584
 21
2.050322399999999
 31
0.0
  0
LINE
  5
24E
330
22
100
AcDbEntity
  8
126
  6
Continuous
 62
     3
100
AcDbLine
 10
18.085106
 20
2.238751799999999
 30
0.0
 11
18.112481
 21
2.211376799999999
 31
0.0
  0
LINE
  5
24F
330
22
100
AcDbEntity
  8
126
  6
Continuous
 62
     3
100
AcDbLine
 10
18.149491
 20
2.1743672
 30
0.0
 11
18.193839
 21
2.1300194
 31
0.0
  0
LINE
  5
250
330
22
100
AcDbEntity
  8
126
  6
Continuous
 62
     3
100
AcDbLine
 10
18.246161
 20
2.077697399999999
 30
0.0
 11
18.273536
 21
2.050322399999999
 31
0.0
  0
LINE
  5
251
330
22
100
AcDbEntity
  8
126
  6
Continuous
 62
     3
100
AcDbLine
 10
18.07405799999999
 20
2.238751799999999
 30
0.0
 11
18.101433
 21
2.211376799999999
 31
0.0
  0
LINE
  5
252
330
22
100
AcDbEntity
  8
126
  6
Continuous
 62
     3
100
AcDbLine
 10
18.147835
 20
2.164974799999999
 30
0.0
 11
18.192183
 21
2.120627
 31
0.0
  0
LINE
  5
253
330
22
100
AcDbEntity
  8
126
  6
Continuous
 62
     3
100
AcDbLine
 10
18.235112
 20
2.077697399999999
 30
0.0
 11
18.262487
 21
2.050322399999999
 31
0.0
  0
LINE
  5
254
330
22
100
AcDbEntity
  8
126
  6
Continuous
 62
     3
100
AcDbLine
 10
18.063009
 20
2.238751799999999
 30
0.0
 11
18.090384
 21
2.211376799999999
 31
0.0
  0
LINE
  5
255
330
22
100
AcDbEntity
  8
126
  6
Continuous
 62
     3
100
AcDbLine
 10
18.146179
 20
2.1555824
 30
0.0
 11
18.190526
 21
2.111234599999999
 31
0.0
  0
LINE
  5
256
330
22
100
AcDbEntity
  8
126
  6
Continuous
 62
     3
100
AcDbLine
 10
18.224064
 20
2.077697399999999
 30
0.0
 11
18.251439
 21
2.050322399999999
 31
0.0
  0
LINE
  5
257
330
22
100
AcDbEntity
  8
126
  6
Continuous
 62
     3
100
AcDbLine
 10
18.051961
 20
2.238751799999999
 30
0.0
 11
18.079336
 21
2.211376799999999
 31
0.0
  0
LINE
  5
258
330
22
100
AcDbEntity
  8
126
  6
Continuous
 62
     3
100
AcDbLine
 10
18.144522
 20
2.14619
 30
0.0
 11
18.18887
 21
2.1018422
 31
0.0
  0
LINE
  5
259
330
22
100
AcDbEntity
  8
126
  6
Continuous
 62
     3
100
AcDbLine
 10
18.213015
 20
2.077697399999999
 30
0.0
 11
18.24039
 21
2.050322399999999
 31
0.0
  0
LINE
  5
25A
330
22
100
AcDbEntity
  8
126
  6
Continuous
 62
     3
100
AcDbLine
 10
18.040912
 20
2.238751799999999
 30
0.0
 11
18.068287
 21
2.211376799999999
 31
0.0
  0
LINE
  5
25B
330
22
100
AcDbEntity
  8
126
  6
Continuous
 62
     3
100
AcDbLine
 10
18.142866
 20
2.1367976
 30
0.0
 11
18.187214
 21
2.092449799999998
 31
0.0
  0
LINE
  5
25C
330
22
100
AcDbEntity
  8
126
  6
Continuous
 62
     3
100
AcDbLine
 10
18.201966
 20
2.077697399999999
 30
0.0
 11
18.229341
 21
2.050322399999999
 31
0.0
  0
LINE
  5
25D
330
22
100
AcDbEntity
  8
126
  6
Continuous
 62
     3
100
AcDbLine
 10
18.029864
 20
2.238751799999999
 30
0.0
 11
18.057239
 21
2.211376799999999
 31
0.0
  0
LINE
  5
25E
330
22
100
AcDbEntity
  8
126
  6
Continuous
 62
     3
100
AcDbLine
 10
18.14121
 20
2.1274052
 30
0.0
 11
18.185558
 21
2.0830573
 31
0.0
  0
LINE
  5
25F
330
22
100
AcDbEntity
  8
126
  6
Continuous
 62
     3
100
AcDbLine
 10
18.190918
 20
2.077697399999999
 30
0.0
 11
18.218293
 21
2.050322399999999
 31
0.0
  0
LINE
  5
260
330
22
100
AcDbEntity
  8
126
  6
Continuous
 62
     3
100
AcDbLine
 10
18.018815
 20
2.238751799999999
 30
0.0
 11
18.04619
 21
2.211376799999999
 31
0.0
  0
LINE
  5
261
330
22
100
AcDbEntity
  8
126
  6
Continuous
 62
     3
100
AcDbLine
 10
18.139554
 20
2.118012799999998
 30
0.0
 11
18.207244
 21
2.050322399999999
 31
0.0
  0
LINE
  5
262
330
22
100
AcDbEntity
  8
126
  6
Continuous
 62
     3
100
AcDbLine
 10
18.007766
 20
2.238751799999999
 30
0.0
 11
18.035141
 21
2.211376799999999
 31
0.0
  0
LINE
  5
263
330
22
100
AcDbEntity
  8
126
  6
Continuous
 62
     3
100
AcDbLine
 10
18.088231
 20
2.158287099999999
 30
0.0
 11
18.092807
 21
2.1537115
 31
0.0
  0
LINE
  5
264
330
22
100
AcDbEntity
  8
126
  6
Continuous
 62
     3
100
AcDbLine
 10
18.137898
 20
2.108620299999999
 30
0.0
 11
18.196196
 21
2.050322399999999
 31
0.0
  0
LINE
  5
265
330
22
100
AcDbEntity
  8
126
  6
Continuous
 62
     3
100
AcDbLine
 10
17.996718
 20
2.238751799999999
 30
0.0
 11
18.024093
 21
2.211376799999999
 31
0.0
  0
LINE
  5
266
330
22
100
AcDbEntity
  8
126
  6
Continuous
 62
     3
100
AcDbLine
 10
18.077183
 20
2.158287099999999
 30
0.0
 11
18.091151
 21
2.1443191
 31
0.0
  0
LINE
  5
267
330
22
100
AcDbEntity
  8
126
  6
Continuous
 62
     3
100
AcDbLine
 10
18.136242
 20
2.099227899999998
 30
0.0
 11
18.185147
 21
2.050322399999999
 31
0.0
  0
LINE
  5
268
330
22
100
AcDbEntity
  8
126
  6
Continuous
 62
     3
100
AcDbLine
 10
17.985669
 20
2.238751799999999
 30
0.0
 11
18.013044
 21
2.211376799999999
 31
0.0
  0
LINE
  5
269
330
22
100
AcDbEntity
  8
126
  6
Continuous
 62
     3
100
AcDbLine
 10
18.06613399999999
 20
2.158287099999999
 30
0.0
 11
18.089494
 21
2.1349267
 31
0.0
  0
LINE
  5
26A
330
22
100
AcDbEntity
  8
126
  6
Continuous
 62
     3
100
AcDbLine
 10
18.134586
 20
2.089835499999999
 30
0.0
 11
18.174099
 21
2.050322399999999
 31
0.0
  0
LINE
  5
26B
330
22
100
AcDbEntity
  8
126
  6
Continuous
 62
     3
100
AcDbLine
 10
17.974621
 20
2.238751799999999
 30
0.0
 11
18.001996
 21
2.211376799999999
 31
0.0
  0
LINE
  5
26C
330
22
100
AcDbEntity
  8
126
  6
Continuous
 62
     3
100
AcDbLine
 10
18.055085
 20
2.158287099999999
 30
0.0
 11
18.082586
 21
2.1307871
 31
0.0
  0
LINE
  5
26D
330
22
100
AcDbEntity
  8
126
  6
Continuous
 62
     3
100
AcDbLine
 10
18.132929
 20
2.0804431
 30
0.0
 11
18.16305
 21
2.050322399999999
 31
0.0
  0
LINE
  5
26E
330
22
100
AcDbEntity
  8
126
  6
Continuous
 62
     3
100
AcDbLine
 10
17.963572
 20
2.238751799999999
 30
0.0
 11
17.990947
 21
2.211376799999999
 31
0.0
  0
LINE
  5
26F
330
22
100
AcDbEntity
  8
126
  6
Continuous
 62
     3
100
AcDbLine
 10
18.044037
 20
2.158287099999999
 30
0.0
 11
18.071537
 21
2.1307871
 31
0.0
  0
LINE
  5
270
330
22
100
AcDbEntity
  8
126
  6
Continuous
 62
     3
100
AcDbLine
 10
18.131273
 20
2.071050699999998
 30
0.0
 11
18.152002
 21
2.050322399999999
 31
0.0
  0
LINE
  5
271
330
22
100
AcDbEntity
  8
126
  6
Continuous
 62
     3
100
AcDbLine
 10
17.952524
 20
2.238751799999999
 30
0.0
 11
17.979899
 21
2.211376799999999
 31
0.0
  0
LINE
  5
272
330
22
100
AcDbEntity
  8
126
  6
Continuous
 62
     3
100
AcDbLine
 10
18.032988
 20
2.158287099999999
 30
0.0
 11
18.060488
 21
2.1307871
 31
0.0
  0
LINE
  5
273
330
22
100
AcDbEntity
  8
126
  6
Continuous
 62
     3
100
AcDbLine
 10
18.129617
 20
2.061658299999999
 30
0.0
 11
18.140953
 21
2.050322399999999
 31
0.0
  0
LINE
  5
274
330
22
100
AcDbEntity
  8
126
  6
Continuous
 62
     3
100
AcDbLine
 10
17.941475
 20
2.238751799999999
 30
0.0
 11
17.96885
 21
2.211376799999999
 31
0.0
  0
LINE
  5
275
330
22
100
AcDbEntity
  8
126
  6
Continuous
 62
     3
100
AcDbLine
 10
18.02194
 20
2.158287099999999
 30
0.0
 11
18.04944
 21
2.1307871
 31
0.0
  0
LINE
  5
276
330
22
100
AcDbEntity
  8
126
  6
Continuous
 62
     3
100
AcDbLine
 10
18.10253
 20
2.077697399999999
 30
0.0
 11
18.10445
 21
2.075776599999999
 31
0.0
  0
LINE
  5
277
330
22
100
AcDbEntity
  8
126
  6
Continuous
 62
     3
100
AcDbLine
 10
18.127961
 20
2.0522659
 30
0.0
 11
18.12990499999999
 21
2.050322399999999
 31
0.0
  0
LINE
  5
278
330
22
100
AcDbEntity
  8
126
  6
Continuous
 62
     3
100
AcDbLine
 10
17.930427
 20
2.238751799999999
 30
0.0
 11
17.957802
 21
2.211376799999999
 31
0.0
  0
LINE
  5
279
330
22
100
AcDbEntity
  8
126
  6
Continuous
 62
     3
100
AcDbLine
 10
18.010891
 20
2.158287099999999
 30
0.0
 11
18.038391
 21
2.1307871
 31
0.0
  0
LINE
  5
27A
330
22
100
AcDbEntity
  8
126
  6
Continuous
 62
     3
100
AcDbLine
 10
18.09148099999999
 20
2.077697399999999
 30
0.0
 11
18.102794
 21
2.066384199999999
 31
0.0
  0
LINE
  5
27B
330
22
100
AcDbEntity
  8
126
  6
Continuous
 62
     3
100
AcDbLine
 10
17.919378
 20
2.238751799999999
 30
0.0
 11
17.946753
 21
2.211376799999999
 31
0.0
  0
LINE
  5
27C
330
22
100
AcDbEntity
  8
126
  6
Continuous
 62
     3
100
AcDbLine
 10
17.999843
 20
2.158287099999999
 30
0.0
 11
18.027343
 21
2.1307871
 31
0.0
  0
LINE
  5
27D
330
22
100
AcDbEntity
  8
126
  6
Continuous
 62
     3
100
AcDbLine
 10
18.080432
 20
2.077697399999999
 30
0.0
 11
18.101138
 21
2.0569918
 31
0.0
  0
LINE
  5
27E
330
22
100
AcDbEntity
  8
126
  6
Continuous
 62
     3
100
AcDbLine
 10
17.90833
 20
2.238751799999999
 30
0.0
 11
17.935705
 21
2.211376799999999
 31
0.0
  0
LINE
  5
27F
330
22
100
AcDbEntity
  8
126
  6
Continuous
 62
     3
100
AcDbLine
 10
17.988794
 20
2.158287099999999
 30
0.0
 11
18.016294
 21
2.1307871
 31
0.0
  0
LINE
  5
280
330
22
100
AcDbEntity
  8
126
  6
Continuous
 62
     3
100
AcDbLine
 10
18.069384
 20
2.077697399999999
 30
0.0
 11
18.096759
 21
2.050322399999999
 31
0.0
  0
LINE
  5
281
330
22
100
AcDbEntity
  8
126
  6
Continuous
 62
     3
100
AcDbLine
 10
17.897281
 20
2.238751799999999
 30
0.0
 11
17.924656
 21
2.211376799999999
 31
0.0
  0
LINE
  5
282
330
22
100
AcDbEntity
  8
126
  6
Continuous
 62
     3
100
AcDbLine
 10
17.977746
 20
2.158287099999999
 30
0.0
 11
18.005246
 21
2.1307871
 31
0.0
  0
LINE
  5
283
330
22
100
AcDbEntity
  8
126
  6
Continuous
 62
     3
100
AcDbLine
 10
18.058335
 20
2.077697399999999
 30
0.0
 11
18.08571
 21
2.050322399999999
 31
0.0
  0
LINE
  5
284
330
22
100
AcDbEntity
  8
126
  6
Continuous
 62
     3
100
AcDbLine
 10
17.886233
 20
2.238751799999999
 30
0.0
 11
17.913607
 21
2.211376799999999
 31
0.0
  0
LINE
  5
285
330
22
100
AcDbEntity
  8
126
  6
Continuous
 62
     3
100
AcDbLine
 10
17.966697
 20
2.158287099999999
 30
0.0
 11
17.994197
 21
2.1307871
 31
0.0
  0
LINE
  5
286
330
22
100
AcDbEntity
  8
126
  6
Continuous
 62
     3
100
AcDbLine
 10
18.047287
 20
2.077697399999999
 30
0.0
 11
18.074662
 21
2.050322399999999
 31
0.0
  0
LINE
  5
287
330
22
100
AcDbEntity
  8
126
  6
Continuous
 62
     3
100
AcDbLine
 10
17.875184
 20
2.238751799999999
 30
0.0
 11
17.90506
 21
2.2088754
 31
0.0
  0
LINE
  5
288
330
22
100
AcDbEntity
  8
126
  6
Continuous
 62
     3
100
AcDbLine
 10
17.955649
 20
2.158287099999999
 30
0.0
 11
17.983149
 21
2.1307871
 31
0.0
  0
LINE
  5
289
330
22
100
AcDbEntity
  8
126
  6
Continuous
 62
     3
100
AcDbLine
 10
18.036238
 20
2.077697399999999
 30
0.0
 11
18.063613
 21
2.050322399999999
 31
0.0
  0
LINE
  5
28A
330
22
100
AcDbEntity
  8
126
  6
Continuous
 62
     3
100
AcDbLine
 10
17.864135
 20
2.238751799999999
 30
0.0
 11
17.903404
 21
2.199483
 31
0.0
  0
LINE
  5
28B
330
22
100
AcDbEntity
  8
126
  6
Continuous
 62
     3
100
AcDbLine
 10
17.9446
 20
2.158287099999999
 30
0.0
 11
17.9721
 21
2.1307871
 31
0.0
  0
LINE
  5
28C
330
22
100
AcDbEntity
  8
126
  6
Continuous
 62
     3
100
AcDbLine
 10
18.02519
 20
2.077697399999999
 30
0.0
 11
18.052565
 21
2.050322399999999
 31
0.0
  0
LINE
  5
28D
330
22
100
AcDbEntity
  8
126
  6
Continuous
 62
     3
100
AcDbLine
 10
17.857423
 20
2.2344159
 30
0.0
 11
17.901748
 21
2.1900906
 31
0.0
  0
LINE
  5
28E
330
22
100
AcDbEntity
  8
126
  6
Continuous
 62
     3
100
AcDbLine
 10
17.933552
 20
2.158287099999999
 30
0.0
 11
17.961052
 21
2.1307871
 31
0.0
  0
LINE
  5
28F
330
22
100
AcDbEntity
  8
126
  6
Continuous
 62
     3
100
AcDbLine
 10
18.014141
 20
2.077697399999999
 30
0.0
 11
18.041516
 21
2.050322399999999
 31
0.0
  0
LINE
  5
290
330
22
100
AcDbEntity
  8
126
  6
Continuous
 62
     3
100
AcDbLine
 10
17.855767
 20
2.225023399999999
 30
0.0
 11
17.900092
 21
2.1806982
 31
0.0
  0
LINE
  5
291
330
22
100
AcDbEntity
  8
126
  6
Continuous
 62
     3
100
AcDbLine
 10
17.922503
 20
2.158287099999999
 30
0.0
 11
17.950003
 21
2.1307871
 31
0.0
  0
LINE
  5
292
330
22
100
AcDbEntity
  8
126
  6
Continuous
 62
     3
100
AcDbLine
 10
18.003093
 20
2.077697399999999
 30
0.0
 11
18.030468
 21
2.050322399999999
 31
0.0
  0
LINE
  5
293
330
22
100
AcDbEntity
  8
126
  6
Continuous
 62
     3
100
AcDbLine
 10
17.85411
 20
2.215631
 30
0.0
 11
17.898436
 21
2.171305799999998
 31
0.0
  0
LINE
  5
294
330
22
100
AcDbEntity
  8
126
  6
Continuous
 62
     3
100
AcDbLine
 10
17.911454
 20
2.158287099999999
 30
0.0
 11
17.938954
 21
2.1307871
 31
0.0
  0
LINE
  5
295
330
22
100
AcDbEntity
  8
126
  6
Continuous
 62
     3
100
AcDbLine
 10
17.992044
 20
2.077697399999999
 30
0.0
 11
18.019419
 21
2.050322399999999
 31
0.0
  0
LINE
  5
296
330
22
100
AcDbEntity
  8
126
  6
Continuous
 62
     3
100
AcDbLine
 10
17.852454
 20
2.2062386
 30
0.0
 11
17.89678
 21
2.161913399999999
 31
0.0
  0
LINE
  5
297
330
22
100
AcDbEntity
  8
126
  6
Continuous
 62
     3
100
AcDbLine
 10
17.900406
 20
2.158287099999999
 30
0.0
 11
17.927906
 21
2.1307871
 31
0.0
  0
LINE
  5
298
330
22
100
AcDbEntity
  8
126
  6
Continuous
 62
     3
100
AcDbLine
 10
17.980996
 20
2.077697399999999
 30
0.0
 11
18.008371
 21
2.050322399999999
 31
0.0
  0
LINE
  5
299
330
22
100
AcDbEntity
  8
126
  6
Continuous
 62
     3
100
AcDbLine
 10
17.850798
 20
2.1968462
 30
0.0
 11
17.916857
 21
2.1307871
 31
0.0
  0
LINE
  5
29A
330
22
100
AcDbEntity
  8
126
  6
Continuous
 62
     3
100
AcDbLine
 10
17.969947
 20
2.077697399999999
 30
0.0
 11
17.997322
 21
2.050322399999999
 31
0.0
  0
LINE
  5
29B
330
22
100
AcDbEntity
  8
126
  6
Continuous
 62
     3
100
AcDbLine
 10
17.849142
 20
2.187453799999999
 30
0.0
 11
17.905809
 21
2.1307871
 31
0.0
  0
LINE
  5
29C
330
22
100
AcDbEntity
  8
126
  6
Continuous
 62
     3
100
AcDbLine
 10
17.958899
 20
2.077697399999999
 30
0.0
 11
17.986273
 21
2.050322399999999
 31
0.0
  0
LINE
  5
29D
330
22
100
AcDbEntity
  8
126
  6
Continuous
 62
     3
100
AcDbLine
 10
17.847486
 20
2.178061399999998
 30
0.0
 11
17.894855
 21
2.130692299999999
 31
0.0
  0
LINE
  5
29E
330
22
100
AcDbEntity
  8
126
  6
Continuous
 62
     3
100
AcDbLine
 10
17.94785
 20
2.077697399999999
 30
0.0
 11
17.975225
 21
2.050322399999999
 31
0.0
  0
LINE
  5
29F
330
22
100
AcDbEntity
  8
126
  6
Continuous
 62
     3
100
AcDbLine
 10
17.84583
 20
2.168668999999999
 30
0.0
 11
17.893199
 21
2.121299899999999
 31
0.0
  0
LINE
  5
2A0
330
22
100
AcDbEntity
  8
126
  6
Continuous
 62
     3
100
AcDbLine
 10
17.936801
 20
2.077697399999999
 30
0.0
 11
17.964176
 21
2.050322399999999
 31
0.0
  0
LINE
  5
2A1
330
22
100
AcDbEntity
  8
126
  6
Continuous
 62
     3
100
AcDbLine
 10
17.844174
 20
2.1592766
 30
0.0
 11
17.891543
 21
2.1119075
 31
0.0
  0
LINE
  5
2A2
330
22
100
AcDbEntity
  8
126
  6
Continuous
 62
     3
100
AcDbLine
 10
17.925753
 20
2.077697399999999
 30
0.0
 11
17.953128
 21
2.050322399999999
 31
0.0
  0
LINE
  5
2A3
330
22
100
AcDbEntity
  8
126
  6
Continuous
 62
     3
100
AcDbLine
 10
17.842518
 20
2.1498842
 30
0.0
 11
17.889887
 21
2.1025151
 31
0.0
  0
LINE
  5
2A4
330
22
100
AcDbEntity
  8
126
  6
Continuous
 62
     3
100
AcDbLine
 10
17.914704
 20
2.077697399999999
 30
0.0
 11
17.942079
 21
2.050322399999999
 31
0.0
  0
LINE
  5
2A5
330
22
100
AcDbEntity
  8
126
  6
Continuous
 62
     3
100
AcDbLine
 10
17.840861
 20
2.140491799999999
 30
0.0
 11
17.888231
 21
2.093122699999999
 31
0.0
  0
LINE
  5
2A6
330
22
100
AcDbEntity
  8
126
  6
Continuous
 62
     3
100
AcDbLine
 10
17.903656
 20
2.077697399999999
 30
0.0
 11
17.931031
 21
2.050322399999999
 31
0.0
  0
LINE
  5
2A7
330
22
100
AcDbEntity
  8
126
  6
Continuous
 62
     3
100
AcDbLine
 10
17.839205
 20
2.131099299999998
 30
0.0
 11
17.886574
 21
2.0837303
 31
0.0
  0
LINE
  5
2A8
330
22
100
AcDbEntity
  8
126
  6
Continuous
 62
     3
100
AcDbLine
 10
17.892607
 20
2.077697399999999
 30
0.0
 11
17.919982
 21
2.050322399999999
 31
0.0
  0
LINE
  5
2A9
330
22
100
AcDbEntity
  8
126
  6
Continuous
 62
     3
100
AcDbLine
 10
17.837549
 20
2.121706999999998
 30
0.0
 11
17.908934
 21
2.050322399999999
 31
0.0
  0
LINE
  5
2AA
330
22
100
AcDbEntity
  8
126
  6
Continuous
 62
     3
100
AcDbLine
 10
17.835893
 20
2.1123145
 30
0.0
 11
17.897885
 21
2.050322399999999
 31
0.0
  0
LINE
  5
2AB
330
22
100
AcDbEntity
  8
126
  6
Continuous
 62
     3
100
AcDbLine
 10
17.834237
 20
2.1029221
 30
0.0
 11
17.886837
 21
2.050322399999999
 31
0.0
  0
LINE
  5
2AC
330
22
100
AcDbEntity
  8
126
  6
Continuous
 62
     3
100
AcDbLine
 10
17.832581
 20
2.093529699999999
 30
0.0
 11
17.875788
 21
2.050322399999999
 31
0.0
  0
LINE
  5
2AD
330
22
100
AcDbEntity
  8
126
  6
Continuous
 62
     3
100
AcDbLine
 10
17.830925
 20
2.0841373
 30
0.0
 11
17.864739
 21
2.050322399999999
 31
0.0
  0
LINE
  5
2AE
330
22
100
AcDbEntity
  8
126
  6
Continuous
 62
     3
100
AcDbLine
 10
17.829268
 20
2.0747449
 30
0.0
 11
17.853691
 21
2.050322399999999
 31
0.0
  0
LINE
  5
2AF
330
22
100
AcDbEntity
  8
126
  6
Continuous
 62
     3
100
AcDbLine
 10
17.827612
 20
2.065352499999999
 30
0.0
 11
17.842642
 21
2.050322399999999
 31
0.0
  0
LINE
  5
2B0
330
22
100
AcDbEntity
  8
126
  6
Continuous
 62
     3
100
AcDbLine
 10
17.825956
 20
2.0559601
 30
0.0
 11
17.831594
 21
2.050322399999999
 31
0.0
  0
ENDSEC
  0
SECTION
  2
OBJECTS
  0
DICTIONARY
  5
C
330
0
100
AcDbDictionary
281
     1
  3
ACAD_COLOR
350
1B
  3
ACAD_GROUP
350
D
  3
ACAD_LAYOUT
350
19
  3
ACAD_MATERIAL
350
1A
  3
ACAD_MLEADERSTYLE
350
30E
  3
ACAD_MLINESTYLE
350
16
  3
ACAD_PLOTSETTINGS
350
18
  3
ACAD_PLOTSTYLENAME
350
E
  3
ACAD_SCALELIST
350
2EC
  3
ACAD_TABLESTYLE
350
1C
  3
ACAD_VISUALSTYLE
350
2D8
  3
ACDB_RECOMPOSE_DATA
350
522
  3
AcDbVariableDictionary
350
2B2
  3
AcmDictionary
350
368
  3
AMG
350
348
  3
AMGSNAPSETTINGS
350
3A8
  3
DWGPROPS
350
523
  0
DICTIONARY
  5
3AF
330
10
100
AcDbDictionary
280
     1
281
     1
  3
ADSK_XREC_LAYER_RECONCILED
360
3B0
  0
DICTIONARY
  5
3B1
330
26
100
AcDbDictionary
280
     1
281
     1
  3
ADSK_XREC_LAYER_RECONCILED
360
3B2
  0
DICTIONARY
  5
3B3
330
2E
100
AcDbDictionary
280
     1
281
     1
  3
ADSK_XREC_LAYER_RECONCILED
360
3B4
  0
DICTIONARY
  5
3B5
330
2F
100
AcDbDictionary
280
     1
281
     1
  3
ADSK_XREC_LAYER_RECONCILED
360
3B6
  0
DICTIONARY
  5
3B7
330
30
100
AcDbDictionary
280
     1
281
     1
  3
ADSK_XREC_LAYER_RECONCILED
360
3B8
  0
DICTIONARY
  5
3B9
330
31
100
AcDbDictionary
280
     1
281
     1
  3
ADSK_XREC_LAYER_RECONCILED
360
3BA
  0
DICTIONARY
  5
3BB
330
32
100
AcDbDictionary
280
     1
281
     1
  3
ADSK_XREC_LAYER_RECONCILED
360
3BC
  0
DICTIONARY
  5
3BD
330
33
100
AcDbDictionary
280
     1
281
     1
  3
ADSK_XREC_LAYER_RECONCILED
360
3BE
  0
DICTIONARY
  5
3BF
330
34
100
AcDbDictionary
280
     1
281
     1
  3
ADSK_XREC_LAYER_RECONCILED
360
3C0
  0
DICTIONARY
  5
3C1
330
35
100
AcDbDictionary
280
     1
281
     1
  3
ADSK_XREC_LAYER_RECONCILED
360
3C2
  0
DICTIONARY
  5
3C3
330
36
100
AcDbDictionary
280
     1
281
     1
  3
ADSK_XREC_LAYER_RECONCILED
360
3C4
  0
DICTIONARY
  5
3C5
330
37
100
AcDbDictionary
280
     1
281
     1
  3
ADSK_XREC_LAYER_RECONCILED
360
3C6
  0
DICTIONARY
  5
3C7
330
38
100
AcDbDictionary
280
     1
281
     1
  3
ADSK_XREC_LAYER_RECONCILED
360
3C8
  0
DICTIONARY
  5
3C9
330
39
100
AcDbDictionary
280
     1
281
     1
  3
ADSK_XREC_LAYER_RECONCILED
360
3CA
  0
DICTIONARY
  5
3CB
330
3A
100
AcDbDictionary
280
     1
281
     1
  3
ADSK_XREC_LAYER_RECONCILED
360
3CC
  0
DICTIONARY
  5
3CD
330
3B
100
AcDbDictionary
280
     1
281
     1
  3
ADSK_XREC_LAYER_RECONCILED
360
3CE
  0
DICTIONARY
  5
3CF
330
3C
100
AcDbDictionary
280
     1
281
     1
  3
ADSK_XREC_LAYER_RECONCILED
360
3D0
  0
DICTIONARY
  5
3D1
330
3D
100
AcDbDictionary
280
     1
281
     1
  3
ADSK_XREC_LAYER_RECONCILED
360
3D2
  0
DICTIONARY
  5
3D3
330
3E
100
AcDbDictionary
280
     1
281
     1
  3
ADSK_XREC_LAYER_RECONCILED
360
3D4
  0
DICTIONARY
  5
3D5
330
3F
100
AcDbDictionary
280
     1
281
     1
  3
ADSK_XREC_LAYER_RECONCILED
360
3D6
  0
DICTIONARY
  5
3D7
330
40
100
AcDbDictionary
280
     1
281
     1
  3
ADSK_XREC_LAYER_RECONCILED
360
3D8
  0
DICTIONARY
  5
3D9
330
41
100
AcDbDictionary
280
     1
281
     1
  3
ADSK_XREC_LAYER_RECONCILED
360
3DA
  0
DICTIONARY
  5
3DB
330
42
100
AcDbDictionary
280
     1
281
     1
  3
ADSK_XREC_LAYER_RECONCILED
360
3DC
  0
DICTIONARY
  5
3DD
330
43
100
AcDbDictionary
280
     1
281
     1
  3
ADSK_XREC_LAYER_RECONCILED
360
3DE
  0
DICTIONARY
  5
3DF
330
44
100
AcDbDictionary
280
     1
281
     1
  3
ADSK_XREC_LAYER_RECONCILED
360
3E0
  0
DICTIONARY
  5
3E1
330
45
100
AcDbDictionary
280
     1
281
     1
  3
ADSK_XREC_LAYER_RECONCILED
360
3E2
  0
DICTIONARY
  5
3E3
330
46
100
AcDbDictionary
280
     1
281
     1
  3
ADSK_XREC_LAYER_RECONCILED
360
3E4
  0
DICTIONARY
  5
3E5
330
47
100
AcDbDictionary
280
     1
281
     1
  3
ADSK_XREC_LAYER_RECONCILED
360
3E6
  0
DICTIONARY
  5
3E7
330
48
100
AcDbDictionary
280
     1
281
     1
  3
ADSK_XREC_LAYER_RECONCILED
360
3E8
  0
DICTIONARY
  5
3E9
330
49
100
AcDbDictionary
280
     1
281
     1
  3
ADSK_XREC_LAYER_RECONCILED
360
3EA
  0
DICTIONARY
  5
3EB
330
4A
100
AcDbDictionary
280
     1
281
     1
  3
ADSK_XREC_LAYER_RECONCILED
360
3EC
  0
DICTIONARY
  5
3ED
330
4B
100
AcDbDictionary
280
     1
281
     1
  3
ADSK_XREC_LAYER_RECONCILED
360
3EE
  0
DICTIONARY
  5
3EF
330
4C
100
AcDbDictionary
280
     1
281
     1
  3
ADSK_XREC_LAYER_RECONCILED
360
3F0
  0
DICTIONARY
  5
3F1
330
4D
100
AcDbDictionary
280
     1
281
     1
  3
ADSK_XREC_LAYER_RECONCILED
360
3F2
  0
DICTIONARY
  5
3F3
330
4E
100
AcDbDictionary
280
     1
281
     1
  3
ADSK_XREC_LAYER_RECONCILED
360
3F4
  0
DICTIONARY
  5
3F5
330
4F
100
AcDbDictionary
280
     1
281
     1
  3
ADSK_XREC_LAYER_RECONCILED
360
3F6
  0
DICTIONARY
  5
3F7
330
50
100
AcDbDictionary
280
     1
281
     1
  3
ADSK_XREC_LAYER_RECONCILED
360
3F8
  0
DICTIONARY
  5
3F9
330
51
100
AcDbDictionary
280
     1
281
     1
  3
ADSK_XREC_LAYER_RECONCILED
360
3FA
  0
DICTIONARY
  5
3FB
330
52
100
AcDbDictionary
280
     1
281
     1
  3
ADSK_XREC_LAYER_RECONCILED
360
3FC
  0
DICTIONARY
  5
3FD
330
53
100
AcDbDictionary
280
     1
281
     1
  3
ADSK_XREC_LAYER_RECONCILED
360
3FE
  0
DICTIONARY
  5
3FF
330
54
100
AcDbDictionary
280
     1
281
     1
  3
ADSK_XREC_LAYER_RECONCILED
360
400
  0
DICTIONARY
  5
401
330
55
100
AcDbDictionary
280
     1
281
     1
  3
ADSK_XREC_LAYER_RECONCILED
360
402
  0
DICTIONARY
  5
403
330
56
100
AcDbDictionary
280
     1
281
     1
  3
ADSK_XREC_LAYER_RECONCILED
360
404
  0
DICTIONARY
  5
405
330
57
100
AcDbDictionary
280
     1
281
     1
  3
ADSK_XREC_LAYER_RECONCILED
360
406
  0
DICTIONARY
  5
407
330
58
100
AcDbDictionary
280
     1
281
     1
  3
ADSK_XREC_LAYER_RECONCILED
360
408
  0
DICTIONARY
  5
409
330
59
100
AcDbDictionary
280
     1
281
     1
  3
ADSK_XREC_LAYER_RECONCILED
360
40A
  0
DICTIONARY
  5
40B
330
5A
100
AcDbDictionary
280
     1
281
     1
  3
ADSK_XREC_LAYER_RECONCILED
360
40C
  0
DICTIONARY
  5
40D
330
5B
100
AcDbDictionary
280
     1
281
     1
  3
ADSK_XREC_LAYER_RECONCILED
360
40E
  0
DICTIONARY
  5
40F
330
5C
100
AcDbDictionary
280
     1
281
     1
  3
ADSK_XREC_LAYER_RECONCILED
360
410
  0
DICTIONARY
  5
411
330
5D
100
AcDbDictionary
280
     1
281
     1
  3
ADSK_XREC_LAYER_RECONCILED
360
412
  0
DICTIONARY
  5
413
330
5E
100
AcDbDictionary
280
     1
281
     1
  3
ADSK_XREC_LAYER_RECONCILED
360
414
  0
DICTIONARY
  5
415
330
5F
100
AcDbDictionary
280
     1
281
     1
  3
ADSK_XREC_LAYER_RECONCILED
360
416
  0
DICTIONARY
  5
417
330
60
100
AcDbDictionary
280
     1
281
     1
  3
ADSK_XREC_LAYER_RECONCILED
360
418
  0
DICTIONARY
  5
419
330
61
100
AcDbDictionary
280
     1
281
     1
  3
ADSK_XREC_LAYER_RECONCILED
360
41A
  0
DICTIONARY
  5
41B
330
62
100
AcDbDictionary
280
     1
281
     1
  3
ADSK_XREC_LAYER_RECONCILED
360
41C
  0
DICTIONARY
  5
41D
330
63
100
AcDbDictionary
280
     1
281
     1
  3
ADSK_XREC_LAYER_RECONCILED
360
41E
  0
DICTIONARY
  5
41F
330
64
100
AcDbDictionary
280
     1
281
     1
  3
ADSK_XREC_LAYER_RECONCILED
360
420
  0
DICTIONARY
  5
421
330
65
100
AcDbDictionary
280
     1
281
     1
  3
ADSK_XREC_LAYER_RECONCILED
360
422
  0
DICTIONARY
  5
423
330
66
100
AcDbDictionary
280
     1
281
     1
  3
ADSK_XREC_LAYER_RECONCILED
360
424
  0
DICTIONARY
  5
425
330
67
100
AcDbDictionary
280
     1
281
     1
  3
ADSK_XREC_LAYER_RECONCILED
360
426
  0
DICTIONARY
  5
427
330
68
100
AcDbDictionary
280
     1
281
     1
  3
ADSK_XREC_LAYER_RECONCILED
360
428
  0
DICTIONARY
  5
429
330
69
100
AcDbDictionary
280
     1
281
     1
  3
ADSK_XREC_LAYER_RECONCILED
360
42A
  0
DICTIONARY
  5
42B
330
6A
100
AcDbDictionary
280
     1
281
     1
  3
ADSK_XREC_LAYER_RECONCILED
360
42C
  0
DICTIONARY
  5
42D
330
6B
100
AcDbDictionary
280
     1
281
     1
  3
ADSK_XREC_LAYER_RECONCILED
360
42E
  0
DICTIONARY
  5
42F
330
6C
100
AcDbDictionary
280
     1
281
     1
  3
ADSK_XREC_LAYER_RECONCILED
360
430
  0
DICTIONARY
  5
431
330
6D
100
AcDbDictionary
280
     1
281
     1
  3
ADSK_XREC_LAYER_RECONCILED
360
432
  0
DICTIONARY
  5
433
330
6E
100
AcDbDictionary
280
     1
281
     1
  3
ADSK_XREC_LAYER_RECONCILED
360
434
  0
DICTIONARY
  5
435
330
6F
100
AcDbDictionary
280
     1
281
     1
  3
ADSK_XREC_LAYER_RECONCILED
360
436
  0
DICTIONARY
  5
437
330
70
100
AcDbDictionary
280
     1
281
     1
  3
ADSK_XREC_LAYER_RECONCILED
360
438
  0
DICTIONARY
  5
439
330
71
100
AcDbDictionary
280
     1
281
     1
  3
ADSK_XREC_LAYER_RECONCILED
360
43A
  0
DICTIONARY
  5
43B
330
72
100
AcDbDictionary
280
     1
281
     1
  3
ADSK_XREC_LAYER_RECONCILED
360
43C
  0
DICTIONARY
  5
43D
330
73
100
AcDbDictionary
280
     1
281
     1
  3
ADSK_XREC_LAYER_RECONCILED
360
43E
  0
DICTIONARY
  5
43F
330
74
100
AcDbDictionary
280
     1
281
     1
  3
ADSK_XREC_LAYER_RECONCILED
360
440
  0
DICTIONARY
  5
441
330
75
100
AcDbDictionary
280
     1
281
     1
  3
ADSK_XREC_LAYER_RECONCILED
360
442
  0
DICTIONARY
  5
443
330
76
100
AcDbDictionary
280
     1
281
     1
  3
ADSK_XREC_LAYER_RECONCILED
360
444
  0
DICTIONARY
  5
445
330
77
100
AcDbDictionary
280
     1
281
     1
  3
ADSK_XREC_LAYER_RECONCILED
360
446
  0
DICTIONARY
  5
447
330
78
100
AcDbDictionary
280
     1
281
     1
  3
ADSK_XREC_LAYER_RECONCILED
360
448
  0
DICTIONARY
  5
449
330
79
100
AcDbDictionary
280
     1
281
     1
  3
ADSK_XREC_LAYER_RECONCILED
360
44A
  0
DICTIONARY
  5
44B
330
7A
100
AcDbDictionary
280
     1
281
     1
  3
ADSK_XREC_LAYER_RECONCILED
360
44C
  0
DICTIONARY
  5
44D
330
7B
100
AcDbDictionary
280
     1
281
     1
  3
ADSK_XREC_LAYER_RECONCILED
360
44E
  0
DICTIONARY
  5
44F
330
7C
100
AcDbDictionary
280
     1
281
     1
  3
ADSK_XREC_LAYER_RECONCILED
360
450
  0
DICTIONARY
  5
451
330
7D
100
AcDbDictionary
280
     1
281
     1
  3
ADSK_XREC_LAYER_RECONCILED
360
452
  0
DICTIONARY
  5
453
330
7E
100
AcDbDictionary
280
     1
281
     1
  3
ADSK_XREC_LAYER_RECONCILED
360
454
  0
DICTIONARY
  5
455
330
7F
100
AcDbDictionary
280
     1
281
     1
  3
ADSK_XREC_LAYER_RECONCILED
360
456
  0
DICTIONARY
  5
457
330
80
100
AcDbDictionary
280
     1
281
     1
  3
ADSK_XREC_LAYER_RECONCILED
360
458
  0
DICTIONARY
  5
459
330
81
100
AcDbDictionary
280
     1
281
     1
  3
ADSK_XREC_LAYER_RECONCILED
360
45A
  0
DICTIONARY
  5
45B
330
82
100
AcDbDictionary
280
     1
281
     1
  3
ADSK_XREC_LAYER_RECONCILED
360
45C
  0
DICTIONARY
  5
45D
330
83
100
AcDbDictionary
280
     1
281
     1
  3
ADSK_XREC_LAYER_RECONCILED
360
45E
  0
DICTIONARY
  5
45F
330
84
100
AcDbDictionary
280
     1
281
     1
  3
ADSK_XREC_LAYER_RECONCILED
360
460
  0
DICTIONARY
  5
461
330
85
100
AcDbDictionary
280
     1
281
     1
  3
ADSK_XREC_LAYER_RECONCILED
360
462
  0
DICTIONARY
  5
463
330
86
100
AcDbDictionary
280
     1
281
     1
  3
ADSK_XREC_LAYER_RECONCILED
360
464
  0
DICTIONARY
  5
465
330
87
100
AcDbDictionary
280
     1
281
     1
  3
ADSK_XREC_LAYER_RECONCILED
360
466
  0
DICTIONARY
  5
467
330
88
100
AcDbDictionary
280
     1
281
     1
  3
ADSK_XREC_LAYER_RECONCILED
360
468
  0
DICTIONARY
  5
469
330
89
100
AcDbDictionary
280
     1
281
     1
  3
ADSK_XREC_LAYER_RECONCILED
360
46A
  0
DICTIONARY
  5
46B
330
8A
100
AcDbDictionary
280
     1
281
     1
  3
ADSK_XREC_LAYER_RECONCILED
360
46C
  0
DICTIONARY
  5
46D
330
8B
100
AcDbDictionary
280
     1
281
     1
  3
ADSK_XREC_LAYER_RECONCILED
360
46E
  0
DICTIONARY
  5
46F
330
8C
100
AcDbDictionary
280
     1
281
     1
  3
ADSK_XREC_LAYER_RECONCILED
360
470
  0
DICTIONARY
  5
471
330
8D
100
AcDbDictionary
280
     1
281
     1
  3
ADSK_XREC_LAYER_RECONCILED
360
472
  0
DICTIONARY
  5
473
330
8E
100
AcDbDictionary
280
     1
281
     1
  3
ADSK_XREC_LAYER_RECONCILED
360
474
  0
DICTIONARY
  5
475
330
8F
100
AcDbDictionary
280
     1
281
     1
  3
ADSK_XREC_LAYER_RECONCILED
360
476
  0
DICTIONARY
  5
477
330
90
100
AcDbDictionary
280
     1
281
     1
  3
ADSK_XREC_LAYER_RECONCILED
360
478
  0
DICTIONARY
  5
479
330
91
100
AcDbDictionary
280
     1
281
     1
  3
ADSK_XREC_LAYER_RECONCILED
360
47A
  0
DICTIONARY
  5
47B
330
92
100
AcDbDictionary
280
     1
281
     1
  3
ADSK_XREC_LAYER_RECONCILED
360
47C
  0
DICTIONARY
  5
47D
330
93
100
AcDbDictionary
280
     1
281
     1
  3
ADSK_XREC_LAYER_RECONCILED
360
47E
  0
DICTIONARY
  5
47F
330
94
100
AcDbDictionary
280
     1
281
     1
  3
ADSK_XREC_LAYER_RECONCILED
360
480
  0
DICTIONARY
  5
481
330
95
100
AcDbDictionary
280
     1
281
     1
  3
ADSK_XREC_LAYER_RECONCILED
360
482
  0
DICTIONARY
  5
483
330
96
100
AcDbDictionary
280
     1
281
     1
  3
ADSK_XREC_LAYER_RECONCILED
360
484
  0
DICTIONARY
  5
485
330
97
100
AcDbDictionary
280
     1
281
     1
  3
ADSK_XREC_LAYER_RECONCILED
360
486
  0
DICTIONARY
  5
487
330
98
100
AcDbDictionary
280
     1
281
     1
  3
ADSK_XREC_LAYER_RECONCILED
360
488
  0
DICTIONARY
  5
489
330
99
100
AcDbDictionary
280
     1
281
     1
  3
ADSK_XREC_LAYER_RECONCILED
360
48A
  0
DICTIONARY
  5
48B
330
9A
100
AcDbDictionary
280
     1
281
     1
  3
ADSK_XREC_LAYER_RECONCILED
360
48C
  0
DICTIONARY
  5
48D
330
9B
100
AcDbDictionary
280
     1
281
     1
  3
ADSK_XREC_LAYER_RECONCILED
360
48E
  0
DICTIONARY
  5
48F
330
9C
100
AcDbDictionary
280
     1
281
     1
  3
ADSK_XREC_LAYER_RECONCILED
360
490
  0
DICTIONARY
  5
491
330
9D
100
AcDbDictionary
280
     1
281
     1
  3
ADSK_XREC_LAYER_RECONCILED
360
492
  0
DICTIONARY
  5
493
330
9E
100
AcDbDictionary
280
     1
281
     1
  3
ADSK_XREC_LAYER_RECONCILED
360
494
  0
DICTIONARY
  5
495
330
9F
100
AcDbDictionary
280
     1
281
     1
  3
ADSK_XREC_LAYER_RECONCILED
360
496
  0
DICTIONARY
  5
497
330
A0
100
AcDbDictionary
280
     1
281
     1
  3
ADSK_XREC_LAYER_RECONCILED
360
498
  0
DICTIONARY
  5
499
330
A1
100
AcDbDictionary
280
     1
281
     1
  3
ADSK_XREC_LAYER_RECONCILED
360
49A
  0
DICTIONARY
  5
49B
330
A2
100
AcDbDictionary
280
     1
281
     1
  3
ADSK_XREC_LAYER_RECONCILED
360
49C
  0
DICTIONARY
  5
49D
330
A3
100
AcDbDictionary
280
     1
281
     1
  3
ADSK_XREC_LAYER_RECONCILED
360
49E
  0
DICTIONARY
  5
49F
330
A4
100
AcDbDictionary
280
     1
281
     1
  3
ADSK_XREC_LAYER_RECONCILED
360
4A0
  0
DICTIONARY
  5
4A1
330
A5
100
AcDbDictionary
280
     1
281
     1
  3
ADSK_XREC_LAYER_RECONCILED
360
4A2
  0
DICTIONARY
  5
4A3
330
A6
100
AcDbDictionary
280
     1
281
     1
  3
ADSK_XREC_LAYER_RECONCILED
360
4A4
  0
DICTIONARY
  5
4A5
330
A7
100
AcDbDictionary
280
     1
281
     1
  3
ADSK_XREC_LAYER_RECONCILED
360
4A6
  0
DICTIONARY
  5
4A7
330
A8
100
AcDbDictionary
280
     1
281
     1
  3
ADSK_XREC_LAYER_RECONCILED
360
4A8
  0
DICTIONARY
  5
4A9
330
A9
100
AcDbDictionary
280
     1
281
     1
  3
ADSK_XREC_LAYER_RECONCILED
360
4AA
  0
DICTIONARY
  5
4AB
330
AA
100
AcDbDictionary
280
     1
281
     1
  3
ADSK_XREC_LAYER_RECONCILED
360
4AC
  0
DICTIONARY
  5
4AD
330
AB
100
AcDbDictionary
280
     1
281
     1
  3
ADSK_XREC_LAYER_RECONCILED
360
4AE
  0
DICTIONARY
  5
4AF
330
AC
100
AcDbDictionary
280
     1
281
     1
  3
ADSK_XREC_LAYER_RECONCILED
360
4B0
  0
DICTIONARY
  5
4B1
330
AD
100
AcDbDictionary
280
     1
281
     1
  3
ADSK_XREC_LAYER_RECONCILED
360
4B2
  0
DICTIONARY
  5
4B3
330
AE
100
AcDbDictionary
280
     1
281
     1
  3
ADSK_XREC_LAYER_RECONCILED
360
4B4
  0
DICTIONARY
  5
4B5
330
AF
100
AcDbDictionary
280
     1
281
     1
  3
ADSK_XREC_LAYER_RECONCILED
360
4B6
  0
DICTIONARY
  5
4B7
330
B0
100
AcDbDictionary
280
     1
281
     1
  3
ADSK_XREC_LAYER_RECONCILED
360
4B8
  0
DICTIONARY
  5
4B9
330
B1
100
AcDbDictionary
280
     1
281
     1
  3
ADSK_XREC_LAYER_RECONCILED
360
4BA
  0
DICTIONARY
  5
4BB
330
B2
100
AcDbDictionary
280
     1
281
     1
  3
ADSK_XREC_LAYER_RECONCILED
360
4BC
  0
DICTIONARY
  5
4BD
330
B3
100
AcDbDictionary
280
     1
281
     1
  3
ADSK_XREC_LAYER_RECONCILED
360
4BE
  0
DICTIONARY
  5
4BF
330
B4
100
AcDbDictionary
280
     1
281
     1
  3
ADSK_XREC_LAYER_RECONCILED
360
4C0
  0
DICTIONARY
  5
4C1
330
B5
100
AcDbDictionary
280
     1
281
     1
  3
ADSK_XREC_LAYER_RECONCILED
360
4C2
  0
DICTIONARY
  5
4C3
330
B6
100
AcDbDictionary
280
     1
281
     1
  3
ADSK_XREC_LAYER_RECONCILED
360
4C4
  0
DICTIONARY
  5
4C5
330
B7
100
AcDbDictionary
280
     1
281
     1
  3
ADSK_XREC_LAYER_RECONCILED
360
4C6
  0
DICTIONARY
  5
4C7
330
B8
100
AcDbDictionary
280
     1
281
     1
  3
ADSK_XREC_LAYER_RECONCILED
360
4C8
  0
DICTIONARY
  5
4C9
330
B9
100
AcDbDictionary
280
     1
281
     1
  3
ADSK_XREC_LAYER_RECONCILED
360
4CA
  0
DICTIONARY
  5
4CB
330
BA
100
AcDbDictionary
280
     1
281
     1
  3
ADSK_XREC_LAYER_RECONCILED
360
4CC
  0
DICTIONARY
  5
4CD
330
BB
100
AcDbDictionary
280
     1
281
     1
  3
ADSK_XREC_LAYER_RECONCILED
360
4CE
  0
DICTIONARY
  5
4CF
330
BC
100
AcDbDictionary
280
     1
281
     1
  3
ADSK_XREC_LAYER_RECONCILED
360
4D0
  0
DICTIONARY
  5
4D1
330
BD
100
AcDbDictionary
280
     1
281
     1
  3
ADSK_XREC_LAYER_RECONCILED
360
4D2
  0
DICTIONARY
  5
4D3
330
BE
100
AcDbDictionary
280
     1
281
     1
  3
ADSK_XREC_LAYER_RECONCILED
360
4D4
  0
DICTIONARY
  5
4D5
330
BF
100
AcDbDictionary
280
     1
281
     1
  3
ADSK_XREC_LAYER_RECONCILED
360
4D6
  0
DICTIONARY
  5
4D7
330
C0
100
AcDbDictionary
280
     1
281
     1
  3
ADSK_XREC_LAYER_RECONCILED
360
4D8
  0
DICTIONARY
  5
4D9
330
C1
100
AcDbDictionary
280
     1
281
     1
  3
ADSK_XREC_LAYER_RECONCILED
360
4DA
  0
DICTIONARY
  5
4DB
330
C2
100
AcDbDictionary
280
     1
281
     1
  3
ADSK_XREC_LAYER_RECONCILED
360
4DC
  0
DICTIONARY
  5
4DD
330
C3
100
AcDbDictionary
280
     1
281
     1
  3
ADSK_XREC_LAYER_RECONCILED
360
4DE
  0
DICTIONARY
  5
4DF
330
C4
100
AcDbDictionary
280
     1
281
     1
  3
ADSK_XREC_LAYER_RECONCILED
360
4E0
  0
DICTIONARY
  5
4E1
330
C5
100
AcDbDictionary
280
     1
281
     1
  3
ADSK_XREC_LAYER_RECONCILED
360
4E2
  0
DICTIONARY
  5
4E3
330
C6
100
AcDbDictionary
280
     1
281
     1
  3
ADSK_XREC_LAYER_RECONCILED
360
4E4
  0
DICTIONARY
  5
4E5
330
C7
100
AcDbDictionary
280
     1
281
     1
  3
ADSK_XREC_LAYER_RECONCILED
360
4E6
  0
DICTIONARY
  5
4E7
330
C8
100
AcDbDictionary
280
     1
281
     1
  3
ADSK_XREC_LAYER_RECONCILED
360
4E8
  0
DICTIONARY
  5
4E9
330
C9
100
AcDbDictionary
280
     1
281
     1
  3
ADSK_XREC_LAYER_RECONCILED
360
4EA
  0
DICTIONARY
  5
4EB
330
CA
100
AcDbDictionary
280
     1
281
     1
  3
ADSK_XREC_LAYER_RECONCILED
360
4EC
  0
DICTIONARY
  5
4ED
330
CB
100
AcDbDictionary
280
     1
281
     1
  3
ADSK_XREC_LAYER_RECONCILED
360
4EE
  0
DICTIONARY
  5
4EF
330
CC
100
AcDbDictionary
280
     1
281
     1
  3
ADSK_XREC_LAYER_RECONCILED
360
4F0
  0
DICTIONARY
  5
4F1
330
CD
100
AcDbDictionary
280
     1
281
     1
  3
ADSK_XREC_LAYER_RECONCILED
360
4F2
  0
DICTIONARY
  5
4F3
330
CE
100
AcDbDictionary
280
     1
281
     1
  3
ADSK_XREC_LAYER_RECONCILED
360
4F4
  0
DICTIONARY
  5
4F5
330
CF
100
AcDbDictionary
280
     1
281
     1
  3
ADSK_XREC_LAYER_RECONCILED
360
4F6
  0
DICTIONARY
  5
4F7
330
D0
100
AcDbDictionary
280
     1
281
     1
  3
ADSK_XREC_LAYER_RECONCILED
360
4F8
  0
DICTIONARY
  5
4F9
330
D1
100
AcDbDictionary
280
     1
281
     1
  3
ADSK_XREC_LAYER_RECONCILED
360
4FA
  0
DICTIONARY
  5
4FB
330
D2
100
AcDbDictionary
280
     1
281
     1
  3
ADSK_XREC_LAYER_RECONCILED
360
4FC
  0
DICTIONARY
  5
4FD
330
D3
100
AcDbDictionary
280
     1
281
     1
  3
ADSK_XREC_LAYER_RECONCILED
360
4FE
  0
DICTIONARY
  5
4FF
330
D4
100
AcDbDictionary
280
     1
281
     1
  3
ADSK_XREC_LAYER_RECONCILED
360
500
  0
DICTIONARY
  5
501
330
D5
100
AcDbDictionary
280
     1
281
     1
  3
ADSK_XREC_LAYER_RECONCILED
360
502
  0
DICTIONARY
  5
503
330
D6
100
AcDbDictionary
280
     1
281
     1
  3
ADSK_XREC_LAYER_RECONCILED
360
504
  0
DICTIONARY
  5
505
330
D7
100
AcDbDictionary
280
     1
281
     1
  3
ADSK_XREC_LAYER_RECONCILED
360
506
  0
DICTIONARY
  5
507
330
D8
100
AcDbDictionary
280
     1
281
     1
  3
ADSK_XREC_LAYER_RECONCILED
360
508
  0
DICTIONARY
  5
509
330
D9
100
AcDbDictionary
280
     1
281
     1
  3
ADSK_XREC_LAYER_RECONCILED
360
50A
  0
DICTIONARY
  5
50B
330
DA
100
AcDbDictionary
280
     1
281
     1
  3
ADSK_XREC_LAYER_RECONCILED
360
50C
  0
DICTIONARY
  5
50D
330
DB
100
AcDbDictionary
280
     1
281
     1
  3
ADSK_XREC_LAYER_RECONCILED
360
50E
  0
DICTIONARY
  5
50F
330
DC
100
AcDbDictionary
280
     1
281
     1
  3
ADSK_XREC_LAYER_RECONCILED
360
510
  0
DICTIONARY
  5
511
330
DD
100
AcDbDictionary
280
     1
281
     1
  3
ADSK_XREC_LAYER_RECONCILED
360
512
  0
DICTIONARY
  5
513
330
DE
100
AcDbDictionary
280
     1
281
     1
  3
ADSK_XREC_LAYER_RECONCILED
360
514
  0
DICTIONARY
  5
515
330
DF
100
AcDbDictionary
280
     1
281
     1
  3
ADSK_XREC_LAYER_RECONCILED
360
516
  0
DICTIONARY
  5
517
330
E0
100
AcDbDictionary
280
     1
281
     1
  3
ADSK_XREC_LAYER_RECONCILED
360
518
  0
DICTIONARY
  5
519
330
E1
100
AcDbDictionary
280
     1
281
     1
  3
ADSK_XREC_LAYER_RECONCILED
360
51A
  0
DICTIONARY
  5
1B
102
{ACAD_REACTORS
330
C
102
}
330
C
100
AcDbDictionary
281
     1
  0
DICTIONARY
  5
D
102
{ACAD_REACTORS
330
C
102
}
330
C
100
AcDbDictionary
281
     1
  0
DICTIONARY
  5
19
102
{ACAD_REACTORS
330
C
102
}
330
C
100
AcDbDictionary
281
     1
  3
Layout1
350
21
  3
Model
350
25
  0
DICTIONARY
  5
1A
102
{ACAD_REACTORS
330
C
102
}
330
C
100
AcDbDictionary
281
     1
  3
ByBlock
350
2C8
  3
ByLayer
350
2C0
  3
Global
350
2D0
  0
DICTIONARY
  5
30E
102
{ACAD_REACTORS
330
C
102
}
330
C
100
AcDbDictionary
281
     1
  3
Standard
350
30F
  0
DICTIONARY
  5
16
102
{ACAD_REACTORS
330
C
102
}
330
C
100
AcDbDictionary
281
     1
  3
Standard
350
17
  0
DICTIONARY
  5
18
102
{ACAD_REACTORS
330
C
102
}
330
C
100
AcDbDictionary
281
     1
  0
ACDBDICTIONARYWDFLT
  5
E
102
{ACAD_REACTORS
330
C
102
}
330
C
100
AcDbDictionary
281
     1
  3
Normal
350
F
100
AcDbDictionaryWithDefault
340
F
  0
DICTIONARY
  5
2EC
102
{ACAD_REACTORS
330
C
102
}
330
C
100
AcDbDictionary
281
     1
  3
A0
350
2ED
  3
A1
350
2EE
  3
A2
350
2EF
  3
A3
350
2F0
  3
A4
350
2F1
  3
A5
350
2F2
  3
A6
350
2F3
  3
A7
350
2F4
  3
A8
350
2F5
  3
A9
350
2F6
  3
B0
350
2F7
  3
B1
350
2F8
  3
B2
350
2F9
  3
B3
350
2FA
  3
B4
350
2FB
  3
B5
350
2FC
  3
B6
350
2FD
  3
B7
350
2FE
  3
B8
350
2FF
  3
B9
350
300
  3
C0
350
301
  3
C1
350
302
  3
C2
350
303
  3
C3
350
304
  3
C4
350
305
  3
C5
350
306
  3
C6
350
307
  3
C7
350
308
  3
C8
350
309
  3
C9
350
30A
  3
D0
350
30B
  3
D1
350
30C
  3
D2
350
30D
  0
DICTIONARY
  5
1C
102
{ACAD_REACTORS
330
C
102
}
330
C
100
AcDbDictionary
281
     1
  3
Standard
350
1D
  0
DICTIONARY
  5
2D8
102
{ACAD_REACTORS
330
C
102
}
330
C
100
AcDbDictionary
281
     1
  3
2dWireframe
350
2DE
  3
3D Hidden
350
2E0
  3
3dWireframe
350
2DF
  3
Basic
350
2DD
  3
Brighten
350
2E4
  3
ColorChange
350
2E8
  3
Conceptual
350
2E1
  3
Dim
350
2E3
  3
EdgeColorOff
350
2EB
  3
Facepattern
350
2E7
  3
Flat
350
2D9
  3
FlatWithEdges
350
2DA
  3
Gouraud
350
2DB
  3
GouraudWithEdges
350
2DC
  3
JitterOff
350
2E9
  3
Linepattern
350
2E6
  3
OverhangOff
350
2EA
  3
Realistic
350
2E2
  3
Thicken
350
2E5
  0
XRECORD
  5
522
102
{ACAD_REACTORS
330
C
102
}
330
C
100
AcDbXrecord
280
     1
 90
        1
330
1D
  0
DICTIONARY
  5
2B2
102
{ACAD_REACTORS
330
C
102
}
330
C
100
AcDbDictionary
281
     1
  3
CANNOSCALE
350
51C
  3
CMLEADERSTYLE
350
51B
  3
CTABLESTYLE
350
2B3
  3
DIMASSOC
350
2B4
  3
INDEXCTL
350
51E
  3
PROJECTNAME
350
2B5
  3
SORTENTS
350
51D
  3
XCLIPFRAME
350
51F
  0
DICTIONARY
  5
368
102
{ACAD_REACTORS
330
C
102
}
330
C
100
AcDbDictionary
281
     1
  3
AcmStdDictionary
350
372
  0
DICTIONARY
  5
348
102
{ACAD_REACTORS
330
C
102
}
330
C
100
AcDbDictionary
281
     1
  0
DICTIONARY
  5
3A8
102
{ACAD_REACTORS
330
C
102
}
330
C
100
AcDbDictionary
281
     1
  0
XRECORD
  5
523
102
{ACAD_REACTORS
330
C
102
}
330
C
100
AcDbXrecord
280
     1
  1
DWGPROPS COOKIE
  2

  3

  4

  6

  7

  8
nick.oyenik
  9

300
=
301
=
302
=
303
=
304
=
305
=
306
=
307
=
308
=
309
=
 40
0.0013682986111111
 41
2454959.519021007
 42
2456645.413734595
  1

 90
        0
  0
XRECORD
  5
3B0
102
{ACAD_REACTORS
330
3AF
102
}
330
3AF
100
AcDbXrecord
280
     1
290
     1
  0
XRECORD
  5
3B2
102
{ACAD_REACTORS
330
3B1
102
}
330
3B1
100
AcDbXrecord
280
     1
290
     1
  0
XRECORD
  5
3B4
102
{ACAD_REACTORS
330
3B3
102
}
330
3B3
100
AcDbXrecord
280
     1
290
     1
  0
XRECORD
  5
3B6
102
{ACAD_REACTORS
330
3B5
102
}
330
3B5
100
AcDbXrecord
280
     1
290
     1
  0
XRECORD
  5
3B8
102
{ACAD_REACTORS
330
3B7
102
}
330
3B7
100
AcDbXrecord
280
     1
290
     1
  0
XRECORD
  5
3BA
102
{ACAD_REACTORS
330
3B9
102
}
330
3B9
100
AcDbXrecord
280
     1
290
     1
  0
XRECORD
  5
3BC
102
{ACAD_REACTORS
330
3BB
102
}
330
3BB
100
AcDbXrecord
280
     1
290
     1
  0
XRECORD
  5
3BE
102
{ACAD_REACTORS
330
3BD
102
}
330
3BD
100
AcDbXrecord
280
     1
290
     1
  0
XRECORD
  5
3C0
102
{ACAD_REACTORS
330
3BF
102
}
330
3BF
100
AcDbXrecord
280
     1
290
     1
  0
XRECORD
  5
3C2
102
{ACAD_REACTORS
330
3C1
102
}
330
3C1
100
AcDbXrecord
280
     1
290
     1
  0
XRECORD
  5
3C4
102
{ACAD_REACTORS
330
3C3
102
}
330
3C3
100
AcDbXrecord
280
     1
290
     1
  0
XRECORD
  5
3C6
102
{ACAD_REACTORS
330
3C5
102
}
330
3C5
100
AcDbXrecord
280
     1
290
     1
  0
XRECORD
  5
3C8
102
{ACAD_REACTORS
330
3C7
102
}
330
3C7
100
AcDbXrecord
280
     1
290
     1
  0
XRECORD
  5
3CA
102
{ACAD_REACTORS
330
3C9
102
}
330
3C9
100
AcDbXrecord
280
     1
290
     1
  0
XRECORD
  5
3CC
102
{ACAD_REACTORS
330
3CB
102
}
330
3CB
100
AcDbXrecord
280
     1
290
     1
  0
XRECORD
  5
3CE
102
{ACAD_REACTORS
330
3CD
102
}
330
3CD
100
AcDbXrecord
280
     1
290
     1
  0
XRECORD
  5
3D0
102
{ACAD_REACTORS
330
3CF
102
}
330
3CF
100
AcDbXrecord
280
     1
290
     1
  0
XRECORD
  5
3D2
102
{ACAD_REACTORS
330
3D1
102
}
330
3D1
100
AcDbXrecord
280
     1
290
     1
  0
XRECORD
  5
3D4
102
{ACAD_REACTORS
330
3D3
102
}
330
3D3
100
AcDbXrecord
280
     1
290
     1
  0
XRECORD
  5
3D6
102
{ACAD_REACTORS
330
3D5
102
}
330
3D5
100
AcDbXrecord
280
     1
290
     1
  0
XRECORD
  5
3D8
102
{ACAD_REACTORS
330
3D7
102
}
330
3D7
100
AcDbXrecord
280
     1
290
     1
  0
XRECORD
  5
3DA
102
{ACAD_REACTORS
330
3D9
102
}
330
3D9
100
AcDbXrecord
280
     1
290
     1
  0
XRECORD
  5
3DC
102
{ACAD_REACTORS
330
3DB
102
}
330
3DB
100
AcDbXrecord
280
     1
290
     1
  0
XRECORD
  5
3DE
102
{ACAD_REACTORS
330
3DD
102
}
330
3DD
100
AcDbXrecord
280
     1
290
     1
  0
XRECORD
  5
3E0
102
{ACAD_REACTORS
330
3DF
102
}
330
3DF
100
AcDbXrecord
280
     1
290
     1
  0
XRECORD
  5
3E2
102
{ACAD_REACTORS
330
3E1
102
}
330
3E1
100
AcDbXrecord
280
     1
290
     1
  0
XRECORD
  5
3E4
102
{ACAD_REACTORS
330
3E3
102
}
330
3E3
100
AcDbXrecord
280
     1
290
     1
  0
XRECORD
  5
3E6
102
{ACAD_REACTORS
330
3E5
102
}
330
3E5
100
AcDbXrecord
280
     1
290
     1
  0
XRECORD
  5
3E8
102
{ACAD_REACTORS
330
3E7
102
}
330
3E7
100
AcDbXrecord
280
     1
290
     1
  0
XRECORD
  5
3EA
102
{ACAD_REACTORS
330
3E9
102
}
330
3E9
100
AcDbXrecord
280
     1
290
     1
  0
XRECORD
  5
3EC
102
{ACAD_REACTORS
330
3EB
102
}
330
3EB
100
AcDbXrecord
280
     1
290
     1
  0
XRECORD
  5
3EE
102
{ACAD_REACTORS
330
3ED
102
}
330
3ED
100
AcDbXrecord
280
     1
290
     1
  0
XRECORD
  5
3F0
102
{ACAD_REACTORS
330
3EF
102
}
330
3EF
100
AcDbXrecord
280
     1
290
     1
  0
XRECORD
  5
3F2
102
{ACAD_REACTORS
330
3F1
102
}
330
3F1
100
AcDbXrecord
280
     1
290
     1
  0
XRECORD
  5
3F4
102
{ACAD_REACTORS
330
3F3
102
}
330
3F3
100
AcDbXrecord
280
     1
290
     1
  0
XRECORD
  5
3F6
102
{ACAD_REACTORS
330
3F5
102
}
330
3F5
100
AcDbXrecord
280
     1
290
     1
  0
XRECORD
  5
3F8
102
{ACAD_REACTORS
330
3F7
102
}
330
3F7
100
AcDbXrecord
280
     1
290
     1
  0
XRECORD
  5
3FA
102
{ACAD_REACTORS
330
3F9
102
}
330
3F9
100
AcDbXrecord
280
     1
290
     1
  0
XRECORD
  5
3FC
102
{ACAD_REACTORS
330
3FB
102
}
330
3FB
100
AcDbXrecord
280
     1
290
     1
  0
XRECORD
  5
3FE
102
{ACAD_REACTORS
330
3FD
102
}
330
3FD
100
AcDbXrecord
280
     1
290
     1
  0
XRECORD
  5
400
102
{ACAD_REACTORS
330
3FF
102
}
330
3FF
100
AcDbXrecord
280
     1
290
     1
  0
XRECORD
  5
402
102
{ACAD_REACTORS
330
401
102
}
330
401
100
AcDbXrecord
280
     1
290
     1
  0
XRECORD
  5
404
102
{ACAD_REACTORS
330
403
102
}
330
403
100
AcDbXrecord
280
     1
290
     1
  0
XRECORD
  5
406
102
{ACAD_REACTORS
330
405
102
}
330
405
100
AcDbXrecord
280
     1
290
     1
  0
XRECORD
  5
408
102
{ACAD_REACTORS
330
407
102
}
330
407
100
AcDbXrecord
280
     1
290
     1
  0
XRECORD
  5
40A
102
{ACAD_REACTORS
330
409
102
}
330
409
100
AcDbXrecord
280
     1
290
     1
  0
XRECORD
  5
40C
102
{ACAD_REACTORS
330
40B
102
}
330
40B
100
AcDbXrecord
280
     1
290
     1
  0
XRECORD
  5
40E
102
{ACAD_REACTORS
330
40D
102
}
330
40D
100
AcDbXrecord
280
     1
290
     1
  0
XRECORD
  5
410
102
{ACAD_REACTORS
330
40F
102
}
330
40F
100
AcDbXrecord
280
     1
290
     1
  0
XRECORD
  5
412
102
{ACAD_REACTORS
330
411
102
}
330
411
100
AcDbXrecord
280
     1
290
     1
  0
XRECORD
  5
414
102
{ACAD_REACTORS
330
413
102
}
330
413
100
AcDbXrecord
280
     1
290
     1
  0
XRECORD
  5
416
102
{ACAD_REACTORS
330
415
102
}
330
415
100
AcDbXrecord
280
     1
290
     1
  0
XRECORD
  5
418
102
{ACAD_REACTORS
330
417
102
}
330
417
100
AcDbXrecord
280
     1
290
     1
  0
XRECORD
  5
41A
102
{ACAD_REACTORS
330
419
102
}
330
419
100
AcDbXrecord
280
     1
290
     1
  0
XRECORD
  5
41C
102
{ACAD_REACTORS
330
41B
102
}
330
41B
100
AcDbXrecord
280
     1
290
     1
  0
XRECORD
  5
41E
102
{ACAD_REACTORS
330
41D
102
}
330
41D
100
AcDbXrecord
280
     1
290
     1
  0
XRECORD
  5
420
102
{ACAD_REACTORS
330
41F
102
}
330
41F
100
AcDbXrecord
280
     1
290
     1
  0
XRECORD
  5
422
102
{ACAD_REACTORS
330
421
102
}
330
421
100
AcDbXrecord
280
     1
290
     1
  0
XRECORD
  5
424
102
{ACAD_REACTORS
330
423
102
}
330
423
100
AcDbXrecord
280
     1
290
     1
  0
XRECORD
  5
426
102
{ACAD_REACTORS
330
425
102
}
330
425
100
AcDbXrecord
280
     1
290
     1
  0
XRECORD
  5
428
102
{ACAD_REACTORS
330
427
102
}
330
427
100
AcDbXrecord
280
     1
290
     1
  0
XRECORD
  5
42A
102
{ACAD_REACTORS
330
429
102
}
330
429
100
AcDbXrecord
280
     1
290
     1
  0
XRECORD
  5
42C
102
{ACAD_REACTORS
330
42B
102
}
330
42B
100
AcDbXrecord
280
     1
290
     1
  0
XRECORD
  5
42E
102
{ACAD_REACTORS
330
42D
102
}
330
42D
100
AcDbXrecord
280
     1
290
     1
  0
XRECORD
  5
430
102
{ACAD_REACTORS
330
42F
102
}
330
42F
100
AcDbXrecord
280
     1
290
     1
  0
XRECORD
  5
432
102
{ACAD_REACTORS
330
431
102
}
330
431
100
AcDbXrecord
280
     1
290
     1
  0
XRECORD
  5
434
102
{ACAD_REACTORS
330
433
102
}
330
433
100
AcDbXrecord
280
     1
290
     1
  0
XRECORD
  5
436
102
{ACAD_REACTORS
330
435
102
}
330
435
100
AcDbXrecord
280
     1
290
     1
  0
XRECORD
  5
438
102
{ACAD_REACTORS
330
437
102
}
330
437
100
AcDbXrecord
280
     1
290
     1
  0
XRECORD
  5
43A
102
{ACAD_REACTORS
330
439
102
}
330
439
100
AcDbXrecord
280
     1
290
     1
  0
XRECORD
  5
43C
102
{ACAD_REACTORS
330
43B
102
}
330
43B
100
AcDbXrecord
280
     1
290
     1
  0
XRECORD
  5
43E
102
{ACAD_REACTORS
330
43D
102
}
330
43D
100
AcDbXrecord
280
     1
290
     1
  0
XRECORD
  5
440
102
{ACAD_REACTORS
330
43F
102
}
330
43F
100
AcDbXrecord
280
     1
290
     1
  0
XRECORD
  5
442
102
{ACAD_REACTORS
330
441
102
}
330
441
100
AcDbXrecord
280
     1
290
     1
  0
XRECORD
  5
444
102
{ACAD_REACTORS
330
443
102
}
330
443
100
AcDbXrecord
280
     1
290
     1
  0
XRECORD
  5
446
102
{ACAD_REACTORS
330
445
102
}
330
445
100
AcDbXrecord
280
     1
290
     1
  0
XRECORD
  5
448
102
{ACAD_REACTORS
330
447
102
}
330
447
100
AcDbXrecord
280
     1
290
     1
  0
XRECORD
  5
44A
102
{ACAD_REACTORS
330
449
102
}
330
449
100
AcDbXrecord
280
     1
290
     1
  0
XRECORD
  5
44C
102
{ACAD_REACTORS
330
44B
102
}
330
44B
100
AcDbXrecord
280
     1
290
     1
  0
XRECORD
  5
44E
102
{ACAD_REACTORS
330
44D
102
}
330
44D
100
AcDbXrecord
280
     1
290
     1
  0
XRECORD
  5
450
102
{ACAD_REACTORS
330
44F
102
}
330
44F
100
AcDbXrecord
280
     1
290
     1
  0
XRECORD
  5
452
102
{ACAD_REACTORS
330
451
102
}
330
451
100
AcDbXrecord
280
     1
290
     1
  0
XRECORD
  5
454
102
{ACAD_REACTORS
330
453
102
}
330
453
100
AcDbXrecord
280
     1
290
     1
  0
XRECORD
  5
456
102
{ACAD_REACTORS
330
455
102
}
330
455
100
AcDbXrecord
280
     1
290
     1
  0
XRECORD
  5
458
102
{ACAD_REACTORS
330
457
102
}
330
457
100
AcDbXrecord
280
     1
290
     1
  0
XRECORD
  5
45A
102
{ACAD_REACTORS
330
459
102
}
330
459
100
AcDbXrecord
280
     1
290
     1
  0
XRECORD
  5
45C
102
{ACAD_REACTORS
330
45B
102
}
330
45B
100
AcDbXrecord
280
     1
290
     1
  0
XRECORD
  5
45E
102
{ACAD_REACTORS
330
45D
102
}
330
45D
100
AcDbXrecord
280
     1
290
     1
  0
XRECORD
  5
460
102
{ACAD_REACTORS
330
45F
102
}
330
45F
100
AcDbXrecord
280
     1
290
     1
  0
XRECORD
  5
462
102
{ACAD_REACTORS
330
461
102
}
330
461
100
AcDbXrecord
280
     1
290
     1
  0
XRECORD
  5
464
102
{ACAD_REACTORS
330
463
102
}
330
463
100
AcDbXrecord
280
     1
290
     1
  0
XRECORD
  5
466
102
{ACAD_REACTORS
330
465
102
}
330
465
100
AcDbXrecord
280
     1
290
     1
  0
XRECORD
  5
468
102
{ACAD_REACTORS
330
467
102
}
330
467
100
AcDbXrecord
280
     1
290
     1
  0
XRECORD
  5
46A
102
{ACAD_REACTORS
330
469
102
}
330
469
100
AcDbXrecord
280
     1
290
     1
  0
XRECORD
  5
46C
102
{ACAD_REACTORS
330
46B
102
}
330
46B
100
AcDbXrecord
280
     1
290
     1
  0
XRECORD
  5
46E
102
{ACAD_REACTORS
330
46D
102
}
330
46D
100
AcDbXrecord
280
     1
290
     1
  0
XRECORD
  5
470
102
{ACAD_REACTORS
330
46F
102
}
330
46F
100
AcDbXrecord
280
     1
290
     1
  0
XRECORD
  5
472
102
{ACAD_REACTORS
330
471
102
}
330
471
100
AcDbXrecord
280
     1
290
     1
  0
XRECORD
  5
474
102
{ACAD_REACTORS
330
473
102
}
330
473
100
AcDbXrecord
280
     1
290
     1
  0
XRECORD
  5
476
102
{ACAD_REACTORS
330
475
102
}
330
475
100
AcDbXrecord
280
     1
290
     1
  0
XRECORD
  5
478
102
{ACAD_REACTORS
330
477
102
}
330
477
100
AcDbXrecord
280
     1
290
     1
  0
XRECORD
  5
47A
102
{ACAD_REACTORS
330
479
102
}
330
479
100
AcDbXrecord
280
     1
290
     1
  0
XRECORD
  5
47C
102
{ACAD_REACTORS
330
47B
102
}
330
47B
100
AcDbXrecord
280
     1
290
     1
  0
XRECORD
  5
47E
102
{ACAD_REACTORS
330
47D
102
}
330
47D
100
AcDbXrecord
280
     1
290
     1
  0
XRECORD
  5
480
102
{ACAD_REACTORS
330
47F
102
}
330
47F
100
AcDbXrecord
280
     1
290
     1
  0
XRECORD
  5
482
102
{ACAD_REACTORS
330
481
102
}
330
481
100
AcDbXrecord
280
     1
290
     1
  0
XRECORD
  5
484
102
{ACAD_REACTORS
330
483
102
}
330
483
100
AcDbXrecord
280
     1
290
     1
  0
XRECORD
  5
486
102
{ACAD_REACTORS
330
485
102
}
330
485
100
AcDbXrecord
280
     1
290
     1
  0
XRECORD
  5
488
102
{ACAD_REACTORS
330
487
102
}
330
487
100
AcDbXrecord
280
     1
290
     1
  0
XRECORD
  5
48A
102
{ACAD_REACTORS
330
489
102
}
330
489
100
AcDbXrecord
280
     1
290
     1
  0
XRECORD
  5
48C
102
{ACAD_REACTORS
330
48B
102
}
330
48B
100
AcDbXrecord
280
     1
290
     1
  0
XRECORD
  5
48E
102
{ACAD_REACTORS
330
48D
102
}
330
48D
100
AcDbXrecord
280
     1
290
     1
  0
XRECORD
  5
490
102
{ACAD_REACTORS
330
48F
102
}
330
48F
100
AcDbXrecord
280
     1
290
     1
  0
XRECORD
  5
492
102
{ACAD_REACTORS
330
491
102
}
330
491
100
AcDbXrecord
280
     1
290
     1
  0
XRECORD
  5
494
102
{ACAD_REACTORS
330
493
102
}
330
493
100
AcDbXrecord
280
     1
290
     1
  0
XRECORD
  5
496
102
{ACAD_REACTORS
330
495
102
}
330
495
100
AcDbXrecord
280
     1
290
     1
  0
XRECORD
  5
498
102
{ACAD_REACTORS
330
497
102
}
330
497
100
AcDbXrecord
280
     1
290
     1
  0
XRECORD
  5
49A
102
{ACAD_REACTORS
330
499
102
}
330
499
100
AcDbXrecord
280
     1
290
     1
  0
XRECORD
  5
49C
102
{ACAD_REACTORS
330
49B
102
}
330
49B
100
AcDbXrecord
280
     1
290
     1
  0
XRECORD
  5
49E
102
{ACAD_REACTORS
330
49D
102
}
330
49D
100
AcDbXrecord
280
     1
290
     1
  0
XRECORD
  5
4A0
102
{ACAD_REACTORS
330
49F
102
}
330
49F
100
AcDbXrecord
280
     1
290
     1
  0
XRECORD
  5
4A2
102
{ACAD_REACTORS
330
4A1
102
}
330
4A1
100
AcDbXrecord
280
     1
290
     1
  0
XRECORD
  5
4A4
102
{ACAD_REACTORS
330
4A3
102
}
330
4A3
100
AcDbXrecord
280
     1
290
     1
  0
XRECORD
  5
4A6
102
{ACAD_REACTORS
330
4A5
102
}
330
4A5
100
AcDbXrecord
280
     1
290
     1
  0
XRECORD
  5
4A8
102
{ACAD_REACTORS
330
4A7
102
}
330
4A7
100
AcDbXrecord
280
     1
290
     1
  0
XRECORD
  5
4AA
102
{ACAD_REACTORS
330
4A9
102
}
330
4A9
100
AcDbXrecord
280
     1
290
     1
  0
XRECORD
  5
4AC
102
{ACAD_REACTORS
330
4AB
102
}
330
4AB
100
AcDbXrecord
280
     1
290
     1
  0
XRECORD
  5
4AE
102
{ACAD_REACTORS
330
4AD
102
}
330
4AD
100
AcDbXrecord
280
     1
290
     1
  0
XRECORD
  5
4B0
102
{ACAD_REACTORS
330
4AF
102
}
330
4AF
100
AcDbXrecord
280
     1
290
     1
  0
XRECORD
  5
4B2
102
{ACAD_REACTORS
330
4B1
102
}
330
4B1
100
AcDbXrecord
280
     1
290
     1
  0
XRECORD
  5
4B4
102
{ACAD_REACTORS
330
4B3
102
}
330
4B3
100
AcDbXrecord
280
     1
290
     1
  0
XRECORD
  5
4B6
102
{ACAD_REACTORS
330
4B5
102
}
330
4B5
100
AcDbXrecord
280
     1
290
     1
  0
XRECORD
  5
4B8
102
{ACAD_REACTORS
330
4B7
102
}
330
4B7
100
AcDbXrecord
280
     1
290
     1
  0
XRECORD
  5
4BA
102
{ACAD_REACTORS
330
4B9
102
}
330
4B9
100
AcDbXrecord
280
     1
290
     1
  0
XRECORD
  5
4BC
102
{ACAD_REACTORS
330
4BB
102
}
330
4BB
100
AcDbXrecord
280
     1
290
     1
  0
XRECORD
  5
4BE
102
{ACAD_REACTORS
330
4BD
102
}
330
4BD
100
AcDbXrecord
280
     1
290
     1
  0
XRECORD
  5
4C0
102
{ACAD_REACTORS
330
4BF
102
}
330
4BF
100
AcDbXrecord
280
     1
290
     1
  0
XRECORD
  5
4C2
102
{ACAD_REACTORS
330
4C1
102
}
330
4C1
100
AcDbXrecord
280
     1
290
     1
  0
XRECORD
  5
4C4
102
{ACAD_REACTORS
330
4C3
102
}
330
4C3
100
AcDbXrecord
280
     1
290
     1
  0
XRECORD
  5
4C6
102
{ACAD_REACTORS
330
4C5
102
}
330
4C5
100
AcDbXrecord
280
     1
290
     1
  0
XRECORD
  5
4C8
102
{ACAD_REACTORS
330
4C7
102
}
330
4C7
100
AcDbXrecord
280
     1
290
     1
  0
XRECORD
  5
4CA
102
{ACAD_REACTORS
330
4C9
102
}
330
4C9
100
AcDbXrecord
280
     1
290
     1
  0
XRECORD
  5
4CC
102
{ACAD_REACTORS
330
4CB
102
}
330
4CB
100
AcDbXrecord
280
     1
290
     1
  0
XRECORD
  5
4CE
102
{ACAD_REACTORS
330
4CD
102
}
330
4CD
100
AcDbXrecord
280
     1
290
     1
  0
XRECORD
  5
4D0
102
{ACAD_REACTORS
330
4CF
102
}
330
4CF
100
AcDbXrecord
280
     1
290
     1
  0
XRECORD
  5
4D2
102
{ACAD_REACTORS
330
4D1
102
}
330
4D1
100
AcDbXrecord
280
     1
290
     1
  0
XRECORD
  5
4D4
102
{ACAD_REACTORS
330
4D3
102
}
330
4D3
100
AcDbXrecord
280
     1
290
     1
  0
XRECORD
  5
4D6
102
{ACAD_REACTORS
330
4D5
102
}
330
4D5
100
AcDbXrecord
280
     1
290
     1
  0
XRECORD
  5
4D8
102
{ACAD_REACTORS
330
4D7
102
}
330
4D7
100
AcDbXrecord
280
     1
290
     1
  0
XRECORD
  5
4DA
102
{ACAD_REACTORS
330
4D9
102
}
330
4D9
100
AcDbXrecord
280
     1
290
     1
  0
XRECORD
  5
4DC
102
{ACAD_REACTORS
330
4DB
102
}
330
4DB
100
AcDbXrecord
280
     1
290
     1
  0
XRECORD
  5
4DE
102
{ACAD_REACTORS
330
4DD
102
}
330
4DD
100
AcDbXrecord
280
     1
290
     1
  0
XRECORD
  5
4E0
102
{ACAD_REACTORS
330
4DF
102
}
330
4DF
100
AcDbXrecord
280
     1
290
     1
  0
XRECORD
  5
4E2
102
{ACAD_REACTORS
330
4E1
102
}
330
4E1
100
AcDbXrecord
280
     1
290
     1
  0
XRECORD
  5
4E4
102
{ACAD_REACTORS
330
4E3
102
}
330
4E3
100
AcDbXrecord
280
     1
290
     1
  0
XRECORD
  5
4E6
102
{ACAD_REACTORS
330
4E5
102
}
330
4E5
100
AcDbXrecord
280
     1
290
     1
  0
XRECORD
  5
4E8
102
{ACAD_REACTORS
330
4E7
102
}
330
4E7
100
AcDbXrecord
280
     1
290
     1
  0
XRECORD
  5
4EA
102
{ACAD_REACTORS
330
4E9
102
}
330
4E9
100
AcDbXrecord
280
     1
290
     1
  0
XRECORD
  5
4EC
102
{ACAD_REACTORS
330
4EB
102
}
330
4EB
100
AcDbXrecord
280
     1
290
     1
  0
XRECORD
  5
4EE
102
{ACAD_REACTORS
330
4ED
102
}
330
4ED
100
AcDbXrecord
280
     1
290
     1
  0
XRECORD
  5
4F0
102
{ACAD_REACTORS
330
4EF
102
}
330
4EF
100
AcDbXrecord
280
     1
290
     1
  0
XRECORD
  5
4F2
102
{ACAD_REACTORS
330
4F1
102
}
330
4F1
100
AcDbXrecord
280
     1
290
     1
  0
XRECORD
  5
4F4
102
{ACAD_REACTORS
330
4F3
102
}
330
4F3
100
AcDbXrecord
280
     1
290
     1
  0
XRECORD
  5
4F6
102
{ACAD_REACTORS
330
4F5
102
}
330
4F5
100
AcDbXrecord
280
     1
290
     1
  0
XRECORD
  5
4F8
102
{ACAD_REACTORS
330
4F7
102
}
330
4F7
100
AcDbXrecord
280
     1
290
     1
  0
XRECORD
  5
4FA
102
{ACAD_REACTORS
330
4F9
102
}
330
4F9
100
AcDbXrecord
280
     1
290
     1
  0
XRECORD
  5
4FC
102
{ACAD_REACTORS
330
4FB
102
}
330
4FB
100
AcDbXrecord
280
     1
290
     1
  0
XRECORD
  5
4FE
102
{ACAD_REACTORS
330
4FD
102
}
330
4FD
100
AcDbXrecord
280
     1
290
     1
  0
XRECORD
  5
500
102
{ACAD_REACTORS
330
4FF
102
}
330
4FF
100
AcDbXrecord
280
     1
290
     1
  0
XRECORD
  5
502
102
{ACAD_REACTORS
330
501
102
}
330
501
100
AcDbXrecord
280
     1
290
     1
  0
XRECORD
  5
504
102
{ACAD_REACTORS
330
503
102
}
330
503
100
AcDbXrecord
280
     1
290
     1
  0
XRECORD
  5
506
102
{ACAD_REACTORS
330
505
102
}
330
505
100
AcDbXrecord
280
     1
290
     1
  0
XRECORD
  5
508
102
{ACAD_REACTORS
330
507
102
}
330
507
100
AcDbXrecord
280
     1
290
     1
  0
XRECORD
  5
50A
102
{ACAD_REACTORS
330
509
102
}
330
509
100
AcDbXrecord
280
     1
290
     1
  0
XRECORD
  5
50C
102
{ACAD_REACTORS
330
50B
102
}
330
50B
100
AcDbXrecord
280
     1
290
     1
  0
XRECORD
  5
50E
102
{ACAD_REACTORS
330
50D
102
}
330
50D
100
AcDbXrecord
280
     1
290
     1
  0
XRECORD
  5
510
102
{ACAD_REACTORS
330
50F
102
}
330
50F
100
AcDbXrecord
280
     1
290
     1
  0
XRECORD
  5
512
102
{ACAD_REACTORS
330
511
102
}
330
511
100
AcDbXrecord
280
     1
290
     1
  0
XRECORD
  5
514
102
{ACAD_REACTORS
330
513
102
}
330
513
100
AcDbXrecord
280
     1
290
     1
  0
XRECORD
  5
516
102
{ACAD_REACTORS
330
515
102
}
330
515
100
AcDbXrecord
280
     1
290
     1
  0
XRECORD
  5
518
102
{ACAD_REACTORS
330
517
102
}
330
517
100
AcDbXrecord
280
     1
290
     1
  0
XRECORD
  5
51A
102
{ACAD_REACTORS
330
519
102
}
330
519
100
AcDbXrecord
280
     1
290
     1
  0
LAYOUT
  5
21
102
{ACAD_XDICTIONARY
360
525
102
}
102
{ACAD_REACTORS
330
19
102
}
330
19
100
AcDbPlotSettings
  1

  2
\\LKFPBV\BV016
  4

  6

 40
0.0
 41
0.0
 42
0.0
 43
0.0
 44
0.0
 45
0.0
 46
0.0
 47
0.0
 48
0.0
 49
0.0
140
0.0
141
0.0
142
1.0
143
1.0
 70
   688
 72
     0
 73
     0
 74
     5
  7

 75
    16
147
1.0
148
0.0
149
0.0
100
AcDbLayout
  1
Layout1
 70
     1
 71
     1
 10
0.0
 20
0.0
 11
12.0
 21
9.0
 12
0.0
 22
0.0
 32
0.0
 14
1.000000000000000E+20
 24
1.000000000000000E+20
 34
1.000000000000000E+20
 15
-1.000000000000000E+20
 25
-1.000000000000000E+20
 35
-1.000000000000000E+20
146
0.0
 13
0.0
 23
0.0
 33
0.0
 16
1.0
 26
0.0
 36
0.0
 17
0.0
 27
1.0
 37
0.0
 76
     0
330
1E
  0
LAYOUT
  5
25
102
{ACAD_XDICTIONARY
360
527
102
}
102
{ACAD_REACTORS
330
19
102
}
330
19
100
AcDbPlotSettings
  1

  2
\\LKFPBV\BV016
  4

  6

 40
0.0
 41
0.0
 42
0.0
 43
0.0
 44
0.0
 45
0.0
 46
0.0
 47
0.0
 48
0.0
 49
0.0
140
0.0
141
0.0
142
1.0
143
1.0
 70
  1712
 72
     0
 73
     0
 74
     0
  7

 75
     0
147
1.0
148
0.0
149
0.0
100
AcDbLayout
  1
Model
 70
     1
 71
     0
 10
0.0
 20
0.0
 11
12.0
 21
9.0
 12
0.0
 22
0.0
 32
0.0
 14
0.0
 24
0.0
 34
0.0
 15
0.0
 25
0.0
 35
0.0
146
0.0
 13
0.0
 23
0.0
 33
0.0
 16
1.0
 26
0.0
 36
0.0
 17
0.0
 27
1.0
 37
0.0
 76
     0
330
22
331
2B6
  0
MATERIAL
  5
2C8
102
{ACAD_XDICTIONARY
360
2C9
102
}
102
{ACAD_REACTORS
330
1A
102
}
330
1A
100
AcDbMaterial
  1
ByBlock
 72
     0
 43
0.0208333333333333
 43
0.0
 43
0.0
 43
0.0
 43
0.0
 43
0.0208333333333333
 43
0.0
 43
0.0
 43
0.0
 43
0.0
 43
1.0
 43
0.0
 43
0.0
 43
0.0
 43
0.0
 43
1.0
 77
     0
 47
0.0208333333333333
 47
0.0
 47
0.0
 47
0.0
 47
0.0
 47
0.0208333333333333
 47
0.0
 47
0.0
 47
0.0
 47
0.0
 47
1.0
 47
0.0
 47
0.0
 47
0.0
 47
0.0
 47
1.0
171
     0
 49
0.0208333333333333
 49
0.0
 49
0.0
 49
0.0
 49
0.0
 49
0.0208333333333333
 49
0.0
 49
0.0
 49
0.0
 49
0.0
 49
1.0
 49
0.0
 49
0.0
 49
0.0
 49
0.0
 49
1.0
175
     0
142
0.0208333333333333
142
0.0
142
0.0
142
0.0
142
0.0
142
0.0208333333333333
142
0.0
142
0.0
142
0.0
142
0.0
142
1.0
142
0.0
142
0.0
142
0.0
142
0.0
142
1.0
179
     0
144
0.0208333333333333
144
0.0
144
0.0
144
0.0
144
0.0
144
0.0208333333333333
144
0.0
144
0.0
144
0.0
144
0.0
144
1.0
144
0.0
144
0.0
144
0.0
144
0.0
144
1.0
147
0.0208333333333333
147
0.0
147
0.0
147
0.0
147
0.0
147
0.0208333333333333
147
0.0
147
0.0
147
0.0
147
0.0
147
1.0
147
0.0
147
0.0
147
0.0
147
0.0
147
1.0
  0
MATERIAL
  5
2C0
102
{ACAD_XDICTIONARY
360
2C1
102
}
102
{ACAD_REACTORS
330
1A
102
}
330
1A
100
AcDbMaterial
  1
ByLayer
 72
     0
 43
0.0208333333333333
 43
0.0
 43
0.0
 43
0.0
 43
0.0
 43
0.0208333333333333
 43
0.0
 43
0.0
 43
0.0
 43
0.0
 43
1.0
 43
0.0
 43
0.0
 43
0.0
 43
0.0
 43
1.0
 77
     0
 47
0.0208333333333333
 47
0.0
 47
0.0
 47
0.0
 47
0.0
 47
0.0208333333333333
 47
0.0
 47
0.0
 47
0.0
 47
0.0
 47
1.0
 47
0.0
 47
0.0
 47
0.0
 47
0.0
 47
1.0
171
     0
 49
0.0208333333333333
 49
0.0
 49
0.0
 49
0.0
 49
0.0
 49
0.0208333333333333
 49
0.0
 49
0.0
 49
0.0
 49
0.0
 49
1.0
 49
0.0
 49
0.0
 49
0.0
 49
0.0
 49
1.0
175
     0
142
0.0208333333333333
142
0.0
142
0.0
142
0.0
142
0.0
142
0.0208333333333333
142
0.0
142
0.0
142
0.0
142
0.0
142
1.0
142
0.0
142
0.0
142
0.0
142
0.0
142
1.0
179
     0
144
0.0208333333333333
144
0.0
144
0.0
144
0.0
144
0.0
144
0.0208333333333333
144
0.0
144
0.0
144
0.0
144
0.0
144
1.0
144
0.0
144
0.0
144
0.0
144
0.0
144
1.0
147
0.0208333333333333
147
0.0
147
0.0
147
0.0
147
0.0
147
0.0208333333333333
147
0.0
147
0.0
147
0.0
147
0.0
147
1.0
147
0.0
147
0.0
147
0.0
147
0.0
147
1.0
  0
MATERIAL
  5
2D0
102
{ACAD_XDICTIONARY
360
2D1
102
}
102
{ACAD_REACTORS
330
1A
102
}
330
1A
100
AcDbMaterial
  1
Global
 72
     0
 43
0.0208333333333333
 43
0.0
 43
0.0
 43
0.0
 43
0.0
 43
0.0208333333333333
 43
0.0
 43
0.0
 43
0.0
 43
0.0
 43
1.0
 43
0.0
 43
0.0
 43
0.0
 43
0.0
 43
1.0
 77
     0
 47
0.0208333333333333
 47
0.0
 47
0.0
 47
0.0
 47
0.0
 47
0.0208333333333333
 47
0.0
 47
0.0
 47
0.0
 47
0.0
 47
1.0
 47
0.0
 47
0.0
 47
0.0
 47
0.0
 47
1.0
171
     0
 49
0.0208333333333333
 49
0.0
 49
0.0
 49
0.0
 49
0.0
 49
0.0208333333333333
 49
0.0
 49
0.0
 49
0.0
 49
0.0
 49
1.0
 49
0.0
 49
0.0
 49
0.0
 49
0.0
 49
1.0
175
     0
142
0.0208333333333333
142
0.0
142
0.0
142
0.0
142
0.0
142
0.0208333333333333
142
0.0
142
0.0
142
0.0
142
0.0
142
1.0
142
0.0
142
0.0
142
0.0
142
0.0
142
1.0
179
     0
144
0.0208333333333333
144
0.0
144
0.0
144
0.0
144
0.0
144
0.0208333333333333
144
0.0
144
0.0
144
0.0
144
0.0
144
1.0
144
0.0
144
0.0
144
0.0
144
0.0
144
1.0
147
0.0208333333333333
147
0.0
147
0.0
147
0.0
147
0.0
147
0.0208333333333333
147
0.0
147
0.0
147
0.0
147
0.0
147
1.0
147
0.0
147
0.0
147
0.0
147
0.0
147
1.0
  0
MLEADERSTYLE
  5
30F
102
{ACAD_REACTORS
330
30E
102
}
330
30E
100
AcDbMLeaderStyle
170
     2
171
     1
172
     0
 90
        2
 40
0.0
 41
0.0
173
     1
 91
-1056964608
340
13
 92
       -2
290
     1
 42
0.09
291
     1
 43
0.36
  3
Standard
 44
0.18
300

342
11
174
     1
178
     6
175
     1
176
     0
 93
-1056964608
 45
0.18
292
     0
297
     0
 46
0.18
 94
-1056964608
 47
1.0
 49
1.0
140
1.0
293
     1
141
0.0
294
     1
177
     0
142
1.0
295
     0
296
     0
143
0.125
1001
ACAD_MLEADERVER
1070
     2
  0
MLINESTYLE
  5
17
102
{ACAD_REACTORS
330
16
102
}
330
16
100
AcDbMlineStyle
  2
STANDARD
 70
     0
  3

 62
   256
 51
90.0
 52
90.0
 71
     2
 49
0.5
 62
   256
  6
BYLAYER
 49
-0.5
 62
   256
  6
BYLAYER
  0
ACDBPLACEHOLDER
  5
F
102
{ACAD_REACTORS
330
E
102
}
330
E
  0
SCALE
  5
2ED
102
{ACAD_REACTORS
330
2EC
102
}
330
2EC
100
AcDbScale
 70
     0
300
1:1
140
1.0
141
1.0
290
     1
  0
SCALE
  5
2EE
102
{ACAD_REACTORS
330
2EC
102
}
330
2EC
100
AcDbScale
 70
     0
300
1:2
140
1.0
141
2.0
290
     0
  0
SCALE
  5
2EF
102
{ACAD_REACTORS
330
2EC
102
}
330
2EC
100
AcDbScale
 70
     0
300
1:4
140
1.0
141
4.0
290
     0
  0
SCALE
  5
2F0
102
{ACAD_REACTORS
330
2EC
102
}
330
2EC
100
AcDbScale
 70
     0
300
1:5
140
1.0
141
5.0
290
     0
  0
SCALE
  5
2F1
102
{ACAD_REACTORS
330
2EC
102
}
330
2EC
100
AcDbScale
 70
     0
300
1:8
140
1.0
141
8.0
290
     0
  0
SCALE
  5
2F2
102
{ACAD_REACTORS
330
2EC
102
}
330
2EC
100
AcDbScale
 70
     0
300
1:10
140
1.0
141
10.0
290
     0
  0
SCALE
  5
2F3
102
{ACAD_REACTORS
330
2EC
102
}
330
2EC
100
AcDbScale
 70
     0
300
1:16
140
1.0
141
16.0
290
     0
  0
SCALE
  5
2F4
102
{ACAD_REACTORS
330
2EC
102
}
330
2EC
100
AcDbScale
 70
     0
300
1:20
140
1.0
141
20.0
290
     0
  0
SCALE
  5
2F5
102
{ACAD_REACTORS
330
2EC
102
}
330
2EC
100
AcDbScale
 70
     0
300
1:30
140
1.0
141
30.0
290
     0
  0
SCALE
  5
2F6
102
{ACAD_REACTORS
330
2EC
102
}
330
2EC
100
AcDbScale
 70
     0
300
1:40
140
1.0
141
40.0
290
     0
  0
SCALE
  5
2F7
102
{ACAD_REACTORS
330
2EC
102
}
330
2EC
100
AcDbScale
 70
     0
300
1:50
140
1.0
141
50.0
290
     0
  0
SCALE
  5
2F8
102
{ACAD_REACTORS
330
2EC
102
}
330
2EC
100
AcDbScale
 70
     0
300
1:100
140
1.0
141
100.0
290
     0
  0
SCALE
  5
2F9
102
{ACAD_REACTORS
330
2EC
102
}
330
2EC
100
AcDbScale
 70
     0
300
2:1
140
2.0
141
1.0
290
     0
  0
SCALE
  5
2FA
102
{ACAD_REACTORS
330
2EC
102
}
330
2EC
100
AcDbScale
 70
     0
300
4:1
140
4.0
141
1.0
290
     0
  0
SCALE
  5
2FB
102
{ACAD_REACTORS
330
2EC
102
}
330
2EC
100
AcDbScale
 70
     0
300
8:1
140
8.0
141
1.0
290
     0
  0
SCALE
  5
2FC
102
{ACAD_REACTORS
330
2EC
102
}
330
2EC
100
AcDbScale
 70
     0
300
10:1
140
10.0
141
1.0
290
     0
  0
SCALE
  5
2FD
102
{ACAD_REACTORS
330
2EC
102
}
330
2EC
100
AcDbScale
 70
     0
300
100:1
140
100.0
141
1.0
290
     0
  0
SCALE
  5
2FE
102
{ACAD_REACTORS
330
2EC
102
}
330
2EC
100
AcDbScale
 70
     0
300
1/128" = 1'-0"
140
0.0078125
141
12.0
290
     0
  0
SCALE
  5
2FF
102
{ACAD_REACTORS
330
2EC
102
}
330
2EC
100
AcDbScale
 70
     0
300
1/64" = 1'-0"
140
0.015625
141
12.0
290
     0
  0
SCALE
  5
300
102
{ACAD_REACTORS
330
2EC
102
}
330
2EC
100
AcDbScale
 70
     0
300
1/32" = 1'-0"
140
0.03125
141
12.0
290
     0
  0
SCALE
  5
301
102
{ACAD_REACTORS
330
2EC
102
}
330
2EC
100
AcDbScale
 70
     0
300
1/16" = 1'-0"
140
0.0625
141
12.0
290
     0
  0
SCALE
  5
302
102
{ACAD_REACTORS
330
2EC
102
}
330
2EC
100
AcDbScale
 70
     0
300
3/32" = 1'-0"
140
0.09375
141
12.0
290
     0
  0
SCALE
  5
303
102
{ACAD_REACTORS
330
2EC
102
}
330
2EC
100
AcDbScale
 70
     0
300
1/8" = 1'-0"
140
0.125
141
12.0
290
     0
  0
SCALE
  5
304
102
{ACAD_REACTORS
330
2EC
102
}
330
2EC
100
AcDbScale
 70
     0
300
3/16" = 1'-0"
140
0.1875
141
12.0
290
     0
  0
SCALE
  5
305
102
{ACAD_REACTORS
330
2EC
102
}
330
2EC
100
AcDbScale
 70
     0
300
1/4" = 1'-0"
140
0.25
141
12.0
290
     0
  0
SCALE
  5
306
102
{ACAD_REACTORS
330
2EC
102
}
330
2EC
100
AcDbScale
 70
     0
300
3/8" = 1'-0"
140
0.375
141
12.0
290
     0
  0
SCALE
  5
307
102
{ACAD_REACTORS
330
2EC
102
}
330
2EC
100
AcDbScale
 70
     0
300
1/2" = 1'-0"
140
0.5
141
12.0
290
     0
  0
SCALE
  5
308
102
{ACAD_REACTORS
330
2EC
102
}
330
2EC
100
AcDbScale
 70
     0
300
3/4" = 1'-0"
140
0.75
141
12.0
290
     0
  0
SCALE
  5
309
102
{ACAD_REACTORS
330
2EC
102
}
330
2EC
100
AcDbScale
 70
     0
300
1" = 1'-0"
140
1.0
141
12.0
290
     0
  0
SCALE
  5
30A
102
{ACAD_REACTORS
330
2EC
102
}
330
2EC
100
AcDbScale
 70
     0
300
1-1/2" = 1'-0"
140
1.5
141
12.0
290
     0
  0
SCALE
  5
30B
102
{ACAD_REACTORS
330
2EC
102
}
330
2EC
100
AcDbScale
 70
     0
300
3" = 1'-0"
140
3.0
141
12.0
290
     0
  0
SCALE
  5
30C
102
{ACAD_REACTORS
330
2EC
102
}
330
2EC
100
AcDbScale
 70
     0
300
6" = 1'-0"
140
6.0
141
12.0
290
     0
  0
SCALE
  5
30D
102
{ACAD_REACTORS
330
2EC
102
}
330
2EC
100
AcDbScale
 70
     0
300
1'-0" = 1'-0"
140
12.0
141
12.0
290
     0
  0
TABLESTYLE
  5
1D
102
{ACAD_XDICTIONARY
360
520
102
}
102
{ACAD_REACTORS
330
1C
102
}
330
1C
100
AcDbTableStyle
  3
Standard
 70
     0
 71
     0
 40
0.06
 41
0.06
280
     0
281
     0
  7
STANDARD
140
0.18
170
     2
 62
     0
 63
     7
283
     0
274
    -2
284
     1
 64
     0
275
    -2
285
     1
 65
     0
276
    -2
286
     1
 66
     0
277
    -2
287
     1
 67
     0
278
    -2
288
     1
 68
     0
279
    -2
289
     1
 69
     0
  7
STANDARD
140
0.25
170
     5
 62
     0
 63
     7
283
     0
274
    -2
284
     1
 64
     0
275
    -2
285
     1
 65
     0
276
    -2
286
     1
 66
     0
277
    -2
287
     1
 67
     0
278
    -2
288
     1
 68
     0
279
    -2
289
     1
 69
     0
  7
STANDARD
140
0.18
170
     5
 62
     0
 63
     7
283
     0
274
    -2
284
     1
 64
     0
275
    -2
285
     1
 65
     0
276
    -2
286
     1
 66
     0
277
    -2
287
     1
 67
     0
278
    -2
288
     1
 68
     0
279
    -2
289
     1
 69
     0
  0
VISUALSTYLE
  5
2DE
102
{ACAD_XDICTIONARY
360
536
102
}
102
{ACAD_REACTORS
330
2D8
102
}
330
2D8
100
AcDbVisualStyle
  2
2dWireframe
 70
     4
 71
     0
 72
     2
 73
     0
 90
        0
 40
-0.6
 41
-30.0
 62
     5
 63
     7
 74
     1
 91
        4
 64
     7
 65
   257
 75
     1
175
     1
 42
1.0
 92
        0
 66
   257
 43
1.0
 76
     1
 77
     6
 78
     2
 67
     7
 79
     5
170
     0
171
     0
290
     0
174
     0
 93
        1
 44
0.0
173
     0
291
     0
 45
0.0
1001
ACAD
1000
AcDbSavedByObjectVersion
1070
     0
  0
VISUALSTYLE
  5
2E0
102
{ACAD_XDICTIONARY
360
53A
102
}
102
{ACAD_REACTORS
330
2D8
102
}
330
2D8
100
AcDbVisualStyle
  2
3D Hidden
 70
     6
 71
     1
 72
     2
 73
     2
 90
        0
 40
-0.6
 41
-30.0
 62
     5
 63
     7
 74
     2
 91
        2
 64
     7
 65
   257
 75
     2
175
     1
 42
179.0
 92
        0
 66
   257
 43
1.0
 76
     1
 77
     6
 78
     2
 67
     7
 79
     3
170
     0
171
     0
290
     0
174
     0
 93
        1
 44
0.0
173
     0
291
     0
 45
0.0
1001
ACAD
1000
AcDbSavedByObjectVersion
1070
     0
  0
VISUALSTYLE
  5
2DF
102
{ACAD_XDICTIONARY
360
538
102
}
102
{ACAD_REACTORS
330
2D8
102
}
330
2D8
100
AcDbVisualStyle
  2
3dWireframe
 70
     5
 71
     0
 72
     2
 73
     0
 90
        0
 40
-0.6
 41
-30.0
 62
     5
 63
     7
 74
     1
 91
        4
 64
     7
 65
   257
 75
     1
175
     1
 42
1.0
 92
        0
 66
   257
 43
1.0
 76
     1
 77
     6
 78
     2
 67
     7
 79
     5
170
     0
171
     0
290
     0
174
     0
 93
        1
 44
0.0
173
     0
291
     0
 45
0.0
1001
ACAD
1000
AcDbSavedByObjectVersion
1070
     0
  0
VISUALSTYLE
  5
2DD
102
{ACAD_XDICTIONARY
360
534
102
}
102
{ACAD_REACTORS
330
2D8
102
}
330
2D8
100
AcDbVisualStyle
  2
Basic
 70
     7
 71
     1
 72
     0
 73
     1
 90
        0
 40
-0.6
 41
-30.0
 62
     5
 63
     7
 74
     0
 91
        4
 64
     7
 65
   257
 75
     1
175
     1
 42
1.0
 92
        8
 66
     7
 43
1.0
 76
     1
 77
     6
 78
     2
 67
     7
 79
     5
170
     0
171
     0
290
     0
174
     0
 93
        1
 44
0.0
173
     0
291
     1
 45
0.0
1001
ACAD
1000
AcDbSavedByObjectVersion
1070
     0
  0
VISUALSTYLE
  5
2E4
102
{ACAD_XDICTIONARY
360
542
102
}
102
{ACAD_REACTORS
330
2D8
102
}
330
2D8
100
AcDbVisualStyle
  2
Brighten
 70
    12
 71
     2
 72
     2
 73
     0
 90
        0
 40
-0.6
 41
-30.0
 62
     5
 63
     7
 74
     1
 91
        4
 64
     7
 65
   257
 75
     1
175
     1
 42
1.0
 92
        8
 66
     7
 43
1.0
 76
     1
 77
     6
 78
     2
 67
     7
 79
     5
170
     0
171
     0
290
     0
174
     0
 93
        1
 44
50.0
173
     0
291
     1
 45
0.0
1001
ACAD
1000
AcDbSavedByObjectVersion
1070
     0
  0
VISUALSTYLE
  5
2E8
102
{ACAD_XDICTIONARY
360
54A
102
}
102
{ACAD_REACTORS
330
2D8
102
}
330
2D8
100
AcDbVisualStyle
  2
ColorChange
 70
    16
 71
     2
 72
     2
 73
     3
 90
        0
 40
-0.6
 41
-30.0
 62
     5
 63
     8
 74
     1
 91
        4
 64
     7
 65
   257
 75
     1
175
     1
 42
1.0
 92
        8
 66
     8
 43
1.0
 76
     1
 77
     6
 78
     2
 67
     7
 79
     5
170
     0
171
     0
290
     0
174
     0
 93
        1
 44
0.0
173
     0
291
     1
 45
0.0
1001
ACAD
1000
AcDbSavedByObjectVersion
1070
     0
  0
VISUALSTYLE
  5
2E1
102
{ACAD_XDICTIONARY
360
53C
102
}
102
{ACAD_REACTORS
330
2D8
102
}
330
2D8
100
AcDbVisualStyle
  2
Conceptual
 70
     9
 71
     3
 72
     2
 73
     0
 90
        0
 40
-0.6
 41
-30.0
 62
     5
 63
     7
 74
     2
 91
        2
 64
     7
 65
   257
 75
     1
175
     1
 42
179.0
 92
        8
 66
     7
 43
1.0
 76
     1
 77
     6
 78
     2
 67
     7
 79
     3
170
     0
171
     0
290
     0
174
     0
 93
        1
 44
0.0
173
     0
291
     0
 45
0.0
1001
ACAD
1000
AcDbSavedByObjectVersion
1070
     0
  0
VISUALSTYLE
  5
2E3
102
{ACAD_XDICTIONARY
360
540
102
}
102
{ACAD_REACTORS
330
2D8
102
}
330
2D8
100
AcDbVisualStyle
  2
Dim
 70
    11
 71
     2
 72
     2
 73
     0
 90
        0
 40
-0.6
 41
-30.0
 62
     5
 63
     7
 74
     1
 91
        4
 64
     7
 65
   257
 75
     1
175
     1
 42
1.0
 92
        8
 66
     7
 43
1.0
 76
     1
 77
     6
 78
     2
 67
     7
 79
     5
170
     0
171
     0
290
     0
174
     0
 93
        1
 44
-50.0
173
     0
291
     1
 45
0.0
1001
ACAD
1000
AcDbSavedByObjectVersion
1070
     0
  0
VISUALSTYLE
  5
2EB
102
{ACAD_XDICTIONARY
360
550
102
}
102
{ACAD_REACTORS
330
2D8
102
}
330
2D8
100
AcDbVisualStyle
  2
EdgeColorOff
 70
    22
 71
     2
 72
     2
 73
     0
 90
        0
 40
-0.6
 41
-30.0
 62
     5
 63
     7
 74
     1
 91
        4
 64
     7
 65
   257
 75
     1
175
     1
 42
1.0
 92
        8
 66
     7
 43
1.0
 76
     1
 77
     6
 78
     2
 67
     7
 79
     5
170
     0
171
     0
290
     0
174
     0
 93
        1
 44
0.0
173
     0
291
     1
 45
0.0
1001
ACAD
1000
AcDbSavedByObjectVersion
1070
     0
  0
VISUALSTYLE
  5
2E7
102
{ACAD_XDICTIONARY
360
548
102
}
102
{ACAD_REACTORS
330
2D8
102
}
330
2D8
100
AcDbVisualStyle
  2
Facepattern
 70
    15
 71
     2
 72
     2
 73
     0
 90
        0
 40
-0.6
 41
-30.0
 62
     5
 63
     7
 74
     1
 91
        4
 64
     7
 65
   257
 75
     1
175
     1
 42
1.0
 92
        8
 66
     7
 43
1.0
 76
     1
 77
     6
 78
     2
 67
     7
 79
     5
170
     0
171
     0
290
     0
174
     0
 93
        1
 44
0.0
173
     0
291
     1
 45
0.0
1001
ACAD
1000
AcDbSavedByObjectVersion
1070
     0
  0
VISUALSTYLE
  5
2D9
102
{ACAD_XDICTIONARY
360
52C
102
}
102
{ACAD_REACTORS
330
2D8
102
}
330
2D8
100
AcDbVisualStyle
  2
Flat
 70
     0
 71
     2
 72
     1
 73
     1
 90
        2
 40
-0.6
 41
30.0
 62
     5
 63
     7
 74
     0
 91
        4
 64
     7
 65
   257
 75
     1
175
     1
 42
1.0
 92
        8
 66
     7
 43
1.0
 76
     1
 77
     6
 78
     2
 67
     7
 79
     5
170
     0
171
     0
290
     0
174
     0
 93
       13
 44
0.0
173
     0
291
     1
 45
0.0
1001
ACAD
1000
AcDbSavedByObjectVersion
1070
     0
  0
VISUALSTYLE
  5
2DA
102
{ACAD_XDICTIONARY
360
52E
102
}
102
{ACAD_REACTORS
330
2D8
102
}
330
2D8
100
AcDbVisualStyle
  2
FlatWithEdges
 70
     1
 71
     2
 72
     1
 73
     1
 90
        2
 40
-0.6
 41
30.0
 62
     5
 63
     7
 74
     1
 91
        4
 64
     7
 65
   257
 75
     1
175
     1
 42
1.0
 92
        0
 66
   257
 43
1.0
 76
     1
 77
     6
 78
     2
 67
     7
 79
     5
170
     0
171
     0
290
     0
174
     0
 93
       13
 44
0.0
173
     0
291
     1
 45
0.0
1001
ACAD
1000
AcDbSavedByObjectVersion
1070
     0
  0
VISUALSTYLE
  5
2DB
102
{ACAD_XDICTIONARY
360
530
102
}
102
{ACAD_REACTORS
330
2D8
102
}
330
2D8
100
AcDbVisualStyle
  2
Gouraud
 70
     2
 71
     2
 72
     2
 73
     1
 90
        2
 40
-0.6
 41
30.0
 62
     5
 63
     7
 74
     0
 91
        4
 64
     7
 65
   257
 75
     1
175
     1
 42
1.0
 92
        0
 66
     7
 43
1.0
 76
     1
 77
     6
 78
     2
 67
     7
 79
     5
170
     0
171
     0
290
     0
174
     0
 93
       13
 44
0.0
173
     0
291
     1
 45
0.0
1001
ACAD
1000
AcDbSavedByObjectVersion
1070
     0
  0
VISUALSTYLE
  5
2DC
102
{ACAD_XDICTIONARY
360
532
102
}
102
{ACAD_REACTORS
330
2D8
102
}
330
2D8
100
AcDbVisualStyle
  2
GouraudWithEdges
 70
     3
 71
     2
 72
     2
 73
     1
 90
        2
 40
-0.6
 41
30.0
 62
     5
 63
     7
 74
     1
 91
        4
 64
     7
 65
   257
 75
     1
175
     1
 42
1.0
 92
        0
 66
   257
 43
1.0
 76
     1
 77
     6
 78
     2
 67
     7
 79
     5
170
     0
171
     0
290
     0
174
     0
 93
       13
 44
0.0
173
     0
291
     1
 45
0.0
1001
ACAD
1000
AcDbSavedByObjectVersion
1070
     0
  0
VISUALSTYLE
  5
2E9
102
{ACAD_XDICTIONARY
360
54C
102
}
102
{ACAD_REACTORS
330
2D8
102
}
330
2D8
100
AcDbVisualStyle
  2
JitterOff
 70
    20
 71
     2
 72
     2
 73
     0
 90
        0
 40
-0.6
 41
-30.0
 62
     5
 63
     7
 74
     1
 91
        4
 64
     7
 65
   257
 75
     1
175
     1
 42
1.0
 92
       10
 66
     7
 43
1.0
 76
     1
 77
     6
 78
     2
 67
     7
 79
     5
170
     0
171
     0
290
     0
174
     0
 93
        1
 44
0.0
173
     0
291
     1
 45
0.0
1001
ACAD
1000
AcDbSavedByObjectVersion
1070
     0
  0
VISUALSTYLE
  5
2E6
102
{ACAD_XDICTIONARY
360
546
102
}
102
{ACAD_REACTORS
330
2D8
102
}
330
2D8
100
AcDbVisualStyle
  2
Linepattern
 70
    14
 71
     2
 72
     2
 73
     0
 90
        0
 40
-0.6
 41
-30.0
 62
     5
 63
     7
 74
     1
 91
        4
 64
     7
 65
   257
 75
     7
175
     7
 42
1.0
 92
        8
 66
     7
 43
1.0
 76
     1
 77
     6
 78
     2
 67
     7
 79
     5
170
     0
171
     0
290
     0
174
     0
 93
        1
 44
0.0
173
     0
291
     1
 45
0.0
1001
ACAD
1000
AcDbSavedByObjectVersion
1070
     0
  0
VISUALSTYLE
  5
2EA
102
{ACAD_XDICTIONARY
360
54E
102
}
102
{ACAD_REACTORS
330
2D8
102
}
330
2D8
100
AcDbVisualStyle
  2
OverhangOff
 70
    21
 71
     2
 72
     2
 73
     0
 90
        0
 40
-0.6
 41
-30.0
 62
     5
 63
     7
 74
     1
 91
        4
 64
     7
 65
   257
 75
     1
175
     1
 42
1.0
 92
        9
 66
     7
 43
1.0
 76
     1
 77
     6
 78
     2
 67
     7
 79
     5
170
     0
171
     0
290
     0
174
     0
 93
        1
 44
0.0
173
     0
291
     1
 45
0.0
1001
ACAD
1000
AcDbSavedByObjectVersion
1070
     0
  0
VISUALSTYLE
  5
2E2
102
{ACAD_XDICTIONARY
360
53E
102
}
102
{ACAD_REACTORS
330
2D8
102
}
330
2D8
100
AcDbVisualStyle
  2
Realistic
 70
     8
 71
     2
 72
     2
 73
     0
 90
        0
 40
-0.6
 41
-30.0
 62
     5
 63
     7
 74
     1
 91
        0
 64
     7
 65
   257
 75
     1
175
     1
 42
1.0
 92
        8
 66
     8
 43
1.0
 76
     1
 77
     6
 78
     2
 67
     7
 79
     5
170
     0
171
     0
290
     0
174
     0
 93
       13
 44
0.0
173
     0
291
     0
 45
0.0
1001
ACAD
1000
AcDbSavedByObjectVersion
1070
     0
  0
VISUALSTYLE
  5
2E5
102
{ACAD_XDICTIONARY
360
544
102
}
102
{ACAD_REACTORS
330
2D8
102
}
330
2D8
100
AcDbVisualStyle
  2
Thicken
 70
    13
 71
     2
 72
     2
 73
     0
 90
        0
 40
-0.6
 41
-30.0
 62
     5
 63
     7
 74
     1
 91
        4
 64
     7
 65
   257
 75
     1
175
     1
 42
1.0
 92
       12
 66
     7
 43
1.0
 76
     1
 77
     6
 78
     2
 67
     7
 79
     5
170
     0
171
     0
290
     0
174
     0
 93
        1
 44
0.0
173
     0
291
     1
 45
0.0
1001
ACAD
1000
AcDbSavedByObjectVersion
1070
     0
  0
DICTIONARYVAR
  5
51C
102
{ACAD_REACTORS
330
2B2
102
}
330
2B2
100
DictionaryVariables
280
     0
  1
1:1
  0
DICTIONARYVAR
  5
51B
102
{ACAD_REACTORS
330
2B2
102
}
330
2B2
100
DictionaryVariables
280
     0
  1
STANDARD
  0
DICTIONARYVAR
  5
2B3
102
{ACAD_REACTORS
330
2B2
102
}
330
2B2
100
DictionaryVariables
280
     0
  1
STANDARD
  0
DICTIONARYVAR
  5
2B4
102
{ACAD_REACTORS
330
2B2
102
}
330
2B2
100
DictionaryVariables
280
     0
  1
1
  0
DICTIONARYVAR
  5
51E
102
{ACAD_REACTORS
330
2B2
102
}
330
2B2
100
DictionaryVariables
280
     0
  1
0
  0
DICTIONARYVAR
  5
2B5
102
{ACAD_REACTORS
330
2B2
102
}
330
2B2
100
DictionaryVariables
280
     0
  1

  0
DICTIONARYVAR
  5
51D
102
{ACAD_REACTORS
330
2B2
102
}
330
2B2
100
DictionaryVariables
280
     0
  1
127
  0
DICTIONARYVAR
  5
51F
102
{ACAD_REACTORS
330
2B2
102
}
330
2B2
100
DictionaryVariables
280
     0
  1
2
  0
DICTIONARY
  5
372
102
{ACAD_REACTORS
330
368
102
}
330
368
100
AcDbDictionary
281
     1
  0
DICTIONARY
  5
525
330
21
100
AcDbDictionary
280
     1
281
     1
  3
ACAD_XREC_ROUNDTRIP
360
526
  0
DICTIONARY
  5
527
330
25
100
AcDbDictionary
280
     1
281
     1
  3
ACAD_XREC_ROUNDTRIP
360
528
  0
DICTIONARY
  5
2C9
330
2C8
100
AcDbDictionary
280
     1
281
     1
  3
ACAD_XREC_ROUNDTRIP
360
52A
  3
BUMPTILE
360
2CB
  3
DIFFUSETILE
360
2CA
  3
OPACITYTILE
360
2CE
  3
REFLECTIONTILE
360
2CD
  3
REFRACTIONTILE
360
2CF
  3
SPECULARTILE
360
2CC
  0
DICTIONARY
  5
2C1
330
2C0
100
AcDbDictionary
280
     1
281
     1
  3
ACAD_XREC_ROUNDTRIP
360
529
  3
BUMPTILE
360
2C3
  3
DIFFUSETILE
360
2C2
  3
OPACITYTILE
360
2C6
  3
REFLECTIONTILE
360
2C5
  3
REFRACTIONTILE
360
2C7
  3
SPECULARTILE
360
2C4
  0
DICTIONARY
  5
2D1
330
2D0
100
AcDbDictionary
280
     1
281
     1
  3
ACAD_XREC_ROUNDTRIP
360
52B
  3
BUMPTILE
360
2D3
  3
DIFFUSETILE
360
2D2
  3
OPACITYTILE
360
2D6
  3
REFLECTIONTILE
360
2D5
  3
REFRACTIONTILE
360
2D7
  3
SPECULARTILE
360
2D4
  0
DICTIONARY
  5
520
330
1D
100
AcDbDictionary
280
     1
281
     1
  3
ACAD_ROUNDTRIP_2008_TABLESTYLE_CELLSTYLEMAP
360
521
  3
ACAD_XREC_ROUNDTRIP
360
524
  0
DICTIONARY
  5
536
330
2DE
100
AcDbDictionary
280
     1
281
     1
  3
ACAD_XREC_ROUNDTRIP
360
537
  0
DICTIONARY
  5
53A
330
2E0
100
AcDbDictionary
280
     1
281
     1
  3
ACAD_XREC_ROUNDTRIP
360
53B
  0
DICTIONARY
  5
538
330
2DF
100
AcDbDictionary
280
     1
281
     1
  3
ACAD_XREC_ROUNDTRIP
360
539
  0
DICTIONARY
  5
534
330
2DD
100
AcDbDictionary
280
     1
281
     1
  3
ACAD_XREC_ROUNDTRIP
360
535
  0
DICTIONARY
  5
542
330
2E4
100
AcDbDictionary
280
     1
281
     1
  3
ACAD_XREC_ROUNDTRIP
360
543
  0
DICTIONARY
  5
54A
330
2E8
100
AcDbDictionary
280
     1
281
     1
  3
ACAD_XREC_ROUNDTRIP
360
54B
  0
DICTIONARY
  5
53C
330
2E1
100
AcDbDictionary
280
     1
281
     1
  3
ACAD_XREC_ROUNDTRIP
360
53D
  0
DICTIONARY
  5
540
330
2E3
100
AcDbDictionary
280
     1
281
     1
  3
ACAD_XREC_ROUNDTRIP
360
541
  0
DICTIONARY
  5
550
330
2EB
100
AcDbDictionary
280
     1
281
     1
  3
ACAD_XREC_ROUNDTRIP
360
551
  0
DICTIONARY
  5
548
330
2E7
100
AcDbDictionary
280
     1
281
     1
  3
ACAD_XREC_ROUNDTRIP
360
549
  0
DICTIONARY
  5
52C
330
2D9
100
AcDbDictionary
280
     1
281
     1
  3
ACAD_XREC_ROUNDTRIP
360
52D
  0
DICTIONARY
  5
52E
330
2DA
100
AcDbDictionary
280
     1
281
     1
  3
ACAD_XREC_ROUNDTRIP
360
52F
  0
DICTIONARY
  5
530
330
2DB
100
AcDbDictionary
280
     1
281
     1
  3
ACAD_XREC_ROUNDTRIP
360
531
  0
DICTIONARY
  5
532
330
2DC
100
AcDbDictionary
280
     1
281
     1
  3
ACAD_XREC_ROUNDTRIP
360
533
  0
DICTIONARY
  5
54C
330
2E9
100
AcDbDictionary
280
     1
281
     1
  3
ACAD_XREC_ROUNDTRIP
360
54D
  0
DICTIONARY
  5
546
330
2E6
100
AcDbDictionary
280
     1
281
     1
  3
ACAD_XREC_ROUNDTRIP
360
547
  0
DICTIONARY
  5
54E
330
2EA
100
AcDbDictionary
280
     1
281
     1
  3
ACAD_XREC_ROUNDTRIP
360
54F
  0
DICTIONARY
  5
53E
330
2E2
100
AcDbDictionary
280
     1
281
     1
  3
ACAD_XREC_ROUNDTRIP
360
53F
  0
DICTIONARY
  5
544
330
2E5
100
AcDbDictionary
280
     1
281
     1
  3
ACAD_XREC_ROUNDTRIP
360
545
  0
XRECORD
  5
526
102
{ACAD_REACTORS
330
525
102
}
330
525
100
AcDbXrecord
280
     1
102
SHADEPLOT
 70
     0
102
SHADEPLOTRESLEVEL
 70
     2
102
SHADEPLOTCUSTOMDPI
 70
   300
  0
XRECORD
  5
528
102
{ACAD_REACTORS
330
527
102
}
330
527
100
AcDbXrecord
280
     1
102
SHADEPLOT
 70
     0
102
SHADEPLOTRESLEVEL
 70
     2
102
SHADEPLOTCUSTOMDPI
 70
   300
  0
XRECORD
  5
52A
102
{ACAD_REACTORS
330
2C9
102
}
330
2C9
100
AcDbXrecord
280
     1
102
MATERIAL
148
0.0
149
0.0
149
0.0
 93
        0
 94
      127
282
     0
 72
     0
 77
     0
171
     0
175
     0
179
     0
273
     0
  0
XRECORD
  5
2CB
102
{ACAD_REACTORS
330
2C9
102
}
330
2C9
100
AcDbXrecord
280
     1
270
     1
271
     1
  0
XRECORD
  5
2CA
102
{ACAD_REACTORS
330
2C9
102
}
330
2C9
100
AcDbXrecord
280
     1
270
     1
271
     1
  0
XRECORD
  5
2CE
102
{ACAD_REACTORS
330
2C9
102
}
330
2C9
100
AcDbXrecord
280
     1
270
     1
271
     1
  0
XRECORD
  5
2CD
102
{ACAD_REACTORS
330
2C9
102
}
330
2C9
100
AcDbXrecord
280
     1
270
     1
271
     1
  0
XRECORD
  5
2CF
102
{ACAD_REACTORS
330
2C9
102
}
330
2C9
100
AcDbXrecord
280
     1
270
     1
271
     1
  0
XRECORD
  5
2CC
102
{ACAD_REACTORS
330
2C9
102
}
330
2C9
100
AcDbXrecord
280
     1
270
     1
271
     1
  0
XRECORD
  5
529
102
{ACAD_REACTORS
330
2C1
102
}
330
2C1
100
AcDbXrecord
280
     1
102
MATERIAL
148
0.0
149
0.0
149
0.0
 93
        0
 94
      127
282
     0
 72
     0
 77
     0
171
     0
175
     0
179
     0
273
     0
  0
XRECORD
  5
2C3
102
{ACAD_REACTORS
330
2C1
102
}
330
2C1
100
AcDbXrecord
280
     1
270
     1
271
     1
  0
XRECORD
  5
2C2
102
{ACAD_REACTORS
330
2C1
102
}
330
2C1
100
AcDbXrecord
280
     1
270
     1
271
     1
  0
XRECORD
  5
2C6
102
{ACAD_REACTORS
330
2C1
102
}
330
2C1
100
AcDbXrecord
280
     1
270
     1
271
     1
  0
XRECORD
  5
2C5
102
{ACAD_REACTORS
330
2C1
102
}
330
2C1
100
AcDbXrecord
280
     1
270
     1
271
     1
  0
XRECORD
  5
2C7
102
{ACAD_REACTORS
330
2C1
102
}
330
2C1
100
AcDbXrecord
280
     1
270
     1
271
     1
  0
XRECORD
  5
2C4
102
{ACAD_REACTORS
330
2C1
102
}
330
2C1
100
AcDbXrecord
280
     1
270
     1
271
     1
  0
XRECORD
  5
52B
102
{ACAD_REACTORS
330
2D1
102
}
330
2D1
100
AcDbXrecord
280
     1
102
MATERIAL
148
0.0
149
0.0
149
0.0
 93
        0
 94
      127
282
     0
 72
     0
 77
     0
171
     0
175
     0
179
     0
273
     0
  0
XRECORD
  5
2D3
102
{ACAD_REACTORS
330
2D1
102
}
330
2D1
100
AcDbXrecord
280
     1
270
     1
271
     1
  0
XRECORD
  5
2D2
102
{ACAD_REACTORS
330
2D1
102
}
330
2D1
100
AcDbXrecord
280
     1
270
     1
271
     1
  0
XRECORD
  5
2D6
102
{ACAD_REACTORS
330
2D1
102
}
330
2D1
100
AcDbXrecord
280
     1
270
     1
271
     1
  0
XRECORD
  5
2D5
102
{ACAD_REACTORS
330
2D1
102
}
330
2D1
100
AcDbXrecord
280
     1
270
     1
271
     1
  0
XRECORD
  5
2D7
102
{ACAD_REACTORS
330
2D1
102
}
330
2D1
100
AcDbXrecord
280
     1
270
     1
271
     1
  0
XRECORD
  5
2D4
102
{ACAD_REACTORS
330
2D1
102
}
330
2D1
100
AcDbXrecord
280
     1
270
     1
271
     1
  0
CELLSTYLEMAP
  5
521
102
{ACAD_REACTORS
330
520
102
}
330
520
100
AcDbCellStyleMap
 90
        3
300
CELLSTYLE
  1
TABLEFORMAT_BEGIN
 90
        5
170
     1
 91
        0
 92
    32768
 62
   257
 93
        1
300
CONTENTFORMAT
  1
CONTENTFORMAT_BEGIN
 90
        0
 91
        0
 92
        4
 93
        0
300

 40
0.0
140
1.0
 94
        5
 62
     0
340
11
144
0.25
309
CONTENTFORMAT_END
171
     0
 94
        6
 95
        1
302
GRIDFORMAT
  1
GRIDFORMAT_BEGIN
 90
        0
 91
        1
 62
     0
 92
       -2
340
0
 93
        0
 40
0.045
309
GRIDFORMAT_END
 95
        2
302
GRIDFORMAT
  1
GRIDFORMAT_BEGIN
 90
        0
 91
        1
 62
     0
 92
       -2
340
0
 93
        0
 40
0.045
309
GRIDFORMAT_END
 95
        4
302
GRIDFORMAT
  1
GRIDFORMAT_BEGIN
 90
        0
 91
        1
 62
     0
 92
       -2
340
0
 93
        0
 40
0.045
309
GRIDFORMAT_END
 95
        8
302
GRIDFORMAT
  1
GRIDFORMAT_BEGIN
 90
        0
 91
        1
 62
     0
 92
       -2
340
0
 93
        0
 40
0.045
309
GRIDFORMAT_END
 95
       16
302
GRIDFORMAT
  1
GRIDFORMAT_BEGIN
 90
        0
 91
        1
 62
     0
 92
       -2
340
0
 93
        0
 40
0.045
309
GRIDFORMAT_END
 95
       32
302
GRIDFORMAT
  1
GRIDFORMAT_BEGIN
 90
        0
 91
        1
 62
     0
 92
       -2
340
0
 93
        0
 40
0.045
309
GRIDFORMAT_END
309
TABLEFORMAT_END
  1
CELLSTYLE_BEGIN
 90
        1
 91
        1
300
_TITLE
309
CELLSTYLE_END
300
CELLSTYLE
  1
TABLEFORMAT_BEGIN
 90
        5
170
     1
 91
        0
 92
        0
 62
   257
 93
        1
300
CONTENTFORMAT
  1
CONTENTFORMAT_BEGIN
 90
        0
 91
        0
 92
        4
 93
        0
300

 40
0.0
140
1.0
 94
        5
 62
     0
340
11
144
0.18
309
CONTENTFORMAT_END
171
     0
 94
        6
 95
        1
302
GRIDFORMAT
  1
GRIDFORMAT_BEGIN
 90
        0
 91
        1
 62
     0
 92
       -2
340
0
 93
        0
 40
0.045
309
GRIDFORMAT_END
 95
        2
302
GRIDFORMAT
  1
GRIDFORMAT_BEGIN
 90
        0
 91
        1
 62
     0
 92
       -2
340
0
 93
        0
 40
0.045
309
GRIDFORMAT_END
 95
        4
302
GRIDFORMAT
  1
GRIDFORMAT_BEGIN
 90
        0
 91
        1
 62
     0
 92
       -2
340
0
 93
        0
 40
0.045
309
GRIDFORMAT_END
 95
        8
302
GRIDFORMAT
  1
GRIDFORMAT_BEGIN
 90
        0
 91
        1
 62
     0
 92
       -2
340
0
 93
        0
 40
0.045
309
GRIDFORMAT_END
 95
       16
302
GRIDFORMAT
  1
GRIDFORMAT_BEGIN
 90
        0
 91
        1
 62
     0
 92
       -2
340
0
 93
        0
 40
0.045
309
GRIDFORMAT_END
 95
       32
302
GRIDFORMAT
  1
GRIDFORMAT_BEGIN
 90
        0
 91
        1
 62
     0
 92
       -2
340
0
 93
        0
 40
0.045
309
GRIDFORMAT_END
309
TABLEFORMAT_END
  1
CELLSTYLE_BEGIN
 90
        2
 91
        1
300
_HEADER
309
CELLSTYLE_END
300
CELLSTYLE
  1
TABLEFORMAT_BEGIN
 90
        5
170
     1
 91
        0
 92
        0
 62
   257
 93
        1
300
CONTENTFORMAT
  1
CONTENTFORMAT_BEGIN
 90
        0
 91
        0
 92
        4
 93
        0
300

 40
0.0
140
1.0
 94
        2
 62
     0
340
11
144
0.18
309
CONTENTFORMAT_END
171
     0
 94
        6
 95
        1
302
GRIDFORMAT
  1
GRIDFORMAT_BEGIN
 90
        0
 91
        1
 62
     0
 92
       -2
340
0
 93
        0
 40
0.045
309
GRIDFORMAT_END
 95
        2
302
GRIDFORMAT
  1
GRIDFORMAT_BEGIN
 90
        0
 91
        1
 62
     0
 92
       -2
340
0
 93
        0
 40
0.045
309
GRIDFORMAT_END
 95
        4
302
GRIDFORMAT
  1
GRIDFORMAT_BEGIN
 90
        0
 91
        1
 62
     0
 92
       -2
340
0
 93
        0
 40
0.045
309
GRIDFORMAT_END
 95
        8
302
GRIDFORMAT
  1
GRIDFORMAT_BEGIN
 90
        0
 91
        1
 62
     0
 92
       -2
340
0
 93
        0
 40
0.045
309
GRIDFORMAT_END
 95
       16
302
GRIDFORMAT
  1
GRIDFORMAT_BEGIN
 90
        0
 91
        1
 62
     0
 92
       -2
340
0
 93
        0
 40
0.045
309
GRIDFORMAT_END
 95
       32
302
GRIDFORMAT
  1
GRIDFORMAT_BEGIN
 90
        0
 91
        1
 62
     0
 92
       -2
340
0
 93
        0
 40
0.045
309
GRIDFORMAT_END
309
TABLEFORMAT_END
  1
CELLSTYLE_BEGIN
 90
        3
 91
        2
300
_DATA
309
CELLSTYLE_END
  0
XRECORD
  5
524
102
{ACAD_REACTORS
330
520
102
}
330
520
100
AcDbXrecord
280
     1
102
ACAD_ROUNDTRIP_PRE2007_TABLESTYLE
 90
        4
 91
        0
  1

 92
        4
 93
        0
  2

 94
        4
 95
        0
  3

  0
XRECORD
  5
537
102
{ACAD_REACTORS
330
536
102
}
330
536
100
AcDbXrecord
280
     1
102
RTVSPropertyOp0
 70
     1
102
RTVSPropertyOp1
 70
     1
102
RTVSPropertyOp2
 70
     1
102
RTVSPropertyOp3
 70
     1
102
RTVSPropertyOp4
 70
     1
102
RTVSPropertyOp5
 70
     1
102
RTVSPropertyOp6
 70
     1
102
RTVSPropertyOp7
 70
     1
102
RTVSPropertyOp8
 70
     1
102
RTVSPropertyOp9
 70
     1
102
RTVSPropertyOp10
 70
     1
102
RTVSPropertyOp11
 70
     1
102
RTVSPropertyOp12
 70
     1
102
RTVSPropertyOp13
 70
     1
102
RTVSPropertyOp14
 70
     1
102
RTVSPropertyOp15
 70
     1
102
RTVSPropertyOp16
 70
     1
102
RTVSPropertyOp17
 70
     1
102
RTVSPropertyOp18
 70
     1
102
RTVSPropertyOp19
 70
     1
102
RTVSPropertyOp20
 70
     1
102
RTVSPropertyOp21
 70
     1
102
RTVSPropertyOp22
 70
     1
102
RTVSPropertyOp23
 70
     1
102
RTVSPropertyOp24
 70
     1
102
RTVSPropertyOp25
 70
     1
102
RTVSPropertyOp26
 70
     1
102
RTVSPropertyOp27
 70
     1
  0
XRECORD
  5
53B
102
{ACAD_REACTORS
330
53A
102
}
330
53A
100
AcDbXrecord
280
     1
102
RTVSPropertyOp0
 70
     1
102
RTVSPropertyOp1
 70
     1
102
RTVSPropertyOp2
 70
     1
102
RTVSPropertyOp3
 70
     1
102
RTVSPropertyOp4
 70
     1
102
RTVSPropertyOp5
 70
     1
102
RTVSPropertyOp6
 70
     1
102
RTVSPropertyOp7
 70
     1
102
RTVSPropertyOp8
 70
     1
102
RTVSPropertyOp9
 70
     1
102
RTVSPropertyOp10
 70
     1
102
RTVSPropertyOp11
 70
     1
102
RTVSPropertyOp12
 70
     1
102
RTVSPropertyOp13
 70
     1
102
RTVSPropertyOp14
 70
     1
102
RTVSPropertyOp15
 70
     1
102
RTVSPropertyOp16
 70
     1
102
RTVSPropertyOp17
 70
     1
102
RTVSPropertyOp18
 70
     1
102
RTVSPropertyOp19
 70
     1
102
RTVSPropertyOp20
 70
     1
102
RTVSPropertyOp21
 70
     1
102
RTVSPropertyOp22
 70
     1
102
RTVSPropertyOp23
 70
     1
102
RTVSPropertyOp24
 70
     1
102
RTVSPropertyOp25
 70
     1
102
RTVSPropertyOp26
 70
     1
102
RTVSPropertyOp27
 70
     1
  0
XRECORD
  5
539
102
{ACAD_REACTORS
330
538
102
}
330
538
100
AcDbXrecord
280
     1
102
RTVSPropertyOp0
 70
     1
102
RTVSPropertyOp1
 70
     1
102
RTVSPropertyOp2
 70
     1
102
RTVSPropertyOp3
 70
     1
102
RTVSPropertyOp4
 70
     1
102
RTVSPropertyOp5
 70
     1
102
RTVSPropertyOp6
 70
     1
102
RTVSPropertyOp7
 70
     1
102
RTVSPropertyOp8
 70
     1
102
RTVSPropertyOp9
 70
     1
102
RTVSPropertyOp10
 70
     1
102
RTVSPropertyOp11
 70
     1
102
RTVSPropertyOp12
 70
     1
102
RTVSPropertyOp13
 70
     1
102
RTVSPropertyOp14
 70
     1
102
RTVSPropertyOp15
 70
     1
102
RTVSPropertyOp16
 70
     1
102
RTVSPropertyOp17
 70
     1
102
RTVSPropertyOp18
 70
     1
102
RTVSPropertyOp19
 70
     1
102
RTVSPropertyOp20
 70
     1
102
RTVSPropertyOp21
 70
     1
102
RTVSPropertyOp22
 70
     1
102
RTVSPropertyOp23
 70
     1
102
RTVSPropertyOp24
 70
     1
102
RTVSPropertyOp25
 70
     1
102
RTVSPropertyOp26
 70
     1
102
RTVSPropertyOp27
 70
     1
  0
XRECORD
  5
535
102
{ACAD_REACTORS
330
534
102
}
330
534
100
AcDbXrecord
280
     1
102
RTVSPropertyOp0
 70
     1
102
RTVSPropertyOp1
 70
     1
102
RTVSPropertyOp2
 70
     1
102
RTVSPropertyOp3
 70
     1
102
RTVSPropertyOp4
 70
     1
102
RTVSPropertyOp5
 70
     1
102
RTVSPropertyOp6
 70
     1
102
RTVSPropertyOp7
 70
     1
102
RTVSPropertyOp8
 70
     1
102
RTVSPropertyOp9
 70
     1
102
RTVSPropertyOp10
 70
     1
102
RTVSPropertyOp11
 70
     1
102
RTVSPropertyOp12
 70
     1
102
RTVSPropertyOp13
 70
     1
102
RTVSPropertyOp14
 70
     1
102
RTVSPropertyOp15
 70
     1
102
RTVSPropertyOp16
 70
     1
102
RTVSPropertyOp17
 70
     1
102
RTVSPropertyOp18
 70
     1
102
RTVSPropertyOp19
 70
     1
102
RTVSPropertyOp20
 70
     1
102
RTVSPropertyOp21
 70
     1
102
RTVSPropertyOp22
 70
     1
102
RTVSPropertyOp23
 70
     1
102
RTVSPropertyOp24
 70
     1
102
RTVSPropertyOp25
 70
     1
102
RTVSPropertyOp26
 70
     1
102
RTVSPropertyOp27
 70
     1
  0
XRECORD
  5
543
102
{ACAD_REACTORS
330
542
102
}
330
542
100
AcDbXrecord
280
     1
102
RTVSPropertyOp0
 70
     1
102
RTVSPropertyOp1
 70
     1
102
RTVSPropertyOp2
 70
     1
102
RTVSPropertyOp3
 70
     1
102
RTVSPropertyOp4
 70
     1
102
RTVSPropertyOp5
 70
     1
102
RTVSPropertyOp6
 70
     1
102
RTVSPropertyOp7
 70
     1
102
RTVSPropertyOp8
 70
     1
102
RTVSPropertyOp9
 70
     1
102
RTVSPropertyOp10
 70
     1
102
RTVSPropertyOp11
 70
     1
102
RTVSPropertyOp12
 70
     1
102
RTVSPropertyOp13
 70
     1
102
RTVSPropertyOp14
 70
     1
102
RTVSPropertyOp15
 70
     1
102
RTVSPropertyOp16
 70
     1
102
RTVSPropertyOp17
 70
     1
102
RTVSPropertyOp18
 70
     1
102
RTVSPropertyOp19
 70
     1
102
RTVSPropertyOp20
 70
     1
102
RTVSPropertyOp21
 70
     1
102
RTVSPropertyOp22
 70
     1
102
RTVSPropertyOp23
 70
     1
102
RTVSPropertyOp24
 70
     1
102
RTVSPropertyOp25
 70
     1
102
RTVSPropertyOp26
 70
     1
102
RTVSPropertyOp27
 70
     1
  0
XRECORD
  5
54B
102
{ACAD_REACTORS
330
54A
102
}
330
54A
100
AcDbXrecord
280
     1
102
RTVSPropertyOp0
 70
     1
102
RTVSPropertyOp1
 70
     1
102
RTVSPropertyOp2
 70
     1
102
RTVSPropertyOp3
 70
     1
102
RTVSPropertyOp4
 70
     1
102
RTVSPropertyOp5
 70
     1
102
RTVSPropertyOp6
 70
     1
102
RTVSPropertyOp7
 70
     1
102
RTVSPropertyOp8
 70
     1
102
RTVSPropertyOp9
 70
     1
102
RTVSPropertyOp10
 70
     1
102
RTVSPropertyOp11
 70
     1
102
RTVSPropertyOp12
 70
     1
102
RTVSPropertyOp13
 70
     1
102
RTVSPropertyOp14
 70
     1
102
RTVSPropertyOp15
 70
     1
102
RTVSPropertyOp16
 70
     1
102
RTVSPropertyOp17
 70
     1
102
RTVSPropertyOp18
 70
     1
102
RTVSPropertyOp19
 70
     1
102
RTVSPropertyOp20
 70
     1
102
RTVSPropertyOp21
 70
     1
102
RTVSPropertyOp22
 70
     1
102
RTVSPropertyOp23
 70
     1
102
RTVSPropertyOp24
 70
     1
102
RTVSPropertyOp25
 70
     1
102
RTVSPropertyOp26
 70
     1
102
RTVSPropertyOp27
 70
     1
  0
XRECORD
  5
53D
102
{ACAD_REACTORS
330
53C
102
}
330
53C
100
AcDbXrecord
280
     1
102
RTVSPropertyOp0
 70
     1
102
RTVSPropertyOp1
 70
     1
102
RTVSPropertyOp2
 70
     1
102
RTVSPropertyOp3
 70
     1
102
RTVSPropertyOp4
 70
     1
102
RTVSPropertyOp5
 70
     1
102
RTVSPropertyOp6
 70
     1
102
RTVSPropertyOp7
 70
     1
102
RTVSPropertyOp8
 70
     1
102
RTVSPropertyOp9
 70
     1
102
RTVSPropertyOp10
 70
     1
102
RTVSPropertyOp11
 70
     1
102
RTVSPropertyOp12
 70
     1
102
RTVSPropertyOp13
 70
     1
102
RTVSPropertyOp14
 70
     1
102
RTVSPropertyOp15
 70
     1
102
RTVSPropertyOp16
 70
     1
102
RTVSPropertyOp17
 70
     1
102
RTVSPropertyOp18
 70
     1
102
RTVSPropertyOp19
 70
     1
102
RTVSPropertyOp20
 70
     1
102
RTVSPropertyOp21
 70
     1
102
RTVSPropertyOp22
 70
     1
102
RTVSPropertyOp23
 70
     1
102
RTVSPropertyOp24
 70
     1
102
RTVSPropertyOp25
 70
     1
102
RTVSPropertyOp26
 70
     1
102
RTVSPropertyOp27
 70
     1
  0
XRECORD
  5
541
102
{ACAD_REACTORS
330
540
102
}
330
540
100
AcDbXrecord
280
     1
102
RTVSPropertyOp0
 70
     1
102
RTVSPropertyOp1
 70
     1
102
RTVSPropertyOp2
 70
     1
102
RTVSPropertyOp3
 70
     1
102
RTVSPropertyOp4
 70
     1
102
RTVSPropertyOp5
 70
     1
102
RTVSPropertyOp6
 70
     1
102
RTVSPropertyOp7
 70
     1
102
RTVSPropertyOp8
 70
     1
102
RTVSPropertyOp9
 70
     1
102
RTVSPropertyOp10
 70
     1
102
RTVSPropertyOp11
 70
     1
102
RTVSPropertyOp12
 70
     1
102
RTVSPropertyOp13
 70
     1
102
RTVSPropertyOp14
 70
     1
102
RTVSPropertyOp15
 70
     1
102
RTVSPropertyOp16
 70
     1
102
RTVSPropertyOp17
 70
     1
102
RTVSPropertyOp18
 70
     1
102
RTVSPropertyOp19
 70
     1
102
RTVSPropertyOp20
 70
     1
102
RTVSPropertyOp21
 70
     1
102
RTVSPropertyOp22
 70
     1
102
RTVSPropertyOp23
 70
     1
102
RTVSPropertyOp24
 70
     1
102
RTVSPropertyOp25
 70
     1
102
RTVSPropertyOp26
 70
     1
102
RTVSPropertyOp27
 70
     1
  0
XRECORD
  5
551
102
{ACAD_REACTORS
330
550
102
}
330
550
100
AcDbXrecord
280
     1
102
RTVSPropertyOp0
 70
     0
102
RTVSPropertyOp1
 70
     0
102
RTVSPropertyOp2
 70
     0
102
RTVSPropertyOp3
 70
     0
102
RTVSPropertyOp4
 70
     0
102
RTVSPropertyOp5
 70
     0
102
RTVSPropertyOp6
 70
     0
102
RTVSPropertyOp7
 70
     0
102
RTVSPropertyOp8
 70
     0
102
RTVSPropertyOp9
 70
     0
102
RTVSPropertyOp10
 70
     0
102
RTVSPropertyOp11
 70
     0
102
RTVSPropertyOp12
 70
     0
102
RTVSPropertyOp13
 70
     0
102
RTVSPropertyOp14
 70
     2
102
RTVSPropertyOp15
 70
     0
102
RTVSPropertyOp16
 70
     0
102
RTVSPropertyOp17
 70
     0
102
RTVSPropertyOp18
 70
     0
102
RTVSPropertyOp19
 70
     0
102
RTVSPropertyOp20
 70
     0
102
RTVSPropertyOp21
 70
     0
102
RTVSPropertyOp22
 70
     0
102
RTVSPropertyOp23
 70
     0
102
RTVSPropertyOp24
 70
     0
102
RTVSPropertyOp25
 70
     0
102
RTVSPropertyOp26
 70
     0
102
RTVSPropertyOp27
 70
     0
  0
XRECORD
  5
549
102
{ACAD_REACTORS
330
548
102
}
330
548
100
AcDbXrecord
280
     1
102
RTVSPropertyOp0
 70
     1
102
RTVSPropertyOp1
 70
     1
102
RTVSPropertyOp2
 70
     1
102
RTVSPropertyOp3
 70
     1
102
RTVSPropertyOp4
 70
     1
102
RTVSPropertyOp5
 70
     1
102
RTVSPropertyOp6
 70
     1
102
RTVSPropertyOp7
 70
     1
102
RTVSPropertyOp8
 70
     1
102
RTVSPropertyOp9
 70
     1
102
RTVSPropertyOp10
 70
     1
102
RTVSPropertyOp11
 70
     1
102
RTVSPropertyOp12
 70
     1
102
RTVSPropertyOp13
 70
     1
102
RTVSPropertyOp14
 70
     1
102
RTVSPropertyOp15
 70
     1
102
RTVSPropertyOp16
 70
     1
102
RTVSPropertyOp17
 70
     1
102
RTVSPropertyOp18
 70
     1
102
RTVSPropertyOp19
 70
     1
102
RTVSPropertyOp20
 70
     1
102
RTVSPropertyOp21
 70
     1
102
RTVSPropertyOp22
 70
     1
102
RTVSPropertyOp23
 70
     1
102
RTVSPropertyOp24
 70
     1
102
RTVSPropertyOp25
 70
     1
102
RTVSPropertyOp26
 70
     1
102
RTVSPropertyOp27
 70
     1
  0
XRECORD
  5
52D
102
{ACAD_REACTORS
330
52C
102
}
330
52C
100
AcDbXrecord
280
     1
102
RTVSPropertyOp0
 70
     1
102
RTVSPropertyOp1
 70
     1
102
RTVSPropertyOp2
 70
     1
102
RTVSPropertyOp3
 70
     1
102
RTVSPropertyOp4
 70
     1
102
RTVSPropertyOp5
 70
     1
102
RTVSPropertyOp6
 70
     1
102
RTVSPropertyOp7
 70
     1
102
RTVSPropertyOp8
 70
     1
102
RTVSPropertyOp9
 70
     1
102
RTVSPropertyOp10
 70
     1
102
RTVSPropertyOp11
 70
     1
102
RTVSPropertyOp12
 70
     1
102
RTVSPropertyOp13
 70
     1
102
RTVSPropertyOp14
 70
     1
102
RTVSPropertyOp15
 70
     1
102
RTVSPropertyOp16
 70
     1
102
RTVSPropertyOp17
 70
     1
102
RTVSPropertyOp18
 70
     1
102
RTVSPropertyOp19
 70
     1
102
RTVSPropertyOp20
 70
     1
102
RTVSPropertyOp21
 70
     1
102
RTVSPropertyOp22
 70
     1
102
RTVSPropertyOp23
 70
     1
102
RTVSPropertyOp24
 70
     1
102
RTVSPropertyOp25
 70
     1
102
RTVSPropertyOp26
 70
     1
102
RTVSPropertyOp27
 70
     1
  0
XRECORD
  5
52F
102
{ACAD_REACTORS
330
52E
102
}
330
52E
100
AcDbXrecord
280
     1
102
RTVSPropertyOp0
 70
     1
102
RTVSPropertyOp1
 70
     1
102
RTVSPropertyOp2
 70
     1
102
RTVSPropertyOp3
 70
     1
102
RTVSPropertyOp4
 70
     1
102
RTVSPropertyOp5
 70
     1
102
RTVSPropertyOp6
 70
     1
102
RTVSPropertyOp7
 70
     1
102
RTVSPropertyOp8
 70
     1
102
RTVSPropertyOp9
 70
     1
102
RTVSPropertyOp10
 70
     1
102
RTVSPropertyOp11
 70
     1
102
RTVSPropertyOp12
 70
     1
102
RTVSPropertyOp13
 70
     1
102
RTVSPropertyOp14
 70
     1
102
RTVSPropertyOp15
 70
     1
102
RTVSPropertyOp16
 70
     1
102
RTVSPropertyOp17
 70
     1
102
RTVSPropertyOp18
 70
     1
102
RTVSPropertyOp19
 70
     1
102
RTVSPropertyOp20
 70
     1
102
RTVSPropertyOp21
 70
     1
102
RTVSPropertyOp22
 70
     1
102
RTVSPropertyOp23
 70
     1
102
RTVSPropertyOp24
 70
     1
102
RTVSPropertyOp25
 70
     1
102
RTVSPropertyOp26
 70
     1
102
RTVSPropertyOp27
 70
     1
  0
XRECORD
  5
531
102
{ACAD_REACTORS
330
530
102
}
330
530
100
AcDbXrecord
280
     1
102
RTVSPropertyOp0
 70
     1
102
RTVSPropertyOp1
 70
     1
102
RTVSPropertyOp2
 70
     1
102
RTVSPropertyOp3
 70
     1
102
RTVSPropertyOp4
 70
     1
102
RTVSPropertyOp5
 70
     1
102
RTVSPropertyOp6
 70
     1
102
RTVSPropertyOp7
 70
     1
102
RTVSPropertyOp8
 70
     1
102
RTVSPropertyOp9
 70
     1
102
RTVSPropertyOp10
 70
     1
102
RTVSPropertyOp11
 70
     1
102
RTVSPropertyOp12
 70
     1
102
RTVSPropertyOp13
 70
     1
102
RTVSPropertyOp14
 70
     1
102
RTVSPropertyOp15
 70
     1
102
RTVSPropertyOp16
 70
     1
102
RTVSPropertyOp17
 70
     1
102
RTVSPropertyOp18
 70
     1
102
RTVSPropertyOp19
 70
     1
102
RTVSPropertyOp20
 70
     1
102
RTVSPropertyOp21
 70
     1
102
RTVSPropertyOp22
 70
     1
102
RTVSPropertyOp23
 70
     1
102
RTVSPropertyOp24
 70
     1
102
RTVSPropertyOp25
 70
     1
102
RTVSPropertyOp26
 70
     1
102
RTVSPropertyOp27
 70
     1
  0
XRECORD
  5
533
102
{ACAD_REACTORS
330
532
102
}
330
532
100
AcDbXrecord
280
     1
102
RTVSPropertyOp0
 70
     1
102
RTVSPropertyOp1
 70
     1
102
RTVSPropertyOp2
 70
     1
102
RTVSPropertyOp3
 70
     1
102
RTVSPropertyOp4
 70
     1
102
RTVSPropertyOp5
 70
     1
102
RTVSPropertyOp6
 70
     1
102
RTVSPropertyOp7
 70
     1
102
RTVSPropertyOp8
 70
     1
102
RTVSPropertyOp9
 70
     1
102
RTVSPropertyOp10
 70
     1
102
RTVSPropertyOp11
 70
     1
102
RTVSPropertyOp12
 70
     1
102
RTVSPropertyOp13
 70
     1
102
RTVSPropertyOp14
 70
     1
102
RTVSPropertyOp15
 70
     1
102
RTVSPropertyOp16
 70
     1
102
RTVSPropertyOp17
 70
     1
102
RTVSPropertyOp18
 70
     1
102
RTVSPropertyOp19
 70
     1
102
RTVSPropertyOp20
 70
     1
102
RTVSPropertyOp21
 70
     1
102
RTVSPropertyOp22
 70
     1
102
RTVSPropertyOp23
 70
     1
102
RTVSPropertyOp24
 70
     1
102
RTVSPropertyOp25
 70
     1
102
RTVSPropertyOp26
 70
     1
102
RTVSPropertyOp27
 70
     1
  0
XRECORD
  5
54D
102
{ACAD_REACTORS
330
54C
102
}
330
54C
100
AcDbXrecord
280
     1
102
RTVSPropertyOp0
 70
     0
102
RTVSPropertyOp1
 70
     0
102
RTVSPropertyOp2
 70
     0
102
RTVSPropertyOp3
 70
     0
102
RTVSPropertyOp4
 70
     0
102
RTVSPropertyOp5
 70
     0
102
RTVSPropertyOp6
 70
     0
102
RTVSPropertyOp7
 70
     0
102
RTVSPropertyOp8
 70
     0
102
RTVSPropertyOp9
 70
     0
102
RTVSPropertyOp10
 70
     0
102
RTVSPropertyOp11
 70
     0
102
RTVSPropertyOp12
 70
     0
102
RTVSPropertyOp13
 70
     0
102
RTVSPropertyOp14
 70
     2
102
RTVSPropertyOp15
 70
     0
102
RTVSPropertyOp16
 70
     0
102
RTVSPropertyOp17
 70
     0
102
RTVSPropertyOp18
 70
     0
102
RTVSPropertyOp19
 70
     0
102
RTVSPropertyOp20
 70
     0
102
RTVSPropertyOp21
 70
     0
102
RTVSPropertyOp22
 70
     0
102
RTVSPropertyOp23
 70
     0
102
RTVSPropertyOp24
 70
     0
102
RTVSPropertyOp25
 70
     0
102
RTVSPropertyOp26
 70
     0
102
RTVSPropertyOp27
 70
     0
  0
XRECORD
  5
547
102
{ACAD_REACTORS
330
546
102
}
330
546
100
AcDbXrecord
280
     1
102
RTVSPropertyOp0
 70
     1
102
RTVSPropertyOp1
 70
     1
102
RTVSPropertyOp2
 70
     1
102
RTVSPropertyOp3
 70
     1
102
RTVSPropertyOp4
 70
     1
102
RTVSPropertyOp5
 70
     1
102
RTVSPropertyOp6
 70
     1
102
RTVSPropertyOp7
 70
     1
102
RTVSPropertyOp8
 70
     1
102
RTVSPropertyOp9
 70
     1
102
RTVSPropertyOp10
 70
     1
102
RTVSPropertyOp11
 70
     1
102
RTVSPropertyOp12
 70
     1
102
RTVSPropertyOp13
 70
     1
102
RTVSPropertyOp14
 70
     1
102
RTVSPropertyOp15
 70
     1
102
RTVSPropertyOp16
 70
     1
102
RTVSPropertyOp17
 70
     1
102
RTVSPropertyOp18
 70
     1
102
RTVSPropertyOp19
 70
     1
102
RTVSPropertyOp20
 70
     1
102
RTVSPropertyOp21
 70
     1
102
RTVSPropertyOp22
 70
     1
102
RTVSPropertyOp23
 70
     1
102
RTVSPropertyOp24
 70
     1
102
RTVSPropertyOp25
 70
     1
102
RTVSPropertyOp26
 70
     1
102
RTVSPropertyOp27
 70
     1
  0
XRECORD
  5
54F
102
{ACAD_REACTORS
330
54E
102
}
330
54E
100
AcDbXrecord
280
     1
102
RTVSPropertyOp0
 70
     0
102
RTVSPropertyOp1
 70
     0
102
RTVSPropertyOp2
 70
     0
102
RTVSPropertyOp3
 70
     0
102
RTVSPropertyOp4
 70
     0
102
RTVSPropertyOp5
 70
     0
102
RTVSPropertyOp6
 70
     0
102
RTVSPropertyOp7
 70
     0
102
RTVSPropertyOp8
 70
     0
102
RTVSPropertyOp9
 70
     0
102
RTVSPropertyOp10
 70
     0
102
RTVSPropertyOp11
 70
     0
102
RTVSPropertyOp12
 70
     0
102
RTVSPropertyOp13
 70
     0
102
RTVSPropertyOp14
 70
     2
102
RTVSPropertyOp15
 70
     0
102
RTVSPropertyOp16
 70
     0
102
RTVSPropertyOp17
 70
     0
102
RTVSPropertyOp18
 70
     0
102
RTVSPropertyOp19
 70
     0
102
RTVSPropertyOp20
 70
     0
102
RTVSPropertyOp21
 70
     0
102
RTVSPropertyOp22
 70
     0
102
RTVSPropertyOp23
 70
     0
102
RTVSPropertyOp24
 70
     0
102
RTVSPropertyOp25
 70
     0
102
RTVSPropertyOp26
 70
     0
102
RTVSPropertyOp27
 70
     0
  0
XRECORD
  5
53F
102
{ACAD_REACTORS
330
53E
102
}
330
53E
100
AcDbXrecord
280
     1
102
RTVSPropertyOp0
 70
     1
102
RTVSPropertyOp1
 70
     1
102
RTVSPropertyOp2
 70
     1
102
RTVSPropertyOp3
 70
     1
102
RTVSPropertyOp4
 70
     1
102
RTVSPropertyOp5
 70
     1
102
RTVSPropertyOp6
 70
     1
102
RTVSPropertyOp7
 70
     1
102
RTVSPropertyOp8
 70
     1
102
RTVSPropertyOp9
 70
     1
102
RTVSPropertyOp10
 70
     1
102
RTVSPropertyOp11
 70
     1
102
RTVSPropertyOp12
 70
     1
102
RTVSPropertyOp13
 70
     1
102
RTVSPropertyOp14
 70
     1
102
RTVSPropertyOp15
 70
     1
102
RTVSPropertyOp16
 70
     1
102
RTVSPropertyOp17
 70
     1
102
RTVSPropertyOp18
 70
     1
102
RTVSPropertyOp19
 70
     1
102
RTVSPropertyOp20
 70
     1
102
RTVSPropertyOp21
 70
     1
102
RTVSPropertyOp22
 70
     1
102
RTVSPropertyOp23
 70
     1
102
RTVSPropertyOp24
 70
     1
102
RTVSPropertyOp25
 70
     1
102
RTVSPropertyOp26
 70
     1
102
RTVSPropertyOp27
 70
     1
  0
XRECORD
  5
545
102
{ACAD_REACTORS
330
544
102
}
330
544
100
AcDbXrecord
280
     1
102
RTVSPropertyOp0
 70
     1
102
RTVSPropertyOp1
 70
     1
102
RTVSPropertyOp2
 70
     1
102
RTVSPropertyOp3
 70
     1
102
RTVSPropertyOp4
 70
     1
102
RTVSPropertyOp5
 70
     1
102
RTVSPropertyOp6
 70
     1
102
RTVSPropertyOp7
 70
     1
102
RTVSPropertyOp8
 70
     1
102
RTVSPropertyOp9
 70
     1
102
RTVSPropertyOp10
 70
     1
102
RTVSPropertyOp11
 70
     1
102
RTVSPropertyOp12
 70
     1
102
RTVSPropertyOp13
 70
     1
102
RTVSPropertyOp14
 70
     1
102
RTVSPropertyOp15
 70
     1
102
RTVSPropertyOp16
 70
     1
102
RTVSPropertyOp17
 70
     1
102
RTVSPropertyOp18
 70
     1
102
RTVSPropertyOp19
 70
     1
102
RTVSPropertyOp20
 70
     1
102
RTVSPropertyOp21
 70
     1
102
RTVSPropertyOp22
 70
     1
102
RTVSPropertyOp23
 70
     1
102
RTVSPropertyOp24
 70
     1
102
RTVSPropertyOp25
 70
     1
102
RTVSPropertyOp26
 70
     1
102
RTVSPropertyOp27
 70
     1
  0
ENDSEC
  0
EOF
