  0
SECTION
  2
HEADER
  9
$ACADVER
  1
AC1015
  9
$ACADMAINTVER
 70
     6
  9
$DWGCODEPAGE
  3
ANSI_1252
  9
$INSBASE
 10
0.0
 20
0.0
 30
0.0
  9
$EXTMIN
 10
0.0
 20
0.0
 30
0.0
  9
$EXTMAX
 10
34.0
 20
25.0
 30
0.0
  9
$LIMMIN
 10
0.0
 20
0.0
  9
$LIMMAX
 10
34.0
 20
25.0
  9
$ORTHOMODE
 70
     0
  9
$REGENMODE
 70
     1
  9
$FILLMODE
 70
     1
  9
$QTEXTMODE
 70
     0
  9
$MIRRTEXT
 70
     1
  9
$LTSCALE
 40
1.0
  9
$ATTMODE
 70
     1
  9
$TEXTSIZE
 40
0.2777777778
  9
$TRACEWID
 40
0.05
  9
$TEXTSTYLE
  7
Standard
  9
$CLAYER
  8
0
  9
$CELTYPE
  6
ByLayer
  9
$CECOLOR
 62
   256
  9
$CELTSCALE
 40
1.0
  9
$DISPSILH
 70
     0
  9
$DIMSCALE
 40
1.0
  9
$DIMASZ
 40
0.3640136719
  9
$DIMEXO
 40
0.05
  9
$DIMDLI
 40
0.38
  9
$DIMRND
 40
0.0
  9
$DIMDLE
 40
0.0
  9
$DIMEXE
 40
0.125
  9
$DIMTP
 40
0.0
  9
$DIMTM
 40
0.0
  9
$DIMTXT
 40
0.5
  9
$DIMCEN
 40
0.09
  9
$DIMTSZ
 40
0.0
  9
$DIMTOL
 70
     0
  9
$DIMLIM
 70
     0
  9
$DIMTIH
 70
     1
  9
$DIMTOH
 70
     1
  9
$DIMSE1
 70
     0
  9
$DIMSE2
 70
     0
  9
$DIMTAD
 70
     0
  9
$DIMZIN
 70
     0
  9
$DIMBLK
  1

  9
$DIMASO
 70
     1
  9
$DIMSHO
 70
     1
  9
$DIMPOST
  1

  9
$DIMAPOST
  1

  9
$DIMALT
 70
     0
  9
$DIMALTD
 70
     2
  9
$DIMALTF
 40
25.4
  9
$DIMLFAC
 40
1.0
  9
$DIMTOFL
 70
     0
  9
$DIMTVP
 40
0.0
  9
$DIMTIX
 70
     0
  9
$DIMSOXD
 70
     0
  9
$DIMSAH
 70
     0
  9
$DIMBLK1
  1

  9
$DIMBLK2
  1

  9
$DIMSTYLE
  2
Standard
  9
$DIMCLRD
 70
     0
  9
$DIMCLRE
 70
     0
  9
$DIMCLRT
 70
     0
  9
$DIMTFAC
 40
1.0
  9
$DIMGAP
 40
0.06
  9
$DIMJUST
 70
     0
  9
$DIMSD1
 70
     0
  9
$DIMSD2
 70
     0
  9
$DIMTOLJ
 70
     1
  9
$DIMTZIN
 70
     0
  9
$DIMALTZ
 70
     0
  9
$DIMALTTZ
 70
     0
  9
$DIMUPT
 70
     0
  9
$DIMDEC
 70
     3
  9
$DIMTDEC
 70
     3
  9
$DIMALTU
 70
     2
  9
$DIMALTTD
 70
     2
  9
$DIMTXSTY
  7
Standard
  9
$DIMAUNIT
 70
     0
  9
$DIMADEC
 70
     2
  9
$DIMALTRND
 40
0.0
  9
$DIMAZIN
 70
     0
  9
$DIMDSEP
 70
    46
  9
$DIMATFIT
 70
     3
  9
$DIMFRAC
 70
     0
  9
$DIMLDRBLK
  1

  9
$DIMLUNIT
 70
     2
  9
$DIMLWD
 70
    -2
  9
$DIMLWE
 70
    -2
  9
$DIMTMOVE
 70
     0
  9
$LUNITS
 70
     2
  9
$LUPREC
 70
     3
  9
$SKETCHINC
 40
0.1
  9
$FILLETRAD
 40
0.5
  9
$AUNITS
 70
     0
  9
$AUPREC
 70
     2
  9
$MENU
  1
.
  9
$ELEVATION
 40
0.0
  9
$PELEVATION
 40
0.0
  9
$THICKNESS
 40
0.0
  9
$LIMCHECK
 70
     0
  9
$CHAMFERA
 40
0.0
  9
$CHAMFERB
 40
0.0
  9
$CHAMFERC
 40
0.0
  9
$CHAMFERD
 40
0.0
  9
$SKPOLY
 70
     0
  9
$TDCREATE
 40
2458228.697876018
  9
$TDUCREATE
 40
2458228.906209352
  9
$TDUPDATE
 40
2458228.697884548
  9
$TDUUPDATE
 40
2458228.906217882
  9
$TDINDWG
 40
0.0000000116
  9
$TDUSRTIMER
 40
0.0000000116
  9
$USRTIMER
 70
     1
  9
$ANGBASE
 50
0.0
  9
$ANGDIR
 70
     0
  9
$PDMODE
 70
     0
  9
$PDSIZE
 40
-1.0
  9
$PLINEWID
 40
0.0
  9
$SPLFRAME
 70
     0
  9
$SPLINETYPE
 70
     6
  9
$SPLINESEGS
 70
     8
  9
$HANDSEED
  5
1E3
  9
$SURFTAB1
 70
     6
  9
$SURFTAB2
 70
     6
  9
$SURFTYPE
 70
     6
  9
$SURFU
 70
     6
  9
$SURFV
 70
     6
  9
$UCSBASE
  2

  9
$UCSNAME
  2

  9
$UCSORG
 10
0.0
 20
0.0
 30
0.0
  9
$UCSXDIR
 10
1.0
 20
0.0
 30
0.0
  9
$UCSYDIR
 10
0.0
 20
1.0
 30
0.0
  9
$UCSORTHOREF
  2

  9
$UCSORTHOVIEW
 70
     0
  9
$UCSORGTOP
 10
0.0
 20
0.0
 30
0.0
  9
$UCSORGBOTTOM
 10
0.0
 20
0.0
 30
0.0
  9
$UCSORGLEFT
 10
0.0
 20
0.0
 30
0.0
  9
$UCSORGRIGHT
 10
0.0
 20
0.0
 30
0.0
  9
$UCSORGFRONT
 10
0.0
 20
0.0
 30
0.0
  9
$UCSORGBACK
 10
0.0
 20
0.0
 30
0.0
  9
$PUCSBASE
  2

  9
$PUCSNAME
  2

  9
$PUCSORG
 10
0.0
 20
0.0
 30
0.0
  9
$PUCSXDIR
 10
1.0
 20
0.0
 30
0.0
  9
$PUCSYDIR
 10
0.0
 20
1.0
 30
0.0
  9
$PUCSORTHOREF
  2

  9
$PUCSORTHOVIEW
 70
     0
  9
$PUCSORGTOP
 10
0.0
 20
0.0
 30
0.0
  9
$PUCSORGBOTTOM
 10
0.0
 20
0.0
 30
0.0
  9
$PUCSORGLEFT
 10
0.0
 20
0.0
 30
0.0
  9
$PUCSORGRIGHT
 10
0.0
 20
0.0
 30
0.0
  9
$PUCSORGFRONT
 10
0.0
 20
0.0
 30
0.0
  9
$PUCSORGBACK
 10
0.0
 20
0.0
 30
0.0
  9
$USERI1
 70
     0
  9
$USERI2
 70
     0
  9
$USERI3
 70
     0
  9
$USERI4
 70
     0
  9
$USERI5
 70
     0
  9
$USERR1
 40
0.0
  9
$USERR2
 40
0.0
  9
$USERR3
 40
0.0
  9
$USERR4
 40
0.0
  9
$USERR5
 40
0.0
  9
$WORLDVIEW
 70
     1
  9
$SHADEDGE
 70
     3
  9
$SHADEDIF
 70
    70
  9
$TILEMODE
 70
     1
  9
$MAXACTVP
 70
    64
  9
$PINSBASE
 10
0.0
 20
0.0
 30
0.0
  9
$PLIMCHECK
 70
     0
  9
$PEXTMIN
 10
1.0000000000E+20
 20
1.0000000000E+20
 30
1.0000000000E+20
  9
$PEXTMAX
 10
-1.0000000000E+20
 20
-1.0000000000E+20
 30
-1.0000000000E+20
  9
$PLIMMIN
 10
0.0
 20
0.0
  9
$PLIMMAX
 10
12.0
 20
9.0
  9
$UNITMODE
 70
     0
  9
$VISRETAIN
 70
     1
  9
$PLINEGEN
 70
     0
  9
$PSLTSCALE
 70
     1
  9
$TREEDEPTH
 70
  3020
  9
$CMLSTYLE
  2
Standard
  9
$CMLJUST
 70
     0
  9
$CMLSCALE
 40
1.0
  9
$PROXYGRAPHICS
 70
     1
  9
$MEASUREMENT
 70
     0
  9
$CELWEIGHT
370
    -1
  9
$ENDCAPS
280
     0
  9
$JOINSTYLE
280
     0
  9
$LWDISPLAY
290
     1
  9
$INSUNITS
 70
     1
  9
$HYPERLINKBASE
  1

  9
$STYLESHEET
  1

  9
$XEDIT
290
     1
  9
$CEPSNTYPE
380
     0
  9
$PSTYLEMODE
290
     1
  9
$FINGERPRINTGUID
  2
{6237262D-0991-4E2B-8015-93C2ECC8382D}
  9
$VERSIONGUID
  2
{FAEB1C32-E019-11D5-929B-00C0DF256EC4}
  9
$EXTNAMES
290
     1
  9
$PSVPSCALE
 40
0.0
  9
$OLESTARTUP
290
     0
  0
ENDSEC
  0
SECTION
  2
CLASSES
  0
CLASS
  1
ACDBDICTIONARYWDFLT
  2
AcDbDictionaryWithDefault
  3
ObjectDBX Classes
 90
        0
280
     0
281
     0
  0
CLASS
  1
VISUALSTYLE
  2
AcDbVisualStyle
  3
ObjectDBX Classes
 90
     4095
280
     0
281
     0
  0
CLASS
  1
MATERIAL
  2
AcDbMaterial
  3
ObjectDBX Classes
 90
     1153
280
     0
281
     0
  0
CLASS
  1
SCALE
  2
AcDbScale
  3
ObjectDBX Classes
 90
     1153
280
     0
281
     0
  0
CLASS
  1
TABLESTYLE
  2
AcDbTableStyle
  3
ObjectDBX Classes
 90
     4095
280
     0
281
     0
  0
CLASS
  1
MLEADERSTYLE
  2
AcDbMLeaderStyle
  3
ACDB_MLEADERSTYLE_CLASS
 90
     4095
280
     0
281
     0
  0
CLASS
  1
SUN
  2
AcDbSun
  3
SCENEOE
 90
     1153
280
     0
281
     0
  0
CLASS
  1
ACDBPLACEHOLDER
  2
AcDbPlaceHolder
  3
ObjectDBX Classes
 90
        0
280
     0
281
     0
  0
CLASS
  1
LAYOUT
  2
AcDbLayout
  3
ObjectDBX Classes
 90
        0
280
     0
281
     0
  0
ENDSEC
  0
SECTION
  2
TABLES
  0
TABLE
  2
VPORT
  5
8
330
0
100
AcDbSymbolTable
 70
     1
  0
VPORT
  5
29
330
8
100
AcDbSymbolTableRecord
100
AcDbViewportTableRecord
  2
*Active
 70
     0
 10
0.0
 20
0.0
 11
1.0
 21
1.0
 12
17.0
 22
12.5
 13
0.0
 23
0.0
 14
0.5
 24
0.5
 15
0.5
 25
0.5
 16
0.0
 26
0.0
 36
1.0
 17
0.0
 27
0.0
 37
0.0
 40
25.0
 41
1.36
 42
50.0
 43
0.0
 44
0.0
 50
0.0
 51
0.0
 71
     0
 72
  2000
 73
     1
 74
     3
 75
     0
 76
     0
 77
     0
 78
     0
281
     0
 65
     1
110
0.0
120
0.0
130
0.0
111
1.0
121
0.0
131
0.0
112
0.0
122
1.0
132
0.0
 79
     0
146
0.0
  0
ENDTAB
  0
TABLE
  2
LTYPE
  5
5
330
0
100
AcDbSymbolTable
 70
     6
  0
LTYPE
  5
14
330
5
100
AcDbSymbolTableRecord
100
AcDbLinetypeTableRecord
  2
ByBlock
 70
     0
  3

 72
    65
 73
     0
 40
0.0
  0
LTYPE
  5
15
330
5
100
AcDbSymbolTableRecord
100
AcDbLinetypeTableRecord
  2
ByLayer
 70
     0
  3

 72
    65
 73
     0
 40
0.0
  0
LTYPE
  5
16
330
5
100
AcDbSymbolTableRecord
100
AcDbLinetypeTableRecord
  2
Continuous
 70
     0
  3
Solid line
 72
    65
 73
     0
 40
0.0
  0
LTYPE
  5
6E
330
5
100
AcDbSymbolTableRecord
100
AcDbLinetypeTableRecord
  2
HIDDEN
 70
     0
  3
Hidden __ __ __ __ __ __ __ __ __ __ __ __ __ __
 72
    65
 73
     2
 40
0.075
 49
0.05
 74
     0
 49
-0.025
 74
     0
  0
LTYPE
  5
6F
330
5
100
AcDbSymbolTableRecord
100
AcDbLinetypeTableRecord
  2
PHANTOM
 70
     0
  3
Phantom ______  __  __  ______  __  __  ______
 72
    65
 73
     6
 40
0.5
 49
0.25
 74
     0
 49
-0.05
 74
     0
 49
0.05
 74
     0
 49
-0.05
 74
     0
 49
0.05
 74
     0
 49
-0.05
 74
     0
  0
LTYPE
  5
70
330
5
100
AcDbSymbolTableRecord
100
AcDbLinetypeTableRecord
  2
CENTER
 70
     0
  3
Center ____ _ ____ _ ____ _ ____ _ ____ _ ____
 72
    65
 73
     4
 40
0.4
 49
0.25
 74
     0
 49
-0.05
 74
     0
 49
0.05
 74
     0
 49
-0.05
 74
     0
  0
LTYPE
  5
71
330
5
100
AcDbSymbolTableRecord
100
AcDbLinetypeTableRecord
  2
CENTERX2
 70
     0
  3
Center (2x) ________  __  ________  __  _____
 72
    65
 73
     4
 40
0.8
 49
0.5
 74
     0
 49
-0.1
 74
     0
 49
0.1
 74
     0
 49
-0.1
 74
     0
  0
LTYPE
  5
72
330
5
100
AcDbSymbolTableRecord
100
AcDbLinetypeTableRecord
  2
DOT2
 70
     0
  3
Dot (.5x) ........................................
 72
    65
 73
     2
 40
0.025
 49
0.0
 74
     0
 49
-0.025
 74
     0
  0
ENDTAB
  0
TABLE
  2
LAYER
  5
2
330
0
100
AcDbSymbolTable
 70
     8
  0
LAYER
  5
10
330
2
100
AcDbSymbolTableRecord
100
AcDbLayerTableRecord
  2
0
 70
     0
 62
     7
  6
Continuous
370
    -3
390
F
  0
LAYER
  5
73
330
2
100
AcDbSymbolTableRecord
100
AcDbLayerTableRecord
  2
SLD-0
 70
     0
 62
   179
  6
Continuous
370
    -3
390
F
  0
LAYER
  5
74
330
2
100
AcDbSymbolTableRecord
100
AcDbLayerTableRecord
  2
OBJECTS
 70
     0
 62
     7
  6
Continuous
370
    -3
390
F
  0
LAYER
  5
75
330
2
100
AcDbSymbolTableRecord
100
AcDbLayerTableRecord
  2
DIMS
 70
     0
 62
     7
  6
Continuous
370
    -3
390
F
  0
LAYER
  5
76
330
2
100
AcDbSymbolTableRecord
100
AcDbLayerTableRecord
  2
NOTES
 70
     0
 62
     7
  6
Continuous
370
    -3
390
F
  0
LAYER
  5
77
330
2
100
AcDbSymbolTableRecord
100
AcDbLayerTableRecord
  2
IMAGES
 70
     0
 62
     7
  6
Continuous
370
    -3
390
F
  0
LAYER
  5
78
330
2
100
AcDbSymbolTableRecord
100
AcDbLayerTableRecord
  2
CENTERLINES
 70
     0
 62
     7
  6
HIDDEN
370
    -3
390
F
  0
LAYER
  5
79
330
2
100
AcDbSymbolTableRecord
100
AcDbLayerTableRecord
  2
BLOCKS
 70
     0
 62
    16
  6
Continuous
370
    -3
390
F
  0
ENDTAB
  0
TABLE
  2
STYLE
  5
3
330
0
100
AcDbSymbolTable
 70
     2
  0
STYLE
  5
11
330
3
100
AcDbSymbolTableRecord
100
AcDbTextStyleTableRecord
  2
Standard
 70
     0
 40
0.0
 41
1.0
 50
0.0
 71
     0
 42
0.2777777778
  3
txt
  4

  0
STYLE
  5
BB
330
3
100
AcDbSymbolTableRecord
100
AcDbTextStyleTableRecord
  2
SLDTEXTSTYLE0
 70
     0
 40
0.0
 41
0.605
 50
0.0
 71
     0
 42
0.2777777778
  3
TXT
  4

  0
ENDTAB
  0
TABLE
  2
VIEW
  5
6
330
0
100
AcDbSymbolTable
 70
     0
  0
ENDTAB
  0
TABLE
  2
UCS
  5
7
330
0
100
AcDbSymbolTable
 70
     0
  0
ENDTAB
  0
TABLE
  2
APPID
  5
9
330
0
100
AcDbSymbolTable
 70
     1
  0
APPID
  5
12
330
9
100
AcDbSymbolTableRecord
100
AcDbRegAppTableRecord
  2
ACAD
 70
     0
  0
ENDTAB
  0
TABLE
  2
DIMSTYLE
  5
A
330
0
100
AcDbSymbolTable
 70
     4
100
AcDbDimStyleTable
  0
DIMSTYLE
105
27
330
A
100
AcDbSymbolTableRecord
100
AcDbDimStyleTableRecord
  2
Standard
 70
     0
178
     0
340
11
  0
DIMSTYLE
105
128
102
{ACAD_REACTORS
330
127
330
150
330
165
330
17A
102
}
330
A
100
AcDbSymbolTableRecord
100
AcDbDimStyleTableRecord
  2
SLDDIMSTYLE0
 70
     0
 41
0.3640136719
 44
0.0
 45
0.000000001
 78
    12
 79
     3
140
0.3640136719
147
0.091003418
148
0.000000001
170
     1
173
     1
178
     0
271
     6
272
     3
276
     2
277
     5
284
    12
340
BB
  0
DIMSTYLE
105
13E
102
{ACAD_REACTORS
330
13D
330
18F
102
}
330
A
100
AcDbSymbolTableRecord
100
AcDbDimStyleTableRecord
  2
SLDDIMSTYLE1
 70
     0
 41
0.3640136719
 44
0.0
 45
0.000000001
 78
    12
 79
     3
140
0.3640136719
141
0.0
147
0.091003418
148
0.000000001
170
     1
173
     1
178
     0
271
     3
272
     3
276
     2
277
     5
279
     1
284
    12
340
BB
  0
DIMSTYLE
105
1A3
102
{ACAD_REACTORS
330
1A2
102
}
330
A
100
AcDbSymbolTableRecord
100
AcDbDimStyleTableRecord
  2
SLDDIMSTYLE2
 70
     0
 41
0.3640136719
 44
0.0
 45
0.000000001
 78
    12
 79
     3
140
0.3640136719
141
0.0
147
0.091003418
148
0.000000001
170
     1
173
     1
178
     0
271
     3
272
     3
276
     2
277
     5
284
    12
340
BB
  0
ENDTAB
  0
TABLE
  2
BLOCK_RECORD
  5
1
330
0
100
AcDbSymbolTable
 70
    19
  0
BLOCK_RECORD
  5
1F
330
1
100
AcDbSymbolTableRecord
100
AcDbBlockTableRecord
  2
*Model_Space
340
22
  0
BLOCK_RECORD
  5
1B
330
1
100
AcDbSymbolTableRecord
100
AcDbBlockTableRecord
  2
*Paper_Space
340
1E
  0
BLOCK_RECORD
  5
23
330
1
100
AcDbSymbolTableRecord
100
AcDbBlockTableRecord
  2
*Paper_Space0
340
26
  0
BLOCK_RECORD
  5
7A
330
1
100
AcDbSymbolTableRecord
100
AcDbBlockTableRecord
  2
OVERHANG - .125
340
0
102
{BLKREFS
331
123
102
}
  0
BLOCK_RECORD
  5
AC
330
1
100
AcDbSymbolTableRecord
100
AcDbBlockTableRecord
  2
SW_BLOCK_DIMENSION_0
340
0
102
{BLKREFS
331
C2
102
}
  0
BLOCK_RECORD
  5
C7
330
1
100
AcDbSymbolTableRecord
100
AcDbBlockTableRecord
  2
SW_NOTE_0
340
0
102
{BLKREFS
331
CC
102
}
  0
BLOCK_RECORD
  5
CD
330
1
100
AcDbSymbolTableRecord
100
AcDbBlockTableRecord
  2
SW_NOTE_1
340
0
102
{BLKREFS
331
DD
102
}
  0
BLOCK_RECORD
  5
DE
330
1
100
AcDbSymbolTableRecord
100
AcDbBlockTableRecord
  2
SW_NOTE_2
340
0
102
{BLKREFS
331
E5
102
}
  0
BLOCK_RECORD
  5
E6
330
1
100
AcDbSymbolTableRecord
100
AcDbBlockTableRecord
  2
SW_NOTE_3
340
0
102
{BLKREFS
331
EF
102
}
  0
BLOCK_RECORD
  5
F0
330
1
100
AcDbSymbolTableRecord
100
AcDbBlockTableRecord
  2
SW_NOTE_4
340
0
102
{BLKREFS
331
FA
102
}
  0
BLOCK_RECORD
  5
129
330
1
100
AcDbSymbolTableRecord
100
AcDbBlockTableRecord
  2
_D
340
0
  0
BLOCK_RECORD
  5
13F
330
1
100
AcDbSymbolTableRecord
100
AcDbBlockTableRecord
  2
_D_1
340
0
  0
BLOCK_RECORD
  5
151
330
1
100
AcDbSymbolTableRecord
100
AcDbBlockTableRecord
  2
_D_2
340
0
  0
BLOCK_RECORD
  5
166
330
1
100
AcDbSymbolTableRecord
100
AcDbBlockTableRecord
  2
_D_3
340
0
  0
BLOCK_RECORD
  5
17B
330
1
100
AcDbSymbolTableRecord
100
AcDbBlockTableRecord
  2
_D_4
340
0
  0
BLOCK_RECORD
  5
190
330
1
100
AcDbSymbolTableRecord
100
AcDbBlockTableRecord
  2
_D_5
340
0
  0
BLOCK_RECORD
  5
1A4
330
1
100
AcDbSymbolTableRecord
100
AcDbBlockTableRecord
  2
_D_6
340
0
  0
BLOCK_RECORD
  5
1B7
330
1
100
AcDbSymbolTableRecord
100
AcDbBlockTableRecord
  2
SW_NOTE_5
340
0
102
{BLKREFS
331
1BC
102
}
  0
BLOCK_RECORD
  5
1BD
330
1
100
AcDbSymbolTableRecord
100
AcDbBlockTableRecord
  2
SW_NOTE_6
340
0
102
{BLKREFS
331
1C9
102
}
  0
BLOCK_RECORD
  5
1CA
330
1
100
AcDbSymbolTableRecord
100
AcDbBlockTableRecord
  2
SW_NOTE_7
340
0
102
{BLKREFS
331
1D3
102
}
  0
BLOCK_RECORD
  5
1D4
330
1
100
AcDbSymbolTableRecord
100
AcDbBlockTableRecord
  2
SW_CENTERMARKSYMBOL_0
340
0
102
{BLKREFS
331
1DF
102
}
  0
ENDTAB
  0
ENDSEC
  0
SECTION
  2
BLOCKS
  0
BLOCK
  5
20
330
1F
100
AcDbEntity
  8
0
100
AcDbBlockBegin
  2
*Model_Space
 70
     0
 10
0.0
 20
0.0
 30
0.0
  3
*Model_Space
  1

  0
ENDBLK
  5
21
330
1F
100
AcDbEntity
  8
0
100
AcDbBlockEnd
  0
BLOCK
  5
1C
330
1B
100
AcDbEntity
 67
     1
  8
0
100
AcDbBlockBegin
  2
*Paper_Space
 70
     0
 10
0.0
 20
0.0
 30
0.0
  3
*Paper_Space
  1

  0
ENDBLK
  5
1D
330
1B
100
AcDbEntity
 67
     1
  8
0
100
AcDbBlockEnd
  0
BLOCK
  5
24
330
23
100
AcDbEntity
  8
0
100
AcDbBlockBegin
  2
*Paper_Space0
 70
     0
 10
0.0
 20
0.0
 30
0.0
  3
*Paper_Space0
  1

  0
ENDBLK
  5
25
330
23
100
AcDbEntity
  8
0
100
AcDbBlockEnd
  0
BLOCK
  5
7B
330
7A
100
AcDbEntity
  8
0
100
AcDbBlockBegin
  2
OVERHANG - .125
 70
     0
 10
0.0
 20
0.0
 30
0.0
  3
OVERHANG - .125
  1

  0
ARC
  5
7D
330
7A
100
AcDbEntity
  8
0
  6
Continuous
 62
    16
370
    18
100
AcDbCircle
 10
21.0247390722
 20
26.9140495115
 30
0.0
 40
0.0659795528056719
100
AcDbArc
 50
0.0
 51
90.0
  0
ARC
  5
7E
330
7A
100
AcDbEntity
  8
0
  6
Continuous
 62
    16
370
    18
100
AcDbCircle
 10
20.0403577083
 20
26.4212514943
 30
0.0
 40
0.0881257319589152
100
AcDbArc
 50
200.9822712638
 51
339.0177287362
  0
ARC
  5
7F
330
7A
100
AcDbEntity
  8
0
  6
Continuous
 62
    16
370
    18
100
AcDbCircle
 10
20.731618625
 20
26.3139893982
 30
0.0
 40
0.1880000000000024
100
AcDbArc
 50
0.0
 51
90.0
  0
ARC
  5
80
330
7A
100
AcDbEntity
  8
0
  6
Continuous
 62
    16
370
    18
100
AcDbCircle
 10
20.731618625
 20
26.3139893982
 30
0.0
 40
0.2341000000000015
100
AcDbArc
 50
0.0
 51
90.0
  0
ARC
  5
81
330
7A
100
AcDbEntity
  8
BLOCKS
100
AcDbCircle
 10
21.3249668066
 20
26.3001927866
 30
0.0
 40
0.3686452378780193
100
AcDbArc
 50
129.4518716023
 51
170.6861521435
  0
LINE
  5
82
330
7A
100
AcDbEntity
  8
0
  6
Continuous
 62
    16
370
    18
100
AcDbLine
 10
19.4314231162
 20
26.5192257655
 30
0.0
 11
19.3788703567
 21
26.5738454846
 31
0.0
  0
LINE
  5
83
330
7A
100
AcDbEntity
  8
0
  6
Continuous
 62
    16
370
    18
100
AcDbLine
 10
20.0408120814
 20
26.8351846327
 30
0.0
 11
20.0797389734
 21
26.7799952517
 31
0.0
  0
LINE
  5
84
330
7A
100
AcDbEntity
  8
0
  6
Continuous
 62
    16
370
    18
100
AcDbLine
 10
19.3788703567
 20
26.5738454846
 30
0.0
 11
19.3364639969
 21
26.5330438976
 31
0.0
  0
LINE
  5
85
330
7A
100
AcDbEntity
  8
0
  6
Continuous
 62
    16
370
    18
100
AcDbLine
 10
20.6725806187
 20
26.4527516548
 30
0.0
 11
20.7252404088
 21
26.5034186543
 31
0.0
  0
LINE
  5
86
330
7A
100
AcDbEntity
  8
0
  6
Continuous
 62
    16
370
    18
100
AcDbLine
 10
20.0797389734
 20
26.7799952517
 30
0.0
 11
20.0797389734
 21
26.3896955151
 31
0.0
  0
LINE
  5
87
330
7A
100
AcDbEntity
  8
0
  6
Continuous
 62
    16
370
    18
100
AcDbLine
 10
19.9814774532
 20
26.8652076206
 30
0.0
 11
19.9814774532
 21
26.5848453834
 31
0.0
  0
LINE
  5
88
330
7A
100
AcDbEntity
  8
0
  6
Continuous
 62
    16
370
    18
100
AcDbLine
 10
20.7678769055
 20
26.4591052159
 30
0.0
 11
20.6989695496
 21
26.392805503
 31
0.0
  0
LINE
  5
89
330
7A
100
AcDbEntity
  8
0
  6
Continuous
 62
    16
370
    18
100
AcDbLine
 10
21.0247390722
 20
26.9800290643
 30
0.0
 11
19.2446660374
 21
26.9800290643
 31
0.0
  0
LINE
  5
8A
330
7A
100
AcDbEntity
  8
0
  6
Continuous
 62
    16
370
    18
100
AcDbLine
 10
19.9670675999
 20
26.4905376331
 30
0.0
 11
19.9670675999
 21
26.4354028898
 31
0.0
  0
LINE
  5
8B
330
7A
100
AcDbEntity
  8
0
  6
Continuous
 62
    16
370
    18
100
AcDbLine
 10
20.1524880148
 20
26.4213577706
 30
0.0
 11
20.1506182011
 21
26.3892309097
 31
0.0
  0
LINE
  5
8C
330
7A
100
AcDbEntity
  8
0
  6
Continuous
 62
    16
370
    18
100
AcDbLine
 10
19.3364639969
 20
26.5330438976
 30
0.0
 11
19.3985753063
 21
26.4684896798
 31
0.0
  0
LINE
  5
8D
330
7A
100
AcDbEntity
  8
0
  6
Continuous
 62
    16
370
    18
100
AcDbLine
 10
20.2906117643
 20
26.5019893982
 30
0.0
 11
20.2906117643
 21
26.5480893982
 31
0.0
  0
LINE
  5
8E
330
7A
100
AcDbEntity
  8
0
  6
Continuous
 62
    16
370
    18
100
AcDbLine
 10
19.4314231162
 20
26.5192257655
 30
0.0
 11
20.6725806187
 21
26.4527516548
 31
0.0
  0
LINE
  5
8F
330
7A
100
AcDbEntity
  8
0
  6
Continuous
 62
    16
370
    18
100
AcDbLine
 10
19.9400720233
 20
26.4337205825
 30
0.0
 11
20.1524880148
 21
26.4213577706
 31
0.0
  0
LINE
  5
90
330
7A
100
AcDbEntity
  8
0
  6
Continuous
 62
    16
370
    18
100
AcDbLine
 10
21.090718625
 20
26.5848453834
 30
0.0
 11
21.090718625
 21
26.9140495115
 31
0.0
  0
LINE
  5
91
330
7A
100
AcDbEntity
  8
0
  6
Continuous
 62
    16
370
    18
100
AcDbLine
 10
20.731618625
 20
26.5019893982
 30
0.0
 11
20.2906117643
 21
26.5019893982
 31
0.0
  0
LINE
  5
92
330
7A
100
AcDbEntity
  8
0
  6
Continuous
 62
    16
370
    18
100
AcDbLine
 10
20.919618625
 20
25.9230893982
 30
0.0
 11
20.919618625
 21
26.3139893982
 31
0.0
  0
LINE
  5
93
330
7A
100
AcDbEntity
  8
0
  6
Continuous
 62
    16
370
    18
100
AcDbLine
 10
19.9580754817
 20
26.3896955151
 30
0.0
 11
20.1226399348
 21
26.3896955151
 31
0.0
  0
LINE
  5
94
330
7A
100
AcDbEntity
  8
0
  6
Continuous
 62
    16
370
    18
100
AcDbLine
 10
20.1506182011
 20
26.3892309097
 30
0.0
 11
19.9382022095
 21
26.4015937216
 31
0.0
  0
LINE
  5
95
330
7A
100
AcDbEntity
  8
0
  6
Continuous
 62
    16
370
    18
100
AcDbLine
 10
20.965718625
 20
25.9230893982
 30
0.0
 11
20.919618625
 21
25.9230893982
 31
0.0
  0
LINE
  5
96
330
7A
100
AcDbEntity
  8
0
  6
Continuous
 62
    16
370
    18
100
AcDbLine
 10
20.965718625
 20
26.3139893982
 30
0.0
 11
20.965718625
 21
25.9230893982
 31
0.0
  0
LINE
  5
97
330
7A
100
AcDbEntity
  8
0
  6
Continuous
 62
    16
370
    18
100
AcDbLine
 10
20.6989695496
 20
26.392805503
 30
0.0
 11
19.3985753063
 21
26.4684896798
 31
0.0
  0
LINE
  5
98
330
7A
100
AcDbEntity
  8
0
  6
Continuous
 62
    16
370
    18
100
AcDbLine
 10
19.2743496911
 20
26.5848453834
 30
0.0
 11
21.090718625
 21
26.5848453834
 31
0.0
  0
LINE
  5
99
330
7A
100
AcDbEntity
  8
0
  6
Continuous
 62
    16
370
    18
100
AcDbLine
 10
20.0028471016
 20
26.7799952517
 30
0.0
 11
20.0408120814
 21
26.8351846327
 31
0.0
  0
LINE
  5
9A
330
7A
100
AcDbEntity
  8
0
  6
Continuous
 62
    16
370
    18
100
AcDbLine
 10
20.2906117643
 20
26.5480893982
 30
0.0
 11
20.731618625
 21
26.5480893982
 31
0.0
  0
LINE
  5
9B
330
7A
100
AcDbEntity
  8
0
  6
Continuous
 62
    16
370
    18
100
AcDbLine
 10
20.0028471016
 20
26.7799952517
 30
0.0
 11
20.0028471016
 21
26.3896955151
 31
0.0
  0
LINE
  5
9C
330
7A
100
AcDbEntity
  8
0
  6
Continuous
 62
    16
370
    18
100
AcDbLine
 10
20.1080144451
 20
26.8652076206
 30
0.0
 11
19.9814774532
 21
26.8652076206
 31
0.0
  0
LINE
  5
9D
330
7A
100
AcDbEntity
  8
0
  6
Continuous
 62
    16
370
    18
100
AcDbLine
 10
20.7252404088
 20
26.5034186543
 30
0.0
 11
20.7678769055
 21
26.4591052159
 31
0.0
  0
LINE
  5
9E
330
7A
100
AcDbEntity
  8
0
  6
Continuous
 62
    16
370
    18
100
AcDbLine
 10
19.9400720233
 20
26.4337205825
 30
0.0
 11
19.9382022095
 21
26.4015937216
 31
0.0
  0
LINE
  5
9F
330
7A
100
AcDbEntity
  8
0
  6
Continuous
 62
    16
370
    18
100
AcDbLine
 10
20.1080144451
 20
26.5848453834
 30
0.0
 11
20.1080144451
 21
26.8652076206
 31
0.0
  0
LINE
  5
A0
330
7A
100
AcDbEntity
  8
0
  6
Continuous
 62
    16
370
    18
100
AcDbLine
 10
20.1216872784
 20
26.4822564878
 30
0.0
 11
20.1216872784
 21
26.426403878
 31
0.0
  0
LINE
  5
A1
330
7A
100
AcDbEntity
  8
BLOCKS
100
AcDbLine
 10
20.2906117643
 20
26.5480893982
 30
0.0
 11
20.2368944426
 21
26.5848453834
 31
0.0
  0
SPLINE
  5
A2
330
7A
100
AcDbEntity
  8
0
  6
Continuous
 62
    16
370
    18
100
AcDbSpline
210
0.0
220
0.0
230
1.0
 70
     8
 71
     3
 72
     9
 73
     5
 74
     0
 42
0.000000001
 43
0.00000001
 40
0.0
 40
0.0
 40
0.0
 40
0.0
 40
0.5928291688347104
 40
1.0
 40
1.0
 40
1.0
 40
1.0
 10
19.27434969107827
 20
26.58484538338648
 30
0.0
 10
19.22977403886498
 20
26.67067982455945
 30
0.0
 10
19.3092570011885
 20
26.78990333849607
 30
0.0
 10
19.29114417973896
 20
26.9441515837284
 30
0.0
 10
19.24466603742839
 20
26.98002906431008
 30
0.0
  0
HATCH
  5
A3
330
7A
100
AcDbEntity
  8
BLOCKS
 62
    16
100
AcDbHatch
 10
0.0
 20
0.0
 30
0.0
210
0.0
220
0.0
230
1.0
  2
ANSI36
 70
     0
 71
     0
 91
        1
 92
        0
 93
       10
 72
     4
 94
        3
 73
     1
 74
     0
 95
        9
 96
        5
 40
0.0
 40
0.0
 40
0.0
 40
0.0
 40
0.4071708311652896
 40
1.0
 40
1.0
 40
1.0
 40
1.0
 10
19.24466603742839
 20
26.98002906431008
 42
1.0
 10
19.29114417973896
 20
26.9441515837284
 42
1.0
 10
19.3092570011885
 20
26.78990333849607
 42
1.0
 10
19.22977403886498
 20
26.67067982455945
 42
1.0
 10
19.27434969107827
 20
26.58484538338648
 42
1.0
 72
     1
 10
19.27434969107827
 20
26.58484538338648
 11
19.98147745321076
 21
26.58484538338648
 72
     1
 10
19.98147745321076
 20
26.58484538338648
 11
19.98147745321076
 21
26.86520762058046
 72
     1
 10
19.98147745321076
 20
26.86520762058046
 11
20.10801444514525
 21
26.86520762058046
 72
     1
 10
20.10801444514525
 20
26.86520762058046
 11
20.10801444514525
 21
26.58484538338648
 72
     1
 10
20.10801444514525
 20
26.58484538338648
 11
20.23689444261453
 21
26.58484538338649
 72
     1
 10
20.23689444261453
 20
26.58484538338649
 11
21.0907186249667
 21
26.58484538338648
 72
     1
 10
21.0907186249667
 20
26.58484538338648
 11
21.0907186249667
 21
26.9140495115044
 72
     2
 10
21.02473907216103
 20
26.9140495115044
 40
0.0659795528056717
 50
0.0
 51
90.0
 73
     1
 72
     1
 10
21.02473907216103
 20
26.98002906431007
 11
19.24466603742839
 21
26.98002906431008
 97
        0
 75
     0
 76
     1
 52
0.0
 41
0.5
 77
     0
 78
     1
 53
45.0
 43
0.0
 44
0.0
 45
0.0331456303681194
 46
0.1215339780164378
 79
     4
 49
0.15625
 49
-0.03125
 49
0.0
 49
-0.03125
 98
        1
 10
0.0
 20
0.0
  0
HATCH
  5
A4
330
7A
100
AcDbEntity
  8
BLOCKS
 62
    16
100
AcDbHatch
 10
0.0
 20
0.0
 30
0.0
210
0.0
220
0.0
230
1.0
  2
ANSI32
 70
     0
 71
     0
 91
        1
 92
        0
 93
        4
 72
     1
 10
20.07973897339712
 20
26.58484538338648
 11
20.00284710159458
 21
26.58484538338648
 72
     1
 10
20.00284710159458
 20
26.58484538338648
 11
20.00284710159458
 21
26.48862134888004
 72
     1
 10
20.00284710159458
 20
26.48862134888004
 11
20.07973897339712
 21
26.4845031617958
 72
     1
 10
20.07973897339712
 20
26.4845031617958
 11
20.07973897339712
 21
26.58484538338648
 97
        0
 75
     0
 76
     1
 52
0.0
 41
0.2
 77
     0
 78
     2
 53
45.0
 43
0.0
 44
0.0
 45
-0.0530330085889911
 46
0.0530330085889911
 79
     0
 53
45.0
 43
0.035355339
 44
0.0
 45
-0.0530330085889911
 46
0.0530330085889911
 79
     0
 98
        1
 10
0.0
 20
0.0
  0
HATCH
  5
A5
330
7A
100
AcDbEntity
  8
BLOCKS
 62
    16
100
AcDbHatch
 10
0.0
 20
0.0
 30
0.0
210
0.0
220
0.0
230
1.0
  2
ANSI32
 70
     0
 71
     0
 91
        1
 92
        0
 93
        5
 72
     1
 10
20.04081208140756
 20
26.8351846326727
 11
20.00284710159458
 21
26.77999525166031
 72
     1
 10
20.00284710159458
 20
26.77999525166031
 11
20.00284710159458
 21
26.58484538338648
 72
     1
 10
20.00284710159458
 20
26.58484538338648
 11
20.07973897339712
 21
26.58484538338648
 72
     1
 10
20.07973897339712
 20
26.58484538338648
 11
20.07973897339712
 21
26.77999525166031
 72
     1
 10
20.07973897339712
 20
26.77999525166031
 11
20.04081208140756
 21
26.8351846326727
 97
        0
 75
     0
 76
     1
 52
0.0
 41
0.2
 77
     0
 78
     2
 53
45.0
 43
0.0
 44
0.0
 45
-0.0530330085889911
 46
0.0530330085889911
 79
     0
 53
45.0
 43
0.035355339
 44
0.0
 45
-0.0530330085889911
 46
0.0530330085889911
 79
     0
 98
        1
 10
0.0
 20
0.0
  0
HATCH
  5
A6
330
7A
100
AcDbEntity
  8
BLOCKS
 62
    16
100
AcDbHatch
 10
0.0
 20
0.0
 30
0.0
210
0.0
220
0.0
230
1.0
  2
ANSI32
 70
     0
 71
     0
 91
        1
 92
        0
 93
        4
 72
     1
 10
20.07973897339712
 20
26.4845031617958
 11
20.00284710159458
 21
26.48862134888004
 72
     1
 10
20.00284710159458
 20
26.48862134888004
 11
20.00284710159458
 21
26.43332048887584
 72
     1
 10
20.00284710159458
 20
26.43332048887584
 11
20.07973897339712
 21
26.42884530909641
 72
     1
 10
20.07973897339712
 20
26.42884530909641
 11
20.07973897339712
 21
26.4845031617958
 97
        0
 75
     0
 76
     1
 52
0.0
 41
0.2
 77
     0
 78
     2
 53
45.0
 43
0.0
 44
0.0
 45
-0.0530330085889911
 46
0.0530330085889911
 79
     0
 53
45.0
 43
0.035355339
 44
0.0
 45
-0.0530330085889911
 46
0.0530330085889911
 79
     0
 98
        1
 10
0.0
 20
0.0
  0
HATCH
  5
A7
330
7A
100
AcDbEntity
  8
BLOCKS
 62
    16
100
AcDbHatch
 10
0.0
 20
0.0
 30
0.0
210
0.0
220
0.0
230
1.0
  2
ANSI32
 70
     0
 71
     0
 91
        1
 92
        0
 93
        4
 72
     1
 10
20.00284710159458
 20
26.43006701346352
 11
19.94007202325873
 21
26.43372058249019
 72
     1
 10
19.94007202325873
 20
26.43372058249019
 11
19.93820220952023
 21
26.40159372159039
 72
     1
 10
19.93820220952023
 20
26.40159372159039
 11
20.00284710159458
 21
26.39783132763285
 72
     1
 10
20.00284710159458
 20
26.39783132763285
 11
20.00284710159458
 21
26.43006701346352
 97
        0
 75
     0
 76
     1
 52
0.0
 41
0.2
 77
     0
 78
     2
 53
45.0
 43
0.0
 44
0.0
 45
-0.0530330085889911
 46
0.0530330085889911
 79
     0
 53
45.0
 43
0.035355339
 44
0.0
 45
-0.0530330085889911
 46
0.0530330085889911
 79
     0
 98
        1
 10
0.0
 20
0.0
  0
HATCH
  5
A8
330
7A
100
AcDbEntity
  8
BLOCKS
 62
    16
100
AcDbHatch
 10
0.0
 20
0.0
 30
0.0
210
0.0
220
0.0
230
1.0
  2
ANSI32
 70
     0
 71
     0
 91
        1
 92
        0
 93
        4
 72
     1
 10
20.07973897339712
 20
26.42559183368408
 11
20.00284710159458
 21
26.43006701346352
 72
     1
 10
20.00284710159458
 20
26.43006701346352
 11
20.00284710159458
 21
26.39783132763285
 72
     1
 10
20.00284710159458
 20
26.39783132763285
 11
20.07973897339712
 21
26.39335614785342
 72
     1
 10
20.07973897339712
 20
26.39335614785342
 11
20.07973897339712
 21
26.42559183368408
 97
        0
 75
     0
 76
     1
 52
0.0
 41
0.2
 77
     0
 78
     2
 53
45.0
 43
0.0
 44
0.0
 45
-0.0530330085889911
 46
0.0530330085889911
 79
     0
 53
45.0
 43
0.035355339
 44
0.0
 45
-0.0530330085889911
 46
0.0530330085889911
 79
     0
 98
        1
 10
0.0
 20
0.0
  0
HATCH
  5
A9
330
7A
100
AcDbEntity
  8
BLOCKS
 62
    16
100
AcDbHatch
 10
0.0
 20
0.0
 30
0.0
210
0.0
220
0.0
230
1.0
  2
ANSI32
 70
     0
 71
     0
 91
        1
 92
        0
 93
        4
 72
     1
 10
20.07973897339712
 20
26.39335614785342
 11
20.15061820105523
 21
26.38923090965904
 72
     1
 10
20.15061820105523
 20
26.38923090965904
 11
20.15248801479373
 21
26.42135777055884
 72
     1
 10
20.15248801479373
 20
26.42135777055884
 11
20.07973897339712
 21
26.42559183368408
 72
     1
 10
20.07973897339712
 20
26.42559183368408
 11
20.07973897339712
 21
26.39335614785342
 97
        0
 75
     0
 76
     1
 52
0.0
 41
0.2
 77
     0
 78
     2
 53
45.0
 43
0.0
 44
0.0
 45
-0.0530330085889911
 46
0.0530330085889911
 79
     0
 53
45.0
 43
0.035355339
 44
0.0
 45
-0.0530330085889911
 46
0.0530330085889911
 79
     0
 98
        1
 10
0.0
 20
0.0
  0
HATCH
  5
AA
330
7A
100
AcDbEntity
  8
BLOCKS
 62
    16
100
AcDbHatch
 10
0.0
 20
0.0
 30
0.0
210
0.0
220
0.0
230
1.0
  2
ANSI32
 70
     0
 71
     0
 91
        1
 92
        0
 93
        4
 72
     1
 10
20.00284710159458
 20
26.38969551511265
 11
19.95807548170848
 21
26.38969551511265
 72
     2
 10
20.04035770827806
 20
26.42125149432493
 40
0.0881257319589163
 50
200.9822712637957
 51
339.0177287362059
 73
     1
 72
     1
 10
20.12263993484765
 20
26.38969551511265
 11
20.07973897339712
 21
26.38969551511265
 72
     1
 10
20.07973897339712
 20
26.38969551511265
 11
20.00284710159458
 21
26.38969551511265
 97
        0
 75
     0
 76
     1
 52
0.0
 41
0.2
 77
     0
 78
     2
 53
45.0
 43
0.0
 44
0.0
 45
-0.0530330085889911
 46
0.0530330085889911
 79
     0
 53
45.0
 43
0.035355339
 44
0.0
 45
-0.0530330085889911
 46
0.0530330085889911
 79
     0
 98
        1
 10
0.0
 20
0.0
  0
HATCH
  5
AB
330
7A
100
AcDbEntity
  8
BLOCKS
100
AcDbHatch
 10
0.0
 20
0.0
 30
0.0
210
0.0
220
0.0
230
1.0
  2
SOLID
 70
     1
 71
     0
 91
        1
 92
        0
 93
        5
 72
     2
 10
21.32496680656287
 20
26.30019278664964
 40
0.3686452378780171
 50
189.3138478564999
 51
230.5481283977412
 73
     0
 72
     1
 10
21.0907186249667
 20
26.58484538338648
 11
20.23689444261453
 21
26.58484538338649
 72
     1
 10
20.23689444261453
 20
26.58484538338649
 11
20.29061176430621
 21
26.54808939823214
 72
     1
 10
20.29061176430621
 20
26.54808939823214
 11
20.7316186249667
 21
26.54808939823214
 72
     2
 10
20.7316186249667
 20
26.31398939823214
 40
0.2341000000000018
 50
270.0000000000008
 51
348.7012977589557
 73
     0
 97
        0
 75
     0
 76
     1
 98
        1
 10
0.0
 20
0.0
  0
INSERT
  5
C2
330
7A
100
AcDbEntity
  8
BLOCKS
100
AcDbBlockReference
  2
SW_BLOCK_DIMENSION_0
 10
20.4071081795
 20
26.145611376
 30
0.0
  0
ENDBLK
  5
7C
330
7A
100
AcDbEntity
  8
0
100
AcDbBlockEnd
  0
BLOCK
  5
AD
330
AC
100
AcDbEntity
  8
0
100
AcDbBlockBegin
  2
SW_BLOCK_DIMENSION_0
 70
     0
 10
0.0
 20
0.0
 30
0.0
  3
SW_BLOCK_DIMENSION_0
  1

  0
SOLID
  5
AF
330
AC
100
AcDbEntity
  8
BLOCKS
 62
     0
100
AcDbTrace
 10
0.5586104454
 20
-0.0313006311
 30
0.0
 11
0.4574955366
 21
-0.0157444913
 31
0.0
 12
0.4574955366
 22
-0.0468567709
 32
0.0
 13
0.4574955366
 23
-0.0468567709
 33
0.0
  0
SOLID
  5
B0
330
AC
100
AcDbEntity
  8
BLOCKS
 62
     0
100
AcDbTrace
 10
0.6836104454
 20
-0.0313006311
 30
0.0
 11
0.7847253543
 21
-0.0468567709
 31
0.0
 12
0.7847253543
 22
-0.0157444913
 32
0.0
 13
0.7847253543
 23
-0.0157444913
 33
0.0
  0
LINE
  5
B1
330
AC
100
AcDbEntity
  8
BLOCKS
 62
     0
100
AcDbLine
 10
0.1650270144
 20
0.0798201425
 30
0.0
 11
0.2717013988
 21
0.0798201425
 31
0.0
  0
LINE
  5
B2
330
AC
100
AcDbEntity
  8
BLOCKS
 62
     0
100
AcDbLine
 10
0.1080246921
 20
-0.0940224566
 30
0.0
 11
0.0733024703
 21
-0.0940224566
 31
0.0
  0
LINE
  5
B3
330
AC
100
AcDbEntity
  8
BLOCKS
 62
     0
100
AcDbLine
 10
0.0733024703
 20
-0.0940224566
 30
0.0
 11
0.0733024703
 21
-0.249307956
 31
0.0
  0
LINE
  5
B4
330
AC
100
AcDbEntity
  8
BLOCKS
 62
     0
100
AcDbLine
 10
0.0733024703
 20
-0.249307956
 30
0.0
 11
0.1080246921
 21
-0.249307956
 31
0.0
  0
LINE
  5
B5
330
AC
100
AcDbEntity
  8
BLOCKS
 62
     0
100
AcDbLine
 10
0.3780864406
 20
-0.0940224566
 30
0.0
 11
0.4128086624
 21
-0.0940224566
 31
0.0
  0
LINE
  5
B6
330
AC
100
AcDbEntity
  8
BLOCKS
 62
     0
100
AcDbLine
 10
0.4128086624
 20
-0.0940224566
 30
0.0
 11
0.4128086624
 21
-0.249307956
 31
0.0
  0
LINE
  5
B7
330
AC
100
AcDbEntity
  8
BLOCKS
 62
     0
100
AcDbLine
 10
0.4128086624
 20
-0.249307956
 30
0.0
 11
0.3780864406
 21
-0.249307956
 31
0.0
  0
LINE
  5
B8
330
AC
100
AcDbEntity
  8
BLOCKS
 62
     0
100
AcDbLine
 10
0.6836104454
 20
0.3892340074
 30
0.0
 11
0.6836104454
 21
-0.1563006311
 31
0.0
  0
LINE
  5
B9
330
AC
100
AcDbEntity
  8
BLOCKS
 62
     0
100
AcDbLine
 10
0.5586104454
 20
-0.0313006311
 30
0.0
 11
0.4869072852
 21
-0.0313006311
 31
0.0
  0
LINE
  5
BA
330
AC
100
AcDbEntity
  8
BLOCKS
 62
     0
100
AcDbLine
 10
0.6836104454
 20
-0.0313006311
 30
0.0
 11
0.8780621932
 21
-0.0313006311
 31
0.0
  0
MTEXT
  5
BC
330
AC
100
AcDbEntity
  8
BLOCKS
 62
     0
100
AcDbMText
 10
0.0390625
 20
0.1342778896
 30
0.0
 40
0.1041666667
 41
0.0
 71
     1
 72
     1
  1

  7
SLDTEXTSTYLE0
 73
     1
 44
1.0
  0
MTEXT
  5
BD
330
AC
100
AcDbEntity
  8
BLOCKS
 62
     0
100
AcDbMText
 10
0.1797839581
 20
0.2052438631
 30
0.0
 40
0.1041666667
 41
0.0
 71
     1
 72
     1
  1
1
  7
SLDTEXTSTYLE0
 73
     1
 44
1.0
  0
MTEXT
  5
BE
330
AC
100
AcDbEntity
  8
BLOCKS
 62
     0
100
AcDbMText
 10
0.1797839581
 20
0.0634035871
 30
0.0
 40
0.1041666667
 41
0.0
 71
     1
 72
     1
  1
8
  7
SLDTEXTSTYLE0
 73
     1
 44
1.0
  0
MTEXT
  5
BF
330
AC
100
AcDbEntity
  8
BLOCKS
 62
     0
100
AcDbMText
 10
0.2864583425
 20
0.1342778896
 30
0.0
 40
0.1041666667
 41
0.0
 71
     1
 72
     1
  1
"
  7
SLDTEXTSTYLE0
 73
     1
 44
1.0
  0
MTEXT
  5
C0
330
AC
100
AcDbEntity
  8
BLOCKS
 62
     0
100
AcDbMText
 10
0.1080246921
 20
-0.1150300596
 30
0.0
 40
0.1041666667
 41
0.0
 71
     1
 72
     1
  1
3.18
  7
SLDTEXTSTYLE0
 73
     1
 44
1.0
  0
MTEXT
  5
C1
330
AC
100
AcDbEntity
  8
BLOCKS
 62
     0
100
AcDbMText
 10
0.4865933934
 20
0.1342778896
 30
0.0
 40
0.1041666667
 41
0.0
 71
     1
 72
     1
  1

  7
SLDTEXTSTYLE0
 73
     1
 44
1.0
  0
ENDBLK
  5
AE
330
AC
100
AcDbEntity
  8
0
100
AcDbBlockEnd
  0
BLOCK
  5
C8
330
C7
100
AcDbEntity
  8
0
100
AcDbBlockBegin
  2
SW_NOTE_0
 70
     0
 10
0.0
 20
0.0
 30
0.0
  3
SW_NOTE_0
  1

  0
MTEXT
  5
CA
330
C7
100
AcDbEntity
  8
0
  6
Continuous
 62
     0
370
     0
100
AcDbMText
 10
6.0042317708
 20
0.9399452269
 30
0.0
 40
0.7291666667
 41
0.0
 71
     2
 72
     1
  1
TEMPLATE #: 1000004592
  7
SLDTEXTSTYLE0
 73
     1
 44
1.0
  0
MTEXT
  5
CB
330
C7
100
AcDbEntity
  8
0
  6
Continuous
 62
     0
370
     0
100
AcDbMText
 10
5.9997785795
 20
-0.0165995549
 30
0.0
 40
0.375
 41
0.0
 71
     2
 72
     1
  1
DUAL MOUNT TEMPLATE 33" X 22" X W/ 3/4"RADIUS
  7
SLDTEXTSTYLE0
 73
     1
 44
1.0
  0
ENDBLK
  5
C9
330
C7
100
AcDbEntity
  8
0
100
AcDbBlockEnd
  0
BLOCK
  5
CE
330
CD
100
AcDbEntity
  8
0
100
AcDbBlockBegin
  2
SW_NOTE_1
 70
     0
 10
0.0
 20
0.0
 30
0.0
  3
SW_NOTE_1
  1

  0
MTEXT
  5
D0
330
CD
100
AcDbEntity
  8
0
  6
Continuous
 62
     0
370
     0
100
AcDbMText
 10
0.0
 20
0.2417002012
 30
0.0
 40
0.1875
 41
0.0
 71
     1
 72
     1
  1
NOTES:
  7
SLDTEXTSTYLE0
 73
     1
 44
1.0
  0
MTEXT
  5
D1
330
CD
100
AcDbEntity
  8
0
  6
Continuous
 62
     0
370
     0
100
AcDbMText
 10
0.3937007786
 20
-0.2582997928
 30
0.0
 40
0.1875
 41
0.0
 71
     1
 72
     1
  1
THOROUGHLY READ ALL  INSTALLATION INSTRUCTIONS
  7
SLDTEXTSTYLE0
 73
     1
 44
1.0
  0
MTEXT
  5
D2
330
CD
100
AcDbEntity
  8
0
  6
Continuous
 62
     0
370
     0
100
AcDbMText
 10
0.0
 20
-0.2582997928
 30
0.0
 40
0.1875
 41
0.0
 71
     1
 72
     1
  1
1.
  7
SLDTEXTSTYLE0
 73
     1
 44
1.0
  0
MTEXT
  5
D3
330
CD
100
AcDbEntity
  8
0
  6
Continuous
 62
     0
370
     0
100
AcDbMText
 10
0.0
 20
-0.5082997897
 30
0.0
 40
0.1875
 41
0.0
 71
     1
 72
     1
  1
BEFORE CUTTING COUNTERTOP.
  7
SLDTEXTSTYLE0
 73
     1
 44
1.0
  0
MTEXT
  5
D4
330
CD
100
AcDbEntity
  8
0
  6
Continuous
 62
     0
370
     0
100
AcDbMText
 10
0.0
 20
-1.0082997837
 30
0.0
 40
0.1875
 41
0.0
 71
     1
 72
     1
  1
2.  DIMENSIONS ARE IN INCHES [MM].
  7
SLDTEXTSTYLE0
 73
     1
 44
1.0
  0
MTEXT
  5
D5
330
CD
100
AcDbEntity
  8
0
  6
Continuous
 62
     0
370
     0
100
AcDbMText
 10
0.0
 20
-1.7582997746
 30
0.0
 40
0.1875
 41
0.0
 71
     1
 72
     1
  1
PLEASE CHECK TEMPLATE AGAINST PHYSICAL SINK FOR
  7
SLDTEXTSTYLE0
 73
     1
 44
1.0
  0
MTEXT
  5
D6
330
CD
100
AcDbEntity
  8
0
  6
Continuous
 62
     0
370
     0
100
AcDbMText
 10
0.0
 20
-2.0082997716
 30
0.0
 40
0.1875
 41
0.0
 71
     1
 72
     1
  1
MOST ACCURATE CUT.
  7
SLDTEXTSTYLE0
 73
     1
 44
1.0
  0
MTEXT
  5
D7
330
CD
100
AcDbEntity
  8
0
  6
Continuous
 62
     0
370
     0
100
AcDbMText
 10
0.0
 20
-3.0082997595
 30
0.0
 40
0.1875
 41
0.0
 71
     1
 72
     1
  1
NOTAS:
  7
SLDTEXTSTYLE0
 73
     1
 44
1.0
  0
MTEXT
  5
D8
330
CD
100
AcDbEntity
  8
0
  6
Continuous
 62
     0
370
     0
100
AcDbMText
 10
0.0
 20
-3.5082997535
 30
0.0
 40
0.1875
 41
0.0
 71
     1
 72
     1
  1
1.  LEA ATENTAMENTE LAS INSTRUCCIONES DE
  7
SLDTEXTSTYLE0
 73
     1
 44
1.0
  0
MTEXT
  5
D9
330
CD
100
AcDbEntity
  8
0
  6
Continuous
 62
     0
370
     0
100
AcDbMText
 10
0.0
 20
-3.7582997505
 30
0.0
 40
0.1875
 41
0.0
 71
     1
 72
     1
  1
INSTALACIÓN ANTES DE CORTAR LA ENCIMERA.
  7
SLDTEXTSTYLE0
 73
     1
 44
1.0
  0
MTEXT
  5
DA
330
CD
100
AcDbEntity
  8
0
  6
Continuous
 62
     0
370
     0
100
AcDbMText
 10
0.0
 20
-4.2582997444
 30
0.0
 40
0.1875
 41
0.0
 71
     1
 72
     1
  1
2.  DIMENSIONES EN PULGADAS [MM].
  7
SLDTEXTSTYLE0
 73
     1
 44
1.0
  0
MTEXT
  5
DB
330
CD
100
AcDbEntity
  8
0
  6
Continuous
 62
     0
370
     0
100
AcDbMText
 10
0.0
 20
-5.0082997353
 30
0.0
 40
0.1875
 41
0.0
 71
     1
 72
     1
  1
POR FAVOR COMPRUEBE PLANTILLA CONTRA FREGADERO
  7
SLDTEXTSTYLE0
 73
     1
 44
1.0
  0
MTEXT
  5
DC
330
CD
100
AcDbEntity
  8
0
  6
Continuous
 62
     0
370
     0
100
AcDbMText
 10
0.0
 20
-5.2582997323
 30
0.0
 40
0.1875
 41
0.0
 71
     1
 72
     1
  1
FÍSICO PARA CORTE MÁS EXACTO.
  7
SLDTEXTSTYLE0
 73
     1
 44
1.0
  0
ENDBLK
  5
CF
330
CD
100
AcDbEntity
  8
0
100
AcDbBlockEnd
  0
BLOCK
  5
DF
330
DE
100
AcDbEntity
  8
0
100
AcDbBlockBegin
  2
SW_NOTE_2
 70
     0
 10
0.0
 20
0.0
 30
0.0
  3
SW_NOTE_2
  1

  0
MTEXT
  5
E1
330
DE
100
AcDbEntity
  8
0
  6
Continuous
 62
     0
370
     0
100
AcDbMText
 10
0.7389322917
 20
0.2685557791
 30
0.0
 40
0.2083333333
 41
0.0
 71
     2
 72
     1
  1
TEMPLATE
  7
SLDTEXTSTYLE0
 73
     1
 44
1.0
  0
MTEXT
  5
E2
330
DE
100
AcDbEntity
  8
0
  6
Continuous
 62
     0
370
     0
100
AcDbMText
 10
0.7420669619
 20
-0.0092219953
 30
0.0
 40
0.2083333333
 41
0.0
 71
     2
 72
     1
  1
CENTERLINE
  7
SLDTEXTSTYLE0
 73
     1
 44
1.0
  0
MTEXT
  5
E3
330
DE
100
AcDbEntity
  8
0
  6
Continuous
 62
     0
370
     0
100
AcDbMText
 10
0.7421875
 20
-0.5647775441
 30
0.0
 40
0.2083333333
 41
0.0
 71
     2
 72
     1
  1
PLANTILLA
  7
SLDTEXTSTYLE0
 73
     1
 44
1.0
  0
MTEXT
  5
E4
330
DE
100
AcDbEntity
  8
0
  6
Continuous
 62
     0
370
     0
100
AcDbMText
 10
0.7391734345
 20
-0.8425553186
 30
0.0
 40
0.2083333333
 41
0.0
 71
     2
 72
     1
  1
CENTRAL
  7
SLDTEXTSTYLE0
 73
     1
 44
1.0
  0
ENDBLK
  5
E0
330
DE
100
AcDbEntity
  8
0
100
AcDbBlockEnd
  0
BLOCK
  5
E7
330
E6
100
AcDbEntity
  8
0
100
AcDbBlockBegin
  2
SW_NOTE_3
 70
     0
 10
0.0
 20
0.0
 30
0.0
  3
SW_NOTE_3
  1

  0
MTEXT
  5
E9
330
E6
100
AcDbEntity
  8
NOTES
 62
     0
100
AcDbMText
 10
0.0
 20
0.2685557791
 30
0.0
 40
0.2083333333
 41
0.0
 71
     1
 72
     1
  1
FOR UNDERMOUNT
  7
SLDTEXTSTYLE0
 73
     1
 44
1.0
  0
MTEXT
  5
EA
330
E6
100
AcDbEntity
  8
NOTES
 62
     0
100
AcDbMText
 10
0.0
 20
-0.0485920805
 30
0.0
 40
0.2083333333
 41
0.0
 71
     1
 72
     1
  1
INSTALLATION CUT
  7
SLDTEXTSTYLE0
 73
     1
 44
1.0
  0
MTEXT
  5
EB
330
E6
100
AcDbEntity
  8
NOTES
 62
     0
100
AcDbMText
 10
0.0
 20
-0.3657399401
 30
0.0
 40
0.2083333333
 41
0.0
 71
     1
 72
     1
  1
ALONG THIS LINE
  7
SLDTEXTSTYLE0
 73
     1
 44
1.0
  0
MTEXT
  5
EC
330
E6
100
AcDbEntity
  8
NOTES
 62
     0
100
AcDbMText
 10
0.0
 20
-1.0000356593
 30
0.0
 40
0.2083333333
 41
0.0
 71
     1
 72
     1
  1
PARA LA INSTALACIÓN
  7
SLDTEXTSTYLE0
 73
     1
 44
1.0
  0
MTEXT
  5
ED
330
E6
100
AcDbEntity
  8
NOTES
 62
     0
100
AcDbMText
 10
0.0
 20
-1.317183519
 30
0.0
 40
0.2083333333
 41
0.0
 71
     1
 72
     1
  1
INFERIOR CORTE A LO
  7
SLDTEXTSTYLE0
 73
     1
 44
1.0
  0
MTEXT
  5
EE
330
E6
100
AcDbEntity
  8
NOTES
 62
     0
100
AcDbMText
 10
0.0
 20
-1.6343313786
 30
0.0
 40
0.2083333333
 41
0.0
 71
     1
 72
     1
  1
LARGO DE ESTA LÍNEA
  7
SLDTEXTSTYLE0
 73
     1
 44
1.0
  0
ENDBLK
  5
E8
330
E6
100
AcDbEntity
  8
0
100
AcDbBlockEnd
  0
BLOCK
  5
F1
330
F0
100
AcDbEntity
  8
0
100
AcDbBlockBegin
  2
SW_NOTE_4
 70
     0
 10
0.0
 20
0.0
 30
0.0
  3
SW_NOTE_4
  1

  0
MTEXT
  5
F3
330
F0
100
AcDbEntity
  8
NOTES
 62
     0
100
AcDbMText
 10
2.3307291667
 20
0.2685557791
 30
0.0
 40
0.2083333333
 41
0.0
 71
     3
 72
     1
  1
FOR TOP MOUNT
  7
SLDTEXTSTYLE0
 73
     1
 44
1.0
  0
MTEXT
  5
F4
330
F0
100
AcDbEntity
  8
NOTES
 62
     0
100
AcDbMText
 10
2.4271797825
 20
-0.0485920805
 30
0.0
 40
0.2083333333
 41
0.0
 71
     3
 72
     1
  1
INSTALLATION CUT
  7
SLDTEXTSTYLE0
 73
     1
 44
1.0
  0
MTEXT
  5
F5
330
F0
100
AcDbEntity
  8
NOTES
 62
     0
100
AcDbMText
 10
2.4266975101
 20
-0.3657399401
 30
0.0
 40
0.2083333333
 41
0.0
 71
     3
 72
     1
  1
ALONG THIS LINE
  7
SLDTEXTSTYLE0
 73
     1
 44
1.0
  0
MTEXT
  5
F6
330
F0
100
AcDbEntity
  8
NOTES
 62
     0
100
AcDbMText
 10
2.4493640571
 20
-1.0000356593
 30
0.0
 40
0.2083333333
 41
0.0
 71
     3
 72
     1
  1
PARA LA INSTALACIÓN DE
  7
SLDTEXTSTYLE0
 73
     1
 44
1.0
  0
MTEXT
  5
F7
330
F0
100
AcDbEntity
  8
NOTES
 62
     0
100
AcDbMText
 10
2.4300734566
 20
-1.317183519
 30
0.0
 40
0.2083333333
 41
0.0
 71
     3
 72
     1
  1
MONTAJE SUPERIOR
  7
SLDTEXTSTYLE0
 73
     1
 44
1.0
  0
MTEXT
  5
F8
330
F0
100
AcDbEntity
  8
NOTES
 62
     0
100
AcDbMText
 10
2.4233218304
 20
-1.6343313786
 30
0.0
 40
0.2083333333
 41
0.0
 71
     3
 72
     1
  1
CORTE A LO LARGO
  7
SLDTEXTSTYLE0
 73
     1
 44
1.0
  0
MTEXT
  5
F9
330
F0
100
AcDbEntity
  8
NOTES
 62
     0
100
AcDbMText
 10
2.435860258
 20
-1.9514792382
 30
0.0
 40
0.2083333333
 41
0.0
 71
     3
 72
     1
  1
DE ESTA LÍNEA
  7
SLDTEXTSTYLE0
 73
     1
 44
1.0
  0
ENDBLK
  5
F2
330
F0
100
AcDbEntity
  8
0
100
AcDbBlockEnd
  0
BLOCK
  5
12A
330
129
100
AcDbEntity
  8
0
100
AcDbBlockBegin
  2
_D
 70
     0
 10
0.0
 20
0.0
 30
0.0
  3
_D
  1

  0
SOLID
  5
12C
330
129
100
AcDbEntity
  8
OBJECTS
100
AcDbTrace
 10
33.1914197384
 20
20.6840502425
 30
0.0
 11
32.8274060665
 21
20.7400523459
 31
0.0
 12
32.8274060665
 22
20.6280481392
 32
0.0
 13
32.8274060665
 23
20.6280481392
 33
0.0
  0
SOLID
  5
12D
330
129
100
AcDbEntity
  8
OBJECTS
100
AcDbTrace
 10
0.8242937541
 20
20.6840502425
 30
0.0
 11
1.188307426
 21
20.6280481392
 31
0.0
 12
1.188307426
 22
20.7400523459
 32
0.0
 13
1.188307426
 23
20.7400523459
 33
0.0
  0
LINE
  5
12E
330
129
100
AcDbEntity
  8
OBJECTS
100
AcDbLine
 10
24.9160525294
 20
21.3635988248
 30
0.0
 11
25.3000803131
 21
21.3635988248
 31
0.0
  0
LINE
  5
12F
330
129
100
AcDbEntity
  8
OBJECTS
100
AcDbLine
 10
24.1552886312
 20
20.7377655187
 30
0.0
 11
24.0302886327
 21
20.7377655187
 31
0.0
  0
LINE
  5
130
330
129
100
AcDbEntity
  8
OBJECTS
100
AcDbLine
 10
24.0302886327
 20
20.7377655187
 30
0.0
 11
24.0302886327
 21
20.1787377499
 31
0.0
  0
LINE
  5
131
330
129
100
AcDbEntity
  8
OBJECTS
100
AcDbLine
 10
24.0302886327
 20
20.1787377499
 30
0.0
 11
24.1552886312
 21
20.1787377499
 31
0.0
  0
LINE
  5
132
330
129
100
AcDbEntity
  8
OBJECTS
100
AcDbLine
 10
25.6830664088
 20
20.7377655187
 30
0.0
 11
25.8080664073
 21
20.7377655187
 31
0.0
  0
LINE
  5
133
330
129
100
AcDbEntity
  8
OBJECTS
100
AcDbLine
 10
25.8080664073
 20
20.7377655187
 30
0.0
 11
25.8080664073
 21
20.1787377499
 31
0.0
  0
LINE
  5
134
330
129
100
AcDbEntity
  8
OBJECTS
100
AcDbLine
 10
25.8080664073
 20
20.1787377499
 30
0.0
 11
25.6830664088
 21
20.1787377499
 31
0.0
  0
LINE
  5
135
330
129
100
AcDbEntity
  8
OBJECTS
100
AcDbLine
 10
33.1914197384
 20
20.6840502425
 30
0.0
 11
26.5025441383
 21
20.6840502425
 31
0.0
  0
LINE
  5
136
330
129
100
AcDbEntity
  8
OBJECTS
100
AcDbLine
 10
0.8242937541
 20
20.6840502425
 30
0.0
 11
23.335810865
 21
20.6840502425
 31
0.0
  0
MTEXT
  5
137
330
129
100
AcDbEntity
  8
OBJECTS
100
AcDbMText
 10
24.307371976
 20
21.5596467601
 30
0.0
 40
0.375
 41
0.0
 71
     1
 72
     1
  1
32
  7
SLDTEXTSTYLE0
 73
     1
 44
1.0
  0
MTEXT
  5
138
330
129
100
AcDbEntity
  8
OBJECTS
100
AcDbMText
 10
24.9691775341
 20
21.8151242355
 30
0.0
 40
0.375
 41
0.0
 71
     1
 72
     1
  1
3
  7
SLDTEXTSTYLE0
 73
     1
 44
1.0
  0
MTEXT
  5
139
330
129
100
AcDbEntity
  8
OBJECTS
100
AcDbMText
 10
24.9691775341
 20
21.3044992408
 30
0.0
 40
0.375
 41
0.0
 71
     1
 72
     1
  1
8
  7
SLDTEXTSTYLE0
 73
     1
 44
1.0
  0
MTEXT
  5
13A
330
129
100
AcDbEntity
  8
OBJECTS
100
AcDbMText
 10
25.3532052811
 20
21.5596467601
 30
0.0
 40
0.375
 41
0.0
 71
     1
 72
     1
  1
"
  7
SLDTEXTSTYLE0
 73
     1
 44
1.0
  0
MTEXT
  5
13B
330
129
100
AcDbEntity
  8
OBJECTS
100
AcDbMText
 10
24.1552886312
 20
20.6621381615
 30
0.0
 40
0.375
 41
0.0
 71
     1
 72
     1
  1
822.13
  7
SLDTEXTSTYLE0
 73
     1
 44
1.0
  0
MTEXT
  5
13C
330
129
100
AcDbEntity
  8
OBJECTS
100
AcDbMText
 10
23.4191774831
 20
20.0197770788
 30
0.0
 40
0.375
 41
0.0
 71
     1
 72
     1
  1
TOP MOUNT
  7
SLDTEXTSTYLE0
 73
     1
 44
1.0
  0
ENDBLK
  5
12B
330
129
100
AcDbEntity
  8
0
100
AcDbBlockEnd
  0
BLOCK
  5
140
330
13F
100
AcDbEntity
  8
0
100
AcDbBlockBegin
  2
_D_1
 70
     0
 10
0.0
 20
0.0
 30
0.0
  3
_D_1
  1

  0
SOLID
  5
142
330
13F
100
AcDbEntity
  8
OBJECTS
100
AcDbTrace
 10
33.0328523644
 20
22.6071162334
 30
0.0
 11
32.6896062255
 21
22.4736086417
 31
0.0
 12
32.7456083289
 22
22.3766101533
 32
0.0
 13
32.7456083289
 23
22.3766101533
 33
0.0
  0
LINE
  5
143
330
13F
100
AcDbEntity
  8
OBJECTS
100
AcDbLine
 10
30.1246058532
 20
22.0355285193
 30
0.0
 11
30.7864114113
 21
22.0355285193
 31
0.0
  0
LINE
  5
144
330
13F
100
AcDbEntity
  8
OBJECTS
100
AcDbLine
 10
29.5999531274
 20
21.4096952132
 30
0.0
 11
29.4749531289
 21
21.4096952132
 31
0.0
  0
LINE
  5
145
330
13F
100
AcDbEntity
  8
OBJECTS
100
AcDbLine
 10
29.4749531289
 20
21.4096952132
 30
0.0
 11
29.4749531289
 21
20.8506674444
 31
0.0
  0
LINE
  5
146
330
13F
100
AcDbEntity
  8
OBJECTS
100
AcDbLine
 10
29.4749531289
 20
20.8506674444
 30
0.0
 11
29.5999531274
 21
20.8506674444
 31
0.0
  0
LINE
  5
147
330
13F
100
AcDbEntity
  8
OBJECTS
100
AcDbLine
 10
30.8499530206
 20
21.4096952132
 30
0.0
 11
30.9749530191
 21
21.4096952132
 31
0.0
  0
LINE
  5
148
330
13F
100
AcDbEntity
  8
OBJECTS
100
AcDbLine
 10
30.9749530191
 20
21.4096952132
 30
0.0
 11
30.9749530191
 21
20.8506674444
 31
0.0
  0
LINE
  5
149
330
13F
100
AcDbEntity
  8
OBJECTS
100
AcDbLine
 10
30.9749530191
 20
20.8506674444
 30
0.0
 11
30.8499530206
 21
20.8506674444
 31
0.0
  0
LINE
  5
14A
330
13F
100
AcDbEntity
  8
OBJECTS
100
AcDbLine
 10
33.0328523644
 20
22.6071162334
 30
0.0
 11
31.3499529809
 21
21.6354938214
 31
0.0
  0
MTEXT
  5
14B
330
13F
100
AcDbEntity
  8
OBJECTS
100
AcDbMText
 10
29.4325919491
 20
22.2315764546
 30
0.0
 40
0.375
 41
0.0
 71
     1
 72
     1
  1
R1
  7
SLDTEXTSTYLE0
 73
     1
 44
1.0
  0
MTEXT
  5
14C
330
13F
100
AcDbEntity
  8
OBJECTS
100
AcDbMText
 10
30.3166197451
 20
22.4870539299
 30
0.0
 40
0.375
 41
0.0
 71
     1
 72
     1
  1
3
  7
SLDTEXTSTYLE0
 73
     1
 44
1.0
  0
MTEXT
  5
14D
330
13F
100
AcDbEntity
  8
OBJECTS
100
AcDbMText
 10
30.1777308579
 20
21.9764289353
 30
0.0
 40
0.375
 41
0.0
 71
     1
 72
     1
  1
16
  7
SLDTEXTSTYLE0
 73
     1
 44
1.0
  0
MTEXT
  5
14E
330
13F
100
AcDbEntity
  8
OBJECTS
100
AcDbMText
 10
30.839536416
 20
22.2315764546
 30
0.0
 40
0.375
 41
0.0
 71
     1
 72
     1
  1
"
  7
SLDTEXTSTYLE0
 73
     1
 44
1.0
  0
MTEXT
  5
14F
330
13F
100
AcDbEntity
  8
OBJECTS
100
AcDbMText
 10
29.5999531274
 20
21.334067856
 30
0.0
 40
0.375
 41
0.0
 71
     1
 72
     1
  1
30.06
  7
SLDTEXTSTYLE0
 73
     1
 44
1.0
  0
ENDBLK
  5
141
330
13F
100
AcDbEntity
  8
0
100
AcDbBlockEnd
  0
BLOCK
  5
152
330
151
100
AcDbEntity
  8
0
100
AcDbBlockBegin
  2
_D_2
 70
     0
 10
0.0
 20
0.0
 30
0.0
  3
_D_2
  1

  0
SOLID
  5
154
330
151
100
AcDbEntity
  8
OBJECTS
100
AcDbTrace
 10
27.6222716667
 20
23.1988977295
 30
0.0
 11
27.5662695634
 21
22.8348840576
 31
0.0
 12
27.6782737701
 22
22.8348840576
 32
0.0
 13
27.6782737701
 23
22.8348840576
 33
0.0
  0
SOLID
  5
155
330
151
100
AcDbEntity
  8
OBJECTS
100
AcDbTrace
 10
27.6222716667
 20
1.8160237138
 30
0.0
 11
27.6782737701
 21
2.1800373856
 31
0.0
 12
27.5662695634
 22
2.1800373856
 32
0.0
 13
27.5662695634
 23
2.1800373856
 33
0.0
  0
LINE
  5
156
330
151
100
AcDbEntity
  8
OBJECTS
100
AcDbLine
 10
27.6191466945
 20
17.6020028901
 30
0.0
 11
28.0031744782
 21
17.6020028901
 31
0.0
  0
LINE
  5
157
330
151
100
AcDbEntity
  8
OBJECTS
100
AcDbLine
 10
26.8583827962
 20
16.9761695839
 30
0.0
 11
26.7333827978
 21
16.9761695839
 31
0.0
  0
LINE
  5
158
330
151
100
AcDbEntity
  8
OBJECTS
100
AcDbLine
 10
26.7333827978
 20
16.9761695839
 30
0.0
 11
26.7333827978
 21
16.4171418152
 31
0.0
  0
LINE
  5
159
330
151
100
AcDbEntity
  8
OBJECTS
100
AcDbLine
 10
26.7333827978
 20
16.4171418152
 30
0.0
 11
26.8583827962
 21
16.4171418152
 31
0.0
  0
LINE
  5
15A
330
151
100
AcDbEntity
  8
OBJECTS
100
AcDbLine
 10
28.3861605739
 20
16.9761695839
 30
0.0
 11
28.5111605724
 21
16.9761695839
 31
0.0
  0
LINE
  5
15B
330
151
100
AcDbEntity
  8
OBJECTS
100
AcDbLine
 10
28.5111605724
 20
16.9761695839
 30
0.0
 11
28.5111605724
 21
16.4171418152
 31
0.0
  0
LINE
  5
15C
330
151
100
AcDbEntity
  8
OBJECTS
100
AcDbLine
 10
28.5111605724
 20
16.4171418152
 30
0.0
 11
28.3861605739
 21
16.4171418152
 31
0.0
  0
LINE
  5
15D
330
151
100
AcDbEntity
  8
OBJECTS
100
AcDbLine
 10
27.6222716667
 20
23.1988977295
 30
0.0
 11
27.6222716667
 21
18.0701278831
 31
0.0
  0
LINE
  5
15E
330
151
100
AcDbEntity
  8
OBJECTS
100
AcDbLine
 10
27.6222716667
 20
1.8160237138
 30
0.0
 11
27.6222716667
 21
15.7747807325
 31
0.0
  0
MTEXT
  5
15F
330
151
100
AcDbEntity
  8
OBJECTS
100
AcDbMText
 10
27.010466141
 20
17.7980508254
 30
0.0
 40
0.375
 41
0.0
 71
     1
 72
     1
  1
21
  7
SLDTEXTSTYLE0
 73
     1
 44
1.0
  0
MTEXT
  5
160
330
151
100
AcDbEntity
  8
OBJECTS
100
AcDbMText
 10
27.6722716991
 20
18.0535283007
 30
0.0
 40
0.375
 41
0.0
 71
     1
 72
     1
  1
3
  7
SLDTEXTSTYLE0
 73
     1
 44
1.0
  0
MTEXT
  5
161
330
151
100
AcDbEntity
  8
OBJECTS
100
AcDbMText
 10
27.6722716991
 20
17.5429033061
 30
0.0
 40
0.375
 41
0.0
 71
     1
 72
     1
  1
8
  7
SLDTEXTSTYLE0
 73
     1
 44
1.0
  0
MTEXT
  5
162
330
151
100
AcDbEntity
  8
OBJECTS
100
AcDbMText
 10
28.0562994461
 20
17.7980508254
 30
0.0
 40
0.375
 41
0.0
 71
     1
 72
     1
  1
"
  7
SLDTEXTSTYLE0
 73
     1
 44
1.0
  0
MTEXT
  5
163
330
151
100
AcDbEntity
  8
OBJECTS
100
AcDbMText
 10
26.8583827962
 20
16.9005422268
 30
0.0
 40
0.375
 41
0.0
 71
     1
 72
     1
  1
543.13
  7
SLDTEXTSTYLE0
 73
     1
 44
1.0
  0
MTEXT
  5
164
330
151
100
AcDbEntity
  8
OBJECTS
100
AcDbMText
 10
26.1222716482
 20
16.2581811441
 30
0.0
 40
0.375
 41
0.0
 71
     1
 72
     1
  1
TOP MOUNT
  7
SLDTEXTSTYLE0
 73
     1
 44
1.0
  0
ENDBLK
  5
153
330
151
100
AcDbEntity
  8
0
100
AcDbBlockEnd
  0
BLOCK
  5
167
330
166
100
AcDbEntity
  8
0
100
AcDbBlockBegin
  2
_D_3
 70
     0
 10
0.0
 20
0.0
 30
0.0
  3
_D_3
  1

  0
SOLID
  5
169
330
166
100
AcDbEntity
  8
OBJECTS
100
AcDbTrace
 10
25.4954499981
 20
19.4786729792
 30
0.0
 11
25.4394478947
 21
19.1146593073
 31
0.0
 12
25.5514521014
 22
19.1146593073
 32
0.0
 13
25.5514521014
 23
19.1146593073
 33
0.0
  0
SOLID
  5
16A
330
166
100
AcDbEntity
  8
OBJECTS
100
AcDbTrace
 10
25.4954499981
 20
3.2138468892
 30
0.0
 11
25.5514521014
 21
3.5778605611
 31
0.0
 12
25.4394478947
 22
3.5778605611
 32
0.0
 13
25.4394478947
 23
3.5778605611
 33
0.0
  0
LINE
  5
16B
330
166
100
AcDbEntity
  8
OBJECTS
100
AcDbLine
 10
25.4923250258
 20
13.176174267
 30
0.0
 11
25.8763528095
 21
13.176174267
 31
0.0
  0
LINE
  5
16C
330
166
100
AcDbEntity
  8
OBJECTS
100
AcDbLine
 10
24.7315611276
 20
12.5503409608
 30
0.0
 11
24.6065611291
 21
12.5503409608
 31
0.0
  0
LINE
  5
16D
330
166
100
AcDbEntity
  8
OBJECTS
100
AcDbLine
 10
24.6065611291
 20
12.5503409608
 30
0.0
 11
24.6065611291
 21
11.9913131921
 31
0.0
  0
LINE
  5
16E
330
166
100
AcDbEntity
  8
OBJECTS
100
AcDbLine
 10
24.6065611291
 20
11.9913131921
 30
0.0
 11
24.7315611276
 21
11.9913131921
 31
0.0
  0
LINE
  5
16F
330
166
100
AcDbEntity
  8
OBJECTS
100
AcDbLine
 10
26.2593389052
 20
12.5503409608
 30
0.0
 11
26.3843389037
 21
12.5503409608
 31
0.0
  0
LINE
  5
170
330
166
100
AcDbEntity
  8
OBJECTS
100
AcDbLine
 10
26.3843389037
 20
12.5503409608
 30
0.0
 11
26.3843389037
 21
11.9913131921
 31
0.0
  0
LINE
  5
171
330
166
100
AcDbEntity
  8
OBJECTS
100
AcDbLine
 10
26.3843389037
 20
11.9913131921
 30
0.0
 11
26.2593389052
 21
11.9913131921
 31
0.0
  0
LINE
  5
172
330
166
100
AcDbEntity
  8
OBJECTS
100
AcDbLine
 10
25.4954499981
 20
19.4786729792
 30
0.0
 11
25.4954499981
 21
13.64429926
 31
0.0
  0
LINE
  5
173
330
166
100
AcDbEntity
  8
OBJECTS
100
AcDbLine
 10
25.4954499981
 20
3.2138468892
 30
0.0
 11
25.4954499981
 21
11.3489521094
 31
0.0
  0
MTEXT
  5
174
330
166
100
AcDbEntity
  8
OBJECTS
100
AcDbMText
 10
24.8836444724
 20
13.3722222022
 30
0.0
 40
0.375
 41
0.0
 71
     1
 72
     1
  1
16
  7
SLDTEXTSTYLE0
 73
     1
 44
1.0
  0
MTEXT
  5
175
330
166
100
AcDbEntity
  8
OBJECTS
100
AcDbMText
 10
25.5454500305
 20
13.6276996776
 30
0.0
 40
0.375
 41
0.0
 71
     1
 72
     1
  1
1
  7
SLDTEXTSTYLE0
 73
     1
 44
1.0
  0
MTEXT
  5
176
330
166
100
AcDbEntity
  8
OBJECTS
100
AcDbMText
 10
25.5454500305
 20
13.117074683
 30
0.0
 40
0.375
 41
0.0
 71
     1
 72
     1
  1
4
  7
SLDTEXTSTYLE0
 73
     1
 44
1.0
  0
MTEXT
  5
177
330
166
100
AcDbEntity
  8
OBJECTS
100
AcDbMText
 10
25.9294777775
 20
13.3722222022
 30
0.0
 40
0.375
 41
0.0
 71
     1
 72
     1
  1
"
  7
SLDTEXTSTYLE0
 73
     1
 44
1.0
  0
MTEXT
  5
178
330
166
100
AcDbEntity
  8
OBJECTS
100
AcDbMText
 10
24.7315611276
 20
12.4747136037
 30
0.0
 40
0.375
 41
0.0
 71
     1
 72
     1
  1
413.13
  7
SLDTEXTSTYLE0
 73
     1
 44
1.0
  0
MTEXT
  5
179
330
166
100
AcDbEntity
  8
OBJECTS
100
AcDbMText
 10
23.689894336
 20
11.832352521
 30
0.0
 40
0.375
 41
0.0
 71
     1
 72
     1
  1
UNDERMOUNT
  7
SLDTEXTSTYLE0
 73
     1
 44
1.0
  0
ENDBLK
  5
168
330
166
100
AcDbEntity
  8
0
100
AcDbBlockEnd
  0
BLOCK
  5
17C
330
17B
100
AcDbEntity
  8
0
100
AcDbBlockBegin
  2
_D_4
 70
     0
 10
0.0
 20
0.0
 30
0.0
  3
_D_4
  1

  0
SOLID
  5
17E
330
17B
100
AcDbEntity
  8
OBJECTS
100
AcDbTrace
 10
2.2214437012
 20
7.2705486026
 30
0.0
 11
2.5854573731
 21
7.2145464993
 31
0.0
 12
2.5854573731
 22
7.326550706
 32
0.0
 13
2.5854573731
 23
7.326550706
 33
0.0
  0
SOLID
  5
17F
330
17B
100
AcDbEntity
  8
OBJECTS
100
AcDbTrace
 10
31.7942697912
 20
7.2705486026
 30
0.0
 11
31.4302561194
 21
7.326550706
 31
0.0
 12
31.4302561194
 22
7.2145464993
 32
0.0
 13
31.4302561194
 23
7.2145464993
 33
0.0
  0
LINE
  5
180
330
17B
100
AcDbEntity
  8
OBJECTS
100
AcDbLine
 10
19.8305187308
 20
7.9500971849
 30
0.0
 11
20.4923242889
 21
7.9500971849
 31
0.0
  0
LINE
  5
181
330
17B
100
AcDbEntity
  8
OBJECTS
100
AcDbLine
 10
19.2086437748
 20
7.3242638788
 30
0.0
 11
19.0836437763
 21
7.3242638788
 31
0.0
  0
LINE
  5
182
330
17B
100
AcDbEntity
  8
OBJECTS
100
AcDbLine
 10
19.0836437763
 20
7.3242638788
 30
0.0
 11
19.0836437763
 21
6.7652361101
 31
0.0
  0
LINE
  5
183
330
17B
100
AcDbEntity
  8
OBJECTS
100
AcDbLine
 10
19.0836437763
 20
6.7652361101
 30
0.0
 11
19.2086437748
 21
6.7652361101
 31
0.0
  0
LINE
  5
184
330
17B
100
AcDbEntity
  8
OBJECTS
100
AcDbLine
 10
20.7364215524
 20
7.3242638788
 30
0.0
 11
20.8614215509
 21
7.3242638788
 31
0.0
  0
LINE
  5
185
330
17B
100
AcDbEntity
  8
OBJECTS
100
AcDbLine
 10
20.8614215509
 20
7.3242638788
 30
0.0
 11
20.8614215509
 21
6.7652361101
 31
0.0
  0
LINE
  5
186
330
17B
100
AcDbEntity
  8
OBJECTS
100
AcDbLine
 10
20.8614215509
 20
6.7652361101
 30
0.0
 11
20.7364215524
 21
6.7652361101
 31
0.0
  0
LINE
  5
187
330
17B
100
AcDbEntity
  8
OBJECTS
100
AcDbLine
 10
2.2214437012
 20
7.2705486026
 30
0.0
 11
18.0836103651
 21
7.2705486026
 31
0.0
  0
LINE
  5
188
330
17B
100
AcDbEntity
  8
OBJECTS
100
AcDbLine
 10
31.7942697912
 20
7.2705486026
 30
0.0
 11
21.8614549255
 21
7.2705486026
 31
0.0
  0
MTEXT
  5
189
330
17B
100
AcDbEntity
  8
OBJECTS
100
AcDbMText
 10
19.2218381774
 20
8.1461451202
 30
0.0
 40
0.375
 41
0.0
 71
     1
 72
     1
  1
29
  7
SLDTEXTSTYLE0
 73
     1
 44
1.0
  0
MTEXT
  5
18A
330
17B
100
AcDbEntity
  8
OBJECTS
100
AcDbMText
 10
20.0225326227
 20
8.4016225956
 30
0.0
 40
0.375
 41
0.0
 71
     1
 72
     1
  1
9
  7
SLDTEXTSTYLE0
 73
     1
 44
1.0
  0
MTEXT
  5
18B
330
17B
100
AcDbEntity
  8
OBJECTS
100
AcDbMText
 10
19.8836437355
 20
7.8909976009
 30
0.0
 40
0.375
 41
0.0
 71
     1
 72
     1
  1
16
  7
SLDTEXTSTYLE0
 73
     1
 44
1.0
  0
MTEXT
  5
18C
330
17B
100
AcDbEntity
  8
OBJECTS
100
AcDbMText
 10
20.5454493669
 20
8.1461451202
 30
0.0
 40
0.375
 41
0.0
 71
     1
 72
     1
  1
"
  7
SLDTEXTSTYLE0
 73
     1
 44
1.0
  0
MTEXT
  5
18D
330
17B
100
AcDbEntity
  8
OBJECTS
100
AcDbMText
 10
19.2086437748
 20
7.2486365216
 30
0.0
 40
0.375
 41
0.0
 71
     1
 72
     1
  1
751.15
  7
SLDTEXTSTYLE0
 73
     1
 44
1.0
  0
MTEXT
  5
18E
330
17B
100
AcDbEntity
  8
OBJECTS
100
AcDbMText
 10
18.1669769832
 20
6.6062754389
 30
0.0
 40
0.375
 41
0.0
 71
     1
 72
     1
  1
UNDERMOUNT
  7
SLDTEXTSTYLE0
 73
     1
 44
1.0
  0
ENDBLK
  5
17D
330
17B
100
AcDbEntity
  8
0
100
AcDbBlockEnd
  0
BLOCK
  5
191
330
190
100
AcDbEntity
  8
0
100
AcDbBlockBegin
  2
_D_5
 70
     0
 10
0.0
 20
0.0
 30
0.0
  3
_D_5
  1

  0
SOLID
  5
193
330
190
100
AcDbEntity
  8
OBJECTS
100
AcDbTrace
 10
2.552104933
 20
19.3900725692
 30
0.0
 11
2.6856125248
 21
19.0468264304
 31
0.0
 12
2.7826110131
 22
19.1028285337
 32
0.0
 13
2.7826110131
 23
19.1028285337
 33
0.0
  0
LINE
  5
194
330
190
100
AcDbEntity
  8
OBJECTS
100
AcDbLine
 10
4.2624774718
 20
18.361843065
 30
0.0
 11
4.9242830299
 21
18.361843065
 31
0.0
  0
LINE
  5
195
330
190
100
AcDbEntity
  8
OBJECTS
100
AcDbLine
 10
3.8767136515
 20
17.7360097589
 30
0.0
 11
3.751713653
 21
17.7360097589
 31
0.0
  0
LINE
  5
196
330
190
100
AcDbEntity
  8
OBJECTS
100
AcDbLine
 10
3.751713653
 20
17.7360097589
 30
0.0
 11
3.751713653
 21
17.1769819902
 31
0.0
  0
LINE
  5
197
330
190
100
AcDbEntity
  8
OBJECTS
100
AcDbLine
 10
3.751713653
 20
17.1769819902
 30
0.0
 11
3.8767136515
 21
17.1769819902
 31
0.0
  0
LINE
  5
198
330
190
100
AcDbEntity
  8
OBJECTS
100
AcDbLine
 10
5.1267135448
 20
17.7360097589
 30
0.0
 11
5.2517135433
 21
17.7360097589
 31
0.0
  0
LINE
  5
199
330
190
100
AcDbEntity
  8
OBJECTS
100
AcDbLine
 10
5.2517135433
 20
17.7360097589
 30
0.0
 11
5.2517135433
 21
17.1769819902
 31
0.0
  0
LINE
  5
19A
330
190
100
AcDbEntity
  8
OBJECTS
100
AcDbLine
 10
5.2517135433
 20
17.1769819902
 30
0.0
 11
5.1267135448
 21
17.1769819902
 31
0.0
  0
LINE
  5
19B
330
190
100
AcDbEntity
  8
OBJECTS
100
AcDbLine
 10
2.552104933
 20
19.3900725692
 30
0.0
 11
3.3767136546
 21
17.9618083671
 31
0.0
  0
LINE
  5
19C
330
190
100
AcDbEntity
  8
OBJECTS
100
AcDbLine
 10
3.3767136546
 20
17.9618083671
 30
0.0
 11
3.6267136546
 21
17.9618083671
 31
0.0
  0
MTEXT
  5
19D
330
190
100
AcDbEntity
  8
OBJECTS
100
AcDbMText
 10
3.8482413421
 20
18.5578910003
 30
0.0
 40
0.375
 41
0.0
 71
     1
 72
     1
  1
R
  7
SLDTEXTSTYLE0
 73
     1
 44
1.0
  0
MTEXT
  5
19E
330
190
100
AcDbEntity
  8
OBJECTS
100
AcDbMText
 10
4.3156024765
 20
18.8133684757
 30
0.0
 40
0.375
 41
0.0
 71
     1
 72
     1
  1
11
  7
SLDTEXTSTYLE0
 73
     1
 44
1.0
  0
MTEXT
  5
19F
330
190
100
AcDbEntity
  8
OBJECTS
100
AcDbMText
 10
4.3156024765
 20
18.302743481
 30
0.0
 40
0.375
 41
0.0
 71
     1
 72
     1
  1
16
  7
SLDTEXTSTYLE0
 73
     1
 44
1.0
  0
MTEXT
  5
1A0
330
190
100
AcDbEntity
  8
OBJECTS
100
AcDbMText
 10
4.9774080712
 20
18.5578910003
 30
0.0
 40
0.375
 41
0.0
 71
     1
 72
     1
  1
"
  7
SLDTEXTSTYLE0
 73
     1
 44
1.0
  0
MTEXT
  5
1A1
330
190
100
AcDbEntity
  8
OBJECTS
100
AcDbMText
 10
3.8767136515
 20
17.6603824017
 30
0.0
 40
0.375
 41
0.0
 71
     1
 72
     1
  1
16.80
  7
SLDTEXTSTYLE0
 73
     1
 44
1.0
  0
ENDBLK
  5
192
330
190
100
AcDbEntity
  8
0
100
AcDbBlockEnd
  0
BLOCK
  5
1A5
330
1A4
100
AcDbEntity
  8
0
100
AcDbBlockBegin
  2
_D_6
 70
     0
 10
0.0
 20
0.0
 30
0.0
  3
_D_6
  1

  0
SOLID
  5
1A7
330
1A4
100
AcDbEntity
  8
OBJECTS
100
AcDbTrace
 10
16.8257675654
 20
20.5671385419
 30
0.0
 11
16.6774600165
 21
20.230022746
 31
0.0
 12
16.7856477725
 22
20.2010339242
 32
0.0
 13
16.7856477725
 23
20.2010339242
 33
0.0
  0
LINE
  5
1A8
330
1A4
100
AcDbEntity
  8
OBJECTS
100
AcDbLine
 10
15.0851814556
 20
18.7358631841
 30
0.0
 11
15.7469870137
 21
18.7358631841
 31
0.0
  0
LINE
  5
1A9
330
1A4
100
AcDbEntity
  8
OBJECTS
100
AcDbLine
 10
14.4755461315
 20
18.1100298779
 30
0.0
 11
14.350546133
 21
18.1100298779
 31
0.0
  0
LINE
  5
1AA
330
1A4
100
AcDbEntity
  8
OBJECTS
100
AcDbLine
 10
14.350546133
 20
18.1100298779
 30
0.0
 11
14.350546133
 21
17.5510021092
 31
0.0
  0
LINE
  5
1AB
330
1A4
100
AcDbEntity
  8
OBJECTS
100
AcDbLine
 10
14.350546133
 20
17.5510021092
 30
0.0
 11
14.4755461315
 21
17.5510021092
 31
0.0
  0
LINE
  5
1AC
330
1A4
100
AcDbEntity
  8
OBJECTS
100
AcDbLine
 10
15.7255460247
 20
18.1100298779
 30
0.0
 11
15.8505460232
 21
18.1100298779
 31
0.0
  0
LINE
  5
1AD
330
1A4
100
AcDbEntity
  8
OBJECTS
100
AcDbLine
 10
15.8505460232
 20
18.1100298779
 30
0.0
 11
15.8505460232
 21
17.5510021092
 31
0.0
  0
LINE
  5
1AE
330
1A4
100
AcDbEntity
  8
OBJECTS
100
AcDbLine
 10
15.8505460232
 20
17.5510021092
 30
0.0
 11
15.7255460247
 21
17.5510021092
 31
0.0
  0
LINE
  5
1AF
330
1A4
100
AcDbEntity
  8
OBJECTS
100
AcDbLine
 10
16.8257675654
 20
20.5671385419
 30
0.0
 11
16.227889838
 21
18.3358284861
 31
0.0
  0
LINE
  5
1B0
330
1A4
100
AcDbEntity
  8
OBJECTS
100
AcDbLine
 10
16.227889838
 20
18.3358284861
 30
0.0
 11
15.977889838
 21
18.3358284861
 31
0.0
  0
MTEXT
  5
1B1
330
1A4
100
AcDbEntity
  8
OBJECTS
100
AcDbMText
 10
14.2232022816
 20
18.9319111193
 30
0.0
 40
0.375
 41
0.0
 71
     1
 72
     1
  1
%%c
  7
SLDTEXTSTYLE0
 73
     1
 44
1.0
  0
MTEXT
  5
1B2
330
1A4
100
AcDbEntity
  8
OBJECTS
100
AcDbMText
 10
14.7542786765
 20
18.9319111193
 30
0.0
 40
0.375
 41
0.0
 71
     1
 72
     1
  1
1
  7
SLDTEXTSTYLE0
 73
     1
 44
1.0
  0
MTEXT
  5
1B3
330
1A4
100
AcDbEntity
  8
OBJECTS
100
AcDbMText
 10
15.2771953474
 20
19.1873885947
 30
0.0
 40
0.375
 41
0.0
 71
     1
 72
     1
  1
7
  7
SLDTEXTSTYLE0
 73
     1
 44
1.0
  0
MTEXT
  5
1B4
330
1A4
100
AcDbEntity
  8
OBJECTS
100
AcDbMText
 10
15.1383064602
 20
18.6767636
 30
0.0
 40
0.375
 41
0.0
 71
     1
 72
     1
  1
16
  7
SLDTEXTSTYLE0
 73
     1
 44
1.0
  0
MTEXT
  5
1B5
330
1A4
100
AcDbEntity
  8
OBJECTS
100
AcDbMText
 10
15.8001120917
 20
18.9319111193
 30
0.0
 40
0.375
 41
0.0
 71
     1
 72
     1
  1
"
  7
SLDTEXTSTYLE0
 73
     1
 44
1.0
  0
MTEXT
  5
1B6
330
1A4
100
AcDbEntity
  8
OBJECTS
100
AcDbMText
 10
14.4755461315
 20
18.0344025208
 30
0.0
 40
0.375
 41
0.0
 71
     1
 72
     1
  1
36.51
  7
SLDTEXTSTYLE0
 73
     1
 44
1.0
  0
ENDBLK
  5
1A6
330
1A4
100
AcDbEntity
  8
0
100
AcDbBlockEnd
  0
BLOCK
  5
1B8
330
1B7
100
AcDbEntity
  8
0
100
AcDbBlockBegin
  2
SW_NOTE_5
 70
     0
 10
0.0
 20
0.0
 30
0.0
  3
SW_NOTE_5
  1

  0
MTEXT
  5
1BA
330
1B7
100
AcDbEntity
  8
0
  6
Continuous
 62
     0
370
     0
100
AcDbMText
 10
0.0
 20
0.2685557791
 30
0.0
 40
0.2083333333
 41
0.0
 71
     1
 72
     1
  1
1/8" OVERHANG
  7
SLDTEXTSTYLE0
 73
     1
 44
1.0
  0
MTEXT
  5
1BB
330
1B7
100
AcDbEntity
  8
0
  6
Continuous
 62
     0
370
     0
100
AcDbMText
 10
0.0
 20
-0.0485920805
 30
0.0
 40
0.2083333333
 41
0.0
 71
     1
 72
     1
  1
[3.2 SOBRESALIENTE]
  7
SLDTEXTSTYLE0
 73
     1
 44
1.0
  0
ENDBLK
  5
1B9
330
1B7
100
AcDbEntity
  8
0
100
AcDbBlockEnd
  0
BLOCK
  5
1BE
330
1BD
100
AcDbEntity
  8
0
100
AcDbBlockBegin
  2
SW_NOTE_6
 70
     0
 10
0.0
 20
0.0
 30
0.0
  3
SW_NOTE_6
  1

  0
MTEXT
  5
1C0
330
1BD
100
AcDbEntity
  8
0
  6
Continuous
 62
     0
370
     0
100
AcDbMText
 10
0.0
 20
0.2685557791
 30
0.0
 40
0.2083333333
 41
0.0
 71
     1
 72
     1
  1
REFER TO SINK BEING INSTALLED FOR
  7
SLDTEXTSTYLE0
 73
     1
 44
1.0
  0
MTEXT
  5
1C1
330
1BD
100
AcDbEntity
  8
0
  6
Continuous
 62
     0
370
     0
100
AcDbMText
 10
0.0
 20
-0.0485920805
 30
0.0
 40
0.2083333333
 41
0.0
 71
     1
 72
     1
  1
CORRECT HOLE NUMBER AND LOCATIONS,
  7
SLDTEXTSTYLE0
 73
     1
 44
1.0
  0
MTEXT
  5
1C2
330
1BD
100
AcDbEntity
  8
0
  6
Continuous
 62
     0
370
     0
100
AcDbMText
 10
0.0
 20
-0.3657399401
 30
0.0
 40
0.2083333333
 41
0.0
 71
     1
 72
     1
  1
THEN USE THIS DIAGRAM TO DETERMINE
  7
SLDTEXTSTYLE0
 73
     1
 44
1.0
  0
MTEXT
  5
1C3
330
1BD
100
AcDbEntity
  8
0
  6
Continuous
 62
     0
370
     0
100
AcDbMText
 10
0.0
 20
-0.6828877997
 30
0.0
 40
0.2083333333
 41
0.0
 71
     1
 72
     1
  1
WHERE TO DRILL 1-7/16" HOLES.
  7
SLDTEXTSTYLE0
 73
     1
 44
1.0
  0
MTEXT
  5
1C4
330
1BD
100
AcDbEntity
  8
0
  6
Continuous
 62
     0
370
     0
100
AcDbMText
 10
0.0
 20
-1.317183519
 30
0.0
 40
0.2083333333
 41
0.0
 71
     1
 72
     1
  1
CONSULTE EL FREGADERO QUE ESTÁ
  7
SLDTEXTSTYLE0
 73
     1
 44
1.0
  0
MTEXT
  5
1C5
330
1BD
100
AcDbEntity
  8
0
  6
Continuous
 62
     0
370
     0
100
AcDbMText
 10
0.0
 20
-1.6343313786
 30
0.0
 40
0.2083333333
 41
0.0
 71
     1
 72
     1
  1
INSTALADO PARA EL NÚMEROS CORRECTO DE
  7
SLDTEXTSTYLE0
 73
     1
 44
1.0
  0
MTEXT
  5
1C6
330
1BD
100
AcDbEntity
  8
0
  6
Continuous
 62
     0
370
     0
100
AcDbMText
 10
0.0
 20
-1.9514792382
 30
0.0
 40
0.2083333333
 41
0.0
 71
     1
 72
     1
  1
AGUJEROS Y UBICACIONES CORRESPONDIENTES,
  7
SLDTEXTSTYLE0
 73
     1
 44
1.0
  0
MTEXT
  5
1C7
330
1BD
100
AcDbEntity
  8
0
  6
Continuous
 62
     0
370
     0
100
AcDbMText
 10
0.0
 20
-2.2686270978
 30
0.0
 40
0.2083333333
 41
0.0
 71
     1
 72
     1
  1
ENTONCES UTILICE ESTE DIAGRAMA PARA DETERMINAR
  7
SLDTEXTSTYLE0
 73
     1
 44
1.0
  0
MTEXT
  5
1C8
330
1BD
100
AcDbEntity
  8
0
  6
Continuous
 62
     0
370
     0
100
AcDbMText
 10
0.0
 20
-2.5857749574
 30
0.0
 40
0.2083333333
 41
0.0
 71
     1
 72
     1
  1
DONDE HACER LAS PERFORACIONES DE 36.51mm.
  7
SLDTEXTSTYLE0
 73
     1
 44
1.0
  0
ENDBLK
  5
1BF
330
1BD
100
AcDbEntity
  8
0
100
AcDbBlockEnd
  0
BLOCK
  5
1CB
330
1CA
100
AcDbEntity
  8
0
100
AcDbBlockBegin
  2
SW_NOTE_7
 70
     0
 10
0.0
 20
0.0
 30
0.0
  3
SW_NOTE_7
  1

  0
MTEXT
  5
1CD
330
1CA
100
AcDbEntity
  8
NOTES
 62
     0
100
AcDbMText
 10
0.0
 20
0.2685557791
 30
0.0
 40
0.2083333333
 41
0.0
 71
     1
 72
     1
  1
EDGE OF SINK,
  7
SLDTEXTSTYLE0
 73
     1
 44
1.0
  0
MTEXT
  5
1CE
330
1CA
100
AcDbEntity
  8
NOTES
 62
     0
100
AcDbMText
 10
0.0
 20
-0.0485920805
 30
0.0
 40
0.2083333333
 41
0.0
 71
     1
 72
     1
  1
REFERENCE ONLY
  7
SLDTEXTSTYLE0
 73
     1
 44
1.0
  0
MTEXT
  5
1CF
330
1CA
100
AcDbEntity
  8
NOTES
 62
     0
100
AcDbMText
 10
0.0
 20
-0.3657399401
 30
0.0
 40
0.2083333333
 41
0.0
 71
     1
 72
     1
  1
DO NOT CUT
  7
SLDTEXTSTYLE0
 73
     1
 44
1.0
  0
MTEXT
  5
1D0
330
1CA
100
AcDbEntity
  8
NOTES
 62
     0
100
AcDbMText
 10
0.0
 20
-1.0000356593
 30
0.0
 40
0.2083333333
 41
0.0
 71
     1
 72
     1
  1
BORDE DEL FREGADERO,
  7
SLDTEXTSTYLE0
 73
     1
 44
1.0
  0
MTEXT
  5
1D1
330
1CA
100
AcDbEntity
  8
NOTES
 62
     0
100
AcDbMText
 10
0.0
 20
-1.317183519
 30
0.0
 40
0.2083333333
 41
0.0
 71
     1
 72
     1
  1
SÓLO REFERENCIA
  7
SLDTEXTSTYLE0
 73
     1
 44
1.0
  0
MTEXT
  5
1D2
330
1CA
100
AcDbEntity
  8
NOTES
 62
     0
100
AcDbMText
 10
0.0
 20
-1.6343313786
 30
0.0
 40
0.2083333333
 41
0.0
 71
     1
 72
     1
  1
NO CORTE
  7
SLDTEXTSTYLE0
 73
     1
 44
1.0
  0
ENDBLK
  5
1CC
330
1CA
100
AcDbEntity
  8
0
100
AcDbBlockEnd
  0
BLOCK
  5
1D5
330
1D4
100
AcDbEntity
  8
0
100
AcDbBlockBegin
  2
SW_CENTERMARKSYMBOL_0
 70
     0
 10
0.0
 20
0.0
 30
0.0
  3
SW_CENTERMARKSYMBOL_0
  1

  0
LINE
  5
1D7
330
1D4
100
AcDbEntity
  8
0
  6
Continuous
 62
     0
370
     0
100
AcDbLine
 10
0.0
 20
0.0
 30
0.0
 11
0.0
 21
0.1
 31
0.0
  0
LINE
  5
1D8
330
1D4
100
AcDbEntity
  8
0
  6
Continuous
 62
     0
370
     0
100
AcDbLine
 10
0.0
 20
0.0
 30
0.0
 11
-0.1
 21
0.0
 31
0.0
  0
LINE
  5
1D9
330
1D4
100
AcDbEntity
  8
0
  6
Continuous
 62
     0
370
     0
100
AcDbLine
 10
0.0
 20
0.0
 30
0.0
 11
0.0
 21
-0.1
 31
0.0
  0
LINE
  5
1DA
330
1D4
100
AcDbEntity
  8
0
  6
Continuous
 62
     0
370
     0
100
AcDbLine
 10
0.0
 20
0.0
 30
0.0
 11
0.1
 21
0.0
 31
0.0
  0
LINE
  5
1DB
330
1D4
100
AcDbEntity
  8
0
  6
Continuous
 62
     0
370
     0
100
AcDbLine
 10
0.0
 20
0.2
 30
0.0
 11
0.0
 21
0.81875
 31
0.0
  0
LINE
  5
1DC
330
1D4
100
AcDbEntity
  8
0
  6
Continuous
 62
     0
370
     0
100
AcDbLine
 10
-0.2
 20
0.0
 30
0.0
 11
-0.81875
 21
0.0
 31
0.0
  0
LINE
  5
1DD
330
1D4
100
AcDbEntity
  8
0
  6
Continuous
 62
     0
370
     0
100
AcDbLine
 10
0.0
 20
-0.2
 30
0.0
 11
0.0
 21
-0.81875
 31
0.0
  0
LINE
  5
1DE
330
1D4
100
AcDbEntity
  8
0
  6
Continuous
 62
     0
370
     0
100
AcDbLine
 10
0.2
 20
0.0
 30
0.0
 11
0.81875
 21
0.0
 31
0.0
  0
ENDBLK
  5
1D6
330
1D4
100
AcDbEntity
  8
0
100
AcDbBlockEnd
  0
ENDSEC
  0
SECTION
  2
ENTITIES
  0
LINE
  5
C3
330
1F
100
AcDbEntity
  8
OBJECTS
  6
CENTERX2
 62
     5
100
AcDbLine
 10
2.2214437012
 20
11.3462599342
 30
0.0
 11
5.1367212839
 21
11.3462599342
 31
0.0
  0
LINE
  5
C4
330
1F
100
AcDbEntity
  8
OBJECTS
  6
CENTERX2
 62
     5
100
AcDbLine
 10
31.7942697912
 20
11.3462599342
 30
0.0
 11
28.8789922086
 21
11.3462599342
 31
0.0
  0
LINE
  5
C5
330
1F
100
AcDbEntity
  8
OBJECTS
  6
CENTERX2
 62
     5
100
AcDbLine
 10
17.0078567462
 20
19.4786729792
 30
0.0
 11
17.0078567462
 21
16.3221329708
 31
0.0
  0
LINE
  5
C6
330
1F
100
AcDbEntity
  8
OBJECTS
  6
CENTERX2
 62
     5
100
AcDbLine
 10
17.0078567462
 20
3.2138468892
 30
0.0
 11
17.0078567462
 21
6.3703868977
 31
0.0
  0
INSERT
  5
CC
330
1F
100
AcDbEntity
  8
0
  6
Continuous
 62
     7
370
     0
100
AcDbBlockReference
  2
SW_NOTE_0
 10
10.4946050615
 20
10.0258079052
 30
0.0
  0
INSERT
  5
DD
330
1F
100
AcDbEntity
  8
0
  6
Continuous
 62
     7
370
     0
100
AcDbBlockReference
  2
SW_NOTE_1
 10
6.0017814479
 20
18.4095302679
 30
0.0
  0
INSERT
  5
E5
330
1F
100
AcDbEntity
  8
0
  6
Continuous
 62
     7
370
     0
100
AcDbBlockReference
  2
SW_NOTE_2
 10
21.1449818958
 20
16.3073997117
 30
0.0
  0
INSERT
  5
EF
330
1F
100
AcDbEntity
  8
NOTES
100
AcDbBlockReference
  2
SW_NOTE_3
 10
12.9762481281
 20
6.5131536741
 30
0.0
  0
INSERT
  5
FA
330
1F
100
AcDbEntity
  8
NOTES
100
AcDbBlockReference
  2
SW_NOTE_4
 10
28.0233956461
 20
5.8980226595
 30
0.0
  0
SOLID
  5
FB
330
1F
100
AcDbEntity
  8
0
  6
Continuous
 62
     7
370
    18
100
AcDbTrace
 10
29.7931549821
 20
11.3462599342
 30
0.0
 11
29.5218420148
 21
11.5953210967
 31
0.0
 12
29.4595259644
 22
11.5022530989
 32
0.0
 13
29.4595259644
 23
11.5022530989
 33
0.0
  0
LINE
  5
FC
330
1F
100
AcDbEntity
  8
0
  6
Continuous
 62
     7
370
    18
100
AcDbLine
 10
29.7931549821
 20
11.3462599342
 30
0.0
 11
23.0070216738
 21
15.8900884812
 31
0.0
  0
LINE
  5
FD
330
1F
100
AcDbEntity
  8
0
  6
Continuous
 62
     7
370
    18
100
AcDbLine
 10
23.0070216738
 20
15.8900884812
 30
0.0
 11
22.7570216738
 21
15.8900884812
 31
0.0
  0
SOLID
  5
FE
330
1F
100
AcDbEntity
  8
0
  6
Continuous
 62
     7
370
    18
100
AcDbTrace
 10
17.0078567462
 20
17.1927641837
 30
0.0
 11
17.3331752902
 21
17.0201083588
 31
0.0
 12
17.3700282066
 22
17.1258760518
 32
0.0
 13
17.3700282066
 23
17.1258760518
 33
0.0
  0
LINE
  5
FF
330
1F
100
AcDbEntity
  8
0
  6
Continuous
 62
     7
370
    18
100
AcDbLine
 10
17.0078567462
 20
17.1927641837
 30
0.0
 11
20.7465297508
 21
15.8900884812
 31
0.0
  0
LINE
  5
100
330
1F
100
AcDbEntity
  8
0
  6
Continuous
 62
     7
370
    18
100
AcDbLine
 10
20.7465297508
 20
15.8900884812
 30
0.0
 11
20.9965297508
 21
15.8900884812
 31
0.0
  0
SOLID
  5
101
330
1F
100
AcDbEntity
  8
NOTES
100
AcDbTrace
 10
11.4704843087
 20
3.2138468892
 30
0.0
 11
11.6836466953
 21
3.5141866732
 31
0.0
 12
11.5835139331
 22
3.5643700595
 32
0.0
 13
11.5835139331
 23
3.5643700595
 33
0.0
  0
LINE
  5
102
330
1F
100
AcDbEntity
  8
NOTES
100
AcDbLine
 10
11.4704843087
 20
3.2138468892
 30
0.0
 11
12.7253835539
 21
5.7177936521
 31
0.0
  0
LINE
  5
103
330
1F
100
AcDbEntity
  8
NOTES
100
AcDbLine
 10
12.7253835539
 20
5.7177936521
 30
0.0
 11
12.9753835539
 21
5.7177936521
 31
0.0
  0
SOLID
  5
104
330
1F
100
AcDbEntity
  8
NOTES
100
AcDbTrace
 10
33.1914197384
 20
5.7184272675
 30
0.0
 11
32.8270039829
 21
5.6651042326
 31
0.0
 12
32.8598833115
 22
5.5580346661
 32
0.0
 13
32.8598833115
 23
5.5580346661
 33
0.0
  0
LINE
  5
105
330
1F
100
AcDbEntity
  8
NOTES
100
AcDbLine
 10
33.1914197384
 20
5.7184272675
 30
0.0
 11
30.6780988717
 21
4.9466271613
 31
0.0
  0
LINE
  5
106
330
1F
100
AcDbEntity
  8
NOTES
100
AcDbLine
 10
30.6780988717
 20
4.9466271613
 30
0.0
 11
30.4280988717
 21
4.9466271613
 31
0.0
  0
ARC
  5
107
330
1F
100
AcDbEntity
  8
0
  6
CENTERX2
 62
     7
100
AcDbCircle
 10
2.8827661648
 20
18.8173505157
 30
0.0
 40
0.6613224635141215
100
AcDbArc
 50
90.0
 51
180.0
  0
ARC
  5
108
330
1F
100
AcDbEntity
  8
0
  6
CENTERX2
 62
     7
100
AcDbCircle
 10
31.1329473277
 20
18.8173505157
 30
0.0
 40
0.6613224635141179
100
AcDbArc
 50
0.0
 51
90.0
  0
ARC
  5
109
330
1F
100
AcDbEntity
  8
0
  6
CENTERX2
 62
     7
100
AcDbCircle
 10
31.1329473277
 20
3.8751693528
 30
0.0
 40
0.6613224635141228
100
AcDbArc
 50
270.0
 51
0.0
  0
ARC
  5
10A
330
1F
100
AcDbEntity
  8
0
  6
CENTERX2
 62
     7
100
AcDbCircle
 10
2.8827661648
 20
3.8751693528
 30
0.0
 40
0.6613224635141242
100
AcDbArc
 50
180.0
 51
270.0
  0
CIRCLE
  5
10B
330
1F
100
AcDbEntity
  8
0
  6
CENTERX2
 62
     7
100
AcDbCircle
 10
17.0117937541
 20
21.2613977295
 30
0.0
 40
0.7187499999999981
  0
ARC
  5
10C
330
1F
100
AcDbEntity
  8
0
  6
CENTERX2
 62
     7
100
AcDbCircle
 10
32.0078567462
 20
22.0153347374
 30
0.0
 40
1.183562992125978
100
AcDbArc
 50
0.0
 51
90.0
  0
ARC
  5
10D
330
1F
100
AcDbEntity
  8
0
  6
CENTERX2
 62
     7
100
AcDbCircle
 10
32.0078567462
 20
2.9995867059
 30
0.0
 40
1.183562992125978
100
AcDbArc
 50
270.0
 51
0.0
  0
ARC
  5
10E
330
1F
100
AcDbEntity
  8
0
  6
CENTERX2
 62
     7
100
AcDbCircle
 10
2.0078567462
 20
2.9995867059
 30
0.0
 40
1.183562992125975
100
AcDbArc
 50
180.0
 51
270.0
  0
ARC
  5
10F
330
1F
100
AcDbEntity
  8
0
  6
CENTERX2
 62
     7
100
AcDbCircle
 10
2.0078567462
 20
22.0153347374
 30
0.0
 40
1.183562992125982
100
AcDbArc
 50
90.0
 51
180.0
  0
LINE
  5
110
330
1F
100
AcDbEntity
  8
0
  6
CENTERX2
 62
     7
100
AcDbLine
 10
2.2214437012
 20
18.8173505157
 30
0.0
 11
2.2214437012
 21
3.8751693528
 31
0.0
  0
LINE
  5
111
330
1F
100
AcDbEntity
  8
0
  6
CENTERX2
 62
     7
100
AcDbLine
 10
31.1329473277
 20
19.4786729792
 30
0.0
 11
2.8827661648
 21
19.4786729792
 31
0.0
  0
LINE
  5
112
330
1F
100
AcDbEntity
  8
0
  6
CENTERX2
 62
     7
100
AcDbLine
 10
31.7942697912
 20
3.8751693528
 30
0.0
 11
31.7942697912
 21
18.8173505157
 31
0.0
  0
LINE
  5
113
330
1F
100
AcDbEntity
  8
0
  6
CENTERX2
 62
     7
100
AcDbLine
 10
2.8827661648
 20
3.2138468892
 30
0.0
 11
31.1329473277
 21
3.2138468892
 31
0.0
  0
LINE
  5
114
330
1F
100
AcDbEntity
  8
0
  6
CENTERX2
 62
     7
100
AcDbLine
 10
33.1914197384
 20
2.9995867059
 30
0.0
 11
33.1914197384
 21
22.0153347374
 31
0.0
  0
LINE
  5
115
330
1F
100
AcDbEntity
  8
0
  6
CENTERX2
 62
     7
100
AcDbLine
 10
2.0078567462
 20
1.8160237138
 30
0.0
 11
32.0078567462
 21
1.8160237138
 31
0.0
  0
LINE
  5
116
330
1F
100
AcDbEntity
  8
0
  6
CENTERX2
 62
     7
100
AcDbLine
 10
0.8242937541
 20
22.0153347374
 30
0.0
 11
0.8242937541
 21
2.9995867059
 31
0.0
  0
LINE
  5
117
330
1F
100
AcDbEntity
  8
0
  6
CENTERX2
 62
     7
100
AcDbLine
 10
32.0078567462
 20
23.1988977295
 30
0.0
 11
2.0078567462
 21
23.1988977295
 31
0.0
  0
LINE
  5
118
330
1F
100
AcDbEntity
  8
OBJECTS
100
AcDbLine
 10
23.6531624809
 20
21.2613977295
 30
0.0
 11
10.3704250273
 21
21.2613977295
 31
0.0
  0
LINE
  5
119
330
1F
100
AcDbEntity
  8
0
  6
CENTERX2
 62
     7
370
    18
100
AcDbLine
 10
21.0117937541
 20
20.2598845475
 30
0.0
 11
21.0117937541
 21
22.2629109115
 31
0.0
  0
LINE
  5
11A
330
1F
100
AcDbEntity
  8
0
  6
CENTERX2
 62
     7
370
    18
100
AcDbLine
 10
13.0117937541
 20
20.2598845475
 30
0.0
 11
13.0117937541
 21
22.2629109115
 31
0.0
  0
LINE
  5
11B
330
1F
100
AcDbEntity
  8
OBJECTS
100
AcDbLine
 10
2.0078567462
 20
23.5113977295
 30
0.0
 11
32.0078567462
 21
23.5113977295
 31
0.0
  0
LINE
  5
11C
330
1F
100
AcDbEntity
  8
OBJECTS
100
AcDbLine
 10
33.5039197384
 20
22.0153347374
 30
0.0
 11
33.5039197384
 21
2.9995867059
 31
0.0
  0
LINE
  5
11D
330
1F
100
AcDbEntity
  8
OBJECTS
100
AcDbLine
 10
32.0078567462
 20
1.5035237138
 30
0.0
 11
2.0078567462
 21
1.5035237138
 31
0.0
  0
LINE
  5
11E
330
1F
100
AcDbEntity
  8
OBJECTS
100
AcDbLine
 10
0.5117937541
 20
22.0153347374
 30
0.0
 11
0.5117937541
 21
2.9995867059
 31
0.0
  0
ARC
  5
11F
330
1F
100
AcDbEntity
  8
OBJECTS
100
AcDbCircle
 10
32.0078567462
 20
22.0153347374
 30
0.0
 40
1.496062992125978
100
AcDbArc
 50
0.0
 51
90.0
  0
ARC
  5
120
330
1F
100
AcDbEntity
  8
OBJECTS
100
AcDbCircle
 10
32.0078567462
 20
2.9995867059
 30
0.0
 40
1.496062992125978
100
AcDbArc
 50
270.0
 51
0.0
  0
ARC
  5
121
330
1F
100
AcDbEntity
  8
OBJECTS
100
AcDbCircle
 10
2.0078567462
 20
2.9995867059
 30
0.0
 40
1.496062992125976
100
AcDbArc
 50
180.0
 51
270.0
  0
ARC
  5
122
330
1F
100
AcDbEntity
  8
OBJECTS
100
AcDbCircle
 10
2.0078567462
 20
22.0153347374
 30
0.0
 40
1.496062992125984
100
AcDbArc
 50
90.0
 51
180.0
  0
INSERT
  5
123
330
1F
100
AcDbEntity
  8
OBJECTS
100
AcDbBlockReference
  2
OVERHANG - .125
 10
2.1743200403
 20
-22.0124485372
 30
0.0
  0
POINT
  5
124
330
1F
100
AcDbEntity
  8
OBJECTS
100
AcDbPoint
 10
17.0117937541
 20
21.2613977295
 30
0.0
  0
POINT
  5
125
330
1F
100
AcDbEntity
  8
OBJECTS
100
AcDbPoint
 10
21.0117937541
 20
21.2613977295
 30
0.0
  0
POINT
  5
126
330
1F
100
AcDbEntity
  8
OBJECTS
100
AcDbPoint
 10
13.0117937541
 20
21.2613977295
 30
0.0
  0
DIMENSION
  5
127
330
1F
100
AcDbEntity
  8
OBJECTS
100
AcDbDimension
  2
_D
 10
0.8242937541
 20
20.6840502425
 30
0.0
 11
24.9191775017
 21
20.6840502425
 31
0.0
 70
   160
  1
<>\PTOP MOUNT
 71
     2
 42
-1.0
  3
SLDDIMSTYLE0
100
AcDbAlignedDimension
 13
33.1914197384
 23
22.0153347374
 33
0.0
 14
0.8242937541
 24
22.0153347374
 34
0.0
100
AcDbRotatedDimension
  0
DIMENSION
  5
13D
330
1F
100
AcDbEntity
  8
OBJECTS
100
AcDbDimension
  2
_D_1
 10
32.0078567462
 20
22.0153347374
 30
0.0
 11
30.2249530557
 21
21.6354938214
 31
0.0
 70
   164
  1
<>
 71
     1
 42
-1.0
  3
SLDDIMSTYLE1
100
AcDbRadialDimension
 15
33.0328523644
 25
22.6071162334
 35
0.0
 40
0.0
  0
DIMENSION
  5
150
330
1F
100
AcDbEntity
  8
OBJECTS
100
AcDbDimension
  2
_D_2
 10
27.6222716667
 20
1.8160237138
 30
0.0
 11
27.6222716667
 21
16.9224543078
 31
0.0
 70
   160
  1
<>\PTOP MOUNT
 71
     2
 42
-1.0
  3
SLDDIMSTYLE0
100
AcDbAlignedDimension
 13
32.0078567462
 23
23.1988977295
 33
0.0
 14
32.0078567462
 24
1.8160237138
 34
0.0
 50
90.0
100
AcDbRotatedDimension
  0
DIMENSION
  5
165
330
1F
100
AcDbEntity
  8
OBJECTS
100
AcDbDimension
  2
_D_3
 10
25.4954499981
 20
3.2138468892
 30
0.0
 11
25.4954499981
 21
12.4966256847
 31
0.0
 70
   160
  1
<>\PUNDERMOUNT
 71
     2
 42
-1.0
  3
SLDDIMSTYLE0
100
AcDbAlignedDimension
 13
31.1329473277
 23
19.4786729792
 33
0.0
 14
31.1329473277
 24
3.2138468892
 34
0.0
 50
90.0
100
AcDbRotatedDimension
  0
DIMENSION
  5
17A
330
1F
100
AcDbEntity
  8
OBJECTS
100
AcDbDimension
  2
_D_4
 10
31.7942697912
 20
7.2705486026
 30
0.0
 11
19.9725326453
 21
7.2705486026
 31
0.0
 70
   160
  1
<>\PUNDERMOUNT
 71
     2
 42
-1.0
  3
SLDDIMSTYLE0
100
AcDbAlignedDimension
 13
2.2214437012
 23
3.8751693528
 33
0.0
 14
31.7942697912
 24
3.8751693528
 34
0.0
 50
0.0
100
AcDbRotatedDimension
  0
DIMENSION
  5
18F
330
1F
100
AcDbEntity
  8
OBJECTS
100
AcDbDimension
  2
_D_5
 10
2.8827661648
 20
18.8173505157
 30
0.0
 11
4.5017135798
 21
17.9618083671
 31
0.0
 70
   164
  1
<>
 71
     1
 42
-1.0
  3
SLDDIMSTYLE1
100
AcDbRadialDimension
 15
2.552104933
 25
19.3900725692
 35
0.0
 40
0.0
  0
DIMENSION
  5
1A2
330
1F
100
AcDbEntity
  8
OBJECTS
100
AcDbDimension
  2
_D_6
 10
17.1978199428
 20
21.9556569171
 30
0.0
 11
15.1005460598
 21
18.3358284861
 31
0.0
 70
   163
  1
<>
 71
     1
 42
-1.0
  3
SLDDIMSTYLE2
100
AcDbDiametricDimension
 15
16.8257675654
 25
20.5671385419
 35
0.0
 40
0.0
  0
INSERT
  5
1BC
330
1F
100
AcDbEntity
  8
0
  6
Continuous
 62
     7
370
     0
100
AcDbBlockReference
  2
SW_NOTE_5
 10
21.8018273363
 20
5.5808747999
 30
0.0
  0
INSERT
  5
1C9
330
1F
100
AcDbEntity
  8
0
  6
Continuous
 62
     7
370
     0
100
AcDbBlockReference
  2
SW_NOTE_6
 10
2.0125761531
 20
22.8450574805
 30
0.0
  0
INSERT
  5
1D3
330
1F
100
AcDbEntity
  8
NOTES
100
AcDbBlockReference
  2
SW_NOTE_7
 10
3.7943869798
 20
9.8454978743
 30
0.0
  0
INSERT
  5
1DF
330
1F
100
AcDbEntity
  8
0
  6
Continuous
 62
     7
370
     0
100
AcDbBlockReference
  2
SW_CENTERMARKSYMBOL_0
 10
17.0117937541
 20
21.2613977295
 30
0.0
  0
SOLID
  5
1E0
330
1F
100
AcDbEntity
  8
NOTES
100
AcDbTrace
 10
0.5117937541
 20
12.3152743073
 30
0.0
 11
0.7184273951
 21
12.0104059303
 31
0.0
 12
0.8005088198
 22
12.0866134236
 32
0.0
 13
0.8005088198
 23
12.0866134236
 33
0.0
  0
LINE
  5
1E1
330
1F
100
AcDbEntity
  8
NOTES
100
AcDbLine
 10
0.5117937541
 20
12.3152743073
 30
0.0
 11
3.542414157
 21
9.0510593392
 31
0.0
  0
LINE
  5
1E2
330
1F
100
AcDbEntity
  8
NOTES
100
AcDbLine
 10
3.542414157
 20
9.0510593392
 30
0.0
 11
3.792414157
 21
9.0510593392
 31
0.0
  0
ENDSEC
  0
SECTION
  2
OBJECTS
  0
DICTIONARY
  5
C
330
0
100
AcDbDictionary
281
     1
  3
ACAD_GROUP
350
D
  3
ACAD_LAYOUT
350
1A
  3
ACAD_MLINESTYLE
350
17
  3
ACAD_PLOTSETTINGS
350
19
  3
ACAD_PLOTSTYLENAME
350
E
  3
ACAD_SCALELIST
350
47
  0
DICTIONARY
  5
D
102
{ACAD_REACTORS
330
C
102
}
330
C
100
AcDbDictionary
281
     1
  0
DICTIONARY
  5
1A
102
{ACAD_REACTORS
330
C
102
}
330
C
100
AcDbDictionary
281
     1
  3
Layout1
350
1E
  3
Layout2
350
26
  3
Model
350
22
  0
DICTIONARY
  5
17
102
{ACAD_REACTORS
330
C
102
}
330
C
100
AcDbDictionary
281
     1
  3
Standard
350
18
  0
DICTIONARY
  5
19
102
{ACAD_REACTORS
330
C
102
}
330
C
100
AcDbDictionary
281
     1
  0
ACDBDICTIONARYWDFLT
  5
E
102
{ACAD_REACTORS
330
C
102
}
330
C
100
AcDbDictionary
281
     1
  3
Normal
350
F
100
AcDbDictionaryWithDefault
340
F
  0
DICTIONARY
  5
47
102
{ACAD_REACTORS
330
C
102
}
330
C
100
AcDbDictionary
281
     1
  3
A0
350
48
  3
A1
350
49
  3
A2
350
4A
  3
A3
350
4B
  3
A4
350
4C
  3
A5
350
4D
  3
A6
350
4E
  3
A7
350
4F
  3
A8
350
50
  3
A9
350
51
  3
B0
350
52
  3
B1
350
53
  3
B2
350
54
  3
B3
350
55
  3
B4
350
56
  3
B5
350
57
  3
B6
350
58
  3
B7
350
59
  3
B8
350
5A
  3
B9
350
5B
  3
C0
350
5C
  3
C1
350
5D
  3
C2
350
5E
  3
C3
350
5F
  3
C4
350
60
  3
C5
350
61
  3
C6
350
62
  3
C7
350
63
  3
C8
350
64
  3
C9
350
65
  3
D0
350
66
  3
D1
350
67
  3
D2
350
68
  0
LAYOUT
  5
1E
102
{ACAD_REACTORS
330
1A
102
}
330
1A
100
AcDbPlotSettings
  1

  2
none_device
  4

  6

 40
0.0
 41
0.0
 42
0.0
 43
0.0
 44
0.0
 45
0.0
 46
0.0
 47
0.0
 48
0.0
 49
0.0
140
0.0
141
0.0
142
1.0
143
1.0
 70
   688
 72
     0
 73
     0
 74
     5
  7

 75
    16
147
1.0
148
0.0
149
0.0
100
AcDbLayout
  1
Layout1
 70
     1
 71
     1
 10
0.0
 20
0.0
 11
12.0
 21
9.0
 12
0.0
 22
0.0
 32
0.0
 14
1.0000000000E+20
 24
1.0000000000E+20
 34
1.0000000000E+20
 15
-1.0000000000E+20
 25
-1.0000000000E+20
 35
-1.0000000000E+20
146
0.0
 13
0.0
 23
0.0
 33
0.0
 16
1.0
 26
0.0
 36
0.0
 17
0.0
 27
1.0
 37
0.0
 76
     0
330
1B
  0
LAYOUT
  5
26
102
{ACAD_REACTORS
330
1A
102
}
330
1A
100
AcDbPlotSettings
  1

  2
none_device
  4

  6

 40
0.0
 41
0.0
 42
0.0
 43
0.0
 44
0.0
 45
0.0
 46
0.0
 47
0.0
 48
0.0
 49
0.0
140
0.0
141
0.0
142
1.0
143
1.0
 70
   688
 72
     0
 73
     0
 74
     5
  7

 75
    16
147
1.0
148
0.0
149
0.0
100
AcDbLayout
  1
Layout2
 70
     1
 71
     2
 10
0.0
 20
0.0
 11
0.0
 21
0.0
 12
0.0
 22
0.0
 32
0.0
 14
0.0
 24
0.0
 34
0.0
 15
0.0
 25
0.0
 35
0.0
146
0.0
 13
0.0
 23
0.0
 33
0.0
 16
1.0
 26
0.0
 36
0.0
 17
0.0
 27
1.0
 37
0.0
 76
     0
330
23
  0
LAYOUT
  5
22
102
{ACAD_REACTORS
330
1A
102
}
330
1A
100
AcDbPlotSettings
  1

  2
none_device
  4
Letter_(8.50_x_11.00_Inches)
  6

 40
6.35
 41
6.35
 42
6.35000508
 43
6.35000508
 44
215.9
 45
279.4
 46
0.0
 47
0.0
 48
0.0
 49
0.0
140
0.0
141
0.0
142
1.0
143
1.0
 70
  1712
 72
     0
 73
     0
 74
     0
  7

 75
     0
147
1.0
148
0.0
149
0.0
100
AcDbLayout
  1
Model
 70
     1
 71
     0
 10
0.0
 20
0.0
 11
34.0
 21
25.0
 12
0.0
 22
0.0
 32
0.0
 14
0.0
 24
0.0
 34
0.0
 15
34.0
 25
25.0
 35
0.0
146
0.0
 13
0.0
 23
0.0
 33
0.0
 16
1.0
 26
0.0
 36
0.0
 17
0.0
 27
1.0
 37
0.0
 76
     0
330
1F
331
29
  0
MLINESTYLE
  5
18
102
{ACAD_REACTORS
330
17
102
}
330
17
100
AcDbMlineStyle
  2
Standard
 70
     0
  3

 62
   256
 51
90.0
 52
90.0
 71
     2
 49
0.5
 62
   256
  6
BYLAYER
 49
-0.5
 62
   256
  6
BYLAYER
  0
ACDBPLACEHOLDER
  5
F
102
{ACAD_REACTORS
330
E
102
}
330
E
  0
SCALE
  5
48
102
{ACAD_REACTORS
330
47
102
}
330
47
100
AcDbScale
 70
     0
300
1:1
140
1.0
141
1.0
290
     1
  0
SCALE
  5
49
102
{ACAD_REACTORS
330
47
102
}
330
47
100
AcDbScale
 70
     0
300
1:2
140
1.0
141
2.0
290
     0
  0
SCALE
  5
4A
102
{ACAD_REACTORS
330
47
102
}
330
47
100
AcDbScale
 70
     0
300
1:4
140
1.0
141
4.0
290
     0
  0
SCALE
  5
4B
102
{ACAD_REACTORS
330
47
102
}
330
47
100
AcDbScale
 70
     0
300
1:5
140
1.0
141
5.0
290
     0
  0
SCALE
  5
4C
102
{ACAD_REACTORS
330
47
102
}
330
47
100
AcDbScale
 70
     0
300
1:8
140
1.0
141
8.0
290
     0
  0
SCALE
  5
4D
102
{ACAD_REACTORS
330
47
102
}
330
47
100
AcDbScale
 70
     0
300
1:10
140
1.0
141
10.0
290
     0
  0
SCALE
  5
4E
102
{ACAD_REACTORS
330
47
102
}
330
47
100
AcDbScale
 70
     0
300
1:16
140
1.0
141
16.0
290
     0
  0
SCALE
  5
4F
102
{ACAD_REACTORS
330
47
102
}
330
47
100
AcDbScale
 70
     0
300
1:20
140
1.0
141
20.0
290
     0
  0
SCALE
  5
50
102
{ACAD_REACTORS
330
47
102
}
330
47
100
AcDbScale
 70
     0
300
1:30
140
1.0
141
30.0
290
     0
  0
SCALE
  5
51
102
{ACAD_REACTORS
330
47
102
}
330
47
100
AcDbScale
 70
     0
300
1:40
140
1.0
141
40.0
290
     0
  0
SCALE
  5
52
102
{ACAD_REACTORS
330
47
102
}
330
47
100
AcDbScale
 70
     0
300
1:50
140
1.0
141
50.0
290
     0
  0
SCALE
  5
53
102
{ACAD_REACTORS
330
47
102
}
330
47
100
AcDbScale
 70
     0
300
1:100
140
1.0
141
100.0
290
     0
  0
SCALE
  5
54
102
{ACAD_REACTORS
330
47
102
}
330
47
100
AcDbScale
 70
     0
300
2:1
140
2.0
141
1.0
290
     0
  0
SCALE
  5
55
102
{ACAD_REACTORS
330
47
102
}
330
47
100
AcDbScale
 70
     0
300
4:1
140
4.0
141
1.0
290
     0
  0
SCALE
  5
56
102
{ACAD_REACTORS
330
47
102
}
330
47
100
AcDbScale
 70
     0
300
8:1
140
8.0
141
1.0
290
     0
  0
SCALE
  5
57
102
{ACAD_REACTORS
330
47
102
}
330
47
100
AcDbScale
 70
     0
300
10:1
140
10.0
141
1.0
290
     0
  0
SCALE
  5
58
102
{ACAD_REACTORS
330
47
102
}
330
47
100
AcDbScale
 70
     0
300
100:1
140
100.0
141
1.0
290
     0
  0
SCALE
  5
59
102
{ACAD_REACTORS
330
47
102
}
330
47
100
AcDbScale
 70
     0
300
1/128" = 1'-0"
140
0.0078125
141
12.0
290
     0
  0
SCALE
  5
5A
102
{ACAD_REACTORS
330
47
102
}
330
47
100
AcDbScale
 70
     0
300
1/64" = 1'-0"
140
0.015625
141
12.0
290
     0
  0
SCALE
  5
5B
102
{ACAD_REACTORS
330
47
102
}
330
47
100
AcDbScale
 70
     0
300
1/32" = 1'-0"
140
0.03125
141
12.0
290
     0
  0
SCALE
  5
5C
102
{ACAD_REACTORS
330
47
102
}
330
47
100
AcDbScale
 70
     0
300
1/16" = 1'-0"
140
0.0625
141
12.0
290
     0
  0
SCALE
  5
5D
102
{ACAD_REACTORS
330
47
102
}
330
47
100
AcDbScale
 70
     0
300
3/32" = 1'-0"
140
0.09375
141
12.0
290
     0
  0
SCALE
  5
5E
102
{ACAD_REACTORS
330
47
102
}
330
47
100
AcDbScale
 70
     0
300
1/8" = 1'-0"
140
0.125
141
12.0
290
     0
  0
SCALE
  5
5F
102
{ACAD_REACTORS
330
47
102
}
330
47
100
AcDbScale
 70
     0
300
3/16" = 1'-0"
140
0.1875
141
12.0
290
     0
  0
SCALE
  5
60
102
{ACAD_REACTORS
330
47
102
}
330
47
100
AcDbScale
 70
     0
300
1/4" = 1'-0"
140
0.25
141
12.0
290
     0
  0
SCALE
  5
61
102
{ACAD_REACTORS
330
47
102
}
330
47
100
AcDbScale
 70
     0
300
3/8" = 1'-0"
140
0.375
141
12.0
290
     0
  0
SCALE
  5
62
102
{ACAD_REACTORS
330
47
102
}
330
47
100
AcDbScale
 70
     0
300
1/2" = 1'-0"
140
0.5
141
12.0
290
     0
  0
SCALE
  5
63
102
{ACAD_REACTORS
330
47
102
}
330
47
100
AcDbScale
 70
     0
300
3/4" = 1'-0"
140
0.75
141
12.0
290
     0
  0
SCALE
  5
64
102
{ACAD_REACTORS
330
47
102
}
330
47
100
AcDbScale
 70
     0
300
1" = 1'-0"
140
1.0
141
12.0
290
     0
  0
SCALE
  5
65
102
{ACAD_REACTORS
330
47
102
}
330
47
100
AcDbScale
 70
     0
300
1-1/2" = 1'-0"
140
1.5
141
12.0
290
     0
  0
SCALE
  5
66
102
{ACAD_REACTORS
330
47
102
}
330
47
100
AcDbScale
 70
     0
300
3" = 1'-0"
140
3.0
141
12.0
290
     0
  0
SCALE
  5
67
102
{ACAD_REACTORS
330
47
102
}
330
47
100
AcDbScale
 70
     0
300
6" = 1'-0"
140
6.0
141
12.0
290
     0
  0
SCALE
  5
68
102
{ACAD_REACTORS
330
47
102
}
330
47
100
AcDbScale
 70
     0
300
1'-0" = 1'-0"
140
12.0
141
12.0
290
     0
  0
ENDSEC
  0
EOF
