  0
SECTION
  2
HEADER
  9
$ACADVER
  1
AC1012
  9
$DWGCODEPAGE
  3
ansi_1252
  9
$INSBASE
 10
0.0
 20
0.0
 30
0.0
  9
$EXTMIN
 10
0.0
 20
0.0
 30
0.0
  9
$EXTMAX
 10
28.0
 20
24.0
 30
0.0
  9
$LIMMIN
 10
0.0
 20
0.0
  9
$LIMMAX
 10
28.0
 20
24.0
  9
$ORTHOMODE
 70
     0
  9
$REGENMODE
 70
     1
  9
$FILLMODE
 70
     1
  9
$QTEXTMODE
 70
     0
  9
$MIRRTEXT
 70
     1
  9
$DRAGMODE
 70
     2
  9
$LTSCALE
 40
1.0
  9
$OSMODE
 70
    37
  9
$ATTMODE
 70
     1
  9
$TEXTSIZE
 40
0.2777777778
  9
$TRACEWID
 40
0.05
  9
$TEXTSTYLE
  7
STANDARD
  9
$CLAYER
  8
0
  9
$CELTYPE
  6
BYLAYER
  9
$CECOLOR
 62
   256
  9
$CELTSCALE
 40
1.0
  9
$DELOBJ
 70
     1
  9
$DISPSILH
 70
     0
  9
$DIMSCALE
 40
1.0
  9
$DIMASZ
 40
0.262898763
  9
$DIMEXO
 40
0.05
  9
$DIMDLI
 40
0.38
  9
$DIMRND
 40
0.0
  9
$DIMDLE
 40
0.0
  9
$DIMEXE
 40
0.125
  9
$DIMTP
 40
0.0
  9
$DIMTM
 40
0.0
  9
$DIMTXT
 40
0.3611111111
  9
$DIMCEN
 40
0.09
  9
$DIMTSZ
 40
0.0
  9
$DIMTOL
 70
     0
  9
$DIMLIM
 70
     0
  9
$DIMTIH
 70
     1
  9
$DIMTOH
 70
     1
  9
$DIMSE1
 70
     0
  9
$DIMSE2
 70
     0
  9
$DIMTAD
 70
     0
  9
$DIMZIN
 70
     0
  9
$DIMBLK
  1

  9
$DIMASO
 70
     1
  9
$DIMSHO
 70
     1
  9
$DIMPOST
  1

  9
$DIMAPOST
  1

  9
$DIMALT
 70
     0
  9
$DIMALTD
 70
     2
  9
$DIMALTF
 40
25.4
  9
$DIMLFAC
 40
1.0
  9
$DIMTOFL
 70
     0
  9
$DIMTVP
 40
0.0
  9
$DIMTIX
 70
     0
  9
$DIMSOXD
 70
     0
  9
$DIMSAH
 70
     0
  9
$DIMBLK1
  1

  9
$DIMBLK2
  1

  9
$DIMSTYLE
  2
STANDARD
  9
$DIMCLRD
 70
     0
  9
$DIMCLRE
 70
     0
  9
$DIMCLRT
 70
     0
  9
$DIMTFAC
 40
1.0
  9
$DIMGAP
 40
0.06
  9
$DIMJUST
 70
     0
  9
$DIMSD1
 70
     0
  9
$DIMSD2
 70
     0
  9
$DIMTOLJ
 70
     1
  9
$DIMTZIN
 70
     0
  9
$DIMALTZ
 70
     0
  9
$DIMALTTZ
 70
     0
  9
$DIMFIT
 70
     3
  9
$DIMUPT
 70
     0
  9
$DIMUNIT
 70
     2
  9
$DIMDEC
 70
     3
  9
$DIMTDEC
 70
     3
  9
$DIMALTU
 70
     2
  9
$DIMALTTD
 70
     2
  9
$DIMTXSTY
  7
STANDARD
  9
$DIMAUNIT
 70
     0
  9
$LUNITS
 70
     2
  9
$LUPREC
 70
     3
  9
$SKETCHINC
 40
0.1
  9
$FILLETRAD
 40
0.5
  9
$AUNITS
 70
     0
  9
$AUPREC
 70
     1
  9
$MENU
  1
.
  9
$ELEVATION
 40
0.0
  9
$PELEVATION
 40
0.0
  9
$THICKNESS
 40
0.0
  9
$LIMCHECK
 70
     0
  9
$CHAMFERA
 40
0.5
  9
$CHAMFERB
 40
0.5
  9
$CHAMFERC
 40
1.0
  9
$CHAMFERD
 40
0.0
  9
$SKPOLY
 70
     0
  9
$TDCREATE
 40
2457492.429044572
  9
$TDUPDATE
 40
2457492.429045232
  9
$TDINDWG
 40
0.0000000116
  9
$TDUSRTIMER
 40
0.0000000116
  9
$USRTIMER
 70
     1
  9
$ANGBASE
 50
0.0
  9
$ANGDIR
 70
     0
  9
$PDMODE
 70
     0
  9
$PDSIZE
 40
-1.0
  9
$PLINEWID
 40
0.0
  9
$COORDS
 70
     1
  9
$SPLFRAME
 70
     0
  9
$SPLINETYPE
 70
     6
  9
$SPLINESEGS
 70
     8
  9
$ATTDIA
 70
     0
  9
$ATTREQ
 70
     1
  9
$HANDLING
 70
     1
  9
$HANDSEED
  5
B7
  9
$SURFTAB1
 70
     6
  9
$SURFTAB2
 70
     6
  9
$SURFTYPE
 70
     6
  9
$SURFU
 70
     6
  9
$SURFV
 70
     6
  9
$UCSNAME
  2

  9
$UCSORG
 10
0.0
 20
0.0
 30
0.0
  9
$UCSXDIR
 10
1.0
 20
0.0
 30
0.0
  9
$UCSYDIR
 10
0.0
 20
1.0
 30
0.0
  9
$PUCSNAME
  2

  9
$PUCSORG
 10
0.0
 20
0.0
 30
0.0
  9
$PUCSXDIR
 10
1.0
 20
0.0
 30
0.0
  9
$PUCSYDIR
 10
0.0
 20
1.0
 30
0.0
  9
$USERI1
 70
     0
  9
$USERI2
 70
     0
  9
$USERI3
 70
     0
  9
$USERI4
 70
     0
  9
$USERI5
 70
     0
  9
$USERR1
 40
0.0
  9
$USERR2
 40
0.0
  9
$USERR3
 40
0.0
  9
$USERR4
 40
0.0
  9
$USERR5
 40
0.0
  9
$WORLDVIEW
 70
     1
  9
$SHADEDGE
 70
     3
  9
$SHADEDIF
 70
    70
  9
$TILEMODE
 70
     1
  9
$MAXACTVP
 70
    64
  9
$PINSBASE
 10
0.0
 20
0.0
 30
0.0
  9
$PLIMCHECK
 70
     0
  9
$PEXTMIN
 10
1.0000000000E+20
 20
1.0000000000E+20
 30
1.0000000000E+20
  9
$PEXTMAX
 10
-1.0000000000E+20
 20
-1.0000000000E+20
 30
-1.0000000000E+20
  9
$PLIMMIN
 10
0.0
 20
0.0
  9
$PLIMMAX
 10
12.0
 20
9.0
  9
$UNITMODE
 70
     0
  9
$VISRETAIN
 70
     1
  9
$PLINEGEN
 70
     0
  9
$PSLTSCALE
 70
     1
  9
$TREEDEPTH
 70
  3020
  9
$PICKSTYLE
 70
     1
  9
$CMLSTYLE
  2
STANDARD
  9
$CMLJUST
 70
     0
  9
$CMLSCALE
 40
1.0
  9
$SAVEIMAGES
 70
     1
  0
ENDSEC
  0
SECTION
  2
CLASSES
  0
CLASS
  1
ACDBDICTIONARYWDFLT
  2
AcDbDictionaryWithDefault
  3
ObjectDBX Classes
 90
    32768
280
     0
281
     0
  0
CLASS
  1
VISUALSTYLE
  2
AcDbVisualStyle
  3
ObjectDBX Classes
 90
     4095
280
     0
281
     0
  0
CLASS
  1
MATERIAL
  2
AcDbMaterial
  3
ObjectDBX Classes
 90
     1153
280
     0
281
     0
  0
CLASS
  1
XRECORD
  2
AcDbXrecord
  3
AutoCAD 2000
 90
    32768
280
     0
281
     0
  0
ENDSEC
  0
SECTION
  2
TABLES
  0
TABLE
  2
VPORT
  5
8
330
0
100
AcDbSymbolTable
 70
     1
  0
VPORT
  5
29
330
8
100
AcDbSymbolTableRecord
100
AcDbViewportTableRecord
  2
*ACTIVE
 70
     0
 10
0.0
 20
0.0
 11
1.0
 21
1.0
 12
14.0
 22
12.0
 13
0.0
 23
0.0
 14
0.5
 24
0.5
 15
0.5
 25
0.5
 16
0.0
 26
0.0
 36
1.0
 17
0.0
 27
0.0
 37
0.0
 40
24.0
 41
1.1666666667
 42
50.0
 43
0.0
 44
0.0
 50
0.0
 51
0.0
 71
     0
 72
  2000
 73
     1
 74
     3
 75
     0
 76
     0
 77
     0
 78
     0
  0
ENDTAB
  0
TABLE
  2
LTYPE
  5
5
330
0
100
AcDbSymbolTable
 70
     6
  0
LTYPE
  5
14
330
5
100
AcDbSymbolTableRecord
100
AcDbLinetypeTableRecord
  2
BYBLOCK
 70
     0
  3

 72
    65
 73
     0
 40
0.0
  0
LTYPE
  5
15
330
5
100
AcDbSymbolTableRecord
100
AcDbLinetypeTableRecord
  2
BYLAYER
 70
     0
  3

 72
    65
 73
     0
 40
0.0
  0
LTYPE
  5
16
330
5
100
AcDbSymbolTableRecord
100
AcDbLinetypeTableRecord
  2
CONTINUOUS
 70
     0
  3
Solid line
 72
    65
 73
     0
 40
0.0
  0
LTYPE
  5
3F
330
5
100
AcDbSymbolTableRecord
100
AcDbLinetypeTableRecord
  2
HIDDEN
 70
     0
  3
Hidden __ __ __ __ __ __ __ __ __ __ __ __ __ __
 72
    65
 73
     2
 40
0.075
 49
0.05
 74
     0
 49
-0.025
 74
     0
  0
LTYPE
  5
40
330
5
100
AcDbSymbolTableRecord
100
AcDbLinetypeTableRecord
  2
PHANTOM
 70
     0
  3
Phantom ______  __  __  ______  __  __  ______
 72
    65
 73
     6
 40
0.5
 49
0.25
 74
     0
 49
-0.05
 74
     0
 49
0.05
 74
     0
 49
-0.05
 74
     0
 49
0.05
 74
     0
 49
-0.05
 74
     0
  0
LTYPE
  5
41
330
5
100
AcDbSymbolTableRecord
100
AcDbLinetypeTableRecord
  2
CENTER
 70
     0
  3
Center ____ _ ____ _ ____ _ ____ _ ____ _ ____
 72
    65
 73
     4
 40
0.4
 49
0.25
 74
     0
 49
-0.05
 74
     0
 49
0.05
 74
     0
 49
-0.05
 74
     0
  0
LTYPE
  5
42
330
5
100
AcDbSymbolTableRecord
100
AcDbLinetypeTableRecord
  2
CENTERX2
 70
     0
  3
Center (2x) ________  __  ________  __  _____
 72
    65
 73
     4
 40
0.8
 49
0.5
 74
     0
 49
-0.1
 74
     0
 49
0.1
 74
     0
 49
-0.1
 74
     0
  0
LTYPE
  5
43
330
5
100
AcDbSymbolTableRecord
100
AcDbLinetypeTableRecord
  2
DOT2
 70
     0
  3
Dot (.5x) ........................................
 72
    65
 73
     2
 40
0.025
 49
0.0
 74
     0
 49
-0.025
 74
     0
  0
ENDTAB
  0
TABLE
  2
LAYER
  5
2
330
0
100
AcDbSymbolTable
 70
     7
  0
LAYER
  5
10
330
2
100
AcDbSymbolTableRecord
100
AcDbLayerTableRecord
  2
0
 70
     0
 62
     7
  6
CONTINUOUS
  0
LAYER
  5
44
330
2
100
AcDbSymbolTableRecord
100
AcDbLayerTableRecord
  2
SLD-0
 70
     0
 62
   179
  6
CONTINUOUS
  0
LAYER
  5
45
330
2
100
AcDbSymbolTableRecord
100
AcDbLayerTableRecord
  2
OBJECTS
 70
     0
 62
     5
  6
CONTINUOUS
  0
LAYER
  5
46
330
2
100
AcDbSymbolTableRecord
100
AcDbLayerTableRecord
  2
DIMS
 70
     0
 62
     1
  6
CONTINUOUS
  0
LAYER
  5
47
330
2
100
AcDbSymbolTableRecord
100
AcDbLayerTableRecord
  2
NOTES
 70
     0
 62
     7
  6
CONTINUOUS
  0
LAYER
  5
48
330
2
100
AcDbSymbolTableRecord
100
AcDbLayerTableRecord
  2
IMAGES
 70
     0
 62
     7
  6
CONTINUOUS
  0
LAYER
  5
49
330
2
100
AcDbSymbolTableRecord
100
AcDbLayerTableRecord
  2
CENTERLINES
 70
     0
 62
     7
  6
HIDDEN
  0
ENDTAB
  0
TABLE
  2
STYLE
  5
3
330
0
100
AcDbSymbolTable
 70
     3
  0
STYLE
  5
11
330
3
100
AcDbSymbolTableRecord
100
AcDbTextStyleTableRecord
  2
STANDARD
 70
     0
 40
0.0
 41
1.0
 50
0.0
 71
     0
 42
0.2777777778
  3
ARIAL.TTF
  4

1001
ACAD
1000
ARIAL
1071
       34
  0
STYLE
  5
57
330
3
100
AcDbSymbolTableRecord
100
AcDbTextStyleTableRecord
  2
SLDTEXTSTYLE0
 70
     0
 40
0.0
 41
0.948
 50
0.0
 71
     0
 42
0.2
  3
ARIAL.TTF
  4

1001
ACAD
1000
Arial
1071
      290
  0
STYLE
  5
9F
330
3
100
AcDbSymbolTableRecord
100
AcDbTextStyleTableRecord
  2
SLDTEXTSTYLE1
 70
     0
 40
0.0
 41
0.948
 50
0.0
 71
     0
 42
0.2
  3
ARIALBD.TTF
  4

1001
ACAD
1000
Arial
1071
 33554722
  0
ENDTAB
  0
TABLE
  2
VIEW
  5
6
330
0
100
AcDbSymbolTable
 70
     0
  0
ENDTAB
  0
TABLE
  2
UCS
  5
7
330
0
100
AcDbSymbolTable
 70
     0
  0
ENDTAB
  0
TABLE
  2
APPID
  5
9
330
0
100
AcDbSymbolTable
 70
     1
  0
APPID
  5
12
330
9
100
AcDbSymbolTableRecord
100
AcDbRegAppTableRecord
  2
ACAD
 70
     0
  0
ENDTAB
  0
TABLE
  2
DIMSTYLE
  5
A
330
0
100
AcDbSymbolTable
 70
     4
  0
DIMSTYLE
105
27
330
A
100
AcDbSymbolTableRecord
100
AcDbDimStyleTableRecord
  2
STANDARD
 70
     0
  3

  4

  5

  6

  7

 40
1.0
 41
0.18
 42
0.0625
 43
0.38
 44
0.18
 45
0.0
 46
0.0
 47
0.0
 48
0.0
140
0.18
141
0.09
142
0.0
143
25.4
144
1.0
145
0.0
146
1.0
147
0.09
 71
     0
 72
     0
 73
     1
 74
     1
 75
     0
 76
     0
 77
     0
 78
     0
170
     0
171
     2
172
     0
173
     0
174
     0
175
     0
176
     0
177
     0
178
     0
270
     2
271
     4
272
     4
273
     2
274
     2
340
11
275
     0
280
     0
281
     0
282
     0
283
     1
284
     0
285
     0
286
     0
287
     3
288
     0
  0
DIMSTYLE
105
58
102
{ACAD_REACTORS
330
56
330
6C
102
}
330
A
100
AcDbSymbolTableRecord
100
AcDbDimStyleTableRecord
  2
SLDDIMSTYLE0
 70
     0
  3

  4

  5

  6

  7

 40
1.0
 41
0.262898763
 42
0.0625
 43
0.38
 44
0.0
 45
0.000000001
 46
0.0
 47
0.0
 48
0.0
140
0.262898763
141
0.09
142
0.0
143
25.4
144
1.0
145
0.0
146
1.0
147
0.0657246908
 71
     0
 72
     0
 73
     1
 74
     1
 75
     0
 76
     0
 77
     0
 78
    12
170
     1
171
     2
172
     0
173
     1
174
     0
175
     0
176
     0
177
     0
178
     0
270
     5
271
     6
272
     3
273
     2
274
     2
340
57
275
     0
280
     0
281
     0
282
     0
283
     1
284
    12
285
     0
286
     0
287
     3
288
     0
  0
DIMSTYLE
105
83
102
{ACAD_REACTORS
330
82
102
}
330
A
100
AcDbSymbolTableRecord
100
AcDbDimStyleTableRecord
  2
SLDDIMSTYLE1
 70
     0
  3

  4

  5

  6

  7

 40
1.0
 41
0.262898763
 42
0.0625
 43
0.38
 44
0.0
 45
0.000000001
 46
0.0
 47
0.0
 48
0.0
140
0.262898763
141
0.0
142
0.0
143
25.4
144
1.0
145
0.0
146
1.0
147
0.0657246908
 71
     0
 72
     0
 73
     1
 74
     1
 75
     0
 76
     0
 77
     0
 78
    12
170
     1
171
     2
172
     0
173
     1
174
     0
175
     0
176
     0
177
     0
178
     0
270
     5
271
     3
272
     3
273
     2
274
     2
340
57
275
     0
280
     0
281
     0
282
     0
283
     1
284
    12
285
     0
286
     0
287
     4
288
     0
  0
DIMSTYLE
105
B4
330
A
100
AcDbSymbolTableRecord
100
AcDbDimStyleTableRecord
  2
SLDDIMSTYLE2
 70
     0
  3

  4

  5

  6

  7

 40
1.0
 41
0.262898763
 42
0.0625
 43
0.38
 44
0.0
 45
0.000000001
 46
0.0
 47
0.0
 48
0.0
140
0.0
141
0.09
142
0.0
143
25.4
144
1.0
145
0.0
146
0.262898763
147
0.0
 71
     0
 72
     0
 73
     1
 74
     1
 75
     0
 76
     0
 77
     0
 78
     0
170
     0
171
     2
172
     0
173
     1
174
     0
175
     0
176
     0
177
     0
178
     0
270
     5
271
     0
272
     0
273
     2
274
     2
340
11
275
     0
280
     0
281
     0
282
     0
283
     1
284
     0
285
     0
286
     0
287
     3
288
     0
  0
ENDTAB
  0
TABLE
  2
BLOCK_RECORD
  5
1
330
0
100
AcDbSymbolTable
 70
     7
  0
BLOCK_RECORD
  5
1F
330
1
100
AcDbSymbolTableRecord
100
AcDbBlockTableRecord
  2
*MODEL_SPACE
  0
BLOCK_RECORD
  5
1B
330
1
100
AcDbSymbolTableRecord
100
AcDbBlockTableRecord
  2
*PAPER_SPACE
  0
BLOCK_RECORD
  5
23
330
1
100
AcDbSymbolTableRecord
100
AcDbBlockTableRecord
  2
*PAPER_SPACE0
  0
BLOCK_RECORD
  5
59
330
1
100
AcDbSymbolTableRecord
100
AcDbBlockTableRecord
  2
_D
  0
BLOCK_RECORD
  5
6D
330
1
100
AcDbSymbolTableRecord
100
AcDbBlockTableRecord
  2
_D_1
  0
BLOCK_RECORD
  5
84
330
1
100
AcDbSymbolTableRecord
100
AcDbBlockTableRecord
  2
_D_2
  0
BLOCK_RECORD
  5
97
330
1
100
AcDbSymbolTableRecord
100
AcDbBlockTableRecord
  2
SW_NOTE_0
  0
BLOCK_RECORD
  5
A6
330
1
100
AcDbSymbolTableRecord
100
AcDbBlockTableRecord
  2
SW_NOTE_1
  0
BLOCK_RECORD
  5
AC
330
1
100
AcDbSymbolTableRecord
100
AcDbBlockTableRecord
  2
SW_NOTE_2
  0
ENDTAB
  0
ENDSEC
  0
SECTION
  2
BLOCKS
  0
BLOCK
  5
20
330
1F
100
AcDbEntity
  8
0
100
AcDbBlockBegin
  2
*MODEL_SPACE
 70
     0
 10
0.0
 20
0.0
 30
0.0
  3
*MODEL_SPACE
  1

  0
ENDBLK
  5
21
330
1F
100
AcDbEntity
  8
0
100
AcDbBlockEnd
  0
BLOCK
  5
1C
330
1B
100
AcDbEntity
 67
     1
  8
0
100
AcDbBlockBegin
  2
*PAPER_SPACE
 70
     0
 10
0.0
 20
0.0
 30
0.0
  3
*PAPER_SPACE
  1

  0
ENDBLK
  5
1D
330
1B
100
AcDbEntity
 67
     1
  8
0
100
AcDbBlockEnd
  0
BLOCK
  5
24
330
23
100
AcDbEntity
  8
0
100
AcDbBlockBegin
  2
*PAPER_SPACE0
 70
     0
 10
0.0
 20
0.0
 30
0.0
  3
*PAPER_SPACE0
  1

  0
ENDBLK
  5
25
330
23
100
AcDbEntity
  8
0
100
AcDbBlockEnd
  0
BLOCK
  5
5A
330
59
100
AcDbEntity
  8
0
100
AcDbBlockBegin
  2
_D
 70
     0
 10
0.0
 20
0.0
 30
0.0
  3
_D
  1

  0
SOLID
  5
5C
330
59
100
AcDbEntity
  8
DIMS
100
AcDbTrace
 10
6.2420067297
 20
1.4626836596
 30
0.0
 11
6.2824526933
 21
1.7255824226
 31
0.0
 12
6.2015607662
 22
1.7255824226
 32
0.0
 13
6.2015607662
 23
1.7255824226
 33
0.0
  0
SOLID
  5
5D
330
59
100
AcDbEntity
  8
DIMS
100
AcDbTrace
 10
6.2420067297
 20
22.8376836596
 30
0.0
 11
6.2015607662
 21
22.5747848965
 31
0.0
 12
6.2824526933
 22
22.5747848965
 32
0.0
 13
6.2824526933
 23
22.5747848965
 33
0.0
  0
LINE
  5
5E
330
59
100
AcDbEntity
  8
DIMS
100
AcDbLine
 10
6.2397498033
 20
14.1583636427
 30
0.0
 11
6.5171031843
 21
14.1583636427
 31
0.0
  0
LINE
  5
5F
330
59
100
AcDbEntity
  8
DIMS
100
AcDbLine
 10
5.6150776987
 20
13.706372915
 30
0.0
 11
5.5548925127
 21
13.706372915
 31
0.0
  0
LINE
  5
60
330
59
100
AcDbEntity
  8
DIMS
100
AcDbLine
 10
5.5548925127
 20
13.706372915
 30
0.0
 11
5.5548925127
 21
13.3026306457
 31
0.0
  0
LINE
  5
61
330
59
100
AcDbEntity
  8
DIMS
100
AcDbLine
 10
5.5548925127
 20
13.3026306457
 30
0.0
 11
5.6150776987
 21
13.3026306457
 31
0.0
  0
LINE
  5
62
330
59
100
AcDbEntity
  8
DIMS
100
AcDbLine
 10
6.868935724
 20
13.706372915
 30
0.0
 11
6.92912091
 21
13.706372915
 31
0.0
  0
LINE
  5
63
330
59
100
AcDbEntity
  8
DIMS
100
AcDbLine
 10
6.92912091
 20
13.706372915
 30
0.0
 11
6.92912091
 21
13.3026306457
 31
0.0
  0
LINE
  5
64
330
59
100
AcDbEntity
  8
DIMS
100
AcDbLine
 10
6.92912091
 20
13.3026306457
 30
0.0
 11
6.868935724
 21
13.3026306457
 31
0.0
  0
LINE
  5
65
330
59
100
AcDbEntity
  8
DIMS
100
AcDbLine
 10
6.2420067297
 20
1.4626836596
 30
0.0
 11
6.2420067297
 21
13.2424455377
 31
0.0
  0
LINE
  5
66
330
59
100
AcDbEntity
  8
DIMS
100
AcDbLine
 10
6.2420067297
 20
22.8376836596
 30
0.0
 11
6.2420067297
 21
14.4964539313
 31
0.0
  0
MTEXT
  5
67
330
59
100
AcDbEntity
  8
DIMS
100
AcDbMText
 10
5.8001471874
 20
14.299953808
 30
0.0039370079
 40
0.2708333333
 41
0.0
 71
     1
 72
     1
  1
21
  7
SLDTEXTSTYLE0
  0
MTEXT
  5
68
330
59
100
AcDbEntity
  8
DIMS
100
AcDbMText
 10
6.2781178551
 20
14.4844653282
 30
0.0039370079
 40
0.2708333333
 41
0.0
 71
     1
 72
     1
  1
3
  7
SLDTEXTSTYLE0
  0
MTEXT
  5
69
330
59
100
AcDbEntity
  8
DIMS
100
AcDbMText
 10
6.2781178551
 20
14.1156805909
 30
0.0039370079
 40
0.2708333333
 41
0.0
 71
     1
 72
     1
  1
8
  7
SLDTEXTSTYLE0
  0
MTEXT
  5
6A
330
59
100
AcDbEntity
  8
DIMS
100
AcDbMText
 10
6.5554712085
 20
14.299953808
 30
0.0039370079
 40
0.2708333333
 41
0.0
 71
     1
 72
     1
  1
"
  7
SLDTEXTSTYLE0
  0
MTEXT
  5
6B
330
59
100
AcDbEntity
  8
DIMS
100
AcDbMText
 10
5.6903091846
 20
13.6517531494
 30
0.0039370079
 40
0.2708333333
 41
0.0
 71
     1
 72
     1
  1
542.93
  7
SLDTEXTSTYLE0
  0
ENDBLK
  5
5B
330
59
100
AcDbEntity
  8
0
100
AcDbBlockEnd
  0
BLOCK
  5
6E
330
6D
100
AcDbEntity
  8
0
100
AcDbBlockBegin
  2
_D_1
 70
     0
 10
0.0
 20
0.0
 30
0.0
  3
_D_1
  1

  0
SOLID
  5
70
330
6D
100
AcDbEntity
  8
DIMS
100
AcDbTrace
 10
1.8259363083
 20
7.4162777314
 30
0.0
 11
2.0888350714
 21
7.3758317678
 31
0.0
 12
2.0888350714
 22
7.4567236949
 32
0.0
 13
2.0888350714
 23
7.4567236949
 33
0.0
  0
SOLID
  5
71
330
6D
100
AcDbEntity
  8
DIMS
100
AcDbTrace
 10
26.2009363083
 20
7.4162777314
 30
0.0
 11
25.9380375453
 21
7.4567236949
 31
0.0
 12
25.9380375453
 22
7.3758317678
 32
0.0
 13
25.9380375453
 23
7.3758317678
 33
0.0
  0
LINE
  5
72
330
6D
100
AcDbEntity
  8
DIMS
100
AcDbLine
 10
14.2771458373
 20
7.7051916397
 30
0.0
 11
14.5544992183
 21
7.7051916397
 31
0.0
  0
LINE
  5
73
330
6D
100
AcDbEntity
  8
DIMS
100
AcDbLine
 10
13.6524737328
 20
7.2532009119
 30
0.0
 11
13.5922885468
 21
7.2532009119
 31
0.0
  0
LINE
  5
74
330
6D
100
AcDbEntity
  8
DIMS
100
AcDbLine
 10
13.5922885468
 20
7.2532009119
 30
0.0
 11
13.5922885468
 21
6.8494586427
 31
0.0
  0
LINE
  5
75
330
6D
100
AcDbEntity
  8
DIMS
100
AcDbLine
 10
13.5922885468
 20
6.8494586427
 30
0.0
 11
13.6524737328
 21
6.8494586427
 31
0.0
  0
LINE
  5
76
330
6D
100
AcDbEntity
  8
DIMS
100
AcDbLine
 10
14.9063317581
 20
7.2532009119
 30
0.0
 11
14.9665169441
 21
7.2532009119
 31
0.0
  0
LINE
  5
77
330
6D
100
AcDbEntity
  8
DIMS
100
AcDbLine
 10
14.9665169441
 20
7.2532009119
 30
0.0
 11
14.9665169441
 21
6.8494586427
 31
0.0
  0
LINE
  5
78
330
6D
100
AcDbEntity
  8
DIMS
100
AcDbLine
 10
14.9665169441
 20
6.8494586427
 30
0.0
 11
14.9063317581
 21
6.8494586427
 31
0.0
  0
LINE
  5
79
330
6D
100
AcDbEntity
  8
DIMS
100
AcDbLine
 10
1.8259363083
 20
12.1001836596
 30
0.0
 11
1.8259363083
 21
7.2912777314
 31
0.0
  0
LINE
  5
7A
330
6D
100
AcDbEntity
  8
DIMS
100
AcDbLine
 10
26.2009363083
 20
12.1001836596
 30
0.0
 11
26.2009363083
 21
7.2912777314
 31
0.0
  0
LINE
  5
7B
330
6D
100
AcDbEntity
  8
DIMS
100
AcDbLine
 10
1.8259363083
 20
7.4162777314
 30
0.0
 11
13.4869904042
 21
7.4162777314
 31
0.0
  0
LINE
  5
7C
330
6D
100
AcDbEntity
  8
DIMS
100
AcDbLine
 10
26.2009363083
 20
7.4162777314
 30
0.0
 11
15.0718151233
 21
7.4162777314
 31
0.0
  0
MTEXT
  5
7D
330
6D
100
AcDbEntity
  8
DIMS
100
AcDbMText
 10
13.8375432215
 20
7.8467818049
 30
0.0039370079
 40
0.2708333333
 41
0.0
 71
     1
 72
     1
  1
24
  7
SLDTEXTSTYLE0
  0
MTEXT
  5
7E
330
6D
100
AcDbEntity
  8
DIMS
100
AcDbMText
 10
14.3155138891
 20
8.0312933251
 30
0.0039370079
 40
0.2708333333
 41
0.0
 71
     1
 72
     1
  1
3
  7
SLDTEXTSTYLE0
  0
MTEXT
  5
7F
330
6D
100
AcDbEntity
  8
DIMS
100
AcDbMText
 10
14.3155138891
 20
7.6625085878
 30
0.0039370079
 40
0.2708333333
 41
0.0
 71
     1
 72
     1
  1
8
  7
SLDTEXTSTYLE0
  0
MTEXT
  5
80
330
6D
100
AcDbEntity
  8
DIMS
100
AcDbMText
 10
14.5928672426
 20
7.8467818049
 30
0.0039370079
 40
0.2708333333
 41
0.0
 71
     1
 72
     1
  1
"
  7
SLDTEXTSTYLE0
  0
MTEXT
  5
81
330
6D
100
AcDbEntity
  8
DIMS
100
AcDbMText
 10
13.7277052187
 20
7.1985811463
 30
0.0039370079
 40
0.2708333333
 41
0.0
 71
     1
 72
     1
  1
619.13
  7
SLDTEXTSTYLE0
  0
ENDBLK
  5
6F
330
6D
100
AcDbEntity
  8
0
100
AcDbBlockEnd
  0
BLOCK
  5
85
330
84
100
AcDbEntity
  8
0
100
AcDbBlockBegin
  2
_D_2
 70
     0
 10
0.0
 20
0.0
 30
0.0
  3
_D_2
  1

  0
SOLID
  5
87
330
84
100
AcDbEntity
  8
DIMS
100
AcDbTrace
 10
2.5836221251
 20
2.0324875614
 30
0.0
 11
2.8085961124
 21
2.1743971827
 31
0.0
 12
2.755537776
 22
2.235457127
 32
0.0
 13
2.755537776
 23
2.235457127
 33
0.0
  0
LINE
  5
88
330
84
100
AcDbEntity
  8
DIMS
100
AcDbLine
 10
5.0933344241
 20
3.6464180249
 30
0.0
 11
5.3706878051
 21
3.6464180249
 31
0.0
  0
LINE
  5
89
330
84
100
AcDbEntity
  8
DIMS
100
AcDbLine
 10
4.5388783951
 20
3.1944272972
 30
0.0
 11
4.4786932091
 21
3.1944272972
 31
0.0
  0
LINE
  5
8A
330
84
100
AcDbEntity
  8
DIMS
100
AcDbLine
 10
4.4786932091
 20
3.1944272972
 30
0.0
 11
4.4786932091
 21
2.7906850279
 31
0.0
  0
LINE
  5
8B
330
84
100
AcDbEntity
  8
DIMS
100
AcDbLine
 10
4.4786932091
 20
2.7906850279
 30
0.0
 11
4.5388783951
 21
2.7906850279
 31
0.0
  0
LINE
  5
8C
330
84
100
AcDbEntity
  8
DIMS
100
AcDbLine
 10
5.5921191246
 20
3.1944272972
 30
0.0
 11
5.6523043106
 21
3.1944272972
 31
0.0
  0
LINE
  5
8D
330
84
100
AcDbEntity
  8
DIMS
100
AcDbLine
 10
5.6523043106
 20
3.1944272972
 30
0.0
 11
5.6523043106
 21
2.7906850279
 31
0.0
  0
LINE
  5
8E
330
84
100
AcDbEntity
  8
DIMS
100
AcDbLine
 10
5.6523043106
 20
2.7906850279
 30
0.0
 11
5.5921191246
 21
2.7906850279
 31
0.0
  0
LINE
  5
8F
330
84
100
AcDbEntity
  8
DIMS
100
AcDbLine
 10
2.5836221251
 20
2.0324875614
 30
0.0
 11
4.1835543185
 21
3.4227564445
 31
0.0
  0
LINE
  5
90
330
84
100
AcDbEntity
  8
DIMS
100
AcDbLine
 10
4.1835543185
 20
3.4227564445
 30
0.0
 11
4.4335543185
 21
3.4227564445
 31
0.0
  0
MTEXT
  5
91
330
84
100
AcDbEntity
  8
DIMS
100
AcDbMText
 10
4.5935466269
 20
3.7880081902
 30
0.0039370079
 40
0.2708333333
 41
0.0
 71
     1
 72
     1
  1
R1
  7
SLDTEXTSTYLE0
  0
MTEXT
  5
92
330
84
100
AcDbEntity
  8
DIMS
100
AcDbMText
 10
5.1317024759
 20
3.9725197104
 30
0.0039370079
 40
0.2708333333
 41
0.0
 71
     1
 72
     1
  1
5
  7
SLDTEXTSTYLE0
  0
MTEXT
  5
93
330
84
100
AcDbEntity
  8
DIMS
100
AcDbMText
 10
5.1317024759
 20
3.6037349731
 30
0.0039370079
 40
0.2708333333
 41
0.0
 71
     1
 72
     1
  1
8
  7
SLDTEXTSTYLE0
  0
MTEXT
  5
94
330
84
100
AcDbEntity
  8
DIMS
100
AcDbMText
 10
5.409055866
 20
3.7880081902
 30
0.0039370079
 40
0.2708333333
 41
0.0
 71
     1
 72
     1
  1
"
  7
SLDTEXTSTYLE0
  0
MTEXT
  5
95
330
84
100
AcDbEntity
  8
DIMS
100
AcDbMText
 10
4.614109881
 20
3.1398075316
 30
0.0039370079
 40
0.2708333333
 41
0.0
 71
     1
 72
     1
  1
42.06
  7
SLDTEXTSTYLE0
  0
ENDBLK
  5
86
330
84
100
AcDbEntity
  8
0
100
AcDbBlockEnd
  0
BLOCK
  5
98
330
97
100
AcDbEntity
  8
0
100
AcDbBlockBegin
  2
SW_NOTE_0
 70
     0
 10
0.0
 20
0.0
 30
0.0
  3
SW_NOTE_0
  1

  0
MTEXT
  5
9A
330
97
100
AcDbEntity
  8
NOTES
 62
     0
100
AcDbMText
 10
0.0
 20
0.2685557791
 30
0.0
 40
0.2083333333
 41
0.0
 71
     1
 72
     1
  1
NOTES:
  7
SLDTEXTSTYLE0
  0
MTEXT
  5
9B
330
97
100
AcDbEntity
  8
NOTES
 62
     0
100
AcDbMText
 10
0.4399970804
 20
-0.2869997697
 30
0.0
 40
0.2083333333
 41
0.0
 71
     1
 72
     1
  1
THOROUGHLY READ ALL  INSTALLATION INSTRUCTIONS
  7
SLDTEXTSTYLE0
  0
MTEXT
  5
9C
330
97
100
AcDbEntity
  8
NOTES
 62
     0
100
AcDbMText
 10
0.0
 20
-0.2869997697
 30
0.0
 40
0.2083333333
 41
0.0
 71
     1
 72
     1
  1
1.
  7
SLDTEXTSTYLE0
  0
MTEXT
  5
9D
330
97
100
AcDbEntity
  8
NOTES
 62
     0
100
AcDbMText
 10
0.0
 20
-0.5647775441
 30
0.0
 40
0.2083333333
 41
0.0
 71
     1
 72
     1
  1
BEFORE CUTTING COUNTERTOP.
  7
SLDTEXTSTYLE0
  0
MTEXT
  5
9E
330
97
100
AcDbEntity
  8
NOTES
 62
     0
100
AcDbMText
 10
0.0
 20
-1.120333093
 30
0.0
 40
0.2083333333
 41
0.0
 71
     1
 72
     1
  1
2.  DIMENSIONS ARE IN INCHES [MM].
  7
SLDTEXTSTYLE0
  0
MTEXT
  5
A0
330
97
100
AcDbEntity
  8
NOTES
 62
     0
100
AcDbMText
 10
0.0
 20
-1.9536664162
 30
0.0
 40
0.2083333333
 41
0.0
 71
     1
 72
     1
  1
PLEASE CHECK TEMPLATE AGAINST PHYSICAL SINK FOR MOST ACCURATE CUT.
  7
SLDTEXTSTYLE1
  0
MTEXT
  5
A1
330
97
100
AcDbEntity
  8
NOTES
 62
     0
100
AcDbMText
 10
0.0
 20
-3.0647775139
 30
0.0
 40
0.2083333333
 41
0.0
 71
     1
 72
     1
  1
NOTAS:
  7
SLDTEXTSTYLE0
  0
MTEXT
  5
A2
330
97
100
AcDbEntity
  8
NOTES
 62
     0
100
AcDbMText
 10
0.0
 20
-3.6203330628
 30
0.0
 40
0.2083333333
 41
0.0
 71
     1
 72
     1
  1
1.  LEA ATENTAMENTE LAS INSTRUCCIONES DE INSTALACIÓN ANTES DE CORTAR LA ENCIMERA.
  7
SLDTEXTSTYLE0
  0
MTEXT
  5
A3
330
97
100
AcDbEntity
  8
NOTES
 62
     0
100
AcDbMText
 10
0.0
 20
-4.1758886116
 30
0.0
 40
0.2083333333
 41
0.0
 71
     1
 72
     1
  1
2.  DIMENSIONES EN PULGADAS [MM].
  7
SLDTEXTSTYLE0
  0
MTEXT
  5
A4
330
97
100
AcDbEntity
  8
NOTES
 62
     0
100
AcDbMText
 10
0.0
 20
-5.0092219349
 30
0.0
 40
0.2083333333
 41
0.0
 71
     1
 72
     1
  1
POR FAVOR COMPRUEBE PLANTILLA CONTRA FREGADERO FÍSICO PARA CORTE MÁS EXACTO.
  7
SLDTEXTSTYLE1
  0
ENDBLK
  5
99
330
97
100
AcDbEntity
  8
0
100
AcDbBlockEnd
  0
BLOCK
  5
A7
330
A6
100
AcDbEntity
  8
0
100
AcDbBlockBegin
  2
SW_NOTE_1
 70
     0
 10
0.0
 20
0.0
 30
0.0
  3
SW_NOTE_1
  1

  0
MTEXT
  5
A9
330
A6
100
AcDbEntity
  8
NOTES
 62
     0
100
AcDbMText
 10
6.8619791667
 20
1.0742231165
 30
0.0
 40
0.8333333333
 41
0.0
 71
     2
 72
     1
  1
TEMPLATE #: 1000003472
  7
SLDTEXTSTYLE0
  0
MTEXT
  5
AA
330
A6
100
AcDbEntity
  8
NOTES
 62
     0
100
AcDbMText
 10
6.8424981692
 20
-0.0184439723
 30
0.0
 40
0.4166666667
 41
0.0
 71
     2
 72
     1
  1
TOP MOUNT TEMPLATE 25" X 22" W/ 2" RADIUS
  7
SLDTEXTSTYLE0
  0
ENDBLK
  5
A8
330
A6
100
AcDbEntity
  8
0
100
AcDbBlockEnd
  0
BLOCK
  5
AD
330
AC
100
AcDbEntity
  8
0
100
AcDbBlockBegin
  2
SW_NOTE_2
 70
     0
 10
0.0
 20
0.0
 30
0.0
  3
SW_NOTE_2
  1

  0
MTEXT
  5
AF
330
AC
100
AcDbEntity
  8
NOTES
 62
     0
100
AcDbMText
 10
-1.0665408005
 20
0.8239626398
 30
0.0
 40
0.25
 41
0.0
 71
     2
 72
     1
  1
TEMPLATE
  7
SLDTEXTSTYLE0
  0
MTEXT
  5
B0
330
AC
100
AcDbEntity
  8
NOTES
 62
     0
100
AcDbMText
 10
-1.0627791816
 20
0.4906293105
 30
0.0
 40
0.25
 41
0.0
 71
     2
 72
     1
  1
CENTERLINE
  7
SLDTEXTSTYLE0
  0
MTEXT
  5
B1
330
AC
100
AcDbEntity
  8
NOTES
 62
     0
100
AcDbMText
 10
-1.0626345505
 20
-0.1760373481
 30
0.0
 40
0.25
 41
0.0
 71
     2
 72
     1
  1
PLANTILLA
  7
SLDTEXTSTYLE0
  0
MTEXT
  5
B2
330
AC
100
AcDbEntity
  8
NOTES
 62
     0
100
AcDbMText
 10
-1.0662514438
 20
-0.5093706774
 30
0.0
 40
0.25
 41
0.0
 71
     2
 72
     1
  1
CENTRAL
  7
SLDTEXTSTYLE0
  0
ENDBLK
  5
AE
330
AC
100
AcDbEntity
  8
0
100
AcDbBlockEnd
  0
ENDSEC
  0
SECTION
  2
ENTITIES
  0
LINE
  5
4A
330
1F
100
AcDbEntity
  8
OBJECTS
  6
CENTERX2
100
AcDbLine
 10
14.013436297
 20
22.8376836596
 30
0.0
 11
14.013436297
 21
21.4738668836
 31
0.0
  0
LINE
  5
4B
330
1F
100
AcDbEntity
  8
OBJECTS
  6
CENTERX2
100
AcDbLine
 10
14.013436297
 20
1.4626836596
 30
0.0
 11
14.013436297
 21
2.8265004356
 31
0.0
  0
LINE
  5
4C
330
1F
100
AcDbEntity
  8
OBJECTS
100
AcDbLine
 10
24.1932430824
 20
22.8376836596
 30
0.0
 11
3.8336295343
 21
22.8376836596
 31
0.0
  0
LINE
  5
4D
330
1F
100
AcDbEntity
  8
OBJECTS
100
AcDbLine
 10
3.8336295343
 20
1.4626836596
 30
0.0
 11
24.1932430824
 21
1.4626836596
 31
0.0
  0
LINE
  5
4E
330
1F
100
AcDbEntity
  8
OBJECTS
  6
CENTERX2
100
AcDbLine
 10
26.2009363083
 20
12.1501836596
 30
0.0
 11
24.8371195323
 21
12.1501836596
 31
0.0
  0
LINE
  5
4F
330
1F
100
AcDbEntity
  8
OBJECTS
  6
CENTERX2
100
AcDbLine
 10
1.8259363083
 20
12.1501836596
 30
0.0
 11
3.1897530843
 21
12.1501836596
 31
0.0
  0
ARC
  5
50
330
1F
100
AcDbEntity
  8
OBJECTS
100
AcDbCircle
 10
-91.5967999121
 20
12.1501836596
 30
0.0
 40
117.7977362204682
100
AcDbArc
 50
355.5400221377
 51
4.4599778623
  0
ARC
  5
51
330
1F
100
AcDbEntity
  8
OBJECTS
100
AcDbCircle
 10
24.1932430824
 20
21.1816797226
 30
0.0
 40
1.656003937003467
100
AcDbArc
 50
4.4599778623
 51
90.0
  0
ARC
  5
52
330
1F
100
AcDbEntity
  8
OBJECTS
100
AcDbCircle
 10
3.8336295343
 20
21.1816797226
 30
0.0
 40
1.656003937002339
100
AcDbArc
 50
90.0
 51
175.5400221377
  0
ARC
  5
53
330
1F
100
AcDbEntity
  8
OBJECTS
100
AcDbCircle
 10
119.6236725288
 20
12.1501836596
 30
0.0
 40
117.7977362204683
100
AcDbArc
 50
175.5400221377
 51
184.4599778623
  0
ARC
  5
54
330
1F
100
AcDbEntity
  8
OBJECTS
100
AcDbCircle
 10
3.8336295343
 20
3.1186875966
 30
0.0
 40
1.656003937003474
100
AcDbArc
 50
184.4599778623
 51
270.0
  0
ARC
  5
55
330
1F
100
AcDbEntity
  8
OBJECTS
100
AcDbCircle
 10
24.1932430824
 20
3.1186875966
 30
0.0
 40
1.656003937002329
100
AcDbArc
 50
270.0
 51
355.5400221377
  0
DIMENSION
  5
56
330
1F
100
AcDbEntity
  8
DIMS
100
AcDbDimension
  2
_D
 10
6.2420067297
 20
22.8376836596
 30
0.0
 11
6.2420067297
 21
13.8694497345
 31
0.0
 70
   160
  1
<>
  3
SLDDIMSTYLE0
100
AcDbAlignedDimension
 13
3.8336295343
 23
1.4626836596
 33
0.0
 14
3.8336295343
 24
22.8376836596
 34
0.0
 50
90.0
100
AcDbRotatedDimension
  0
DIMENSION
  5
6C
330
1F
100
AcDbEntity
  8
DIMS
100
AcDbDimension
  2
_D_1
 10
26.2009363083
 20
7.4162777314
 30
0.0
 11
14.2794027638
 21
7.4162777314
 31
0.0
 70
   160
  1
<>
  3
SLDDIMSTYLE0
100
AcDbAlignedDimension
 13
1.8259363083
 23
12.1501836596
 33
0.0
 14
26.2009363083
 24
12.1501836596
 34
0.0
100
AcDbRotatedDimension
  0
DIMENSION
  5
82
330
1F
100
AcDbEntity
  8
DIMS
100
AcDbDimension
  2
_D_2
 10
3.8336295343
 20
3.1186875966
 30
0.0
 11
5.0654987782
 21
3.3575041167
 31
0.0
 70
   164
  1
<>
  3
SLDDIMSTYLE1
100
AcDbRadialDimension
 15
2.5836221251
 25
2.0324875614
 35
0.0
 40
0.0
  0
MTEXT
  5
96
330
1F
100
AcDbEntity
  8
NOTES
100
AcDbMText
 10
21.5313674528
 20
2.3521267115
 30
0.0
 40
0.2083333333
 41
0.0
 71
     1
 72
     1
  1
REV_A  4/16
  7
SLDTEXTSTYLE0
  0
INSERT
  5
A5
330
1F
100
AcDbEntity
  8
NOTES
100
AcDbBlockReference
  2
SW_NOTE_0
 10
8.5853115084
 20
17.3829931296
 30
0.0
  0
INSERT
  5
AB
330
1F
100
AcDbEntity
  8
NOTES
100
AcDbBlockReference
  2
SW_NOTE_1
 10
7.9625817803
 20
9.4802057986
 30
0.0
  0
INSERT
  5
B3
102
{ACAD_REACTORS
330
B5
330
B6
102
}
330
1F
100
AcDbEntity
  8
NOTES
100
AcDbBlockReference
  2
SW_NOTE_2
 10
22.1619333954
 20
19.3585843974
 30
0.0
  0
LEADER
  5
B5
330
1F
100
AcDbEntity
  8
NOTES
100
AcDbLeader
  3
SLDDIMSTYLE2
 73
     2
 76
     3
 10
25.2855114495
 20
12.1501836596
 30
0.0
 10
22.4119333954
 20
19.3585843974
 30
0.0
 10
22.1619333954
 20
19.3585843974
 30
0.0
340
B3
1001
ACAD
1000
DSTYLE
1002
{
1070
     6
1000

1002
}
  0
LEADER
  5
B6
330
1F
100
AcDbEntity
  8
NOTES
100
AcDbLeader
  3
SLDDIMSTYLE2
 73
     2
 76
     3
 10
14.013436297
 20
21.9494692738
 30
0.0
 10
19.7613575053
 20
19.3585843974
 30
0.0
 10
20.0113575053
 20
19.3585843974
 30
0.0
340
B3
212
-2.150575890029639
222
0.0
232
0.0
1001
ACAD
1000
DSTYLE
1002
{
1070
     6
1000

1002
}
  0
ENDSEC
  0
SECTION
  2
OBJECTS
  0
DICTIONARY
  5
C
330
0
100
AcDbDictionary
  3
ACAD_GROUP
350
D
  3
ACAD_MLINESTYLE
350
17
1001
ACAD
1000
TREAT_AS_HARD
1070
     0
  0
DICTIONARY
  5
D
102
{ACAD_REACTORS
330
C
102
}
330
C
100
AcDbDictionary
1001
ACAD
1000
TREAT_AS_HARD
1070
     0
  0
DICTIONARY
  5
17
102
{ACAD_REACTORS
330
C
102
}
330
C
100
AcDbDictionary
  3
STANDARD
350
18
1001
ACAD
1000
TREAT_AS_HARD
1070
     0
  0
MLINESTYLE
  5
18
102
{ACAD_REACTORS
330
17
102
}
330
17
100
AcDbMlineStyle
  2
Standard
 70
     0
  3

 62
   256
 51
90.0
 52
90.0
 71
     2
 49
0.5
 62
   256
  6
BYLAYER
 49
-0.5
 62
   256
  6
BYLAYER
  0
ENDSEC
  0
EOF
