  0
SECTION
  2
HEADER
  9
$ACADVER
  1
AC1015
  9
$ACADMAINTVER
 70
     6
  9
$DWGCODEPAGE
  3
ANSI_1252
  9
$INSBASE
 10
0.0
 20
0.0
 30
0.0
  9
$EXTMIN
 10
0.0
 20
0.0
 30
0.0
  9
$EXTMAX
 10
34.0
 20
22.0
 30
0.0
  9
$LIMMIN
 10
0.0
 20
0.0
  9
$LIMMAX
 10
34.0
 20
22.0
  9
$ORTHOMODE
 70
     0
  9
$REGENMODE
 70
     1
  9
$FILLMODE
 70
     1
  9
$QTEXTMODE
 70
     0
  9
$MIRRTEXT
 70
     1
  9
$LTSCALE
 40
1.0
  9
$ATTMODE
 70
     1
  9
$TEXTSIZE
 40
0.2777777778
  9
$TRACEWID
 40
0.05
  9
$TEXTSTYLE
  7
Standard
  9
$CLAYER
  8
0
  9
$CELTYPE
  6
ByLayer
  9
$CECOLOR
 62
   256
  9
$CELTSCALE
 40
1.0
  9
$DISPSILH
 70
     0
  9
$DIMSCALE
 40
1.0
  9
$DIMASZ
 40
0.262898763
  9
$DIMEXO
 40
0.05
  9
$DIMDLI
 40
0.38
  9
$DIMRND
 40
0.0
  9
$DIMDLE
 40
0.0
  9
$DIMEXE
 40
0.125
  9
$DIMTP
 40
0.0
  9
$DIMTM
 40
0.0
  9
$DIMTXT
 40
0.3611111111
  9
$DIMCEN
 40
0.09
  9
$DIMTSZ
 40
0.0
  9
$DIMTOL
 70
     0
  9
$DIMLIM
 70
     0
  9
$DIMTIH
 70
     1
  9
$DIMTOH
 70
     1
  9
$DIMSE1
 70
     0
  9
$DIMSE2
 70
     0
  9
$DIMTAD
 70
     0
  9
$DIMZIN
 70
     0
  9
$DIMBLK
  1

  9
$DIMASO
 70
     1
  9
$DIMSHO
 70
     1
  9
$DIMPOST
  1

  9
$DIMAPOST
  1

  9
$DIMALT
 70
     0
  9
$DIMALTD
 70
     2
  9
$DIMALTF
 40
25.4
  9
$DIMLFAC
 40
1.0
  9
$DIMTOFL
 70
     0
  9
$DIMTVP
 40
0.0
  9
$DIMTIX
 70
     0
  9
$DIMSOXD
 70
     0
  9
$DIMSAH
 70
     0
  9
$DIMBLK1
  1

  9
$DIMBLK2
  1

  9
$DIMSTYLE
  2
Standard
  9
$DIMCLRD
 70
     0
  9
$DIMCLRE
 70
     0
  9
$DIMCLRT
 70
     0
  9
$DIMTFAC
 40
1.0
  9
$DIMGAP
 40
0.06
  9
$DIMJUST
 70
     0
  9
$DIMSD1
 70
     0
  9
$DIMSD2
 70
     0
  9
$DIMTOLJ
 70
     1
  9
$DIMTZIN
 70
     0
  9
$DIMALTZ
 70
     0
  9
$DIMALTTZ
 70
     0
  9
$DIMUPT
 70
     0
  9
$DIMDEC
 70
     3
  9
$DIMTDEC
 70
     3
  9
$DIMALTU
 70
     2
  9
$DIMALTTD
 70
     2
  9
$DIMTXSTY
  7
Standard
  9
$DIMAUNIT
 70
     0
  9
$DIMADEC
 70
     1
  9
$DIMALTRND
 40
0.0
  9
$DIMAZIN
 70
     0
  9
$DIMDSEP
 70
    46
  9
$DIMATFIT
 70
     3
  9
$DIMFRAC
 70
     0
  9
$DIMLDRBLK
  1

  9
$DIMLUNIT
 70
     2
  9
$DIMLWD
 70
    -2
  9
$DIMLWE
 70
    -2
  9
$DIMTMOVE
 70
     0
  9
$LUNITS
 70
     2
  9
$LUPREC
 70
     3
  9
$SKETCHINC
 40
0.1
  9
$FILLETRAD
 40
0.5
  9
$AUNITS
 70
     0
  9
$AUPREC
 70
     1
  9
$MENU
  1
.
  9
$ELEVATION
 40
0.0
  9
$PELEVATION
 40
0.0
  9
$THICKNESS
 40
0.0
  9
$LIMCHECK
 70
     0
  9
$CHAMFERA
 40
0.5
  9
$CHAMFERB
 40
0.5
  9
$CHAMFERC
 40
1.0
  9
$CHAMFERD
 40
0.0
  9
$SKPOLY
 70
     0
  9
$TDCREATE
 40
2457589.593669201
  9
$TDUCREATE
 40
2457589.802002535
  9
$TDUPDATE
 40
2457589.593670776
  9
$TDUUPDATE
 40
2457589.802004109
  9
$TDINDWG
 40
0.0000000116
  9
$TDUSRTIMER
 40
0.0000000116
  9
$USRTIMER
 70
     1
  9
$ANGBASE
 50
0.0
  9
$ANGDIR
 70
     0
  9
$PDMODE
 70
     0
  9
$PDSIZE
 40
-1.0
  9
$PLINEWID
 40
0.0
  9
$SPLFRAME
 70
     0
  9
$SPLINETYPE
 70
     6
  9
$SPLINESEGS
 70
     8
  9
$HANDSEED
  5
18A
  9
$SURFTAB1
 70
     6
  9
$SURFTAB2
 70
     6
  9
$SURFTYPE
 70
     6
  9
$SURFU
 70
     6
  9
$SURFV
 70
     6
  9
$UCSBASE
  2

  9
$UCSNAME
  2

  9
$UCSORG
 10
0.0
 20
0.0
 30
0.0
  9
$UCSXDIR
 10
1.0
 20
0.0
 30
0.0
  9
$UCSYDIR
 10
0.0
 20
1.0
 30
0.0
  9
$UCSORTHOREF
  2

  9
$UCSORTHOVIEW
 70
     0
  9
$UCSORGTOP
 10
0.0
 20
0.0
 30
0.0
  9
$UCSORGBOTTOM
 10
0.0
 20
0.0
 30
0.0
  9
$UCSORGLEFT
 10
0.0
 20
0.0
 30
0.0
  9
$UCSORGRIGHT
 10
0.0
 20
0.0
 30
0.0
  9
$UCSORGFRONT
 10
0.0
 20
0.0
 30
0.0
  9
$UCSORGBACK
 10
0.0
 20
0.0
 30
0.0
  9
$PUCSBASE
  2

  9
$PUCSNAME
  2

  9
$PUCSORG
 10
0.0
 20
0.0
 30
0.0
  9
$PUCSXDIR
 10
1.0
 20
0.0
 30
0.0
  9
$PUCSYDIR
 10
0.0
 20
1.0
 30
0.0
  9
$PUCSORTHOREF
  2

  9
$PUCSORTHOVIEW
 70
     0
  9
$PUCSORGTOP
 10
0.0
 20
0.0
 30
0.0
  9
$PUCSORGBOTTOM
 10
0.0
 20
0.0
 30
0.0
  9
$PUCSORGLEFT
 10
0.0
 20
0.0
 30
0.0
  9
$PUCSORGRIGHT
 10
0.0
 20
0.0
 30
0.0
  9
$PUCSORGFRONT
 10
0.0
 20
0.0
 30
0.0
  9
$PUCSORGBACK
 10
0.0
 20
0.0
 30
0.0
  9
$USERI1
 70
     0
  9
$USERI2
 70
     0
  9
$USERI3
 70
     0
  9
$USERI4
 70
     0
  9
$USERI5
 70
     0
  9
$USERR1
 40
0.0
  9
$USERR2
 40
0.0
  9
$USERR3
 40
0.0
  9
$USERR4
 40
0.0
  9
$USERR5
 40
0.0
  9
$WORLDVIEW
 70
     1
  9
$SHADEDGE
 70
     3
  9
$SHADEDIF
 70
    70
  9
$TILEMODE
 70
     1
  9
$MAXACTVP
 70
    64
  9
$PINSBASE
 10
0.0
 20
0.0
 30
0.0
  9
$PLIMCHECK
 70
     0
  9
$PEXTMIN
 10
1.0000000000E+20
 20
1.0000000000E+20
 30
1.0000000000E+20
  9
$PEXTMAX
 10
-1.0000000000E+20
 20
-1.0000000000E+20
 30
-1.0000000000E+20
  9
$PLIMMIN
 10
0.0
 20
0.0
  9
$PLIMMAX
 10
12.0
 20
9.0
  9
$UNITMODE
 70
     0
  9
$VISRETAIN
 70
     1
  9
$PLINEGEN
 70
     0
  9
$PSLTSCALE
 70
     1
  9
$TREEDEPTH
 70
  3020
  9
$CMLSTYLE
  2
Standard
  9
$CMLJUST
 70
     0
  9
$CMLSCALE
 40
1.0
  9
$PROXYGRAPHICS
 70
     1
  9
$MEASUREMENT
 70
     0
  9
$CELWEIGHT
370
    -1
  9
$ENDCAPS
280
     0
  9
$JOINSTYLE
280
     0
  9
$LWDISPLAY
290
     1
  9
$INSUNITS
 70
     1
  9
$HYPERLINKBASE
  1

  9
$STYLESHEET
  1

  9
$XEDIT
290
     1
  9
$CEPSNTYPE
380
     0
  9
$PSTYLEMODE
290
     1
  9
$FINGERPRINTGUID
  2
{7F97C94F-9CC3-40B5-A7C6-0A094F88DE97}
  9
$VERSIONGUID
  2
{FAEB1C32-E019-11D5-929B-00C0DF256EC4}
  9
$EXTNAMES
290
     1
  9
$PSVPSCALE
 40
0.0
  9
$OLESTARTUP
290
     0
  0
ENDSEC
  0
SECTION
  2
CLASSES
  0
CLASS
  1
ACDBDICTIONARYWDFLT
  2
AcDbDictionaryWithDefault
  3
ObjectDBX Classes
 90
        0
280
     0
281
     0
  0
CLASS
  1
VISUALSTYLE
  2
AcDbVisualStyle
  3
ObjectDBX Classes
 90
     4095
280
     0
281
     0
  0
CLASS
  1
MATERIAL
  2
AcDbMaterial
  3
ObjectDBX Classes
 90
     1153
280
     0
281
     0
  0
CLASS
  1
ACDBPLACEHOLDER
  2
AcDbPlaceHolder
  3
ObjectDBX Classes
 90
        0
280
     0
281
     0
  0
CLASS
  1
LAYOUT
  2
AcDbLayout
  3
ObjectDBX Classes
 90
        0
280
     0
281
     0
  0
ENDSEC
  0
SECTION
  2
TABLES
  0
TABLE
  2
VPORT
  5
8
330
0
100
AcDbSymbolTable
 70
     1
  0
VPORT
  5
29
330
8
100
AcDbSymbolTableRecord
100
AcDbViewportTableRecord
  2
*Active
 70
     0
 10
0.0
 20
0.0
 11
1.0
 21
1.0
 12
17.0
 22
11.0
 13
0.0
 23
0.0
 14
0.5
 24
0.5
 15
0.5
 25
0.5
 16
0.0
 26
0.0
 36
1.0
 17
0.0
 27
0.0
 37
0.0
 40
22.0
 41
1.5454545455
 42
50.0
 43
0.0
 44
0.0
 50
0.0
 51
0.0
 71
     0
 72
  2000
 73
     1
 74
     3
 75
     0
 76
     0
 77
     0
 78
     0
281
     0
 65
     1
110
0.0
120
0.0
130
0.0
111
1.0
121
0.0
131
0.0
112
0.0
122
1.0
132
0.0
 79
     0
146
0.0
  0
ENDTAB
  0
TABLE
  2
LTYPE
  5
5
330
0
100
AcDbSymbolTable
 70
     6
  0
LTYPE
  5
14
330
5
100
AcDbSymbolTableRecord
100
AcDbLinetypeTableRecord
  2
ByBlock
 70
     0
  3

 72
    65
 73
     0
 40
0.0
  0
LTYPE
  5
15
330
5
100
AcDbSymbolTableRecord
100
AcDbLinetypeTableRecord
  2
ByLayer
 70
     0
  3

 72
    65
 73
     0
 40
0.0
  0
LTYPE
  5
16
330
5
100
AcDbSymbolTableRecord
100
AcDbLinetypeTableRecord
  2
Continuous
 70
     0
  3
Solid line
 72
    65
 73
     0
 40
0.0
  0
LTYPE
  5
3F
330
5
100
AcDbSymbolTableRecord
100
AcDbLinetypeTableRecord
  2
HIDDEN
 70
     0
  3
Hidden __ __ __ __ __ __ __ __ __ __ __ __ __ __
 72
    65
 73
     2
 40
0.075
 49
0.05
 74
     0
 49
-0.025
 74
     0
  0
LTYPE
  5
40
330
5
100
AcDbSymbolTableRecord
100
AcDbLinetypeTableRecord
  2
PHANTOM
 70
     0
  3
Phantom ______  __  __  ______  __  __  ______
 72
    65
 73
     6
 40
0.5
 49
0.25
 74
     0
 49
-0.05
 74
     0
 49
0.05
 74
     0
 49
-0.05
 74
     0
 49
0.05
 74
     0
 49
-0.05
 74
     0
  0
LTYPE
  5
41
330
5
100
AcDbSymbolTableRecord
100
AcDbLinetypeTableRecord
  2
CENTER
 70
     0
  3
Center ____ _ ____ _ ____ _ ____ _ ____ _ ____
 72
    65
 73
     4
 40
0.4
 49
0.25
 74
     0
 49
-0.05
 74
     0
 49
0.05
 74
     0
 49
-0.05
 74
     0
  0
LTYPE
  5
42
330
5
100
AcDbSymbolTableRecord
100
AcDbLinetypeTableRecord
  2
CENTERX2
 70
     0
  3
Center (2x) ________  __  ________  __  _____
 72
    65
 73
     4
 40
0.8
 49
0.5
 74
     0
 49
-0.1
 74
     0
 49
0.1
 74
     0
 49
-0.1
 74
     0
  0
LTYPE
  5
43
330
5
100
AcDbSymbolTableRecord
100
AcDbLinetypeTableRecord
  2
DOT2
 70
     0
  3
Dot (.5x) ........................................
 72
    65
 73
     2
 40
0.025
 49
0.0
 74
     0
 49
-0.025
 74
     0
  0
ENDTAB
  0
TABLE
  2
LAYER
  5
2
330
0
100
AcDbSymbolTable
 70
     9
  0
LAYER
  5
10
330
2
100
AcDbSymbolTableRecord
100
AcDbLayerTableRecord
  2
0
 70
     0
 62
     7
  6
Continuous
370
    -3
390
F
  0
LAYER
  5
44
330
2
100
AcDbSymbolTableRecord
100
AcDbLayerTableRecord
  2
FORMAT
 70
     0
 62
     7
  6
Continuous
370
    -3
390
F
  0
LAYER
  5
45
330
2
100
AcDbSymbolTableRecord
100
AcDbLayerTableRecord
  2
SLD-0
 70
     0
 62
   179
  6
Continuous
370
    -3
390
F
  0
LAYER
  5
46
330
2
100
AcDbSymbolTableRecord
100
AcDbLayerTableRecord
  2
OBJECTS
 70
     0
 62
     5
  6
Continuous
370
    -3
390
F
  0
LAYER
  5
47
330
2
100
AcDbSymbolTableRecord
100
AcDbLayerTableRecord
  2
DIMENSIONS
 70
     0
 62
     1
  6
Continuous
370
    -3
390
F
  0
LAYER
  5
48
330
2
100
AcDbSymbolTableRecord
100
AcDbLayerTableRecord
  2
NOTES
 70
     0
 62
     7
  6
Continuous
370
    -3
390
F
  0
LAYER
  5
49
330
2
100
AcDbSymbolTableRecord
100
AcDbLayerTableRecord
  2
IMAGES
 70
     0
 62
     7
  6
Continuous
370
    -3
390
F
  0
LAYER
  5
4A
330
2
100
AcDbSymbolTableRecord
100
AcDbLayerTableRecord
  2
CENTERLINES
 70
     0
 62
     7
  6
HIDDEN
370
    -3
390
F
  0
LAYER
  5
4B
330
2
100
AcDbSymbolTableRecord
100
AcDbLayerTableRecord
  2
BLOCKS
 70
     0
 62
    16
  6
Continuous
370
    -3
390
F
  0
ENDTAB
  0
TABLE
  2
STYLE
  5
3
330
0
100
AcDbSymbolTable
 70
     2
  0
STYLE
  5
11
330
3
100
AcDbSymbolTableRecord
100
AcDbTextStyleTableRecord
  2
Standard
 70
     0
 40
0.0
 41
1.0
 50
0.0
 71
     0
 42
0.2777777778
  3
txt
  4

  0
STYLE
  5
8D
330
3
100
AcDbSymbolTableRecord
100
AcDbTextStyleTableRecord
  2
SLDTEXTSTYLE0
 70
     0
 40
0.0
 41
0.605
 50
0.0
 71
     0
 42
0.2
  3
TXT
  4

  0
ENDTAB
  0
TABLE
  2
VIEW
  5
6
330
0
100
AcDbSymbolTable
 70
     0
  0
ENDTAB
  0
TABLE
  2
UCS
  5
7
330
0
100
AcDbSymbolTable
 70
     0
  0
ENDTAB
  0
TABLE
  2
APPID
  5
9
330
0
100
AcDbSymbolTable
 70
     1
  0
APPID
  5
12
330
9
100
AcDbSymbolTableRecord
100
AcDbRegAppTableRecord
  2
ACAD
 70
     0
  0
ENDTAB
  0
TABLE
  2
DIMSTYLE
  5
A
330
0
100
AcDbSymbolTable
 70
     6
100
AcDbDimStyleTable
  0
DIMSTYLE
105
27
330
A
100
AcDbSymbolTableRecord
100
AcDbDimStyleTableRecord
  2
Standard
 70
     0
178
     0
340
11
  0
DIMSTYLE
105
A3
102
{ACAD_REACTORS
330
A2
330
C9
102
}
330
A
100
AcDbSymbolTableRecord
100
AcDbDimStyleTableRecord
  2
SLDDIMSTYLE0
 70
     0
 41
0.262898763
 44
0.0
 45
0.000000001
 78
    12
 79
     3
140
0.262898763
147
0.0657246908
148
0.000000001
170
     1
171
     0
173
     1
178
     0
271
     6
272
     3
274
     0
276
     2
277
     5
284
    12
340
8D
  0
DIMSTYLE
105
B8
102
{ACAD_REACTORS
330
B7
102
}
330
A
100
AcDbSymbolTableRecord
100
AcDbDimStyleTableRecord
  2
SLDDIMSTYLE1
 70
     0
 41
0.262898763
 44
0.0
 45
0.000000001
 78
    12
 79
     3
140
0.262898763
147
0.0657246908
148
0.000000001
170
     1
171
     0
173
     1
178
     0
271
     3
272
     3
274
     0
276
     2
277
     5
284
    12
340
8D
  0
DIMSTYLE
105
DF
102
{ACAD_REACTORS
330
DE
330
12C
330
13E
330
150
102
}
330
A
100
AcDbSymbolTableRecord
100
AcDbDimStyleTableRecord
  2
SLDDIMSTYLE2
 70
     0
 41
0.262898763
 44
0.0
 45
0.000000001
 78
    12
 79
     3
140
0.262898763
141
0.0
147
0.0657246908
148
0.000000001
170
     1
171
     0
173
     1
178
     0
271
     3
272
     3
274
     0
276
     2
277
     5
279
     1
284
    12
340
8D
  0
DIMSTYLE
105
F3
102
{ACAD_REACTORS
330
F2
330
106
330
119
102
}
330
A
100
AcDbSymbolTableRecord
100
AcDbDimStyleTableRecord
  2
SLDDIMSTYLE3
 70
     0
 41
0.262898763
 44
0.0
 45
0.000000001
 78
    12
 79
     3
140
0.262898763
141
0.0
147
0.0657246908
148
0.000000001
170
     1
171
     0
173
     1
178
     0
271
     3
272
     3
274
     0
276
     2
277
     5
284
    12
340
8D
  0
DIMSTYLE
105
180
330
A
100
AcDbSymbolTableRecord
100
AcDbDimStyleTableRecord
  2
SLDDIMSTYLE4
 70
     0
 41
0.262898763
 44
0.0
 45
0.000000001
140
0.0
146
0.262898763
147
0.0
173
     1
178
     0
271
     0
272
     0
276
     2
277
     5
340
11
  0
ENDTAB
  0
TABLE
  2
BLOCK_RECORD
  5
1
330
0
100
AcDbSymbolTable
 70
    17
  0
BLOCK_RECORD
  5
1F
330
1
100
AcDbSymbolTableRecord
100
AcDbBlockTableRecord
  2
*Model_Space
340
22
  0
BLOCK_RECORD
  5
1B
330
1
100
AcDbSymbolTableRecord
100
AcDbBlockTableRecord
  2
*Paper_Space
340
1E
  0
BLOCK_RECORD
  5
23
330
1
100
AcDbSymbolTableRecord
100
AcDbBlockTableRecord
  2
*Paper_Space0
340
26
  0
BLOCK_RECORD
  5
4C
330
1
100
AcDbSymbolTableRecord
100
AcDbBlockTableRecord
  2
Block2
340
0
102
{BLKREFS
331
A1
102
}
  0
BLOCK_RECORD
  5
7E
330
1
100
AcDbSymbolTableRecord
100
AcDbBlockTableRecord
  2
SW_BLOCK_DIMENSION_0
340
0
102
{BLKREFS
331
92
102
}
  0
BLOCK_RECORD
  5
A4
330
1
100
AcDbSymbolTableRecord
100
AcDbBlockTableRecord
  2
_D
340
0
  0
BLOCK_RECORD
  5
B9
330
1
100
AcDbSymbolTableRecord
100
AcDbBlockTableRecord
  2
_D_1
340
0
  0
BLOCK_RECORD
  5
CA
330
1
100
AcDbSymbolTableRecord
100
AcDbBlockTableRecord
  2
_D_2
340
0
  0
BLOCK_RECORD
  5
E0
330
1
100
AcDbSymbolTableRecord
100
AcDbBlockTableRecord
  2
_D_3
340
0
  0
BLOCK_RECORD
  5
F4
330
1
100
AcDbSymbolTableRecord
100
AcDbBlockTableRecord
  2
_D_4
340
0
  0
BLOCK_RECORD
  5
107
330
1
100
AcDbSymbolTableRecord
100
AcDbBlockTableRecord
  2
_D_5
340
0
  0
BLOCK_RECORD
  5
11A
330
1
100
AcDbSymbolTableRecord
100
AcDbBlockTableRecord
  2
_D_6
340
0
  0
BLOCK_RECORD
  5
12D
330
1
100
AcDbSymbolTableRecord
100
AcDbBlockTableRecord
  2
_D_7
340
0
  0
BLOCK_RECORD
  5
13F
330
1
100
AcDbSymbolTableRecord
100
AcDbBlockTableRecord
  2
_D_8
340
0
  0
BLOCK_RECORD
  5
151
330
1
100
AcDbSymbolTableRecord
100
AcDbBlockTableRecord
  2
_D_9
340
0
  0
BLOCK_RECORD
  5
163
330
1
100
AcDbSymbolTableRecord
100
AcDbBlockTableRecord
  2
SW_NOTE_0
340
0
102
{BLKREFS
331
170
102
}
  0
BLOCK_RECORD
  5
171
330
1
100
AcDbSymbolTableRecord
100
AcDbBlockTableRecord
  2
SW_NOTE_1
340
0
102
{BLKREFS
331
176
102
}
  0
BLOCK_RECORD
  5
178
330
1
100
AcDbSymbolTableRecord
100
AcDbBlockTableRecord
  2
SW_NOTE_2
340
0
102
{BLKREFS
331
17F
102
}
  0
BLOCK_RECORD
  5
183
330
1
100
AcDbSymbolTableRecord
100
AcDbBlockTableRecord
  2
SW_NOTE_3
340
0
102
{BLKREFS
331
188
102
}
  0
ENDTAB
  0
ENDSEC
  0
SECTION
  2
BLOCKS
  0
BLOCK
  5
20
330
1F
100
AcDbEntity
  8
0
100
AcDbBlockBegin
  2
*Model_Space
 70
     0
 10
0.0
 20
0.0
 30
0.0
  3
*Model_Space
  1

  0
ENDBLK
  5
21
330
1F
100
AcDbEntity
  8
0
100
AcDbBlockEnd
  0
BLOCK
  5
1C
330
1B
100
AcDbEntity
 67
     1
  8
0
100
AcDbBlockBegin
  2
*Paper_Space
 70
     0
 10
0.0
 20
0.0
 30
0.0
  3
*Paper_Space
  1

  0
ENDBLK
  5
1D
330
1B
100
AcDbEntity
 67
     1
  8
0
100
AcDbBlockEnd
  0
BLOCK
  5
24
330
23
100
AcDbEntity
  8
0
100
AcDbBlockBegin
  2
*Paper_Space0
 70
     0
 10
0.0
 20
0.0
 30
0.0
  3
*Paper_Space0
  1

  0
ENDBLK
  5
25
330
23
100
AcDbEntity
  8
0
100
AcDbBlockEnd
  0
BLOCK
  5
4D
330
4C
100
AcDbEntity
  8
0
100
AcDbBlockBegin
  2
Block2
 70
     0
 10
0.0
 20
0.0
 30
0.0
  3
Block2
  1

  0
ARC
  5
4F
330
4C
100
AcDbEntity
  8
BLOCKS
100
AcDbCircle
 10
-1.4047720451
 20
-12.8442954347
 30
0.0
 40
0.2333367804802293
100
AcDbArc
 50
0.0
 51
90.0
  0
ARC
  5
50
330
4C
100
AcDbEntity
  8
BLOCKS
100
AcDbCircle
 10
-1.4394760169
 20
-12.1962194696
 30
0.0
 40
0.0041583245038854
100
AcDbArc
 50
0.0
 51
90.0
  0
ARC
  5
51
330
4C
100
AcDbEntity
  8
BLOCKS
100
AcDbCircle
 10
-2.2191634439
 20
-12.7398388164
 30
0.0
 40
0.0881257319589163
100
AcDbArc
 50
200.9822712638
 51
339.0177287362
  0
ARC
  5
52
330
4C
100
AcDbEntity
  8
BLOCKS
100
AcDbCircle
 10
-1.4047720451
 20
-12.8442954347
 30
0.0
 40
0.1874525384626438
100
AcDbArc
 50
0.0
 51
90.0
  0
LINE
  5
53
330
4C
100
AcDbEntity
  8
BLOCKS
100
AcDbLine
 10
-1.4394760169
 20
-12.1920611451
 30
0.0
 11
-3.01526606
 21
-12.1920611451
 31
0.0
  0
LINE
  5
54
330
4C
100
AcDbEntity
  8
BLOCKS
100
AcDbLine
 10
-2.9855824064
 20
-12.587244826
 30
0.0
 11
-1.4353176924
 21
-12.5884178222
 31
0.0
  0
LINE
  5
55
330
4C
100
AcDbEntity
  8
BLOCKS
100
AcDbLine
 10
-1.9656725284
 20
-12.6109586542
 30
0.0
 11
-1.4047720451
 21
-12.6109586542
 31
0.0
  0
LINE
  5
56
330
4C
100
AcDbEntity
  8
BLOCKS
100
AcDbLine
 10
-1.1714352646
 20
-12.8442954347
 30
0.0
 11
-1.1714352646
 21
-13.2310110215
 31
0.0
  0
LINE
  5
57
330
4C
100
AcDbEntity
  8
BLOCKS
100
AcDbLine
 10
-1.1714352646
 20
-13.2310110215
 30
0.0
 11
-1.2173195066
 21
-13.2310110215
 31
0.0
  0
LINE
  5
58
330
4C
100
AcDbEntity
  8
BLOCKS
100
AcDbLine
 10
-1.2173195066
 20
-13.2310110215
 30
0.0
 11
-1.2173195066
 21
-12.8442954347
 31
0.0
  0
LINE
  5
59
330
4C
100
AcDbEntity
  8
BLOCKS
100
AcDbLine
 10
-1.4047720451
 20
-12.6568428962
 30
0.0
 11
-1.9656725284
 21
-12.6568428962
 31
0.0
  0
LINE
  5
5A
330
4C
100
AcDbEntity
  8
BLOCKS
100
AcDbLine
 10
-1.9656725284
 20
-12.6568428962
 30
0.0
 11
-1.9656725284
 21
-12.6109586542
 31
0.0
  0
LINE
  5
5B
330
4C
100
AcDbEntity
  8
BLOCKS
100
AcDbLine
 10
-1.5885264144
 20
-12.7093957625
 30
0.0
 11
-1.5358283025
 21
-12.6587686221
 31
0.0
  0
LINE
  5
5C
330
4C
100
AcDbEntity
  8
BLOCKS
100
AcDbLine
 10
-1.5358283025
 20
-12.6587686221
 30
0.0
 11
-1.4932052497
 21
-12.7031352284
 31
0.0
  0
LINE
  5
5D
330
4C
100
AcDbEntity
  8
BLOCKS
100
AcDbLine
 10
-1.4932052497
 20
-12.7031352284
 30
0.0
 11
-1.562140852
 21
-12.7693617458
 31
0.0
  0
LINE
  5
5E
330
4C
100
AcDbEntity
  8
BLOCKS
100
AcDbLine
 10
-2.8296332645
 20
-12.6419825586
 30
0.0
 11
-2.8821446813
 21
-12.5873230914
 31
0.0
  0
LINE
  5
5F
330
4C
100
AcDbEntity
  8
BLOCKS
100
AcDbLine
 10
-2.8821446813
 20
-12.5873230914
 30
0.0
 11
-2.9245601437
 21
-12.6280716779
 31
0.0
  0
LINE
  5
60
330
4C
100
AcDbEntity
  8
BLOCKS
100
AcDbLine
 10
-2.9245601437
 20
-12.6280716779
 30
0.0
 11
-2.8624774729
 21
-12.692693924
 31
0.0
  0
LINE
  5
61
330
4C
100
AcDbEntity
  8
BLOCKS
100
AcDbLine
 10
-2.8296332645
 20
-12.6419825586
 30
0.0
 11
-1.5885264144
 21
-12.7093957625
 31
0.0
  0
LINE
  5
62
330
4C
100
AcDbEntity
  8
BLOCKS
100
AcDbLine
 10
-1.562140852
 20
-12.7693617458
 30
0.0
 11
-2.8624774729
 21
-12.692693924
 31
0.0
  0
LINE
  5
63
330
4C
100
AcDbEntity
  8
BLOCKS
100
AcDbLine
 10
-2.1393972724
 20
-12.6794741087
 30
0.0
 11
-2.1393972724
 21
-12.7353267185
 31
0.0
  0
LINE
  5
64
330
4C
100
AcDbEntity
  8
BLOCKS
100
AcDbLine
 10
-2.2940106407
 20
-12.671075974
 30
0.0
 11
-2.2940106407
 21
-12.7262107174
 31
0.0
  0
LINE
  5
65
330
4C
100
AcDbEntity
  8
BLOCKS
100
AcDbLine
 10
-2.3014456705
 20
-12.7713947956
 30
0.0
 11
-2.1368812173
 21
-12.7713947956
 31
0.0
  0
LINE
  5
66
330
4C
100
AcDbEntity
  8
BLOCKS
100
AcDbLine
 10
-2.2566740506
 20
-12.381095059
 30
0.0
 11
-2.2566740506
 21
-12.7713947956
 31
0.0
  0
LINE
  5
67
330
4C
100
AcDbEntity
  8
BLOCKS
100
AcDbLine
 10
-2.1797821788
 20
-12.381095059
 30
0.0
 11
-2.1797821788
 21
-12.7713947956
 31
0.0
  0
LINE
  5
68
330
4C
100
AcDbEntity
  8
BLOCKS
100
AcDbLine
 10
-2.3194491289
 20
-12.7273697282
 30
0.0
 11
-2.1070425499
 21
-12.739893216
 31
0.0
  0
LINE
  5
69
330
4C
100
AcDbEntity
  8
BLOCKS
100
AcDbLine
 10
-2.2566740506
 20
-12.381095059
 30
0.0
 11
-2.2187090708
 21
-12.325905678
 31
0.0
  0
LINE
  5
6A
330
4C
100
AcDbEntity
  8
BLOCKS
100
AcDbLine
 10
-2.2187090708
 20
-12.325905678
 30
0.0
 11
-2.1797821788
 21
-12.381095059
 31
0.0
  0
LINE
  5
6B
330
4C
100
AcDbEntity
  8
BLOCKS
100
AcDbLine
 10
-2.108936665
 20
-12.7720186533
 30
0.0
 11
-2.3213432441
 21
-12.7594951655
 31
0.0
  0
LINE
  5
6C
330
4C
100
AcDbEntity
  8
BLOCKS
100
AcDbLine
 10
-2.1070425499
 20
-12.739893216
 30
0.0
 11
-2.108936665
 21
-12.7720186533
 31
0.0
  0
LINE
  5
6D
330
4C
100
AcDbEntity
  8
BLOCKS
100
AcDbLine
 10
-2.3194491289
 20
-12.7273697282
 30
0.0
 11
-2.3213432441
 21
-12.7594951655
 31
0.0
  0
LINE
  5
6E
330
4C
100
AcDbEntity
  8
BLOCKS
100
AcDbLine
 10
-2.1534117467
 20
-12.5878744817
 30
0.0
 11
-2.1534117467
 21
-12.3074165013
 31
0.0
  0
LINE
  5
6F
330
4C
100
AcDbEntity
  8
BLOCKS
100
AcDbLine
 10
-2.1534117467
 20
-12.3074165013
 30
0.0
 11
-2.2799487024
 21
-12.3074165013
 31
0.0
  0
LINE
  5
70
330
4C
100
AcDbEntity
  8
BLOCKS
100
AcDbLine
 10
-2.2799487024
 20
-12.3074165013
 30
0.0
 11
-2.2799487024
 21
-12.5877787385
 31
0.0
  0
LINE
  5
71
330
4C
100
AcDbEntity
  8
BLOCKS
  6
Continuous
100
AcDbLine
 10
-1.4353176924
 20
-12.5884178222
 30
0.0
 11
-1.4353176924
 21
-12.1962194696
 31
0.0
  0
LINE
  5
72
330
4C
100
AcDbEntity
  8
BLOCKS
100
AcDbLine
 10
-1.9656725284
 20
-12.5880165332
 30
0.0
 11
-1.9656725284
 21
-12.6339007752
 31
0.0
  0
LINE
  5
73
330
4C
100
AcDbEntity
  8
BLOCKS
100
AcDbLine
 10
-1.4353176924
 20
-12.5884178222
 30
0.0
 11
-1.4200334992
 21
-12.6109586542
 31
0.0
  0
SPLINE
  5
74
330
4C
100
AcDbEntity
  8
BLOCKS
100
AcDbSpline
210
0.0
220
0.0
230
1.0
 70
     8
 71
     3
 72
     9
 73
     5
 74
     0
 42
0.00000001
 43
0.00000001
 12
1.0
 22
0.0
 32
0.0
 13
1.0
 23
0.0
 33
0.0
 40
0.0
 40
0.0
 40
0.0
 40
0.0
 40
0.5928291688347104
 40
1.0
 40
1.0
 40
1.0
 40
1.0
 10
-2.985582406350157
 20
-12.58724482604875
 30
0.0
 10
-3.030158058563441
 20
-12.50141038487578
 30
0.0
 10
-2.950675096239938
 20
-12.38218687093916
 30
0.0
 10
-2.968787917689462
 20
-12.22793862570682
 30
0.0
 10
-3.015266060000032
 20
-12.19206114512515
 30
0.0
  0
HATCH
  5
75
330
4C
100
AcDbEntity
  8
BLOCKS
 62
    16
100
AcDbHatch
 10
0.0
 20
0.0
 30
0.0
210
0.0
220
0.0
230
1.0
  2
ANSI36
 70
     0
 71
     0
 91
        1
 92
        0
 93
       10
 72
     4
 94
        3
 73
     1
 74
     0
 95
        9
 96
        5
 40
0.0
 40
0.0
 40
0.0
 40
0.0
 40
0.4071708311652896
 40
1.0
 40
1.0
 40
1.0
 40
1.0
 10
-3.015266060000032
 20
-12.19206114512515
 42
1.0
 10
-2.968787917689462
 20
-12.22793862570682
 42
1.0
 10
-2.950675096239938
 20
-12.38218687093916
 42
1.0
 10
-3.030158058563441
 20
-12.50141038487578
 42
1.0
 10
-2.985582406350157
 20
-12.58724482604875
 42
1.0
 72
     1
 10
-2.985582406350157
 20
-12.58724482604875
 11
-2.279948702443812
 21
-12.58777873850265
 72
     1
 10
-2.279948702443812
 20
-12.58777873850265
 11
-2.279948702443812
 21
-12.30741650130867
 72
     1
 10
-2.279948702443812
 20
-12.30741650130867
 11
-2.153411746731021
 21
-12.30741650130867
 72
     1
 10
-2.153411746731021
 20
-12.30741650130867
 11
-2.153411746731021
 21
-12.5878744817419
 72
     1
 10
-2.153411746731021
 20
-12.5878744817419
 11
-1.965672528406843
 21
-12.58801653321449
 72
     1
 10
-1.965672528406843
 20
-12.58801653321449
 11
-1.435317692358862
 21
-12.5884178222266
 72
     1
 10
-1.435317692358862
 20
-12.5884178222266
 11
-1.435317692358862
 21
-12.19621946962904
 72
     2
 10
-1.439476016862747
 20
-12.19621946962904
 40
0.0041583245038848
 50
0.0
 51
90.0
 73
     1
 72
     1
 10
-1.439476016862747
 20
-12.19206114512515
 11
-3.015266060000032
 21
-12.19206114512515
 97
        0
 75
     0
 76
     1
 52
0.0
 41
0.5
 77
     0
 78
     1
 53
45.0
 43
0.0
 44
0.0
 45
0.0331456303681194
 46
0.1215339780164378
 79
     4
 49
0.15625
 49
-0.03125
 49
0.0
 49
-0.03125
 98
        1
 10
0.0
 20
0.0
  0
HATCH
  5
76
330
4C
100
AcDbEntity
  8
BLOCKS
 62
    16
100
AcDbHatch
 10
0.0
 20
0.0
 30
0.0
210
0.0
220
0.0
230
1.0
  2
ANSI32
 70
     0
 71
     0
 91
        1
 92
        0
 93
        5
 72
     1
 10
-2.179782178789117
 20
-12.38109505902804
 11
-2.218709070778683
 21
-12.32590567801565
 72
     1
 10
-2.218709070778683
 20
-12.32590567801565
 11
-2.256674050591661
 21
-12.38109505902804
 72
     1
 10
-2.256674050591661
 20
-12.38109505902804
 11
-2.256674050591661
 21
-12.58779634909355
 72
     1
 10
-2.256674050591661
 20
-12.58779634909355
 11
-2.179782178789117
 21
-12.58785452875211
 72
     1
 10
-2.179782178789117
 20
-12.58785452875211
 11
-2.179782178789117
 21
-12.38109505902804
 97
        0
 75
     0
 76
     1
 52
0.0
 41
0.1666666667
 77
     0
 78
     2
 53
45.0
 43
0.0
 44
0.0
 45
-0.0441941738241592
 46
0.0441941738241592
 79
     0
 53
45.0
 43
0.0294627825
 44
0.0
 45
-0.0441941738241592
 46
0.0441941738241592
 79
     0
 98
        1
 10
0.0
 20
0.0
  0
HATCH
  5
77
330
4C
100
AcDbEntity
  8
BLOCKS
 62
    16
100
AcDbHatch
 10
0.0
 20
0.0
 30
0.0
210
0.0
220
0.0
230
1.0
  2
ANSI32
 70
     0
 71
     0
 91
        1
 92
        0
 93
        4
 72
     1
 10
-2.179782178789117
 20
-12.67728052166976
 11
-2.179782178789117
 21
-12.58785452875211
 72
     1
 10
-2.179782178789117
 20
-12.58785452875211
 11
-2.256674050591661
 21
-12.58779634909355
 72
     1
 10
-2.256674050591661
 20
-12.58779634909355
 11
-2.256674050591661
 21
-12.67310398567544
 72
     1
 10
-2.256674050591661
 20
-12.67310398567544
 11
-2.179782178789117
 21
-12.67728052166976
 97
        0
 75
     0
 76
     1
 52
0.0
 41
0.1666666667
 77
     0
 78
     2
 53
45.0
 43
0.0
 44
0.0
 45
-0.0441941738241592
 46
0.0441941738241592
 79
     0
 53
45.0
 43
0.0294627825
 44
0.0
 45
-0.0441941738241592
 46
0.0441941738241592
 79
     0
 98
        1
 10
0.0
 20
0.0
  0
HATCH
  5
78
330
4C
100
AcDbEntity
  8
BLOCKS
 62
    16
100
AcDbHatch
 10
0.0
 20
0.0
 30
0.0
210
0.0
220
0.0
230
1.0
  2
ANSI32
 70
     0
 71
     0
 91
        1
 92
        0
 93
        4
 72
     1
 10
-2.179782178789117
 20
-12.73294562524584
 11
-2.179782178789117
 21
-12.67728052166976
 72
     1
 10
-2.179782178789117
 20
-12.67728052166976
 11
-2.256674050591661
 21
-12.67310398567544
 72
     1
 10
-2.256674050591661
 20
-12.67310398567544
 11
-2.256674050591661
 21
-12.72841208198663
 72
     1
 10
-2.256674050591661
 20
-12.72841208198663
 11
-2.179782178789117
 21
-12.73294562524584
 97
        0
 75
     0
 76
     1
 52
0.0
 41
0.1666666667
 77
     0
 78
     2
 53
45.0
 43
0.0
 44
0.0
 45
-0.0441941738241592
 46
0.0441941738241592
 79
     0
 53
45.0
 43
0.0294627825
 44
0.0
 45
-0.0441941738241592
 46
0.0441941738241592
 79
     0
 98
        1
 10
0.0
 20
0.0
  0
HATCH
  5
79
330
4C
100
AcDbEntity
  8
BLOCKS
 62
    16
100
AcDbHatch
 10
0.0
 20
0.0
 30
0.0
210
0.0
220
0.0
230
1.0
  2
ANSI32
 70
     0
 71
     0
 91
        1
 92
        0
 93
        4
 72
     1
 10
-2.256674050591661
 20
-12.76330805989465
 11
-2.179782178789118
 21
-12.76784160315386
 72
     1
 10
-2.179782178789118
 20
-12.76784160315386
 11
-2.179782178789118
 21
-12.73560448884958
 72
     1
 10
-2.179782178789118
 20
-12.73560448884958
 11
-2.256674050591661
 21
-12.73107094559037
 72
     1
 10
-2.256674050591661
 20
-12.73107094559037
 11
-2.256674050591661
 21
-12.76330805989465
 97
        0
 75
     0
 76
     1
 52
0.0
 41
0.1666666667
 77
     0
 78
     2
 53
45.0
 43
0.0
 44
0.0
 45
-0.0441941738241592
 46
0.0441941738241592
 79
     0
 53
45.0
 43
0.0294627825
 44
0.0
 45
-0.0441941738241592
 46
0.0441941738241592
 79
     0
 98
        1
 10
0.0
 20
0.0
  0
HATCH
  5
7A
330
4C
100
AcDbEntity
  8
BLOCKS
 62
    16
100
AcDbHatch
 10
0.0
 20
0.0
 30
0.0
210
0.0
220
0.0
230
1.0
  2
ANSI32
 70
     0
 71
     0
 91
        1
 92
        0
 93
        4
 72
     1
 10
-2.256674050591661
 20
-12.73107094559037
 11
-2.319449128927512
 21
-12.72736972819816
 72
     1
 10
-2.319449128927512
 20
-12.72736972819816
 11
-2.321343244083758
 21
-12.75949516550983
 72
     1
 10
-2.321343244083758
 20
-12.75949516550983
 11
-2.256674050591661
 21
-12.76330805989465
 72
     1
 10
-2.256674050591661
 20
-12.76330805989465
 11
-2.256674050591661
 21
-12.73107094559037
 97
        0
 75
     0
 76
     1
 52
0.0
 41
0.1666666667
 77
     0
 78
     2
 53
45.0
 43
0.0
 44
0.0
 45
-0.0441941738241592
 46
0.0441941738241592
 79
     0
 53
45.0
 43
0.0294627825
 44
0.0
 45
-0.0441941738241592
 46
0.0441941738241592
 79
     0
 98
        1
 10
0.0
 20
0.0
  0
HATCH
  5
7B
330
4C
100
AcDbEntity
  8
BLOCKS
 62
    16
100
AcDbHatch
 10
0.0
 20
0.0
 30
0.0
210
0.0
220
0.0
230
1.0
  2
ANSI32
 70
     0
 71
     0
 91
        1
 92
        0
 93
        4
 72
     1
 10
-2.108936665011524
 20
-12.77201865326204
 11
-2.107042549855277
 21
-12.73989321595037
 72
     1
 10
-2.107042549855277
 20
-12.73989321595037
 11
-2.179782178789118
 21
-12.73560448884958
 72
     1
 10
-2.179782178789118
 20
-12.73560448884958
 11
-2.179782178789118
 21
-12.76784160315386
 72
     1
 10
-2.179782178789118
 20
-12.76784160315386
 11
-2.108936665011524
 21
-12.77201865326204
 97
        0
 75
     0
 76
     1
 52
0.0
 41
0.1666666667
 77
     0
 78
     2
 53
45.0
 43
0.0
 44
0.0
 45
-0.0441941738241592
 46
0.0441941738241592
 79
     0
 53
45.0
 43
0.0294627825
 44
0.0
 45
-0.0441941738241592
 46
0.0441941738241592
 79
     0
 98
        1
 10
0.0
 20
0.0
  0
HATCH
  5
7C
330
4C
100
AcDbEntity
  8
BLOCKS
 62
    16
100
AcDbHatch
 10
0.0
 20
0.0
 30
0.0
210
0.0
220
0.0
230
1.0
  2
ANSI32
 70
     0
 71
     0
 91
        1
 92
        0
 93
        4
 72
     1
 10
-2.256674050591661
 20
-12.7713947955757
 11
-2.301445670477764
 21
-12.7713947955757
 72
     2
 10
-2.219163443908178
 20
-12.73983881636341
 40
0.0881257319589163
 50
200.9822712637967
 51
339.0177287362049
 73
     1
 72
     1
 10
-2.136881217338592
 20
-12.7713947955757
 11
-2.179782178789117
 21
-12.7713947955757
 72
     1
 10
-2.179782178789117
 20
-12.7713947955757
 11
-2.256674050591661
 21
-12.7713947955757
 97
        0
 75
     0
 76
     1
 52
0.0
 41
0.1666666667
 77
     0
 78
     2
 53
45.0
 43
0.0
 44
0.0
 45
-0.0441941738241592
 46
0.0441941738241592
 79
     0
 53
45.0
 43
0.0294627825
 44
0.0
 45
-0.0441941738241592
 46
0.0441941738241592
 79
     0
 98
        1
 10
0.0
 20
0.0
  0
HATCH
  5
7D
330
4C
100
AcDbEntity
  8
BLOCKS
 62
    16
100
AcDbHatch
 10
0.0
 20
0.0
 30
0.0
210
0.0
220
0.0
230
1.0
  2
SOLID
 70
     1
 71
     0
 91
        1
 92
        0
 93
        4
 72
     1
 10
-1.420033499233286
 20
-12.61095865422328
 11
-1.435317692358862
 21
-12.5884178222266
 72
     1
 10
-1.435317692358862
 20
-12.5884178222266
 11
-1.965672528406843
 21
-12.58801653321449
 72
     1
 10
-1.965672528406843
 20
-12.58801653321449
 11
-1.965672528406843
 21
-12.61095865422328
 72
     1
 10
-1.965672528406843
 20
-12.61095865422328
 11
-1.420033499233286
 21
-12.61095865422328
 97
        0
 75
     0
 76
     1
 98
        1
 10
0.0
 20
0.0
  0
INSERT
  5
92
330
4C
100
AcDbEntity
  8
BLOCKS
100
AcDbBlockReference
  2
SW_BLOCK_DIMENSION_0
 10
-1.9691470105
 20
-11.8809041343
 30
0.0
  0
ENDBLK
  5
4E
330
4C
100
AcDbEntity
  8
0
100
AcDbBlockEnd
  0
BLOCK
  5
7F
330
7E
100
AcDbEntity
  8
0
100
AcDbBlockBegin
  2
SW_BLOCK_DIMENSION_0
 70
     0
 10
0.0
 20
0.0
 30
0.0
  3
SW_BLOCK_DIMENSION_0
  1

  0
SOLID
  5
81
330
7E
100
AcDbEntity
  8
BLOCKS
 62
     0
100
AcDbTrace
 10
0.7977117459
 20
-0.0231481578
 30
0.0
 11
0.8988266548
 21
-0.0387042976
 31
0.0
 12
0.8988266548
 22
-0.007592018
 32
0.0
 13
0.8988266548
 23
-0.007592018
 33
0.0
  0
SOLID
  5
82
330
7E
100
AcDbEntity
  8
BLOCKS
 62
     0
100
AcDbTrace
 10
0.5338293182
 20
-0.0231481578
 30
0.0
 11
0.4327144093
 21
-0.007592018
 31
0.0
 12
0.4327144093
 22
-0.0387042976
 32
0.0
 13
0.4327144093
 23
-0.0387042976
 33
0.0
  0
LINE
  5
83
330
7E
100
AcDbEntity
  8
BLOCKS
 62
     0
100
AcDbLine
 10
0.079089508
 20
-0.0231481486
 30
0.0
 11
0.0559413594
 21
-0.0231481486
 31
0.0
  0
LINE
  5
84
330
7E
100
AcDbEntity
  8
BLOCKS
 62
     0
100
AcDbLine
 10
0.0559413594
 20
-0.0231481486
 30
0.0
 11
0.0559413594
 21
-0.1784336481
 31
0.0
  0
LINE
  5
85
330
7E
100
AcDbEntity
  8
BLOCKS
 62
     0
100
AcDbLine
 10
0.0559413594
 20
-0.1784336481
 30
0.0
 11
0.079089508
 21
-0.1784336481
 31
0.0
  0
LINE
  5
86
330
7E
100
AcDbEntity
  8
BLOCKS
 62
     0
100
AcDbLine
 10
0.2141203731
 20
-0.0231481486
 30
0.0
 11
0.2372685218
 21
-0.0231481486
 31
0.0
  0
LINE
  5
87
330
7E
100
AcDbEntity
  8
BLOCKS
 62
     0
100
AcDbLine
 10
0.2372685218
 20
-0.0231481486
 30
0.0
 11
0.2372685218
 21
-0.1784336481
 31
0.0
  0
LINE
  5
88
330
7E
100
AcDbEntity
  8
BLOCKS
 62
     0
100
AcDbLine
 10
0.2372685218
 20
-0.1784336481
 30
0.0
 11
0.2141203731
 21
-0.1784336481
 31
0.0
  0
LINE
  5
89
330
7E
100
AcDbEntity
  8
BLOCKS
 62
     0
100
AcDbLine
 10
0.7977117459
 20
-0.9133913004
 30
0.0
 11
0.7977117459
 21
0.1018518422
 31
0.0
  0
LINE
  5
8A
330
7E
100
AcDbEntity
  8
BLOCKS
 62
     0
100
AcDbLine
 10
0.5338293182
 20
-0.2653153354
 30
0.0
 11
0.5338293182
 21
0.1018518422
 31
0.0
  0
LINE
  5
8B
330
7E
100
AcDbEntity
  8
BLOCKS
 62
     0
100
AcDbLine
 10
0.7977117459
 20
-0.0231481578
 30
0.0
 11
0.9921634937
 21
-0.0231481578
 31
0.0
  0
LINE
  5
8C
330
7E
100
AcDbEntity
  8
BLOCKS
 62
     0
100
AcDbLine
 10
0.5338293182
 20
-0.0231481578
 30
0.0
 11
0.2937519314
 21
-0.0231481578
 31
0.0
  0
MTEXT
  5
8E
330
7E
100
AcDbEntity
  8
BLOCKS
 62
     0
100
AcDbMText
 10
0.0390625
 20
0.1342778896
 30
0.0039370079
 40
0.1041666667
 41
0.0
 71
     1
 72
     1
  1

  7
SLDTEXTSTYLE0
 73
     1
 44
1.0
  0
MTEXT
  5
8F
330
7E
100
AcDbEntity
  8
BLOCKS
 62
     0
100
AcDbMText
 10
0.0501543148
 20
0.1342778896
 30
0.0039370079
 40
0.1041666667
 41
0.0
 71
     1
 72
     1
  1
1/8
  7
SLDTEXTSTYLE0
 73
     1
 44
1.0
  0
MTEXT
  5
90
330
7E
100
AcDbEntity
  8
BLOCKS
 62
     0
100
AcDbMText
 10
0.1080246921
 20
-0.0441557517
 30
0.0039370079
 40
0.1041666667
 41
0.0
 71
     1
 72
     1
  1
3
  7
SLDTEXTSTYLE0
 73
     1
 44
1.0
  0
MTEXT
  5
91
330
7E
100
AcDbEntity
  8
BLOCKS
 62
     0
100
AcDbMText
 10
0.2936921418
 20
0.1342778896
 30
0.0039370079
 40
0.1041666667
 41
0.0
 71
     1
 72
     1
  1

  7
SLDTEXTSTYLE0
 73
     1
 44
1.0
  0
ENDBLK
  5
80
330
7E
100
AcDbEntity
  8
0
100
AcDbBlockEnd
  0
BLOCK
  5
A5
330
A4
100
AcDbEntity
  8
0
100
AcDbBlockBegin
  2
_D
 70
     0
 10
0.0
 20
0.0
 30
0.0
  3
_D
  1

  0
SOLID
  5
A7
330
A4
100
AcDbEntity
  8
DIMENSIONS
100
AcDbTrace
 10
1.6087852748
 20
5.6902897514
 30
0.0
 11
1.8716840381
 21
5.6498437901
 31
0.0
 12
1.8716840375
 22
5.7307357172
 32
0.0
 13
1.8716840375
 23
5.7307357172
 33
0.0
  0
SOLID
  5
A8
330
A4
100
AcDbEntity
  8
DIMENSIONS
100
AcDbTrace
 10
32.1103917382
 20
5.6902900076
 30
0.0
 11
31.8474929749
 21
5.7307359689
 31
0.0
 12
31.8474929756
 22
5.6498440418
 32
0.0
 13
31.8474929756
 23
5.6498440418
 33
0.0
  0
LINE
  5
A9
330
A4
100
AcDbEntity
  8
DIMENSIONS
100
AcDbLine
 10
16.4466686119
 20
5.9792037843
 30
0.0
 11
16.7240219929
 21
5.9792037843
 31
0.0
  0
LINE
  5
AA
330
A4
100
AcDbEntity
  8
DIMENSIONS
100
AcDbLine
 10
16.0727681637
 20
5.5272130566
 30
0.0
 11
16.0125829778
 21
5.5272130566
 31
0.0
  0
LINE
  5
AB
330
A4
100
AcDbEntity
  8
DIMENSIONS
100
AcDbLine
 10
16.0125829778
 20
5.5272130566
 30
0.0
 11
16.0125829778
 21
5.1234707873
 31
0.0
  0
LINE
  5
AC
330
A4
100
AcDbEntity
  8
DIMENSIONS
100
AcDbLine
 10
16.0125829778
 20
5.1234707873
 30
0.0
 11
16.0727681637
 21
5.1234707873
 31
0.0
  0
LINE
  5
AD
330
A4
100
AcDbEntity
  8
DIMENSIONS
100
AcDbLine
 10
16.8250829496
 20
5.5272130566
 30
0.0
 11
16.8852681356
 21
5.5272130566
 31
0.0
  0
LINE
  5
AE
330
A4
100
AcDbEntity
  8
DIMENSIONS
100
AcDbLine
 10
16.8852681356
 20
5.5272130566
 30
0.0
 11
16.8852681356
 21
5.1234707873
 31
0.0
  0
LINE
  5
AF
330
A4
100
AcDbEntity
  8
DIMENSIONS
100
AcDbLine
 10
16.8852681356
 20
5.1234707873
 30
0.0
 11
16.8250829496
 21
5.1234707873
 31
0.0
  0
LINE
  5
B0
330
A4
100
AcDbEntity
  8
DIMENSIONS
100
AcDbLine
 10
1.6087852748
 20
5.6902897514
 30
0.0
 11
15.907229268
 21
5.6902898715
 31
0.0
  0
LINE
  5
B1
330
A4
100
AcDbEntity
  8
DIMENSIONS
100
AcDbLine
 10
32.1103917382
 20
5.6902900076
 30
0.0
 11
16.9906218087
 21
5.6902898806
 31
0.0
  0
MTEXT
  5
B2
330
A4
100
AcDbEntity
  8
DIMENSIONS
100
AcDbMText
 10
16.0070659961
 20
6.1207939496
 30
0.0039370079
 40
0.2708333333
 41
0.0
 71
     1
 72
     1
  1
30
  7
SLDTEXTSTYLE0
 73
     1
 44
1.0
  0
MTEXT
  5
B3
330
A4
100
AcDbEntity
  8
DIMENSIONS
100
AcDbMText
 10
16.4850366637
 20
6.3053054698
 30
0.0039370079
 40
0.2708333333
 41
0.0
 71
     1
 72
     1
  1
1
  7
SLDTEXTSTYLE0
 73
     1
 44
1.0
  0
MTEXT
  5
B4
330
A4
100
AcDbEntity
  8
DIMENSIONS
100
AcDbMText
 10
16.4850366637
 20
5.9365207325
 30
0.0039370079
 40
0.2708333333
 41
0.0
 71
     1
 72
     1
  1
2
  7
SLDTEXTSTYLE0
 73
     1
 44
1.0
  0
MTEXT
  5
B5
330
A4
100
AcDbEntity
  8
DIMENSIONS
100
AcDbMText
 10
16.7623900172
 20
6.1207939496
 30
0.0039370079
 40
0.2708333333
 41
0.0
 71
     1
 72
     1
  1
"
  7
SLDTEXTSTYLE0
 73
     1
 44
1.0
  0
MTEXT
  5
B6
330
A4
100
AcDbEntity
  8
DIMENSIONS
100
AcDbMText
 10
16.1479996497
 20
5.472593291
 30
0.0039370079
 40
0.2708333333
 41
0.0
 71
     1
 72
     1
  1
775
  7
SLDTEXTSTYLE0
 73
     1
 44
1.0
  0
ENDBLK
  5
A6
330
A4
100
AcDbEntity
  8
0
100
AcDbBlockEnd
  0
BLOCK
  5
BA
330
B9
100
AcDbEntity
  8
0
100
AcDbBlockBegin
  2
_D_1
 70
     0
 10
0.0
 20
0.0
 30
0.0
  3
_D_1
  1

  0
SOLID
  5
BC
330
B9
100
AcDbEntity
  8
DIMENSIONS
100
AcDbTrace
 10
8.2805821236
 20
20.1215080596
 30
0.0
 11
8.2401361611
 21
19.8586092964
 31
0.0
 12
8.3210280882
 22
19.8586092968
 32
0.0
 13
8.3210280882
 23
19.8586092968
 33
0.0
  0
SOLID
  5
BD
330
B9
100
AcDbEntity
  8
DIMENSIONS
100
AcDbTrace
 10
8.2805822003
 20
2.1199011317
 30
0.0
 11
8.3210281627
 21
2.3827998949
 31
0.0
 12
8.2401362356
 22
2.3827998946
 32
0.0
 13
8.2401362356
 23
2.3827998946
 33
0.0
  0
LINE
  5
BE
330
B9
100
AcDbEntity
  8
DIMENSIONS
100
AcDbLine
 10
7.9044247819
 20
12.418291584
 30
0.0
 11
7.8442395959
 21
12.418291584
 31
0.0
  0
LINE
  5
BF
330
B9
100
AcDbEntity
  8
DIMENSIONS
100
AcDbLine
 10
7.8442395959
 20
12.418291584
 30
0.0
 11
7.8442395959
 21
12.0145493148
 31
0.0
  0
LINE
  5
C0
330
B9
100
AcDbEntity
  8
DIMENSIONS
100
AcDbLine
 10
7.8442395959
 20
12.0145493148
 30
0.0
 11
7.9044247819
 21
12.0145493148
 31
0.0
  0
LINE
  5
C1
330
B9
100
AcDbEntity
  8
DIMENSIONS
100
AcDbLine
 10
8.6567395677
 20
12.418291584
 30
0.0
 11
8.7169247537
 21
12.418291584
 31
0.0
  0
LINE
  5
C2
330
B9
100
AcDbEntity
  8
DIMENSIONS
100
AcDbLine
 10
8.7169247537
 20
12.418291584
 30
0.0
 11
8.7169247537
 21
12.0145493148
 31
0.0
  0
LINE
  5
C3
330
B9
100
AcDbEntity
  8
DIMENSIONS
100
AcDbLine
 10
8.7169247537
 20
12.0145493148
 30
0.0
 11
8.6567395677
 21
12.0145493148
 31
0.0
  0
LINE
  5
C4
330
B9
100
AcDbEntity
  8
DIMENSIONS
100
AcDbLine
 10
7.9613158793
 20
20.1215080583
 30
0.0
 11
8.4055821236
 21
20.1215080602
 31
0.0
  0
LINE
  5
C5
330
B9
100
AcDbEntity
  8
DIMENSIONS
100
AcDbLine
 10
8.2805821236
 20
20.1215080596
 30
0.0
 11
8.2805821546
 21
12.8395878722
 31
0.0
  0
LINE
  5
C6
330
B9
100
AcDbEntity
  8
DIMENSIONS
100
AcDbLine
 10
8.2805822003
 20
2.1199011317
 30
0.0
 11
8.2805821584
 21
11.9543641517
 31
0.0
  0
MTEXT
  5
C7
330
B9
100
AcDbEntity
  8
DIMENSIONS
100
AcDbMText
 10
8.0157673473
 20
12.8275992874
 30
0.0039370079
 40
0.2708333333
 41
0.0
 71
     1
 72
     1
  1
18"
  7
SLDTEXTSTYLE0
 73
     1
 44
1.0
  0
MTEXT
  5
C8
330
B9
100
AcDbEntity
  8
DIMENSIONS
100
AcDbMText
 10
7.9796562678
 20
12.3636718184
 30
0.0039370079
 40
0.2708333333
 41
0.0
 71
     1
 72
     1
  1
457
  7
SLDTEXTSTYLE0
 73
     1
 44
1.0
  0
ENDBLK
  5
BB
330
B9
100
AcDbEntity
  8
0
100
AcDbBlockEnd
  0
BLOCK
  5
CB
330
CA
100
AcDbEntity
  8
0
100
AcDbBlockBegin
  2
_D_2
 70
     0
 10
0.0
 20
0.0
 30
0.0
  3
_D_2
  1

  0
SOLID
  5
CD
330
CA
100
AcDbEntity
  8
DIMENSIONS
100
AcDbTrace
 10
28.201896569
 20
19.156941133
 30
0.0
 11
28.1614506066
 21
18.8940423698
 31
0.0
 12
28.2423425336
 22
18.8940423702
 32
0.0
 13
28.2423425336
 23
18.8940423702
 33
0.0
  0
SOLID
  5
CE
330
CA
100
AcDbEntity
  8
DIMENSIONS
100
AcDbTrace
 10
28.2018966416
 20
2.1199012166
 30
0.0
 11
28.242342604
 21
2.3827999798
 31
0.0
 12
28.1614506769
 22
2.3827999794
 32
0.0
 13
28.1614506769
 23
2.3827999794
 33
0.0
  0
LINE
  5
CF
330
CA
100
AcDbEntity
  8
DIMENSIONS
100
AcDbLine
 10
28.0993310306
 20
11.0192232737
 30
0.0
 11
28.5773017073
 21
11.0192232737
 31
0.0
  0
LINE
  5
D0
330
CA
100
AcDbEntity
  8
DIMENSIONS
100
AcDbLine
 10
27.8257392303
 20
10.567232546
 30
0.0
 11
27.7655540443
 21
10.567232546
 31
0.0
  0
LINE
  5
D1
330
CA
100
AcDbEntity
  8
DIMENSIONS
100
AcDbLine
 10
27.7655540443
 20
10.567232546
 30
0.0
 11
27.7655540443
 21
10.1634902767
 31
0.0
  0
LINE
  5
D2
330
CA
100
AcDbEntity
  8
DIMENSIONS
100
AcDbLine
 10
27.7655540443
 20
10.1634902767
 30
0.0
 11
27.8257392303
 21
10.1634902767
 31
0.0
  0
LINE
  5
D3
330
CA
100
AcDbEntity
  8
DIMENSIONS
100
AcDbLine
 10
28.5780540162
 20
10.567232546
 30
0.0
 11
28.6382392021
 21
10.567232546
 31
0.0
  0
LINE
  5
D4
330
CA
100
AcDbEntity
  8
DIMENSIONS
100
AcDbLine
 10
28.6382392021
 20
10.567232546
 30
0.0
 11
28.6382392021
 21
10.1634902767
 31
0.0
  0
LINE
  5
D5
330
CA
100
AcDbEntity
  8
DIMENSIONS
100
AcDbLine
 10
28.6382392021
 20
10.1634902767
 30
0.0
 11
28.5780540162
 21
10.1634902767
 31
0.0
  0
LINE
  5
D6
330
CA
100
AcDbEntity
  8
DIMENSIONS
100
AcDbLine
 10
28.2542948736
 20
19.1569411333
 30
0.0
 11
28.076896569
 21
19.1569411325
 31
0.0
  0
LINE
  5
D7
330
CA
100
AcDbEntity
  8
DIMENSIONS
100
AcDbLine
 10
28.201896569
 20
19.156941133
 30
0.0
 11
28.2018966022
 21
11.3573135622
 31
0.0
  0
LINE
  5
D8
330
CA
100
AcDbEntity
  8
DIMENSIONS
100
AcDbLine
 10
28.2018966416
 20
2.1199012166
 30
0.0
 11
28.2018966076
 21
10.1033051686
 31
0.0
  0
MTEXT
  5
D9
330
CA
100
AcDbEntity
  8
DIMENSIONS
100
AcDbMText
 10
27.6597284147
 20
11.160813439
 30
0.0039370079
 40
0.2708333333
 41
0.0
 71
     1
 72
     1
  1
17
  7
SLDTEXTSTYLE0
 73
     1
 44
1.0
  0
MTEXT
  5
DA
330
CA
100
AcDbEntity
  8
DIMENSIONS
100
AcDbMText
 10
28.2380077302
 20
11.3453249591
 30
0.0039370079
 40
0.2708333333
 41
0.0
 71
     1
 72
     1
  1
1
  7
SLDTEXTSTYLE0
 73
     1
 44
1.0
  0
MTEXT
  5
DB
330
CA
100
AcDbEntity
  8
DIMENSIONS
100
AcDbMText
 10
28.1376990915
 20
10.9765402219
 30
0.0039370079
 40
0.2708333333
 41
0.0
 71
     1
 72
     1
  1
16
  7
SLDTEXTSTYLE0
 73
     1
 44
1.0
  0
MTEXT
  5
DC
330
CA
100
AcDbEntity
  8
DIMENSIONS
100
AcDbMText
 10
28.6156697316
 20
11.160813439
 30
0.0039370079
 40
0.2708333333
 41
0.0
 71
     1
 72
     1
  1
"
  7
SLDTEXTSTYLE0
 73
     1
 44
1.0
  0
MTEXT
  5
DD
330
CA
100
AcDbEntity
  8
DIMENSIONS
100
AcDbMText
 10
27.9009707162
 20
10.5126127804
 30
0.0039370079
 40
0.2708333333
 41
0.0
 71
     1
 72
     1
  1
433
  7
SLDTEXTSTYLE0
 73
     1
 44
1.0
  0
ENDBLK
  5
CC
330
CA
100
AcDbEntity
  8
0
100
AcDbBlockEnd
  0
BLOCK
  5
E1
330
E0
100
AcDbEntity
  8
0
100
AcDbBlockBegin
  2
_D_3
 70
     0
 10
0.0
 20
0.0
 30
0.0
  3
_D_3
  1

  0
SOLID
  5
E3
330
E0
100
AcDbEntity
  8
DIMENSIONS
100
AcDbTrace
 10
1.9144586032
 20
2.5919986045
 30
0.0
 11
2.1421717153
 21
2.7294699621
 31
0.0
 12
2.0903207587
 22
2.7915584648
 32
0.0
 13
2.0903207587
 23
2.7915584648
 33
0.0
  0
LINE
  5
E4
330
E0
100
AcDbEntity
  8
DIMENSIONS
100
AcDbLine
 10
4.0092264225
 20
3.9388713707
 30
0.0
 11
4.4871970993
 21
3.9388713707
 31
0.0
  0
LINE
  5
E5
330
E0
100
AcDbEntity
  8
DIMENSIONS
100
AcDbLine
 10
3.8058506611
 20
3.486880643
 30
0.0
 11
3.7456654751
 21
3.486880643
 31
0.0
  0
LINE
  5
E6
330
E0
100
AcDbEntity
  8
DIMENSIONS
100
AcDbLine
 10
3.7456654751
 20
3.486880643
 30
0.0
 11
3.7456654751
 21
3.0831383738
 31
0.0
  0
LINE
  5
E7
330
E0
100
AcDbEntity
  8
DIMENSIONS
100
AcDbLine
 10
3.7456654751
 20
3.0831383738
 30
0.0
 11
3.8058506611
 21
3.0831383738
 31
0.0
  0
LINE
  5
E8
330
E0
100
AcDbEntity
  8
DIMENSIONS
100
AcDbLine
 10
4.3575481878
 20
3.486880643
 30
0.0
 11
4.4177333738
 21
3.486880643
 31
0.0
  0
LINE
  5
E9
330
E0
100
AcDbEntity
  8
DIMENSIONS
100
AcDbLine
 10
4.4177333738
 20
3.486880643
 30
0.0
 11
4.4177333738
 21
3.0831383738
 31
0.0
  0
LINE
  5
EA
330
E0
100
AcDbEntity
  8
DIMENSIONS
100
AcDbLine
 10
4.4177333738
 20
3.0831383738
 30
0.0
 11
4.3575481878
 21
3.0831383738
 31
0.0
  0
LINE
  5
EB
330
E0
100
AcDbEntity
  8
DIMENSIONS
100
AcDbLine
 10
1.9144586032
 20
2.5919986045
 30
0.0
 11
3.2594386253
 21
3.7152097903
 31
0.0
  0
LINE
  5
EC
330
E0
100
AcDbEntity
  8
DIMENSIONS
100
AcDbLine
 10
3.2594386253
 20
3.7152097903
 30
0.0
 11
3.5094386253
 21
3.7152097903
 31
0.0
  0
MTEXT
  5
ED
330
E0
100
AcDbEntity
  8
DIMENSIONS
100
AcDbMText
 10
3.5094386253
 20
4.080461536
 30
0.0039370079
 40
0.2708333333
 41
0.0
 71
     1
 72
     1
  1
R1
  7
SLDTEXTSTYLE0
 73
     1
 44
1.0
  0
MTEXT
  5
EE
330
E0
100
AcDbEntity
  8
DIMENSIONS
100
AcDbMText
 10
4.1479031222
 20
4.2649730562
 30
0.0039370079
 40
0.2708333333
 41
0.0
 71
     1
 72
     1
  1
5
  7
SLDTEXTSTYLE0
 73
     1
 44
1.0
  0
MTEXT
  5
EF
330
E0
100
AcDbEntity
  8
DIMENSIONS
100
AcDbMText
 10
4.0475944834
 20
3.8961883189
 30
0.0039370079
 40
0.2708333333
 41
0.0
 71
     1
 72
     1
  1
16
  7
SLDTEXTSTYLE0
 73
     1
 44
1.0
  0
MTEXT
  5
F0
330
E0
100
AcDbEntity
  8
DIMENSIONS
100
AcDbMText
 10
4.5255651602
 20
4.080461536
 30
0.0039370079
 40
0.2708333333
 41
0.0
 71
     1
 72
     1
  1
"
  7
SLDTEXTSTYLE0
 73
     1
 44
1.0
  0
MTEXT
  5
F1
330
E0
100
AcDbEntity
  8
DIMENSIONS
100
AcDbMText
 10
3.881082147
 20
3.4322608774
 30
0.0039370079
 40
0.2708333333
 41
0.0
 71
     1
 72
     1
  1
33
  7
SLDTEXTSTYLE0
 73
     1
 44
1.0
  0
ENDBLK
  5
E2
330
E0
100
AcDbEntity
  8
0
100
AcDbBlockEnd
  0
BLOCK
  5
F5
330
F4
100
AcDbEntity
  8
0
100
AcDbBlockBegin
  2
_D_4
 70
     0
 10
0.0
 20
0.0
 30
0.0
  3
_D_4
  1

  0
SOLID
  5
F7
330
F4
100
AcDbEntity
  8
DIMENSIONS
100
AcDbTrace
 10
5.173691806
 20
19.7276992612
 30
0.0
 11
5.208988668
 21
19.464059797
 31
0.0
 12
5.2866006752
 22
19.4868606787
 32
0.0
 13
5.2866006752
 23
19.4868606787
 33
0.0
  0
LINE
  5
F8
330
F4
100
AcDbEntity
  8
DIMENSIONS
100
AcDbLine
 10
5.7155296655
 20
17.9255581145
 30
0.0
 11
6.1935003423
 21
17.9255581145
 31
0.0
  0
LINE
  5
F9
330
F4
100
AcDbEntity
  8
DIMENSIONS
100
AcDbLine
 10
5.4118452929
 20
17.4735673868
 30
0.0
 11
5.3516601069
 21
17.4735673868
 31
0.0
  0
LINE
  5
FA
330
F4
100
AcDbEntity
  8
DIMENSIONS
100
AcDbLine
 10
5.3516601069
 20
17.4735673868
 30
0.0
 11
5.3516601069
 21
17.0698251175
 31
0.0
  0
LINE
  5
FB
330
F4
100
AcDbEntity
  8
DIMENSIONS
100
AcDbLine
 10
5.3516601069
 20
17.0698251175
 30
0.0
 11
5.4118452929
 21
17.0698251175
 31
0.0
  0
LINE
  5
FC
330
F4
100
AcDbEntity
  8
DIMENSIONS
100
AcDbLine
 10
6.1641600787
 20
17.4735673868
 30
0.0
 11
6.2243452647
 21
17.4735673868
 31
0.0
  0
LINE
  5
FD
330
F4
100
AcDbEntity
  8
DIMENSIONS
100
AcDbLine
 10
6.2243452647
 20
17.4735673868
 30
0.0
 11
6.2243452647
 21
17.0698251175
 31
0.0
  0
LINE
  5
FE
330
F4
100
AcDbEntity
  8
DIMENSIONS
100
AcDbLine
 10
6.2243452647
 20
17.0698251175
 30
0.0
 11
6.1641600787
 21
17.0698251175
 31
0.0
  0
LINE
  5
FF
330
F4
100
AcDbEntity
  8
DIMENSIONS
100
AcDbLine
 10
7.9113159206
 20
10.4090902267
 30
0.0
 11
5.9722041725
 21
17.0096400094
 31
0.0
  0
LINE
  5
100
330
F4
100
AcDbEntity
  8
DIMENSIONS
100
AcDbLine
 10
5.173691806
 20
19.7276992612
 30
0.0
 11
5.6038011624
 21
18.263648403
 31
0.0
  0
MTEXT
  5
101
330
F4
100
AcDbEntity
  8
DIMENSIONS
100
AcDbMText
 10
5.2157418683
 20
18.0671482798
 30
0.0039370079
 40
0.2708333333
 41
0.0
 71
     1
 72
     1
  1
R9
  7
SLDTEXTSTYLE0
 73
     1
 44
1.0
  0
MTEXT
  5
102
330
F4
100
AcDbEntity
  8
DIMENSIONS
100
AcDbMText
 10
5.7538977264
 20
18.2516598
 30
0.0039370079
 40
0.2708333333
 41
0.0
 71
     1
 72
     1
  1
11
  7
SLDTEXTSTYLE0
 73
     1
 44
1.0
  0
MTEXT
  5
103
330
F4
100
AcDbEntity
  8
DIMENSIONS
100
AcDbMText
 10
5.7538977264
 20
17.8828750627
 30
0.0039370079
 40
0.2708333333
 41
0.0
 71
     1
 72
     1
  1
16
  7
SLDTEXTSTYLE0
 73
     1
 44
1.0
  0
MTEXT
  5
104
330
F4
100
AcDbEntity
  8
DIMENSIONS
100
AcDbMText
 10
6.2318684032
 20
18.0671482798
 30
0.0039370079
 40
0.2708333333
 41
0.0
 71
     1
 72
     1
  1
"
  7
SLDTEXTSTYLE0
 73
     1
 44
1.0
  0
MTEXT
  5
105
330
F4
100
AcDbEntity
  8
DIMENSIONS
100
AcDbMText
 10
5.4870767788
 20
17.4189476212
 30
0.0039370079
 40
0.2708333333
 41
0.0
 71
     1
 72
     1
  1
247
  7
SLDTEXTSTYLE0
 73
     1
 44
1.0
  0
ENDBLK
  5
F6
330
F4
100
AcDbEntity
  8
0
100
AcDbBlockEnd
  0
BLOCK
  5
108
330
107
100
AcDbEntity
  8
0
100
AcDbBlockBegin
  2
_D_5
 70
     0
 10
0.0
 20
0.0
 30
0.0
  3
_D_5
  1

  0
SOLID
  5
10A
330
107
100
AcDbEntity
  8
DIMENSIONS
100
AcDbTrace
 10
15.7236036921
 20
18.3601765927
 30
0.0
 11
15.6405788422
 21
18.107474179
 31
0.0
 12
15.7203749365
 22
18.0942043935
 32
0.0
 13
15.7203749365
 23
18.0942043935
 33
0.0
  0
LINE
  5
10B
330
107
100
AcDbEntity
  8
DIMENSIONS
100
AcDbLine
 10
14.6639362812
 20
17.5920322342
 30
0.0
 11
15.1419069579
 21
17.5920322342
 31
0.0
  0
LINE
  5
10C
330
107
100
AcDbEntity
  8
DIMENSIONS
100
AcDbLine
 10
14.2599432973
 20
17.1400415065
 30
0.0
 11
14.1997581113
 21
17.1400415065
 31
0.0
  0
LINE
  5
10D
330
107
100
AcDbEntity
  8
DIMENSIONS
100
AcDbLine
 10
14.1997581113
 20
17.1400415065
 30
0.0
 11
14.1997581113
 21
16.7362992372
 31
0.0
  0
LINE
  5
10E
330
107
100
AcDbEntity
  8
DIMENSIONS
100
AcDbLine
 10
14.1997581113
 20
16.7362992372
 30
0.0
 11
14.2599432973
 21
16.7362992372
 31
0.0
  0
LINE
  5
10F
330
107
100
AcDbEntity
  8
DIMENSIONS
100
AcDbLine
 10
15.0122580832
 20
17.1400415065
 30
0.0
 11
15.0724432692
 21
17.1400415065
 31
0.0
  0
LINE
  5
110
330
107
100
AcDbEntity
  8
DIMENSIONS
100
AcDbLine
 10
15.0724432692
 20
17.1400415065
 30
0.0
 11
15.0724432692
 21
16.7362992372
 31
0.0
  0
LINE
  5
111
330
107
100
AcDbEntity
  8
DIMENSIONS
100
AcDbLine
 10
15.0724432692
 20
16.7362992372
 30
0.0
 11
15.0122580832
 21
16.7362992372
 31
0.0
  0
LINE
  5
112
330
107
100
AcDbEntity
  8
DIMENSIONS
100
AcDbLine
 10
15.7236036921
 20
18.3601765927
 30
0.0
 11
15.5586701557
 21
17.3683706538
 31
0.0
  0
LINE
  5
113
330
107
100
AcDbEntity
  8
DIMENSIONS
100
AcDbLine
 10
15.5586701557
 20
17.3683706538
 30
0.0
 11
15.3086701557
 21
17.3683706538
 31
0.0
  0
MTEXT
  5
114
330
107
100
AcDbEntity
  8
DIMENSIONS
100
AcDbMText
 10
13.9635311881
 20
17.7336223995
 30
0.0039370079
 40
0.2708333333
 41
0.0
 71
     1
 72
     1
  1
R25
  7
SLDTEXTSTYLE0
 73
     1
 44
1.0
  0
MTEXT
  5
115
330
107
100
AcDbEntity
  8
DIMENSIONS
100
AcDbMText
 10
14.8026129808
 20
17.9181339196
 30
0.0039370079
 40
0.2708333333
 41
0.0
 71
     1
 72
     1
  1
7
  7
SLDTEXTSTYLE0
 73
     1
 44
1.0
  0
MTEXT
  5
116
330
107
100
AcDbEntity
  8
DIMENSIONS
100
AcDbMText
 10
14.7023043421
 20
17.5493491824
 30
0.0039370079
 40
0.2708333333
 41
0.0
 71
     1
 72
     1
  1
16
  7
SLDTEXTSTYLE0
 73
     1
 44
1.0
  0
MTEXT
  5
117
330
107
100
AcDbEntity
  8
DIMENSIONS
100
AcDbMText
 10
15.1802750189
 20
17.7336223995
 30
0.0039370079
 40
0.2708333333
 41
0.0
 71
     1
 72
     1
  1
"
  7
SLDTEXTSTYLE0
 73
     1
 44
1.0
  0
MTEXT
  5
118
330
107
100
AcDbEntity
  8
DIMENSIONS
100
AcDbMText
 10
14.3351747832
 20
17.0854217409
 30
0.0039370079
 40
0.2708333333
 41
0.0
 71
     1
 72
     1
  1
647
  7
SLDTEXTSTYLE0
 73
     1
 44
1.0
  0
ENDBLK
  5
109
330
107
100
AcDbEntity
  8
0
100
AcDbBlockEnd
  0
BLOCK
  5
11B
330
11A
100
AcDbEntity
  8
0
100
AcDbBlockBegin
  2
_D_6
 70
     0
 10
0.0
 20
0.0
 30
0.0
  3
_D_6
  1

  0
SOLID
  5
11D
330
11A
100
AcDbEntity
  8
DIMENSIONS
100
AcDbTrace
 10
28.9947859633
 20
19.1172855662
 30
0.0
 11
28.924508143
 21
18.8607457768
 31
0.0
 12
29.0048682101
 22
18.8514849193
 32
0.0
 13
29.0048682101
 23
18.8514849193
 33
0.0
  0
LINE
  5
11E
330
11A
100
AcDbEntity
  8
DIMENSIONS
100
AcDbLine
 10
28.7789566848
 20
18.162241226
 30
0.0
 11
29.2569273615
 21
18.162241226
 31
0.0
  0
LINE
  5
11F
330
11A
100
AcDbEntity
  8
DIMENSIONS
100
AcDbLine
 10
28.4752723121
 20
17.7102504982
 30
0.0
 11
28.4150871261
 21
17.7102504982
 31
0.0
  0
LINE
  5
120
330
11A
100
AcDbEntity
  8
DIMENSIONS
100
AcDbLine
 10
28.4150871261
 20
17.7102504982
 30
0.0
 11
28.4150871261
 21
17.306508229
 31
0.0
  0
LINE
  5
121
330
11A
100
AcDbEntity
  8
DIMENSIONS
100
AcDbLine
 10
28.4150871261
 20
17.306508229
 30
0.0
 11
28.4752723121
 21
17.306508229
 31
0.0
  0
LINE
  5
122
330
11A
100
AcDbEntity
  8
DIMENSIONS
100
AcDbLine
 10
29.227587098
 20
17.7102504982
 30
0.0
 11
29.287772284
 21
17.7102504982
 31
0.0
  0
LINE
  5
123
330
11A
100
AcDbEntity
  8
DIMENSIONS
100
AcDbLine
 10
29.287772284
 20
17.7102504982
 30
0.0
 11
29.287772284
 21
17.306508229
 31
0.0
  0
LINE
  5
124
330
11A
100
AcDbEntity
  8
DIMENSIONS
100
AcDbLine
 10
29.287772284
 20
17.306508229
 30
0.0
 11
29.227587098
 21
17.306508229
 31
0.0
  0
LINE
  5
125
330
11A
100
AcDbEntity
  8
DIMENSIONS
100
AcDbLine
 10
28.3042948993
 20
13.1256256598
 30
0.0
 11
28.7791724489
 21
17.2463231209
 31
0.0
  0
LINE
  5
126
330
11A
100
AcDbEntity
  8
DIMENSIONS
100
AcDbLine
 10
28.9947859633
 20
19.1172855662
 30
0.0
 11
28.9236869246
 21
18.5003315145
 31
0.0
  0
MTEXT
  5
127
330
11A
100
AcDbEntity
  8
DIMENSIONS
100
AcDbMText
 10
28.2791688875
 20
18.3038313912
 30
0.0039370079
 40
0.2708333333
 41
0.0
 71
     1
 72
     1
  1
R6
  7
SLDTEXTSTYLE0
 73
     1
 44
1.0
  0
MTEXT
  5
128
330
11A
100
AcDbEntity
  8
DIMENSIONS
100
AcDbMText
 10
28.9176333844
 20
18.4883429114
 30
0.0039370079
 40
0.2708333333
 41
0.0
 71
     1
 72
     1
  1
1
  7
SLDTEXTSTYLE0
 73
     1
 44
1.0
  0
MTEXT
  5
129
330
11A
100
AcDbEntity
  8
DIMENSIONS
100
AcDbMText
 10
28.8173247457
 20
18.1195581742
 30
0.0039370079
 40
0.2708333333
 41
0.0
 71
     1
 72
     1
  1
16
  7
SLDTEXTSTYLE0
 73
     1
 44
1.0
  0
MTEXT
  5
12A
330
11A
100
AcDbEntity
  8
DIMENSIONS
100
AcDbMText
 10
29.2952954225
 20
18.3038313912
 30
0.0039370079
 40
0.2708333333
 41
0.0
 71
     1
 72
     1
  1
"
  7
SLDTEXTSTYLE0
 73
     1
 44
1.0
  0
MTEXT
  5
12B
330
11A
100
AcDbEntity
  8
DIMENSIONS
100
AcDbMText
 10
28.550503798
 20
17.6556307326
 30
0.0039370079
 40
0.2708333333
 41
0.0
 71
     1
 72
     1
  1
153
  7
SLDTEXTSTYLE0
 73
     1
 44
1.0
  0
ENDBLK
  5
11C
330
11A
100
AcDbEntity
  8
0
100
AcDbBlockEnd
  0
BLOCK
  5
12E
330
12D
100
AcDbEntity
  8
0
100
AcDbBlockBegin
  2
_D_7
 70
     0
 10
0.0
 20
0.0
 30
0.0
  3
_D_7
  1

  0
SOLID
  5
130
330
12D
100
AcDbEntity
  8
DIMENSIONS
100
AcDbTrace
 10
1.8805348577
 20
17.9654023392
 30
0.0
 11
2.0644960041
 21
17.7732827614
 31
0.0
 12
2.1137360554
 22
17.8374615836
 32
0.0
 13
2.1137360554
 23
17.8374615836
 33
0.0
  0
LINE
  5
131
330
12D
100
AcDbEntity
  8
DIMENSIONS
100
AcDbLine
 10
4.3772346932
 20
16.8487769612
 30
0.0
 11
4.85520537
 21
16.8487769612
 31
0.0
  0
LINE
  5
132
330
12D
100
AcDbEntity
  8
DIMENSIONS
100
AcDbLine
 10
4.1738589318
 20
16.3967862334
 30
0.0
 11
4.1136737458
 21
16.3967862334
 31
0.0
  0
LINE
  5
133
330
12D
100
AcDbEntity
  8
DIMENSIONS
100
AcDbLine
 10
4.1136737458
 20
16.3967862334
 30
0.0
 11
4.1136737458
 21
15.9930439642
 31
0.0
  0
LINE
  5
134
330
12D
100
AcDbEntity
  8
DIMENSIONS
100
AcDbLine
 10
4.1136737458
 20
15.9930439642
 30
0.0
 11
4.1738589318
 21
15.9930439642
 31
0.0
  0
LINE
  5
135
330
12D
100
AcDbEntity
  8
DIMENSIONS
100
AcDbLine
 10
4.7255564585
 20
16.3967862334
 30
0.0
 11
4.7857416445
 21
16.3967862334
 31
0.0
  0
LINE
  5
136
330
12D
100
AcDbEntity
  8
DIMENSIONS
100
AcDbLine
 10
4.7857416445
 20
16.3967862334
 30
0.0
 11
4.7857416445
 21
15.9930439642
 31
0.0
  0
LINE
  5
137
330
12D
100
AcDbEntity
  8
DIMENSIONS
100
AcDbLine
 10
4.7857416445
 20
15.9930439642
 30
0.0
 11
4.7255564585
 21
15.9930439642
 31
0.0
  0
LINE
  5
138
330
12D
100
AcDbEntity
  8
DIMENSIONS
100
AcDbLine
 10
1.8805348577
 20
17.9654023392
 30
0.0
 11
3.6274468959
 21
16.6251153808
 31
0.0
  0
MTEXT
  5
139
330
12D
100
AcDbEntity
  8
DIMENSIONS
100
AcDbMText
 10
3.8774468959
 20
16.9903671265
 30
0.0039370079
 40
0.2708333333
 41
0.0
 71
     1
 72
     1
  1
R1
  7
SLDTEXTSTYLE0
 73
     1
 44
1.0
  0
MTEXT
  5
13A
330
12D
100
AcDbEntity
  8
DIMENSIONS
100
AcDbMText
 10
4.5159113928
 20
17.1748786466
 30
0.0039370079
 40
0.2708333333
 41
0.0
 71
     1
 72
     1
  1
5
  7
SLDTEXTSTYLE0
 73
     1
 44
1.0
  0
MTEXT
  5
13B
330
12D
100
AcDbEntity
  8
DIMENSIONS
100
AcDbMText
 10
4.4156027541
 20
16.8060939094
 30
0.0039370079
 40
0.2708333333
 41
0.0
 71
     1
 72
     1
  1
16
  7
SLDTEXTSTYLE0
 73
     1
 44
1.0
  0
MTEXT
  5
13C
330
12D
100
AcDbEntity
  8
DIMENSIONS
100
AcDbMText
 10
4.8935734309
 20
16.9903671265
 30
0.0039370079
 40
0.2708333333
 41
0.0
 71
     1
 72
     1
  1
"
  7
SLDTEXTSTYLE0
 73
     1
 44
1.0
  0
MTEXT
  5
13D
330
12D
100
AcDbEntity
  8
DIMENSIONS
100
AcDbMText
 10
4.2490904177
 20
16.3421664679
 30
0.0039370079
 40
0.2708333333
 41
0.0
 71
     1
 72
     1
  1
33
  7
SLDTEXTSTYLE0
 73
     1
 44
1.0
  0
ENDBLK
  5
12F
330
12D
100
AcDbEntity
  8
0
100
AcDbBlockEnd
  0
BLOCK
  5
140
330
13F
100
AcDbEntity
  8
0
100
AcDbBlockBegin
  2
_D_8
 70
     0
 10
0.0
 20
0.0
 30
0.0
  3
_D_8
  1

  0
SOLID
  5
142
330
13F
100
AcDbEntity
  8
DIMENSIONS
100
AcDbTrace
 10
31.6859646201
 20
18.0978736397
 30
0.0
 11
31.4781444989
 21
17.931854265
 31
0.0
 12
31.5376564553
 22
17.8770652979
 32
0.0
 13
31.5376564553
 23
17.8770652979
 33
0.0
  0
LINE
  5
143
330
13F
100
AcDbEntity
  8
DIMENSIONS
100
AcDbLine
 10
29.3946271239
 20
16.8045396901
 30
0.0
 11
29.8725978007
 21
16.8045396901
 31
0.0
  0
LINE
  5
144
330
13F
100
AcDbEntity
  8
DIMENSIONS
100
AcDbLine
 10
29.1912513625
 20
16.3525489624
 30
0.0
 11
29.1310661765
 21
16.3525489624
 31
0.0
  0
LINE
  5
145
330
13F
100
AcDbEntity
  8
DIMENSIONS
100
AcDbLine
 10
29.1310661765
 20
16.3525489624
 30
0.0
 11
29.1310661765
 21
15.9488066931
 31
0.0
  0
LINE
  5
146
330
13F
100
AcDbEntity
  8
DIMENSIONS
100
AcDbLine
 10
29.1310661765
 20
15.9488066931
 30
0.0
 11
29.1912513625
 21
15.9488066931
 31
0.0
  0
LINE
  5
147
330
13F
100
AcDbEntity
  8
DIMENSIONS
100
AcDbLine
 10
29.7429488892
 20
16.3525489624
 30
0.0
 11
29.8031340752
 21
16.3525489624
 31
0.0
  0
LINE
  5
148
330
13F
100
AcDbEntity
  8
DIMENSIONS
100
AcDbLine
 10
29.8031340752
 20
16.3525489624
 30
0.0
 11
29.8031340752
 21
15.9488066931
 31
0.0
  0
LINE
  5
149
330
13F
100
AcDbEntity
  8
DIMENSIONS
100
AcDbLine
 10
29.8031340752
 20
15.9488066931
 30
0.0
 11
29.7429488892
 21
15.9488066931
 31
0.0
  0
LINE
  5
14A
330
13F
100
AcDbEntity
  8
DIMENSIONS
100
AcDbLine
 10
31.6859646201
 20
18.0978736397
 30
0.0
 11
30.289360925
 21
16.5808781097
 31
0.0
  0
MTEXT
  5
14B
330
13F
100
AcDbEntity
  8
DIMENSIONS
100
AcDbMText
 10
28.8948393267
 20
16.9461298554
 30
0.0039370079
 40
0.2708333333
 41
0.0
 71
     1
 72
     1
  1
R1
  7
SLDTEXTSTYLE0
 73
     1
 44
1.0
  0
MTEXT
  5
14C
330
13F
100
AcDbEntity
  8
DIMENSIONS
100
AcDbMText
 10
29.5333038236
 20
17.1306413756
 30
0.0039370079
 40
0.2708333333
 41
0.0
 71
     1
 72
     1
  1
5
  7
SLDTEXTSTYLE0
 73
     1
 44
1.0
  0
MTEXT
  5
14D
330
13F
100
AcDbEntity
  8
DIMENSIONS
100
AcDbMText
 10
29.4329951848
 20
16.7618566383
 30
0.0039370079
 40
0.2708333333
 41
0.0
 71
     1
 72
     1
  1
16
  7
SLDTEXTSTYLE0
 73
     1
 44
1.0
  0
MTEXT
  5
14E
330
13F
100
AcDbEntity
  8
DIMENSIONS
100
AcDbMText
 10
29.9109658616
 20
16.9461298554
 30
0.0039370079
 40
0.2708333333
 41
0.0
 71
     1
 72
     1
  1
"
  7
SLDTEXTSTYLE0
 73
     1
 44
1.0
  0
MTEXT
  5
14F
330
13F
100
AcDbEntity
  8
DIMENSIONS
100
AcDbMText
 10
29.2664828484
 20
16.2979291968
 30
0.0039370079
 40
0.2708333333
 41
0.0
 71
     1
 72
     1
  1
33
  7
SLDTEXTSTYLE0
 73
     1
 44
1.0
  0
ENDBLK
  5
141
330
13F
100
AcDbEntity
  8
0
100
AcDbBlockEnd
  0
BLOCK
  5
152
330
151
100
AcDbEntity
  8
0
100
AcDbBlockBegin
  2
_D_9
 70
     0
 10
0.0
 20
0.0
 30
0.0
  3
_D_9
  1

  0
SOLID
  5
154
330
151
100
AcDbEntity
  8
DIMENSIONS
100
AcDbTrace
 10
31.6555702641
 20
2.4402565996
 30
0.0
 11
31.5141934542
 21
2.6655657942
 31
0.0
 12
31.4530081152
 22
2.6126521082
 32
0.0
 13
31.4530081152
 23
2.6126521082
 33
0.0
  0
LINE
  5
155
330
151
100
AcDbEntity
  8
DIMENSIONS
100
AcDbLine
 10
29.65824434
 20
3.9388713707
 30
0.0
 11
30.1362150168
 21
3.9388713707
 31
0.0
  0
LINE
  5
156
330
151
100
AcDbEntity
  8
DIMENSIONS
100
AcDbLine
 10
29.4548685786
 20
3.486880643
 30
0.0
 11
29.3946833926
 21
3.486880643
 31
0.0
  0
LINE
  5
157
330
151
100
AcDbEntity
  8
DIMENSIONS
100
AcDbLine
 10
29.3946833926
 20
3.486880643
 30
0.0
 11
29.3946833926
 21
3.0831383738
 31
0.0
  0
LINE
  5
158
330
151
100
AcDbEntity
  8
DIMENSIONS
100
AcDbLine
 10
29.3946833926
 20
3.0831383738
 30
0.0
 11
29.4548685786
 21
3.0831383738
 31
0.0
  0
LINE
  5
159
330
151
100
AcDbEntity
  8
DIMENSIONS
100
AcDbLine
 10
30.0065661053
 20
3.486880643
 30
0.0
 11
30.0667512913
 21
3.486880643
 31
0.0
  0
LINE
  5
15A
330
151
100
AcDbEntity
  8
DIMENSIONS
100
AcDbLine
 10
30.0667512913
 20
3.486880643
 30
0.0
 11
30.0667512913
 21
3.0831383738
 31
0.0
  0
LINE
  5
15B
330
151
100
AcDbEntity
  8
DIMENSIONS
100
AcDbLine
 10
30.0667512913
 20
3.0831383738
 30
0.0
 11
30.0065661053
 21
3.0831383738
 31
0.0
  0
LINE
  5
15C
330
151
100
AcDbEntity
  8
DIMENSIONS
100
AcDbLine
 10
31.6555702641
 20
2.4402565996
 30
0.0
 11
30.5529781411
 21
3.7152097903
 31
0.0
  0
LINE
  5
15D
330
151
100
AcDbEntity
  8
DIMENSIONS
100
AcDbLine
 10
30.5529781411
 20
3.7152097903
 30
0.0
 11
30.3029781411
 21
3.7152097903
 31
0.0
  0
MTEXT
  5
15E
330
151
100
AcDbEntity
  8
DIMENSIONS
100
AcDbMText
 10
29.1584565428
 20
4.080461536
 30
0.0039370079
 40
0.2708333333
 41
0.0
 71
     1
 72
     1
  1
R1
  7
SLDTEXTSTYLE0
 73
     1
 44
1.0
  0
MTEXT
  5
15F
330
151
100
AcDbEntity
  8
DIMENSIONS
100
AcDbMText
 10
29.7969210397
 20
4.2649730562
 30
0.0039370079
 40
0.2708333333
 41
0.0
 71
     1
 72
     1
  1
5
  7
SLDTEXTSTYLE0
 73
     1
 44
1.0
  0
MTEXT
  5
160
330
151
100
AcDbEntity
  8
DIMENSIONS
100
AcDbMText
 10
29.6966124009
 20
3.8961883189
 30
0.0039370079
 40
0.2708333333
 41
0.0
 71
     1
 72
     1
  1
16
  7
SLDTEXTSTYLE0
 73
     1
 44
1.0
  0
MTEXT
  5
161
330
151
100
AcDbEntity
  8
DIMENSIONS
100
AcDbMText
 10
30.1745830777
 20
4.080461536
 30
0.0039370079
 40
0.2708333333
 41
0.0
 71
     1
 72
     1
  1
"
  7
SLDTEXTSTYLE0
 73
     1
 44
1.0
  0
MTEXT
  5
162
330
151
100
AcDbEntity
  8
DIMENSIONS
100
AcDbMText
 10
29.5301000645
 20
3.4322608774
 30
0.0039370079
 40
0.2708333333
 41
0.0
 71
     1
 72
     1
  1
33
  7
SLDTEXTSTYLE0
 73
     1
 44
1.0
  0
ENDBLK
  5
153
330
151
100
AcDbEntity
  8
0
100
AcDbBlockEnd
  0
BLOCK
  5
164
330
163
100
AcDbEntity
  8
0
100
AcDbBlockBegin
  2
SW_NOTE_0
 70
     0
 10
0.0
 20
0.0
 30
0.0
  3
SW_NOTE_0
  1

  0
MTEXT
  5
166
330
163
100
AcDbEntity
  8
NOTES
 62
     0
100
AcDbMText
 10
0.0
 20
0.2685557791
 30
0.0
 40
0.2083333333
 41
0.0
 71
     1
 72
     1
  1
NOTES:
  7
SLDTEXTSTYLE0
 73
     1
 44
1.0
  0
MTEXT
  5
167
330
163
100
AcDbEntity
  8
NOTES
 62
     0
100
AcDbMText
 10
0.4399970804
 20
-0.2869997697
 30
0.0
 40
0.2083333333
 41
0.0
 71
     1
 72
     1
  1
THOROUGHLY READ ALL  INSTALLATION INSTRUCTIONS
  7
SLDTEXTSTYLE0
 73
     1
 44
1.0
  0
MTEXT
  5
168
330
163
100
AcDbEntity
  8
NOTES
 62
     0
100
AcDbMText
 10
0.0
 20
-0.2869997697
 30
0.0
 40
0.2083333333
 41
0.0
 71
     1
 72
     1
  1
1.
  7
SLDTEXTSTYLE0
 73
     1
 44
1.0
  0
MTEXT
  5
169
330
163
100
AcDbEntity
  8
NOTES
 62
     0
100
AcDbMText
 10
0.0
 20
-0.5647775441
 30
0.0
 40
0.2083333333
 41
0.0
 71
     1
 72
     1
  1
BEFORE CUTTING COUNTERTOP.
  7
SLDTEXTSTYLE0
 73
     1
 44
1.0
  0
MTEXT
  5
16A
330
163
100
AcDbEntity
  8
NOTES
 62
     0
100
AcDbMText
 10
0.0
 20
-1.120333093
 30
0.0
 40
0.2083333333
 41
0.0
 71
     1
 72
     1
  1
2.  DIMENSIONS ARE IN INCHES [MM].
  7
SLDTEXTSTYLE0
 73
     1
 44
1.0
  0
MTEXT
  5
16B
330
163
100
AcDbEntity
  8
NOTES
 62
     0
100
AcDbMText
 10
0.0
 20
-1.9536664162
 30
0.0
 40
0.2083333333
 41
0.0
 71
     1
 72
     1
  1
PLEASE CHECK TEMPLATE AGAINST PHYSICAL SINK FOR MOST ACCURATE CUT.
  7
SLDTEXTSTYLE0
 73
     1
 44
1.0
  0
MTEXT
  5
16C
330
163
100
AcDbEntity
  8
NOTES
 62
     0
100
AcDbMText
 10
0.0
 20
-3.0647775139
 30
0.0
 40
0.2083333333
 41
0.0
 71
     1
 72
     1
  1
NOTAS:
  7
SLDTEXTSTYLE0
 73
     1
 44
1.0
  0
MTEXT
  5
16D
330
163
100
AcDbEntity
  8
NOTES
 62
     0
100
AcDbMText
 10
0.0
 20
-3.6203330628
 30
0.0
 40
0.2083333333
 41
0.0
 71
     1
 72
     1
  1
1.  LEA ATENTAMENTE LAS INSTRUCCIONES DE INSTALACIÓN ANTES DE CORTAR LA ENCIMERA.
  7
SLDTEXTSTYLE0
 73
     1
 44
1.0
  0
MTEXT
  5
16E
330
163
100
AcDbEntity
  8
NOTES
 62
     0
100
AcDbMText
 10
0.0
 20
-4.1758886116
 30
0.0
 40
0.2083333333
 41
0.0
 71
     1
 72
     1
  1
2.  DIMENSIONES EN PULGADAS [MM].
  7
SLDTEXTSTYLE0
 73
     1
 44
1.0
  0
MTEXT
  5
16F
330
163
100
AcDbEntity
  8
NOTES
 62
     0
100
AcDbMText
 10
0.0
 20
-5.0092219349
 30
0.0
 40
0.2083333333
 41
0.0
 71
     1
 72
     1
  1
POR FAVOR COMPRUEBE PLANTILLA CONTRA FREGADERO FÍSICO PARA CORTE MÁS EXACTO.
  7
SLDTEXTSTYLE0
 73
     1
 44
1.0
  0
ENDBLK
  5
165
330
163
100
AcDbEntity
  8
0
100
AcDbBlockEnd
  0
BLOCK
  5
172
330
171
100
AcDbEntity
  8
0
100
AcDbBlockBegin
  2
SW_NOTE_1
 70
     0
 10
0.0
 20
0.0
 30
0.0
  3
SW_NOTE_1
  1

  0
MTEXT
  5
174
330
171
100
AcDbEntity
  8
NOTES
 62
     0
100
AcDbMText
 10
6.8619791667
 20
1.0742231165
 30
0.0
 40
0.8333333333
 41
0.0
 71
     2
 72
     1
  1
TEMPLATE #: 1000003464
  7
SLDTEXTSTYLE0
 73
     1
 44
1.0
  0
MTEXT
  5
175
330
171
100
AcDbEntity
  8
NOTES
 62
     0
100
AcDbMText
 10
6.8797789377
 20
-0.0184439723
 30
0.0
 40
0.4166666667
 41
0.0
 71
     2
 72
     1
  1
REVEAL UNDERMOUNT TEMPLATE 30-1/4" X 17-3/4 W/ 1-3/16" RADIUS
  7
SLDTEXTSTYLE0
 73
     1
 44
1.0
  0
ENDBLK
  5
173
330
171
100
AcDbEntity
  8
0
100
AcDbBlockEnd
  0
BLOCK
  5
179
330
178
100
AcDbEntity
  8
0
100
AcDbBlockBegin
  2
SW_NOTE_2
 70
     0
 10
0.0
 20
0.0
 30
0.0
  3
SW_NOTE_2
  1

  0
MTEXT
  5
17B
330
178
100
AcDbEntity
  8
NOTES
 62
     0
100
AcDbMText
 10
-1.064241547
 20
0.8246258311
 30
0.0
 40
0.25
 41
0.0
 71
     2
 72
     1
  1
TEMPLATE
  7
SLDTEXTSTYLE0
 73
     1
 44
1.0
  0
MTEXT
  5
17C
330
178
100
AcDbEntity
  8
NOTES
 62
     0
100
AcDbMText
 10
-1.060479928
 20
0.4912925018
 30
0.0
 40
0.25
 41
0.0
 71
     2
 72
     1
  1
CENTERLINE
  7
SLDTEXTSTYLE0
 73
     1
 44
1.0
  0
MTEXT
  5
17D
330
178
100
AcDbEntity
  8
NOTES
 62
     0
100
AcDbMText
 10
-1.060335297
 20
-0.1753741568
 30
0.0
 40
0.25
 41
0.0
 71
     2
 72
     1
  1
PLANTILLA
  7
SLDTEXTSTYLE0
 73
     1
 44
1.0
  0
MTEXT
  5
17E
330
178
100
AcDbEntity
  8
NOTES
 62
     0
100
AcDbMText
 10
-1.0639521903
 20
-0.5087074861
 30
0.0
 40
0.25
 41
0.0
 71
     2
 72
     1
  1
CENTRAL
  7
SLDTEXTSTYLE0
 73
     1
 44
1.0
  0
ENDBLK
  5
17A
330
178
100
AcDbEntity
  8
0
100
AcDbBlockEnd
  0
BLOCK
  5
184
330
183
100
AcDbEntity
  8
0
100
AcDbBlockBegin
  2
SW_NOTE_3
 70
     0
 10
0.0
 20
0.0
 30
0.0
  3
SW_NOTE_3
  1

  0
MTEXT
  5
186
330
183
100
AcDbEntity
  8
DIMENSIONS
 62
     0
100
AcDbMText
 10
2.1735086977
 20
0.2666813146
 30
0.0
 40
0.2083333333
 41
0.0
 71
     3
 72
     1
  1
1/8" REVEAL
  7
SLDTEXTSTYLE0
 73
     1
 44
1.0
  0
MTEXT
  5
187
330
183
100
AcDbEntity
  8
DIMENSIONS
 62
     0
100
AcDbMText
 10
2.1765470628
 20
-0.0110964598
 30
0.0
 40
0.2083333333
 41
0.0
 71
     3
 72
     1
  1
[3.2 REVELADO]
  7
SLDTEXTSTYLE0
 73
     1
 44
1.0
  0
ENDBLK
  5
185
330
183
100
AcDbEntity
  8
0
100
AcDbBlockEnd
  0
ENDSEC
  0
SECTION
  2
ENTITIES
  0
LINE
  5
93
330
1F
100
AcDbEntity
  8
DIMENSIONS
  6
CENTERX2
100
AcDbLine
 10
16.859588531
 20
2.1199011683
 30
0.0
 11
16.859588531
 21
3.9368187113
 31
0.0
  0
LINE
  5
94
330
1F
100
AcDbEntity
  8
DIMENSIONS
  6
CENTERX2
100
AcDbLine
 10
16.859588531
 20
18.1974797021
 30
0.0
 11
16.859588531
 21
16.3805621591
 31
0.0
  0
LINE
  5
95
330
1F
100
AcDbEntity
  8
DIMENSIONS
  6
CENTERX2
100
AcDbLine
 10
1.6087852361
 20
10.2998427487
 30
0.0
 11
3.4257027791
 21
10.2998427487
 31
0.0
  0
LINE
  5
96
330
1F
100
AcDbEntity
  8
OBJECTS
100
AcDbLine
 10
2.9237852993
 20
2.1199011089
 30
0.0
 11
30.7953917628
 21
2.1199012276
 31
0.0
  0
LINE
  5
97
330
1F
100
AcDbEntity
  8
OBJECTS
100
AcDbLine
 10
32.1103917572
 20
3.4349012286
 30
0.0
 11
32.1103917468
 21
17.1302255551
 31
0.0
  0
LINE
  5
98
330
1F
100
AcDbEntity
  8
OBJECTS
100
AcDbLine
 10
1.6087851784
 20
17.1647843996
 30
0.0
 11
1.6087852937
 21
3.4349010978
 31
0.0
  0
LINE
  5
99
330
1F
100
AcDbEntity
  8
DIMENSIONS
  6
CENTERX2
100
AcDbLine
 10
30.293474209
 20
10.2998427487
 30
0.0
 11
32.110391752
 21
10.2998427487
 31
0.0
  0
ARC
  5
9A
330
1F
100
AcDbEntity
  8
OBJECTS
100
AcDbCircle
 10
30.7953917572
 20
3.4349012276
 30
0.0
 40
1.314999999999998
100
AcDbArc
 50
270.0000002442
 51
0.0000000432
  0
ARC
  5
9B
330
1F
100
AcDbEntity
  8
OBJECTS
100
AcDbCircle
 10
30.7951107135
 20
17.1302251944
 30
0.0
 40
1.315281033351255
100
AcDbArc
 50
0.000015715
 51
58.1188530893
  0
ARC
  5
9C
330
1F
100
AcDbEntity
  8
OBJECTS
100
AcDbCircle
 10
28.3042948993
 20
13.1256256598
 30
0.0
 40
6.031315473666744
100
AcDbArc
 50
58.1188530893
 51
105.4743485191
  0
ARC
  5
9D
330
1F
100
AcDbEntity
  8
OBJECTS
100
AcDbCircle
 10
19.9009270487
 20
43.4799563685
 30
0.0
 40
25.46474752301183
100
AcDbArc
 50
250.07224164
 51
285.474348519
  0
ARC
  5
9E
330
1F
100
AcDbEntity
  8
OBJECTS
100
AcDbCircle
 10
7.9113159206
 20
10.4090902267
 30
0.0
 40
9.712417831667217
100
AcDbArc
 50
70.07224164
 51
126.4358834133
  0
ARC
  5
9F
330
1F
100
AcDbEntity
  8
OBJECTS
100
AcDbCircle
 10
2.9240617451
 20
17.1647750338
 30
0.0
 40
1.315276566753083
100
AcDbArc
 50
126.4358832899
 51
179.9995920058
  0
ARC
  5
A0
330
1F
100
AcDbEntity
  8
OBJECTS
100
AcDbCircle
 10
2.9237852937
 20
3.4349011089
 30
0.0
 40
1.315000000000001
100
AcDbArc
 50
180.0000004831
 51
270.0000002442
  0
INSERT
  5
A1
330
1F
100
AcDbEntity
  8
0
  6
Continuous
 62
     7
100
AcDbBlockReference
  2
Block2
 10
21.850331135
 20
15.8434910428
 30
0.0
  0
DIMENSION
  5
A2
330
1F
100
AcDbEntity
  8
DIMENSIONS
100
AcDbDimension
  2
_D
 10
32.1103917382
 20
5.6902900076
 30
0.0
 11
16.4489255383
 21
5.690289876
 31
0.0
 70
   160
  1
<>
 71
     2
 42
-1.0
  3
SLDDIMSTYLE0
100
AcDbAlignedDimension
 13
1.6087852937
 23
3.4349010978
 33
0.0
 14
32.1103917572
 24
3.4349012286
 34
0.0
 50
0.0000004811
100
AcDbRotatedDimension
  0
DIMENSION
  5
B7
330
1F
100
AcDbEntity
  8
DIMENSIONS
100
AcDbDimension
  2
_D_1
 10
8.2805822003
 20
2.1199011317
 30
0.0
 11
8.2805821565
 21
12.3969760119
 31
0.0
 70
   160
  1
<>
 71
     2
 42
-1.0
  3
SLDDIMSTYLE1
100
AcDbAlignedDimension
 13
7.9113158793
 23
20.1215080581
 33
0.0
 14
2.9237852993
 24
2.1199011089
 34
0.0
 50
-89.9999997558
100
AcDbRotatedDimension
  0
DIMENSION
  5
C9
330
1F
100
AcDbEntity
  8
DIMENSIONS
100
AcDbDimension
  2
_D_2
 10
28.2018966416
 20
2.1199012166
 30
0.0
 11
28.2018966049
 21
10.7303093654
 31
0.0
 70
   160
  1
<>
 71
     2
 42
-1.0
  3
SLDDIMSTYLE0
100
AcDbAlignedDimension
 13
28.3042948736
 23
19.1569411335
 33
0.0
 14
30.7953917628
 24
2.1199012276
 34
0.0
 50
-89.9999997558
100
AcDbRotatedDimension
  0
DIMENSION
  5
DE
330
1F
100
AcDbEntity
  8
DIMENSIONS
100
AcDbDimension
  2
_D_3
 10
2.9237852937
 20
3.4349011089
 30
0.0
 11
4.0816994245
 21
3.6499574625
 31
0.0
 70
   164
  1
<>
 71
     1
 42
-1.0
  3
SLDDIMSTYLE2
100
AcDbRadialDimension
 15
1.9144586032
 25
2.5919986045
 35
0.0
 40
0.0
  0
DIMENSION
  5
F2
330
1F
100
AcDbEntity
  8
DIMENSIONS
100
AcDbDimension
  2
_D_4
 10
7.9113159206
 20
10.4090902267
 30
0.0
 11
5.7880030612
 21
17.6366445999
 31
0.0
 70
   164
  1
<>
 71
     1
 42
-1.0
  3
SLDDIMSTYLE3
100
AcDbRadialDimension
 15
5.173691806
 25
19.7276992612
 35
0.0
 40
0.0
  0
DIMENSION
  5
106
330
1F
100
AcDbEntity
  8
DIMENSIONS
100
AcDbDimension
  2
_D_5
 10
19.9009270487
 20
43.4799563685
 30
0.0
 11
14.6361006719
 21
17.3031183259
 31
0.0
 70
   164
  1
<>
 71
     1
 42
-1.0
  3
SLDDIMSTYLE3
100
AcDbRadialDimension
 15
15.7236036921
 25
18.3601765927
 35
0.0
 40
0.0
  0
DIMENSION
  5
119
330
1F
100
AcDbEntity
  8
DIMENSIONS
100
AcDbDimension
  2
_D_6
 10
28.3042948993
 20
13.1256256598
 30
0.0
 11
28.8514300804
 21
17.8733277114
 31
0.0
 70
   164
  1
<>
 71
     1
 42
-1.0
  3
SLDDIMSTYLE3
100
AcDbRadialDimension
 15
28.9947859633
 25
19.1172855662
 35
0.0
 40
0.0
  0
DIMENSION
  5
12C
330
1F
100
AcDbEntity
  8
DIMENSIONS
100
AcDbDimension
  2
_D_7
 10
2.9240617451
 20
17.1647750338
 30
0.0
 11
4.4497076951
 21
16.5598630529
 31
0.0
 70
   164
  1
<>
 71
     1
 42
-1.0
  3
SLDDIMSTYLE2
100
AcDbRadialDimension
 15
1.8805348577
 25
17.9654023392
 35
0.0
 40
0.0
  0
DIMENSION
  5
13E
330
1F
100
AcDbEntity
  8
DIMENSIONS
100
AcDbDimension
  2
_D_8
 10
30.7951107135
 20
17.1302251944
 30
0.0
 11
29.4671001258
 21
16.5156257818
 31
0.0
 70
   164
  1
<>
 71
     1
 42
-1.0
  3
SLDDIMSTYLE2
100
AcDbRadialDimension
 15
31.6859646201
 25
18.0978736397
 35
0.0
 40
0.0
  0
DIMENSION
  5
150
330
1F
100
AcDbEntity
  8
DIMENSIONS
100
AcDbDimension
  2
_D_9
 10
30.7953917572
 20
3.4349012276
 30
0.0
 11
29.730717342
 21
3.6499574625
 31
0.0
 70
   164
  1
<>
 71
     1
 42
-1.0
  3
SLDDIMSTYLE2
100
AcDbRadialDimension
 15
31.6555702641
 25
2.4402565996
 35
0.0
 40
0.0
  0
INSERT
  5
170
330
1F
100
AcDbEntity
  8
NOTES
100
AcDbBlockReference
  2
SW_NOTE_0
 10
10.333267137
 20
15.6712815256
 30
0.0
  0
INSERT
  5
176
330
1F
100
AcDbEntity
  8
NOTES
100
AcDbBlockReference
  2
SW_NOTE_1
 10
11.6926464178
 20
8.0464496558
 30
0.0
  0
MTEXT
  5
177
330
1F
100
AcDbEntity
  8
NOTES
100
AcDbMText
 10
24.2680292901
 20
2.9614492182
 30
0.0
 40
0.2083333333
 41
0.0
 71
     1
 72
     1
  1
REV_A  4/16
  7
SLDTEXTSTYLE0
 73
     1
 44
1.0
  0
INSERT
  5
17F
102
{ACAD_REACTORS
330
181
330
182
102
}
330
1F
100
AcDbEntity
  8
NOTES
100
AcDbBlockReference
  2
SW_NOTE_2
 10
25.3361985494
 20
14.2682280724
 30
0.0
  0
LEADER
  5
181
330
1F
100
AcDbEntity
  8
NOTES
100
AcDbLeader
  3
SLDDIMSTYLE4
 73
     2
 76
     3
 10
31.1203266526
 20
10.2998427487
 30
0.0
 10
25.5861985494
 20
14.2682280724
 30
0.0
 10
25.3361985494
 20
14.2682280724
 30
0.0
340
17F
  0
LEADER
  5
182
330
1F
100
AcDbEntity
  8
NOTES
100
AcDbLeader
  3
SLDDIMSTYLE4
 73
     2
 76
     3
 10
16.859588531
 20
17.0610207532
 30
0.0
 10
22.9367384036
 20
14.2682280724
 30
0.0
 10
23.1867384036
 20
14.2682280724
 30
0.0
340
17F
212
-2.149460145788041
222
0.0
232
0.0
  0
INSERT
  5
188
102
{ACAD_REACTORS
330
189
102
}
330
1F
100
AcDbEntity
  8
DIMENSIONS
100
AcDbBlockReference
  2
SW_NOTE_3
 10
21.5288104938
 20
3.1651351006
 30
0.0
  0
LEADER
  5
189
330
1F
100
AcDbEntity
  8
DIMENSIONS
100
AcDbLeader
  3
SLDDIMSTYLE4
 73
     2
 76
     3
 10
20.8027421806
 20
2.1199011851
 30
0.0
 10
21.2788104938
 20
3.1651351006
 30
0.0
 10
21.5288104938
 20
3.1651351006
 30
0.0
340
188
  0
ENDSEC
  0
SECTION
  2
OBJECTS
  0
DICTIONARY
  5
C
330
0
100
AcDbDictionary
281
     1
  3
ACAD_GROUP
350
D
  3
ACAD_LAYOUT
350
1A
  3
ACAD_MLINESTYLE
350
17
  3
ACAD_PLOTSETTINGS
350
19
  3
ACAD_PLOTSTYLENAME
350
E
  0
DICTIONARY
  5
D
102
{ACAD_REACTORS
330
C
102
}
330
C
100
AcDbDictionary
281
     1
  0
DICTIONARY
  5
1A
102
{ACAD_REACTORS
330
C
102
}
330
C
100
AcDbDictionary
281
     1
  3
Layout1
350
1E
  3
Layout2
350
26
  3
Model
350
22
  0
DICTIONARY
  5
17
102
{ACAD_REACTORS
330
C
102
}
330
C
100
AcDbDictionary
281
     1
  3
Standard
350
18
  0
DICTIONARY
  5
19
102
{ACAD_REACTORS
330
C
102
}
330
C
100
AcDbDictionary
281
     1
  0
ACDBDICTIONARYWDFLT
  5
E
102
{ACAD_REACTORS
330
C
102
}
330
C
100
AcDbDictionary
281
     1
  3
Normal
350
F
100
AcDbDictionaryWithDefault
340
F
  0
LAYOUT
  5
1E
102
{ACAD_REACTORS
330
1A
102
}
330
1A
100
AcDbPlotSettings
  1

  2
none_device
  4

  6

 40
0.0
 41
0.0
 42
0.0
 43
0.0
 44
0.0
 45
0.0
 46
0.0
 47
0.0
 48
0.0
 49
0.0
140
0.0
141
0.0
142
1.0
143
1.0
 70
   688
 72
     0
 73
     0
 74
     5
  7

 75
    16
147
1.0
148
0.0
149
0.0
100
AcDbLayout
  1
Layout1
 70
     1
 71
     1
 10
0.0
 20
0.0
 11
12.0
 21
9.0
 12
0.0
 22
0.0
 32
0.0
 14
1.0000000000E+20
 24
1.0000000000E+20
 34
1.0000000000E+20
 15
-1.0000000000E+20
 25
-1.0000000000E+20
 35
-1.0000000000E+20
146
0.0
 13
0.0
 23
0.0
 33
0.0
 16
1.0
 26
0.0
 36
0.0
 17
0.0
 27
1.0
 37
0.0
 76
     0
330
1B
  0
LAYOUT
  5
26
102
{ACAD_REACTORS
330
1A
102
}
330
1A
100
AcDbPlotSettings
  1

  2
none_device
  4

  6

 40
0.0
 41
0.0
 42
0.0
 43
0.0
 44
0.0
 45
0.0
 46
0.0
 47
0.0
 48
0.0
 49
0.0
140
0.0
141
0.0
142
1.0
143
1.0
 70
   688
 72
     0
 73
     0
 74
     5
  7

 75
    16
147
1.0
148
0.0
149
0.0
100
AcDbLayout
  1
Layout2
 70
     1
 71
     2
 10
0.0
 20
0.0
 11
0.0
 21
0.0
 12
0.0
 22
0.0
 32
0.0
 14
0.0
 24
0.0
 34
0.0
 15
0.0
 25
0.0
 35
0.0
146
0.0
 13
0.0
 23
0.0
 33
0.0
 16
1.0
 26
0.0
 36
0.0
 17
0.0
 27
1.0
 37
0.0
 76
     0
330
23
  0
LAYOUT
  5
22
102
{ACAD_REACTORS
330
1A
102
}
330
1A
100
AcDbPlotSettings
  1

  2
none_device
  4

  6

 40
0.0
 41
0.0
 42
0.0
 43
0.0
 44
0.0
 45
0.0
 46
0.0
 47
0.0
 48
0.0
 49
0.0
140
0.0
141
0.0
142
1.0
143
1.0
 70
  1712
 72
     0
 73
     0
 74
     0
  7

 75
     0
147
1.0
148
0.0
149
0.0
100
AcDbLayout
  1
Model
 70
     1
 71
     0
 10
0.0
 20
0.0
 11
34.0
 21
22.0
 12
0.0
 22
0.0
 32
0.0
 14
0.0
 24
0.0
 34
0.0
 15
34.0
 25
22.0
 35
0.0
146
0.0
 13
0.0
 23
0.0
 33
0.0
 16
1.0
 26
0.0
 36
0.0
 17
0.0
 27
1.0
 37
0.0
 76
     0
330
1F
331
29
  0
MLINESTYLE
  5
18
102
{ACAD_REACTORS
330
17
102
}
330
17
100
AcDbMlineStyle
  2
Standard
 70
     0
  3

 62
   256
 51
90.0
 52
90.0
 71
     2
 49
0.5
 62
   256
  6
BYLAYER
 49
-0.5
 62
   256
  6
BYLAYER
  0
ACDBPLACEHOLDER
  5
F
102
{ACAD_REACTORS
330
E
102
}
330
E
  0
ENDSEC
  0
EOF
