  0
SECTION
  2
HEADER
  9
$ACADVER
  1
AC1015
  9
$ACADMAINTVER
 70
     6
  9
$DWGCODEPAGE
  3
ANSI_1252
  9
$INSBASE
 10
0.0
 20
0.0
 30
0.0
  9
$EXTMIN
 10
0.0
 20
0.0
 30
0.0
  9
$EXTMAX
 10
34.0
 20
22.0
 30
0.0
  9
$LIMMIN
 10
0.0
 20
0.0
  9
$LIMMAX
 10
34.0
 20
22.0
  9
$ORTHOMODE
 70
     0
  9
$REGENMODE
 70
     1
  9
$FILLMODE
 70
     1
  9
$QTEXTMODE
 70
     0
  9
$MIRRTEXT
 70
     1
  9
$LTSCALE
 40
1.0
  9
$ATTMODE
 70
     1
  9
$TEXTSIZE
 40
0.2777777778
  9
$TRACEWID
 40
0.05
  9
$TEXTSTYLE
  7
STANDARD
  9
$CLAYER
  8
0
  9
$CELTYPE
  6
ByLayer
  9
$CECOLOR
 62
   256
  9
$CELTSCALE
 40
1.0
  9
$DISPSILH
 70
     0
  9
$DIMSCALE
 40
1.0
  9
$DIMASZ
 40
0.3640136719
  9
$DIMEXO
 40
0.05
  9
$DIMDLI
 40
0.38
  9
$DIMRND
 40
0.0
  9
$DIMDLE
 40
0.0
  9
$DIMEXE
 40
0.125
  9
$DIMTP
 40
0.0
  9
$DIMTM
 40
0.0
  9
$DIMTXT
 40
0.5
  9
$DIMCEN
 40
0.09
  9
$DIMTSZ
 40
0.0
  9
$DIMTOL
 70
     0
  9
$DIMLIM
 70
     0
  9
$DIMTIH
 70
     1
  9
$DIMTOH
 70
     1
  9
$DIMSE1
 70
     0
  9
$DIMSE2
 70
     0
  9
$DIMTAD
 70
     0
  9
$DIMZIN
 70
     0
  9
$DIMBLK
  1

  9
$DIMASO
 70
     1
  9
$DIMSHO
 70
     1
  9
$DIMPOST
  1

  9
$DIMAPOST
  1

  9
$DIMALT
 70
     0
  9
$DIMALTD
 70
     2
  9
$DIMALTF
 40
25.4
  9
$DIMLFAC
 40
1.0
  9
$DIMTOFL
 70
     0
  9
$DIMTVP
 40
0.0
  9
$DIMTIX
 70
     0
  9
$DIMSOXD
 70
     0
  9
$DIMSAH
 70
     0
  9
$DIMBLK1
  1

  9
$DIMBLK2
  1

  9
$DIMSTYLE
  2
Standard
  9
$DIMCLRD
 70
     0
  9
$DIMCLRE
 70
     0
  9
$DIMCLRT
 70
     0
  9
$DIMTFAC
 40
1.0
  9
$DIMGAP
 40
0.06
  9
$DIMJUST
 70
     0
  9
$DIMSD1
 70
     0
  9
$DIMSD2
 70
     0
  9
$DIMTOLJ
 70
     1
  9
$DIMTZIN
 70
     0
  9
$DIMALTZ
 70
     0
  9
$DIMALTTZ
 70
     0
  9
$DIMUPT
 70
     0
  9
$DIMDEC
 70
     3
  9
$DIMTDEC
 70
     3
  9
$DIMALTU
 70
     2
  9
$DIMALTTD
 70
     2
  9
$DIMTXSTY
  7
STANDARD
  9
$DIMAUNIT
 70
     0
  9
$DIMADEC
 70
     1
  9
$DIMALTRND
 40
0.0
  9
$DIMAZIN
 70
     0
  9
$DIMDSEP
 70
    46
  9
$DIMATFIT
 70
     3
  9
$DIMFRAC
 70
     0
  9
$DIMLDRBLK
  1

  9
$DIMLUNIT
 70
     2
  9
$DIMLWD
 70
    -2
  9
$DIMLWE
 70
    -2
  9
$DIMTMOVE
 70
     0
  9
$LUNITS
 70
     2
  9
$LUPREC
 70
     3
  9
$SKETCHINC
 40
0.1
  9
$FILLETRAD
 40
0.5
  9
$AUNITS
 70
     0
  9
$AUPREC
 70
     1
  9
$MENU
  1
.
  9
$ELEVATION
 40
0.0
  9
$PELEVATION
 40
0.0
  9
$THICKNESS
 40
0.0
  9
$LIMCHECK
 70
     0
  9
$CHAMFERA
 40
0.5
  9
$CHAMFERB
 40
0.5
  9
$CHAMFERC
 40
1.0
  9
$CHAMFERD
 40
0.0
  9
$SKPOLY
 70
     0
  9
$TDCREATE
 40
2456748.409014155
  9
$TDUCREATE
 40
2456748.617347489
  9
$TDUPDATE
 40
2456748.409014965
  9
$TDUUPDATE
 40
2456748.617348298
  9
$TDINDWG
 40
0.0000000116
  9
$TDUSRTIMER
 40
0.0000000116
  9
$USRTIMER
 70
     1
  9
$ANGBASE
 50
0.0
  9
$ANGDIR
 70
     0
  9
$PDMODE
 70
     0
  9
$PDSIZE
 40
-1.0
  9
$PLINEWID
 40
0.0
  9
$SPLFRAME
 70
     0
  9
$SPLINETYPE
 70
     6
  9
$SPLINESEGS
 70
     8
  9
$HANDSEED
  5
129
  9
$SURFTAB1
 70
     6
  9
$SURFTAB2
 70
     6
  9
$SURFTYPE
 70
     6
  9
$SURFU
 70
     6
  9
$SURFV
 70
     6
  9
$UCSBASE
  2

  9
$UCSNAME
  2

  9
$UCSORG
 10
0.0
 20
0.0
 30
0.0
  9
$UCSXDIR
 10
1.0
 20
0.0
 30
0.0
  9
$UCSYDIR
 10
0.0
 20
1.0
 30
0.0
  9
$UCSORTHOREF
  2

  9
$UCSORTHOVIEW
 70
     0
  9
$UCSORGTOP
 10
0.0
 20
0.0
 30
0.0
  9
$UCSORGBOTTOM
 10
0.0
 20
0.0
 30
0.0
  9
$UCSORGLEFT
 10
0.0
 20
0.0
 30
0.0
  9
$UCSORGRIGHT
 10
0.0
 20
0.0
 30
0.0
  9
$UCSORGFRONT
 10
0.0
 20
0.0
 30
0.0
  9
$UCSORGBACK
 10
0.0
 20
0.0
 30
0.0
  9
$PUCSBASE
  2

  9
$PUCSNAME
  2

  9
$PUCSORG
 10
0.0
 20
0.0
 30
0.0
  9
$PUCSXDIR
 10
1.0
 20
0.0
 30
0.0
  9
$PUCSYDIR
 10
0.0
 20
1.0
 30
0.0
  9
$PUCSORTHOREF
  2

  9
$PUCSORTHOVIEW
 70
     0
  9
$PUCSORGTOP
 10
0.0
 20
0.0
 30
0.0
  9
$PUCSORGBOTTOM
 10
0.0
 20
0.0
 30
0.0
  9
$PUCSORGLEFT
 10
0.0
 20
0.0
 30
0.0
  9
$PUCSORGRIGHT
 10
0.0
 20
0.0
 30
0.0
  9
$PUCSORGFRONT
 10
0.0
 20
0.0
 30
0.0
  9
$PUCSORGBACK
 10
0.0
 20
0.0
 30
0.0
  9
$USERI1
 70
     0
  9
$USERI2
 70
     0
  9
$USERI3
 70
     0
  9
$USERI4
 70
     0
  9
$USERI5
 70
     0
  9
$USERR1
 40
0.0
  9
$USERR2
 40
0.0
  9
$USERR3
 40
0.0
  9
$USERR4
 40
0.0
  9
$USERR5
 40
0.0
  9
$WORLDVIEW
 70
     1
  9
$SHADEDGE
 70
     3
  9
$SHADEDIF
 70
    70
  9
$TILEMODE
 70
     1
  9
$MAXACTVP
 70
    64
  9
$PINSBASE
 10
0.0
 20
0.0
 30
0.0
  9
$PLIMCHECK
 70
     0
  9
$PEXTMIN
 10
1.0000000000E+20
 20
1.0000000000E+20
 30
1.0000000000E+20
  9
$PEXTMAX
 10
-1.0000000000E+20
 20
-1.0000000000E+20
 30
-1.0000000000E+20
  9
$PLIMMIN
 10
0.0
 20
0.0
  9
$PLIMMAX
 10
12.0
 20
9.0
  9
$UNITMODE
 70
     0
  9
$VISRETAIN
 70
     1
  9
$PLINEGEN
 70
     0
  9
$PSLTSCALE
 70
     1
  9
$TREEDEPTH
 70
  3020
  9
$CMLSTYLE
  2
Standard
  9
$CMLJUST
 70
     0
  9
$CMLSCALE
 40
1.0
  9
$PROXYGRAPHICS
 70
     1
  9
$MEASUREMENT
 70
     0
  9
$CELWEIGHT
370
    -1
  9
$ENDCAPS
280
     0
  9
$JOINSTYLE
280
     0
  9
$LWDISPLAY
290
     1
  9
$INSUNITS
 70
     1
  9
$HYPERLINKBASE
  1

  9
$STYLESHEET
  1

  9
$XEDIT
290
     1
  9
$CEPSNTYPE
380
     0
  9
$PSTYLEMODE
290
     1
  9
$FINGERPRINTGUID
  2
{EAFB2105-DAD4-4691-AB80-DD8EB1809B31}
  9
$VERSIONGUID
  2
{FAEB1C32-E019-11D5-929B-00C0DF256EC4}
  9
$EXTNAMES
290
     1
  9
$PSVPSCALE
 40
0.0
  9
$OLESTARTUP
290
     0
  0
ENDSEC
  0
SECTION
  2
CLASSES
  0
CLASS
  1
ACDBDICTIONARYWDFLT
  2
AcDbDictionaryWithDefault
  3
ObjectDBX Classes
 90
        0
280
     0
281
     0
  0
CLASS
  1
VISUALSTYLE
  2
AcDbVisualStyle
  3
ObjectDBX Classes
 90
     4095
280
     0
281
     0
  0
CLASS
  1
MATERIAL
  2
AcDbMaterial
  3
ObjectDBX Classes
 90
     1153
280
     0
281
     0
  0
CLASS
  1
ACDBPLACEHOLDER
  2
AcDbPlaceHolder
  3
ObjectDBX Classes
 90
        0
280
     0
281
     0
  0
CLASS
  1
LAYOUT
  2
AcDbLayout
  3
ObjectDBX Classes
 90
        0
280
     0
281
     0
  0
ENDSEC
  0
SECTION
  2
TABLES
  0
TABLE
  2
VPORT
  5
8
330
0
100
AcDbSymbolTable
 70
     1
  0
VPORT
  5
29
330
8
100
AcDbSymbolTableRecord
100
AcDbViewportTableRecord
  2
*Active
 70
     0
 10
0.0
 20
0.0
 11
1.0
 21
1.0
 12
17.0
 22
11.0
 13
0.0
 23
0.0
 14
0.5
 24
0.5
 15
0.5
 25
0.5
 16
0.0
 26
0.0
 36
1.0
 17
0.0
 27
0.0
 37
0.0
 40
22.0
 41
1.5454545455
 42
50.0
 43
0.0
 44
0.0
 50
0.0
 51
0.0
 71
     0
 72
  2000
 73
     1
 74
     3
 75
     0
 76
     0
 77
     0
 78
     0
281
     0
 65
     1
110
0.0
120
0.0
130
0.0
111
1.0
121
0.0
131
0.0
112
0.0
122
1.0
132
0.0
 79
     0
146
0.0
  0
ENDTAB
  0
TABLE
  2
LTYPE
  5
5
330
0
100
AcDbSymbolTable
 70
     6
  0
LTYPE
  5
14
330
5
100
AcDbSymbolTableRecord
100
AcDbLinetypeTableRecord
  2
ByBlock
 70
     0
  3

 72
    65
 73
     0
 40
0.0
  0
LTYPE
  5
15
330
5
100
AcDbSymbolTableRecord
100
AcDbLinetypeTableRecord
  2
ByLayer
 70
     0
  3

 72
    65
 73
     0
 40
0.0
  0
LTYPE
  5
16
330
5
100
AcDbSymbolTableRecord
100
AcDbLinetypeTableRecord
  2
Continuous
 70
     0
  3
Solid line
 72
    65
 73
     0
 40
0.0
  0
LTYPE
  5
3F
330
5
100
AcDbSymbolTableRecord
100
AcDbLinetypeTableRecord
  2
HIDDEN
 70
     0
  3
Hidden __ __ __ __ __ __ __ __ __ __ __ __ __ __
 72
    65
 73
     2
 40
0.075
 49
0.05
 74
     0
 49
-0.025
 74
     0
  0
LTYPE
  5
40
330
5
100
AcDbSymbolTableRecord
100
AcDbLinetypeTableRecord
  2
PHANTOM
 70
     0
  3
Phantom ______  __  __  ______  __  __  ______
 72
    65
 73
     6
 40
0.5
 49
0.25
 74
     0
 49
-0.05
 74
     0
 49
0.05
 74
     0
 49
-0.05
 74
     0
 49
0.05
 74
     0
 49
-0.05
 74
     0
  0
LTYPE
  5
41
330
5
100
AcDbSymbolTableRecord
100
AcDbLinetypeTableRecord
  2
CENTER
 70
     0
  3
Center ____ _ ____ _ ____ _ ____ _ ____ _ ____
 72
    65
 73
     4
 40
0.4
 49
0.25
 74
     0
 49
-0.05
 74
     0
 49
0.05
 74
     0
 49
-0.05
 74
     0
  0
LTYPE
  5
42
330
5
100
AcDbSymbolTableRecord
100
AcDbLinetypeTableRecord
  2
CENTERX2
 70
     0
  3
Center (2x) ________  __  ________  __  _____
 72
    65
 73
     4
 40
0.8
 49
0.5
 74
     0
 49
-0.1
 74
     0
 49
0.1
 74
     0
 49
-0.1
 74
     0
  0
LTYPE
  5
43
330
5
100
AcDbSymbolTableRecord
100
AcDbLinetypeTableRecord
  2
DOT2
 70
     0
  3
Dot (.5x) ........................................
 72
    65
 73
     2
 40
0.025
 49
0.0
 74
     0
 49
-0.025
 74
     0
  0
ENDTAB
  0
TABLE
  2
LAYER
  5
2
330
0
100
AcDbSymbolTable
 70
     8
  0
LAYER
  5
10
330
2
100
AcDbSymbolTableRecord
100
AcDbLayerTableRecord
  2
0
 70
     0
 62
     7
  6
Continuous
370
    -3
390
F
  0
LAYER
  5
44
330
2
100
AcDbSymbolTableRecord
100
AcDbLayerTableRecord
  2
SLD-0
 70
     0
 62
   179
  6
Continuous
370
    -3
390
F
  0
LAYER
  5
45
330
2
100
AcDbSymbolTableRecord
100
AcDbLayerTableRecord
  2
OBJECTS
 70
     0
 62
     5
  6
Continuous
370
    -3
390
F
  0
LAYER
  5
46
330
2
100
AcDbSymbolTableRecord
100
AcDbLayerTableRecord
  2
DIMS
 70
     0
 62
     1
  6
Continuous
370
    -3
390
F
  0
LAYER
  5
47
330
2
100
AcDbSymbolTableRecord
100
AcDbLayerTableRecord
  2
NOTES
 70
     0
 62
     7
  6
Continuous
370
    -3
390
F
  0
LAYER
  5
48
330
2
100
AcDbSymbolTableRecord
100
AcDbLayerTableRecord
  2
IMAGES
 70
     0
 62
     7
  6
Continuous
370
    -3
390
F
  0
LAYER
  5
49
330
2
100
AcDbSymbolTableRecord
100
AcDbLayerTableRecord
  2
CENTERLINES
 70
     0
 62
     7
  6
HIDDEN
370
    -3
390
F
  0
LAYER
  5
4A
330
2
100
AcDbSymbolTableRecord
100
AcDbLayerTableRecord
  2
BLOCKS
 70
     0
 62
    16
  6
Continuous
370
    -3
390
F
  0
ENDTAB
  0
TABLE
  2
STYLE
  5
3
330
0
100
AcDbSymbolTable
 70
     3
  0
STYLE
  5
11
330
3
100
AcDbSymbolTableRecord
100
AcDbTextStyleTableRecord
  2
STANDARD
 70
     0
 40
0.0
 41
1.0
 50
0.0
 71
     0
 42
0.2777777778
  3
ARIAL.TTF
  4

1001
ACAD
1000
ARIAL
1071
       34
  0
STYLE
  5
62
330
3
100
AcDbSymbolTableRecord
100
AcDbTextStyleTableRecord
  2
SLDTEXTSTYLE0
 70
     0
 40
0.0
 41
0.948
 50
0.0
 71
     0
 42
0.2
  3
ARIAL.TTF
  4

1001
ACAD
1000
Arial
1071
      290
  0
STYLE
  5
F9
330
3
100
AcDbSymbolTableRecord
100
AcDbTextStyleTableRecord
  2
SLDTEXTSTYLE1
 70
     0
 40
0.0
 41
0.948
 50
0.0
 71
     0
 42
0.2
  3
ARIALBD.TTF
  4

1001
ACAD
1000
Arial
1071
 33554722
  0
ENDTAB
  0
TABLE
  2
VIEW
  5
6
330
0
100
AcDbSymbolTable
 70
     0
  0
ENDTAB
  0
TABLE
  2
UCS
  5
7
330
0
100
AcDbSymbolTable
 70
     0
  0
ENDTAB
  0
TABLE
  2
APPID
  5
9
330
0
100
AcDbSymbolTable
 70
     1
  0
APPID
  5
12
330
9
100
AcDbSymbolTableRecord
100
AcDbRegAppTableRecord
  2
ACAD
 70
     0
  0
ENDTAB
  0
TABLE
  2
DIMSTYLE
  5
A
330
0
100
AcDbSymbolTable
 70
     5
100
AcDbDimStyleTable
  0
DIMSTYLE
105
27
330
A
100
AcDbSymbolTableRecord
100
AcDbDimStyleTableRecord
  2
Standard
 70
     0
178
     0
340
11
  0
DIMSTYLE
105
63
102
{ACAD_REACTORS
330
61
330
87
330
9B
330
B0
330
DB
102
}
330
A
100
AcDbSymbolTableRecord
100
AcDbDimStyleTableRecord
  2
SLDDIMSTYLE0
 70
     0
 41
0.3640136719
 44
0.0
 45
0.000000001
 78
    12
 79
     3
140
0.3640136719
147
0.091003418
148
0.000000001
170
     1
171
     0
173
     1
178
     0
271
     3
272
     3
274
     0
276
     2
277
     5
284
    12
340
62
  0
DIMSTYLE
105
78
102
{ACAD_REACTORS
330
77
102
}
330
A
100
AcDbSymbolTableRecord
100
AcDbDimStyleTableRecord
  2
SLDDIMSTYLE1
 70
     0
 41
0.3640136719
 44
0.0
 45
0.000000001
 78
    12
 79
     3
140
0.3640136719
141
0.0
147
0.091003418
148
0.000000001
170
     1
171
     0
173
     1
178
     0
271
     3
272
     3
274
     0
276
     2
277
     5
279
     1
284
    12
340
62
  0
DIMSTYLE
105
C7
102
{ACAD_REACTORS
330
C6
102
}
330
A
100
AcDbSymbolTableRecord
100
AcDbDimStyleTableRecord
  2
SLDDIMSTYLE2
 70
     0
 41
0.3640136719
 44
0.0
 45
0.000000001
 78
    12
 79
     3
140
0.3640136719
141
0.0
147
0.091003418
148
0.000000001
170
     1
171
     0
173
     1
178
     0
271
     3
272
     3
274
     0
276
     2
277
     5
284
    12
340
62
  0
DIMSTYLE
105
10B
330
A
100
AcDbSymbolTableRecord
100
AcDbDimStyleTableRecord
  2
SLDDIMSTYLE3
 70
     0
 41
0.3640136719
 44
0.0
 45
0.000000001
140
0.0
146
0.3640136719
147
0.0
173
     1
178
     0
271
     0
272
     0
276
     2
277
     5
340
11
  0
ENDTAB
  0
TABLE
  2
BLOCK_RECORD
  5
1
330
0
100
AcDbSymbolTable
 70
    14
  0
BLOCK_RECORD
  5
1F
330
1
100
AcDbSymbolTableRecord
100
AcDbBlockTableRecord
  2
*Model_Space
340
22
  0
BLOCK_RECORD
  5
1B
330
1
100
AcDbSymbolTableRecord
100
AcDbBlockTableRecord
  2
*Paper_Space
340
1E
  0
BLOCK_RECORD
  5
23
330
1
100
AcDbSymbolTableRecord
100
AcDbBlockTableRecord
  2
*Paper_Space0
340
26
  0
BLOCK_RECORD
  5
64
330
1
100
AcDbSymbolTableRecord
100
AcDbBlockTableRecord
  2
_D
340
0
  0
BLOCK_RECORD
  5
79
330
1
100
AcDbSymbolTableRecord
100
AcDbBlockTableRecord
  2
_D_1
340
0
  0
BLOCK_RECORD
  5
88
330
1
100
AcDbSymbolTableRecord
100
AcDbBlockTableRecord
  2
_D_2
340
0
  0
BLOCK_RECORD
  5
9C
330
1
100
AcDbSymbolTableRecord
100
AcDbBlockTableRecord
  2
_D_3
340
0
  0
BLOCK_RECORD
  5
B1
330
1
100
AcDbSymbolTableRecord
100
AcDbBlockTableRecord
  2
_D_4
340
0
  0
BLOCK_RECORD
  5
C8
330
1
100
AcDbSymbolTableRecord
100
AcDbBlockTableRecord
  2
_D_5
340
0
  0
BLOCK_RECORD
  5
DC
330
1
100
AcDbSymbolTableRecord
100
AcDbBlockTableRecord
  2
_D_6
340
0
  0
BLOCK_RECORD
  5
F1
330
1
100
AcDbSymbolTableRecord
100
AcDbBlockTableRecord
  2
SW_NOTE_0
340
0
102
{BLKREFS
331
102
102
}
  0
BLOCK_RECORD
  5
103
330
1
100
AcDbSymbolTableRecord
100
AcDbBlockTableRecord
  2
SW_NOTE_1
340
0
102
{BLKREFS
331
10A
102
}
  0
BLOCK_RECORD
  5
10E
330
1
100
AcDbSymbolTableRecord
100
AcDbBlockTableRecord
  2
SW_NOTE_2
340
0
102
{BLKREFS
331
113
102
}
  0
BLOCK_RECORD
  5
114
330
1
100
AcDbSymbolTableRecord
100
AcDbBlockTableRecord
  2
SW_NOTE_3
340
0
102
{BLKREFS
331
119
102
}
  0
BLOCK_RECORD
  5
11B
330
1
100
AcDbSymbolTableRecord
100
AcDbBlockTableRecord
  2
SW_NOTE_4
340
0
102
{BLKREFS
331
120
102
}
  0
BLOCK_RECORD
  5
122
330
1
100
AcDbSymbolTableRecord
100
AcDbBlockTableRecord
  2
SW_NOTE_5
340
0
102
{BLKREFS
331
127
102
}
  0
ENDTAB
  0
ENDSEC
  0
SECTION
  2
BLOCKS
  0
BLOCK
  5
20
330
1F
100
AcDbEntity
  8
0
100
AcDbBlockBegin
  2
*Model_Space
 70
     0
 10
0.0
 20
0.0
 30
0.0
  3
*Model_Space
  1

  0
ENDBLK
  5
21
330
1F
100
AcDbEntity
  8
0
100
AcDbBlockEnd
  0
BLOCK
  5
1C
330
1B
100
AcDbEntity
 67
     1
  8
0
100
AcDbBlockBegin
  2
*Paper_Space
 70
     0
 10
0.0
 20
0.0
 30
0.0
  3
*Paper_Space
  1

  0
ENDBLK
  5
1D
330
1B
100
AcDbEntity
 67
     1
  8
0
100
AcDbBlockEnd
  0
BLOCK
  5
24
330
23
100
AcDbEntity
  8
0
100
AcDbBlockBegin
  2
*Paper_Space0
 70
     0
 10
0.0
 20
0.0
 30
0.0
  3
*Paper_Space0
  1

  0
ENDBLK
  5
25
330
23
100
AcDbEntity
  8
0
100
AcDbBlockEnd
  0
BLOCK
  5
65
330
64
100
AcDbEntity
  8
0
100
AcDbBlockBegin
  2
_D
 70
     0
 10
0.0
 20
0.0
 30
0.0
  3
_D
  1

  0
SOLID
  5
67
330
64
100
AcDbEntity
  8
DIMS
100
AcDbTrace
 10
8.0429519346
 20
18.0969816441
 30
0.0
 11
7.9869498312
 21
17.7329679723
 31
0.0
 12
8.0989540379
 22
17.7329679723
 32
0.0
 13
8.0989540379
 23
17.7329679723
 33
0.0
  0
SOLID
  5
68
330
64
100
AcDbEntity
  8
DIMS
100
AcDbTrace
 10
8.0429519346
 20
1.4719816441
 30
0.0
 11
8.0989540379
 21
1.835995316
 31
0.0
 12
7.9869498312
 22
1.835995316
 32
0.0
 13
7.9869498312
 23
1.835995316
 33
0.0
  0
LINE
  5
69
330
64
100
AcDbEntity
  8
DIMS
100
AcDbLine
 10
7.8731603344
 20
10.4920786751
 30
0.0
 11
8.257188118
 21
10.4920786751
 31
0.0
  0
LINE
  5
6A
330
64
100
AcDbEntity
  8
DIMS
100
AcDbLine
 10
7.5221186075
 20
9.8662453689
 30
0.0
 11
7.4387852752
 21
9.8662453689
 31
0.0
  0
LINE
  5
6B
330
64
100
AcDbEntity
  8
DIMS
100
AcDbLine
 10
7.4387852752
 20
9.8662453689
 30
0.0
 11
7.4387852752
 21
9.3072176002
 31
0.0
  0
LINE
  5
6C
330
64
100
AcDbEntity
  8
DIMS
100
AcDbLine
 10
7.4387852752
 20
9.3072176002
 30
0.0
 11
7.5221186075
 21
9.3072176002
 31
0.0
  0
LINE
  5
6D
330
64
100
AcDbEntity
  8
DIMS
100
AcDbLine
 10
8.5637852983
 20
9.8662453689
 30
0.0
 11
8.6471186306
 21
9.8662453689
 31
0.0
  0
LINE
  5
6E
330
64
100
AcDbEntity
  8
DIMS
100
AcDbLine
 10
8.6471186306
 20
9.8662453689
 30
0.0
 11
8.6471186306
 21
9.3072176002
 31
0.0
  0
LINE
  5
6F
330
64
100
AcDbEntity
  8
DIMS
100
AcDbLine
 10
8.6471186306
 20
9.3072176002
 30
0.0
 11
8.5637852983
 21
9.3072176002
 31
0.0
  0
LINE
  5
70
330
64
100
AcDbEntity
  8
DIMS
100
AcDbLine
 10
8.0429519346
 20
18.0969816441
 30
0.0
 11
8.0429519346
 21
10.9602036681
 31
0.0
  0
LINE
  5
71
330
64
100
AcDbEntity
  8
DIMS
100
AcDbLine
 10
8.0429519346
 20
1.4719816441
 30
0.0
 11
8.0429519346
 21
9.2238842862
 31
0.0
  0
MTEXT
  5
72
330
64
100
AcDbEntity
  8
DIMS
100
AcDbMText
 10
7.2644797809
 20
10.6881266103
 30
0.0039370079
 40
0.375
 41
0.0
 71
     1
 72
     1
  1
16
  7
SLDTEXTSTYLE0
 73
     1
 44
1.0
  0
MTEXT
  5
73
330
64
100
AcDbEntity
  8
DIMS
100
AcDbMText
 10
7.926285339
 20
10.9436040857
 30
0.0039370079
 40
0.375
 41
0.0
 71
     1
 72
     1
  1
5
  7
SLDTEXTSTYLE0
 73
     1
 44
1.0
  0
MTEXT
  5
74
330
64
100
AcDbEntity
  8
DIMS
100
AcDbMText
 10
7.926285339
 20
10.4329790911
 30
0.0039370079
 40
0.375
 41
0.0
 71
     1
 72
     1
  1
8
  7
SLDTEXTSTYLE0
 73
     1
 44
1.0
  0
MTEXT
  5
75
330
64
100
AcDbEntity
  8
DIMS
100
AcDbMText
 10
8.310313086
 20
10.6881266103
 30
0.0039370079
 40
0.375
 41
0.0
 71
     1
 72
     1
  1
"
  7
SLDTEXTSTYLE0
 73
     1
 44
1.0
  0
MTEXT
  5
76
330
64
100
AcDbEntity
  8
DIMS
100
AcDbMText
 10
7.626285273
 20
9.7906180118
 30
0.0039370079
 40
0.375
 41
0.0
 71
     1
 72
     1
  1
422
  7
SLDTEXTSTYLE0
 73
     1
 44
1.0
  0
ENDBLK
  5
66
330
64
100
AcDbEntity
  8
0
100
AcDbBlockEnd
  0
BLOCK
  5
7A
330
79
100
AcDbEntity
  8
0
100
AcDbBlockBegin
  2
_D_1
 70
     0
 10
0.0
 20
0.0
 30
0.0
  3
_D_1
  1

  0
SOLID
  5
7C
330
79
100
AcDbEntity
  8
DIMS
100
AcDbTrace
 10
2.0154027815
 20
17.8223471725
 30
0.0
 11
2.2253546547
 21
17.5197543772
 31
0.0
 12
2.3065986453
 22
17.596854029
 32
0.0
 13
2.3065986453
 23
17.596854029
 33
0.0
  0
LINE
  5
7D
330
79
100
AcDbEntity
  8
DIMS
100
AcDbLine
 10
4.0253254455
 20
16.1742076088
 30
0.0
 11
3.9419921132
 21
16.1742076088
 31
0.0
  0
LINE
  5
7E
330
79
100
AcDbEntity
  8
DIMS
100
AcDbLine
 10
3.9419921132
 20
16.1742076088
 30
0.0
 11
3.9419921132
 21
15.6151798401
 31
0.0
  0
LINE
  5
7F
330
79
100
AcDbEntity
  8
DIMS
100
AcDbLine
 10
3.9419921132
 20
15.6151798401
 30
0.0
 11
4.0253254455
 21
15.6151798401
 31
0.0
  0
LINE
  5
80
330
79
100
AcDbEntity
  8
DIMS
100
AcDbLine
 10
4.7892143252
 20
16.1742076088
 30
0.0
 11
4.8725476575
 21
16.1742076088
 31
0.0
  0
LINE
  5
81
330
79
100
AcDbEntity
  8
DIMS
100
AcDbLine
 10
4.8725476575
 20
16.1742076088
 30
0.0
 11
4.8725476575
 21
15.6151798401
 31
0.0
  0
LINE
  5
82
330
79
100
AcDbEntity
  8
DIMS
100
AcDbLine
 10
4.8725476575
 20
15.6151798401
 30
0.0
 11
4.7892143252
 21
15.6151798401
 31
0.0
  0
LINE
  5
83
330
79
100
AcDbEntity
  8
DIMS
100
AcDbLine
 10
2.0154027815
 20
17.8223471725
 30
0.0
 11
3.5822699161
 21
16.1712562054
 31
0.0
  0
LINE
  5
84
330
79
100
AcDbEntity
  8
DIMS
100
AcDbLine
 10
3.5822699161
 20
16.1712562054
 30
0.0
 11
3.8322699161
 21
16.1712562054
 31
0.0
  0
MTEXT
  5
85
330
79
100
AcDbEntity
  8
DIMS
100
AcDbMText
 10
3.8322699161
 20
16.7409413344
 30
0.0039370079
 40
0.375
 41
0.0
 71
     1
 72
     1
  1
R1"
  7
SLDTEXTSTYLE0
 73
     1
 44
1.0
  0
MTEXT
  5
86
330
79
100
AcDbEntity
  8
DIMS
100
AcDbMText
 10
4.1294921109
 20
16.0985802517
 30
0.0039370079
 40
0.375
 41
0.0
 71
     1
 72
     1
  1
25
  7
SLDTEXTSTYLE0
 73
     1
 44
1.0
  0
ENDBLK
  5
7B
330
79
100
AcDbEntity
  8
0
100
AcDbBlockEnd
  0
BLOCK
  5
89
330
88
100
AcDbEntity
  8
0
100
AcDbBlockBegin
  2
_D_2
 70
     0
 10
0.0
 20
0.0
 30
0.0
  3
_D_2
  1

  0
SOLID
  5
8B
330
88
100
AcDbEntity
  8
DIMS
100
AcDbTrace
 10
1.7037666752
 20
4.8967534419
 30
0.0
 11
2.0677803471
 21
4.8407513386
 31
0.0
 12
2.0677803471
 22
4.9527555453
 32
0.0
 13
2.0677803471
 23
4.9527555453
 33
0.0
  0
SOLID
  5
8C
330
88
100
AcDbEntity
  8
DIMS
100
AcDbTrace
 10
32.3287666752
 20
4.8967534419
 30
0.0
 11
31.9647530033
 21
4.9527555453
 31
0.0
 12
31.9647530033
 22
4.8407513386
 32
0.0
 13
31.9647530033
 23
4.8407513386
 33
0.0
  0
LINE
  5
8D
330
88
100
AcDbEntity
  8
DIMS
100
AcDbLine
 10
5.1796759538
 20
5.2967881399
 30
0.0
 11
5.5637037375
 21
5.2967881399
 31
0.0
  0
LINE
  5
8E
330
88
100
AcDbEntity
  8
DIMS
100
AcDbLine
 10
4.828634227
 20
4.6709548337
 30
0.0
 11
4.7453008947
 21
4.6709548337
 31
0.0
  0
LINE
  5
8F
330
88
100
AcDbEntity
  8
DIMS
100
AcDbLine
 10
4.7453008947
 20
4.6709548337
 30
0.0
 11
4.7453008947
 21
4.111927065
 31
0.0
  0
LINE
  5
90
330
88
100
AcDbEntity
  8
DIMS
100
AcDbLine
 10
4.7453008947
 20
4.111927065
 30
0.0
 11
4.828634227
 21
4.111927065
 31
0.0
  0
LINE
  5
91
330
88
100
AcDbEntity
  8
DIMS
100
AcDbLine
 10
5.8703009177
 20
4.6709548337
 30
0.0
 11
5.9536342501
 21
4.6709548337
 31
0.0
  0
LINE
  5
92
330
88
100
AcDbEntity
  8
DIMS
100
AcDbLine
 10
5.9536342501
 20
4.6709548337
 30
0.0
 11
5.9536342501
 21
4.111927065
 31
0.0
  0
LINE
  5
93
330
88
100
AcDbEntity
  8
DIMS
100
AcDbLine
 10
5.9536342501
 20
4.111927065
 30
0.0
 11
5.8703009177
 21
4.111927065
 31
0.0
  0
LINE
  5
94
330
88
100
AcDbEntity
  8
DIMS
100
AcDbLine
 10
1.7037666752
 20
4.8967534419
 30
0.0
 11
4.4876275791
 21
4.8967534419
 31
0.0
  0
LINE
  5
95
330
88
100
AcDbEntity
  8
DIMS
100
AcDbLine
 10
32.3287666752
 20
4.8967534419
 30
0.0
 11
6.211307529
 21
4.8967534419
 31
0.0
  0
MTEXT
  5
96
330
88
100
AcDbEntity
  8
DIMS
100
AcDbMText
 10
4.5709954003
 20
5.4928360751
 30
0.0039370079
 40
0.375
 41
0.0
 71
     1
 72
     1
  1
30
  7
SLDTEXTSTYLE0
 73
     1
 44
1.0
  0
MTEXT
  5
97
330
88
100
AcDbEntity
  8
DIMS
100
AcDbMText
 10
5.2328009584
 20
5.7483135505
 30
0.0039370079
 40
0.375
 41
0.0
 71
     1
 72
     1
  1
5
  7
SLDTEXTSTYLE0
 73
     1
 44
1.0
  0
MTEXT
  5
98
330
88
100
AcDbEntity
  8
DIMS
100
AcDbMText
 10
5.2328009584
 20
5.2376885558
 30
0.0039370079
 40
0.375
 41
0.0
 71
     1
 72
     1
  1
8
  7
SLDTEXTSTYLE0
 73
     1
 44
1.0
  0
MTEXT
  5
99
330
88
100
AcDbEntity
  8
DIMS
100
AcDbMText
 10
5.6168287055
 20
5.4928360751
 30
0.0039370079
 40
0.375
 41
0.0
 71
     1
 72
     1
  1
"
  7
SLDTEXTSTYLE0
 73
     1
 44
1.0
  0
MTEXT
  5
9A
330
88
100
AcDbEntity
  8
DIMS
100
AcDbMText
 10
4.9328008924
 20
4.5953274766
 30
0.0039370079
 40
0.375
 41
0.0
 71
     1
 72
     1
  1
778
  7
SLDTEXTSTYLE0
 73
     1
 44
1.0
  0
ENDBLK
  5
8A
330
88
100
AcDbEntity
  8
0
100
AcDbBlockEnd
  0
BLOCK
  5
9D
330
9C
100
AcDbEntity
  8
0
100
AcDbBlockBegin
  2
_D_3
 70
     0
 10
0.0
 20
0.0
 30
0.0
  3
_D_3
  1

  0
SOLID
  5
9F
330
9C
100
AcDbEntity
  8
DIMS
100
AcDbTrace
 10
29.0787666752
 20
19.4024059178
 30
0.0
 11
29.4427803471
 21
19.3464038144
 31
0.0
 12
29.4427803471
 22
19.4584080211
 32
0.0
 13
29.4427803471
 23
19.4584080211
 33
0.0
  0
SOLID
  5
A0
330
9C
100
AcDbEntity
  8
DIMS
100
AcDbTrace
 10
33.5787666752
 20
19.4024059178
 30
0.0
 11
33.2147530033
 21
19.4584080211
 31
0.0
 12
33.2147530033
 22
19.3464038144
 32
0.0
 13
33.2147530033
 23
19.3464038144
 33
0.0
  0
LINE
  5
A1
330
9C
100
AcDbEntity
  8
DIMS
100
AcDbLine
 10
31.0295440149
 20
19.8024406157
 30
0.0
 11
31.4135717986
 21
19.8024406157
 31
0.0
  0
LINE
  5
A2
330
9C
100
AcDbEntity
  8
DIMS
100
AcDbLine
 10
30.817391267
 20
19.1766073095
 30
0.0
 11
30.7340579347
 21
19.1766073095
 31
0.0
  0
LINE
  5
A3
330
9C
100
AcDbEntity
  8
DIMS
100
AcDbLine
 10
30.7340579347
 20
19.1766073095
 30
0.0
 11
30.7340579347
 21
18.6175795408
 31
0.0
  0
LINE
  5
A4
330
9C
100
AcDbEntity
  8
DIMS
100
AcDbLine
 10
30.7340579347
 20
18.6175795408
 30
0.0
 11
30.817391267
 21
18.6175795408
 31
0.0
  0
LINE
  5
A5
330
9C
100
AcDbEntity
  8
DIMS
100
AcDbLine
 10
31.8590579577
 20
19.1766073095
 30
0.0
 11
31.9423912901
 21
19.1766073095
 31
0.0
  0
LINE
  5
A6
330
9C
100
AcDbEntity
  8
DIMS
100
AcDbLine
 10
31.9423912901
 20
19.1766073095
 30
0.0
 11
31.9423912901
 21
18.6175795408
 31
0.0
  0
LINE
  5
A7
330
9C
100
AcDbEntity
  8
DIMS
100
AcDbLine
 10
31.9423912901
 20
18.6175795408
 30
0.0
 11
31.8590579577
 21
18.6175795408
 31
0.0
  0
LINE
  5
A8
330
9C
100
AcDbEntity
  8
DIMS
100
AcDbLine
 10
29.0787666752
 20
19.6159816441
 30
0.0
 11
29.0787666752
 21
19.2774059178
 31
0.0
  0
LINE
  5
A9
330
9C
100
AcDbEntity
  8
DIMS
100
AcDbLine
 10
29.0787666752
 20
19.4024059178
 30
0.0
 11
30.5881901141
 21
19.4024059178
 31
0.0
  0
LINE
  5
AA
330
9C
100
AcDbEntity
  8
DIMS
100
AcDbLine
 10
33.5787666752
 20
19.4024059178
 30
0.0
 11
32.0882590739
 21
19.4024059178
 31
0.0
  0
MTEXT
  5
AB
330
9C
100
AcDbEntity
  8
DIMS
100
AcDbMText
 10
30.6986412359
 20
19.9984885509
 30
0.0039370079
 40
0.375
 41
0.0
 71
     1
 72
     1
  1
4
  7
SLDTEXTSTYLE0
 73
     1
 44
1.0
  0
MTEXT
  5
AC
330
9C
100
AcDbEntity
  8
DIMS
100
AcDbMText
 10
31.0826690196
 20
20.2539660263
 30
0.0039370079
 40
0.375
 41
0.0
 71
     1
 72
     1
  1
1
  7
SLDTEXTSTYLE0
 73
     1
 44
1.0
  0
MTEXT
  5
AD
330
9C
100
AcDbEntity
  8
DIMS
100
AcDbMText
 10
31.0826690196
 20
19.7433410317
 30
0.0039370079
 40
0.375
 41
0.0
 71
     1
 72
     1
  1
2
  7
SLDTEXTSTYLE0
 73
     1
 44
1.0
  0
MTEXT
  5
AE
330
9C
100
AcDbEntity
  8
DIMS
100
AcDbMText
 10
31.4666968032
 20
19.9984885509
 30
0.0039370079
 40
0.375
 41
0.0
 71
     1
 72
     1
  1
"
  7
SLDTEXTSTYLE0
 73
     1
 44
1.0
  0
MTEXT
  5
AF
330
9C
100
AcDbEntity
  8
DIMS
100
AcDbMText
 10
30.9215579324
 20
19.1009799524
 30
0.0039370079
 40
0.375
 41
0.0
 71
     1
 72
     1
  1
114
  7
SLDTEXTSTYLE0
 73
     1
 44
1.0
  0
ENDBLK
  5
9E
330
9C
100
AcDbEntity
  8
0
100
AcDbBlockEnd
  0
BLOCK
  5
B2
330
B1
100
AcDbEntity
  8
0
100
AcDbBlockBegin
  2
_D_4
 70
     0
 10
0.0
 20
0.0
 30
0.0
  3
_D_4
  1

  0
SOLID
  5
B4
330
B1
100
AcDbEntity
  8
DIMS
100
AcDbTrace
 10
19.5037666752
 20
20.5343367166
 30
0.0
 11
19.8677803471
 21
20.4783346132
 31
0.0
 12
19.8677803471
 22
20.59033882
 32
0.0
 13
19.8677803471
 23
20.59033882
 33
0.0
  0
SOLID
  5
B5
330
B1
100
AcDbEntity
  8
DIMS
100
AcDbTrace
 10
33.5787666752
 20
20.5343367166
 30
0.0
 11
33.2147530033
 21
20.59033882
 31
0.0
 12
33.2147530033
 22
20.4783346132
 32
0.0
 13
33.2147530033
 23
20.4783346132
 33
0.0
  0
LINE
  5
B6
330
B1
100
AcDbEntity
  8
DIMS
100
AcDbLine
 10
25.4234322177
 20
20.9343714145
 30
0.0
 11
26.0852377758
 21
20.9343714145
 31
0.0
  0
LINE
  5
B7
330
B1
100
AcDbEntity
  8
DIMS
100
AcDbLine
 10
25.2112794331
 20
20.3085381084
 30
0.0
 11
25.1279461008
 21
20.3085381084
 31
0.0
  0
LINE
  5
B8
330
B1
100
AcDbEntity
  8
DIMS
100
AcDbLine
 10
25.1279461008
 20
20.3085381084
 30
0.0
 11
25.1279461008
 21
19.7495103396
 31
0.0
  0
LINE
  5
B9
330
B1
100
AcDbEntity
  8
DIMS
100
AcDbLine
 10
25.1279461008
 20
19.7495103396
 30
0.0
 11
25.2112794331
 21
19.7495103396
 31
0.0
  0
LINE
  5
BA
330
B1
100
AcDbEntity
  8
DIMS
100
AcDbLine
 10
26.2529461239
 20
20.3085381084
 30
0.0
 11
26.3362794562
 21
20.3085381084
 31
0.0
  0
LINE
  5
BB
330
B1
100
AcDbEntity
  8
DIMS
100
AcDbLine
 10
26.3362794562
 20
20.3085381084
 30
0.0
 11
26.3362794562
 21
19.7495103396
 31
0.0
  0
LINE
  5
BC
330
B1
100
AcDbEntity
  8
DIMS
100
AcDbLine
 10
26.3362794562
 20
19.7495103396
 30
0.0
 11
26.2529461239
 21
19.7495103396
 31
0.0
  0
LINE
  5
BD
330
B1
100
AcDbEntity
  8
DIMS
100
AcDbLine
 10
19.5037666752
 20
19.7159816441
 30
0.0
 11
19.5037666752
 21
20.6593367166
 31
0.0
  0
LINE
  5
BE
330
B1
100
AcDbEntity
  8
DIMS
100
AcDbLine
 10
33.5787666752
 20
20.3969816441
 30
0.0
 11
33.5787666752
 21
20.6593367166
 31
0.0
  0
LINE
  5
BF
330
B1
100
AcDbEntity
  8
DIMS
100
AcDbLine
 10
19.5037666752
 20
20.5343367166
 30
0.0
 11
24.731383843
 21
20.5343367166
 31
0.0
  0
LINE
  5
C0
330
B1
100
AcDbEntity
  8
DIMS
100
AcDbLine
 10
33.5787666752
 20
20.5343367166
 30
0.0
 11
26.7328416774
 21
20.5343367166
 31
0.0
  0
MTEXT
  5
C1
330
B1
100
AcDbEntity
  8
DIMS
100
AcDbMText
 10
24.8147516643
 20
21.1304193498
 30
0.0039370079
 40
0.375
 41
0.0
 71
     1
 72
     1
  1
14
  7
SLDTEXTSTYLE0
 73
     1
 44
1.0
  0
MTEXT
  5
C2
330
B1
100
AcDbEntity
  8
DIMS
100
AcDbMText
 10
25.6154461096
 20
21.3858968252
 30
0.0039370079
 40
0.375
 41
0.0
 71
     1
 72
     1
  1
1
  7
SLDTEXTSTYLE0
 73
     1
 44
1.0
  0
MTEXT
  5
C3
330
B1
100
AcDbEntity
  8
DIMS
100
AcDbMText
 10
25.4765572224
 20
20.8752718305
 30
0.0039370079
 40
0.375
 41
0.0
 71
     1
 72
     1
  1
16
  7
SLDTEXTSTYLE0
 73
     1
 44
1.0
  0
MTEXT
  5
C4
330
B1
100
AcDbEntity
  8
DIMS
100
AcDbMText
 10
26.1383628538
 20
21.1304193498
 30
0.0039370079
 40
0.375
 41
0.0
 71
     1
 72
     1
  1
"
  7
SLDTEXTSTYLE0
 73
     1
 44
1.0
  0
MTEXT
  5
C5
330
B1
100
AcDbEntity
  8
DIMS
100
AcDbMText
 10
25.3154460985
 20
20.2329107512
 30
0.0039370079
 40
0.375
 41
0.0
 71
     1
 72
     1
  1
358
  7
SLDTEXTSTYLE0
 73
     1
 44
1.0
  0
ENDBLK
  5
B3
330
B1
100
AcDbEntity
  8
0
100
AcDbBlockEnd
  0
BLOCK
  5
C9
330
C8
100
AcDbEntity
  8
0
100
AcDbBlockBegin
  2
_D_5
 70
     0
 10
0.0
 20
0.0
 30
0.0
  3
_D_5
  1

  0
SOLID
  5
CB
330
C8
100
AcDbEntity
  8
DIMS
100
AcDbTrace
 10
20.2232021699
 20
19.454055787
 30
0.0
 11
20.5565569198
 21
19.2974773732
 31
0.0
 12
20.5882057031
 22
19.4049171091
 32
0.0
 13
20.5882057031
 23
19.4049171091
 33
0.0
  0
LINE
  5
CC
330
C8
100
AcDbEntity
  8
DIMS
100
AcDbLine
 10
22.2931601556
 20
19.4815469636
 30
0.0
 11
22.6771879393
 21
19.4815469636
 31
0.0
  0
LINE
  5
CD
330
C8
100
AcDbEntity
  8
DIMS
100
AcDbLine
 10
21.9543579874
 20
18.8557136575
 30
0.0
 11
21.8710246551
 21
18.8557136575
 31
0.0
  0
LINE
  5
CE
330
C8
100
AcDbEntity
  8
DIMS
100
AcDbLine
 10
21.8710246551
 20
18.8557136575
 30
0.0
 11
21.8710246551
 21
18.2966858888
 31
0.0
  0
LINE
  5
CF
330
C8
100
AcDbEntity
  8
DIMS
100
AcDbLine
 10
21.8710246551
 20
18.2966858888
 30
0.0
 11
21.9543579874
 21
18.2966858888
 31
0.0
  0
LINE
  5
D0
330
C8
100
AcDbEntity
  8
DIMS
100
AcDbLine
 10
22.7182468671
 20
18.8557136575
 30
0.0
 11
22.8015801994
 21
18.8557136575
 31
0.0
  0
LINE
  5
D1
330
C8
100
AcDbEntity
  8
DIMS
100
AcDbLine
 10
22.8015801994
 20
18.8557136575
 30
0.0
 11
22.8015801994
 21
18.2966858888
 31
0.0
  0
LINE
  5
D2
330
C8
100
AcDbEntity
  8
DIMS
100
AcDbLine
 10
22.8015801994
 20
18.2966858888
 30
0.0
 11
22.7182468671
 21
18.2966858888
 31
0.0
  0
LINE
  5
D3
330
C8
100
AcDbEntity
  8
DIMS
100
AcDbLine
 10
20.2232021699
 20
19.454055787
 30
0.0
 11
21.1811809816
 21
19.171861647
 31
0.0
  0
LINE
  5
D4
330
C8
100
AcDbEntity
  8
DIMS
100
AcDbLine
 10
21.1811809816
 20
19.171861647
 30
0.0
 11
21.4311809816
 21
19.171861647
 31
0.0
  0
MTEXT
  5
D5
330
C8
100
AcDbEntity
  8
DIMS
100
AcDbMText
 10
21.4311809816
 20
19.6775948989
 30
0.0039370079
 40
0.375
 41
0.0
 71
     1
 72
     1
  1
%%c
  7
SLDTEXTSTYLE0
 73
     1
 44
1.0
  0
MTEXT
  5
D6
330
C8
100
AcDbEntity
  8
DIMS
100
AcDbMText
 10
21.9622573766
 20
19.6775948989
 30
0.0039370079
 40
0.375
 41
0.0
 71
     1
 72
     1
  1
1
  7
SLDTEXTSTYLE0
 73
     1
 44
1.0
  0
MTEXT
  5
D7
330
C8
100
AcDbEntity
  8
DIMS
100
AcDbMText
 10
22.3462851603
 20
19.9330723743
 30
0.0039370079
 40
0.375
 41
0.0
 71
     1
 72
     1
  1
1
  7
SLDTEXTSTYLE0
 73
     1
 44
1.0
  0
MTEXT
  5
D8
330
C8
100
AcDbEntity
  8
DIMS
100
AcDbMText
 10
22.3462851603
 20
19.4224473796
 30
0.0039370079
 40
0.375
 41
0.0
 71
     1
 72
     1
  1
2
  7
SLDTEXTSTYLE0
 73
     1
 44
1.0
  0
MTEXT
  5
D9
330
C8
100
AcDbEntity
  8
DIMS
100
AcDbMText
 10
22.7303129073
 20
19.6775948989
 30
0.0039370079
 40
0.375
 41
0.0
 71
     1
 72
     1
  1
"
  7
SLDTEXTSTYLE0
 73
     1
 44
1.0
  0
MTEXT
  5
DA
330
C8
100
AcDbEntity
  8
DIMS
100
AcDbMText
 10
22.0585246528
 20
18.7800863003
 30
0.0039370079
 40
0.375
 41
0.0
 71
     1
 72
     1
  1
38
  7
SLDTEXTSTYLE0
 73
     1
 44
1.0
  0
ENDBLK
  5
CA
330
C8
100
AcDbEntity
  8
0
100
AcDbBlockEnd
  0
BLOCK
  5
DD
330
DC
100
AcDbEntity
  8
0
100
AcDbBlockBegin
  2
_D_6
 70
     0
 10
0.0
 20
0.0
 30
0.0
  3
_D_6
  1

  0
SOLID
  5
DF
330
DC
100
AcDbEntity
  8
DIMS
100
AcDbTrace
 10
17.5020917917
 20
19.6659816441
 30
0.0
 11
17.5580938951
 21
20.029995316
 31
0.0
 12
17.4460896884
 22
20.029995316
 32
0.0
 13
17.4460896884
 23
20.029995316
 33
0.0
  0
SOLID
  5
E0
330
DC
100
AcDbEntity
  8
DIMS
100
AcDbTrace
 10
17.5020917917
 20
21.5969816441
 30
0.0
 11
17.4460896884
 21
21.2329679723
 31
0.0
 12
17.5580938951
 22
21.2329679723
 32
0.0
 13
17.5580938951
 23
21.2329679723
 33
0.0
  0
LINE
  5
E1
330
DC
100
AcDbEntity
  8
DIMS
100
AcDbLine
 10
15.7759467996
 20
19.5720929932
 30
0.0
 11
16.4377523577
 21
19.5720929932
 31
0.0
  0
LINE
  5
E2
330
DC
100
AcDbEntity
  8
DIMS
100
AcDbLine
 10
15.841571716
 20
18.9462596871
 30
0.0
 11
15.7582383837
 21
18.9462596871
 31
0.0
  0
LINE
  5
E3
330
DC
100
AcDbEntity
  8
DIMS
100
AcDbLine
 10
15.7582383837
 20
18.9462596871
 30
0.0
 11
15.7582383837
 21
18.3872319184
 31
0.0
  0
LINE
  5
E4
330
DC
100
AcDbEntity
  8
DIMS
100
AcDbLine
 10
15.7582383837
 20
18.3872319184
 30
0.0
 11
15.841571716
 21
18.3872319184
 31
0.0
  0
LINE
  5
E5
330
DC
100
AcDbEntity
  8
DIMS
100
AcDbLine
 10
16.6054605957
 20
18.9462596871
 30
0.0
 11
16.688793928
 21
18.9462596871
 31
0.0
  0
LINE
  5
E6
330
DC
100
AcDbEntity
  8
DIMS
100
AcDbLine
 10
16.688793928
 20
18.9462596871
 30
0.0
 11
16.688793928
 21
18.3872319184
 31
0.0
  0
LINE
  5
E7
330
DC
100
AcDbEntity
  8
DIMS
100
AcDbLine
 10
16.688793928
 20
18.3872319184
 30
0.0
 11
16.6054605957
 21
18.3872319184
 31
0.0
  0
LINE
  5
E8
330
DC
100
AcDbEntity
  8
DIMS
100
AcDbLine
 10
19.4537666752
 20
19.6659816441
 30
0.0
 11
17.3770917917
 21
19.6659816441
 31
0.0
  0
LINE
  5
E9
330
DC
100
AcDbEntity
  8
DIMS
100
AcDbLine
 10
17.2520917917
 20
19.1720582953
 30
0.0
 11
17.5020917917
 21
19.1720582953
 31
0.0
  0
LINE
  5
EA
330
DC
100
AcDbEntity
  8
DIMS
100
AcDbLine
 10
17.5020917917
 20
19.1720582953
 30
0.0
 11
17.5020917917
 21
19.6659816441
 31
0.0
  0
LINE
  5
EB
330
DC
100
AcDbEntity
  8
DIMS
100
AcDbLine
 10
17.5020917917
 20
19.6659816441
 30
0.0
 11
17.5020917917
 21
21.5969816441
 31
0.0
  0
MTEXT
  5
EC
330
DC
100
AcDbEntity
  8
DIMS
100
AcDbMText
 10
15.4450440205
 20
19.7681409285
 30
0.0039370079
 40
0.375
 41
0.0
 71
     1
 72
     1
  1
1
  7
SLDTEXTSTYLE0
 73
     1
 44
1.0
  0
MTEXT
  5
ED
330
DC
100
AcDbEntity
  8
DIMS
100
AcDbMText
 10
15.8290718042
 20
20.0236184039
 30
0.0039370079
 40
0.375
 41
0.0
 71
     1
 72
     1
  1
15
  7
SLDTEXTSTYLE0
 73
     1
 44
1.0
  0
MTEXT
  5
EE
330
DC
100
AcDbEntity
  8
DIMS
100
AcDbMText
 10
15.8290718042
 20
19.5129934092
 30
0.0039370079
 40
0.375
 41
0.0
 71
     1
 72
     1
  1
16
  7
SLDTEXTSTYLE0
 73
     1
 44
1.0
  0
MTEXT
  5
EF
330
DC
100
AcDbEntity
  8
DIMS
100
AcDbMText
 10
16.4908773256
 20
19.7681409285
 30
0.0039370079
 40
0.375
 41
0.0
 71
     1
 72
     1
  1
"
  7
SLDTEXTSTYLE0
 73
     1
 44
1.0
  0
MTEXT
  5
F0
330
DC
100
AcDbEntity
  8
DIMS
100
AcDbMText
 10
15.9457383814
 20
18.8706323299
 30
0.0039370079
 40
0.375
 41
0.0
 71
     1
 72
     1
  1
49
  7
SLDTEXTSTYLE0
 73
     1
 44
1.0
  0
ENDBLK
  5
DE
330
DC
100
AcDbEntity
  8
0
100
AcDbBlockEnd
  0
BLOCK
  5
F2
330
F1
100
AcDbEntity
  8
0
100
AcDbBlockBegin
  2
SW_NOTE_0
 70
     0
 10
0.0
 20
0.0
 30
0.0
  3
SW_NOTE_0
  1

  0
MTEXT
  5
F4
330
F1
100
AcDbEntity
  8
NOTES
 62
     0
100
AcDbMText
 10
0.0
 20
0.2685557791
 30
0.0
 40
0.2083333333
 41
0.0
 71
     1
 72
     1
  1
NOTES:
  7
SLDTEXTSTYLE0
 73
     1
 44
1.0
  0
MTEXT
  5
F5
330
F1
100
AcDbEntity
  8
NOTES
 62
     0
100
AcDbMText
 10
0.3937007786
 20
-0.2869997697
 30
0.0
 40
0.2083333333
 41
0.0
 71
     1
 72
     1
  1
THOROUGHLY READ ALL  INSTALLATION INSTRUCTIONS
  7
SLDTEXTSTYLE0
 73
     1
 44
1.0
  0
MTEXT
  5
F6
330
F1
100
AcDbEntity
  8
NOTES
 62
     0
100
AcDbMText
 10
0.0
 20
-0.2869997697
 30
0.0
 40
0.2083333333
 41
0.0
 71
     1
 72
     1
  1
1.
  7
SLDTEXTSTYLE0
 73
     1
 44
1.0
  0
MTEXT
  5
F7
330
F1
100
AcDbEntity
  8
NOTES
 62
     0
100
AcDbMText
 10
0.0
 20
-0.5647775441
 30
0.0
 40
0.2083333333
 41
0.0
 71
     1
 72
     1
  1
BEFORE CUTTING COUNTERTOP.
  7
SLDTEXTSTYLE0
 73
     1
 44
1.0
  0
MTEXT
  5
F8
330
F1
100
AcDbEntity
  8
NOTES
 62
     0
100
AcDbMText
 10
0.0
 20
-1.120333093
 30
0.0
 40
0.2083333333
 41
0.0
 71
     1
 72
     1
  1
2.  DIMENSIONS ARE IN INCHES [MM].
  7
SLDTEXTSTYLE0
 73
     1
 44
1.0
  0
MTEXT
  5
FA
330
F1
100
AcDbEntity
  8
NOTES
 62
     0
100
AcDbMText
 10
0.0
 20
-1.9536664162
 30
0.0
 40
0.2083333333
 41
0.0
 71
     1
 72
     1
  1
PLEASE CHECK TEMPLATE AGAINST PHYSICAL SINK FOR 
  7
SLDTEXTSTYLE1
 73
     1
 44
1.0
  0
MTEXT
  5
FB
330
F1
100
AcDbEntity
  8
NOTES
 62
     0
100
AcDbMText
 10
0.0
 20
-2.2314441907
 30
0.0
 40
0.2083333333
 41
0.0
 71
     1
 72
     1
  1
MOST ACCURATE CUT.
  7
SLDTEXTSTYLE1
 73
     1
 44
1.0
  0
MTEXT
  5
FC
330
F1
100
AcDbEntity
  8
NOTES
 62
     0
100
AcDbMText
 10
0.0
 20
-3.3425552884
 30
0.0
 40
0.2083333333
 41
0.0
 71
     1
 72
     1
  1
NOTAS:
  7
SLDTEXTSTYLE0
 73
     1
 44
1.0
  0
MTEXT
  5
FD
330
F1
100
AcDbEntity
  8
NOTES
 62
     0
100
AcDbMText
 10
0.0
 20
-3.8981108372
 30
0.0
 40
0.2083333333
 41
0.0
 71
     1
 72
     1
  1
1.  LEA ATENTAMENTE LAS INSTRUCCIONES DE INSTALACIÓN 
  7
SLDTEXTSTYLE0
 73
     1
 44
1.0
  0
MTEXT
  5
FE
330
F1
100
AcDbEntity
  8
NOTES
 62
     0
100
AcDbMText
 10
0.0
 20
-4.1758886116
 30
0.0
 40
0.2083333333
 41
0.0
 71
     1
 72
     1
  1
ANTES DE CORTAR LA ENCIMERA.
  7
SLDTEXTSTYLE0
 73
     1
 44
1.0
  0
MTEXT
  5
FF
330
F1
100
AcDbEntity
  8
NOTES
 62
     0
100
AcDbMText
 10
0.0
 20
-4.7314441605
 30
0.0
 40
0.2083333333
 41
0.0
 71
     1
 72
     1
  1
2.  DIMENSIONES EN PULGADAS [MM].
  7
SLDTEXTSTYLE0
 73
     1
 44
1.0
  0
MTEXT
  5
100
330
F1
100
AcDbEntity
  8
NOTES
 62
     0
100
AcDbMText
 10
0.0
 20
-5.5647774837
 30
0.0
 40
0.2083333333
 41
0.0
 71
     1
 72
     1
  1
POR FAVOR COMPRUEBE PLANTILLA CONTRA FREGADERO 
  7
SLDTEXTSTYLE1
 73
     1
 44
1.0
  0
MTEXT
  5
101
330
F1
100
AcDbEntity
  8
NOTES
 62
     0
100
AcDbMText
 10
0.0
 20
-5.8425552581
 30
0.0
 40
0.2083333333
 41
0.0
 71
     1
 72
     1
  1
FÍSICO PARA CORTE MÁS EXACTO.
  7
SLDTEXTSTYLE1
 73
     1
 44
1.0
  0
ENDBLK
  5
F3
330
F1
100
AcDbEntity
  8
0
100
AcDbBlockEnd
  0
BLOCK
  5
104
330
103
100
AcDbEntity
  8
0
100
AcDbBlockBegin
  2
SW_NOTE_1
 70
     0
 10
0.0
 20
0.0
 30
0.0
  3
SW_NOTE_1
  1

  0
MTEXT
  5
106
330
103
100
AcDbEntity
  8
NOTES
 62
     0
100
AcDbMText
 10
-0.8907685702
 20
0.6868178672
 30
0.0
 40
0.2083333333
 41
0.0
 71
     2
 72
     1
  1
TEMPLATE
  7
SLDTEXTSTYLE0
 73
     1
 44
1.0
  0
MTEXT
  5
107
330
103
100
AcDbEntity
  8
NOTES
 62
     0
100
AcDbMText
 10
-0.8876338999
 20
0.4090400928
 30
0.0
 40
0.2083333333
 41
0.0
 71
     2
 72
     1
  1
CENTERLINE
  7
SLDTEXTSTYLE0
 73
     1
 44
1.0
  0
MTEXT
  5
108
330
103
100
AcDbEntity
  8
NOTES
 62
     0
100
AcDbMText
 10
-0.8875133618
 20
-0.1465154561
 30
0.0
 40
0.2083333333
 41
0.0
 71
     2
 72
     1
  1
PLANTILLA
  7
SLDTEXTSTYLE0
 73
     1
 44
1.0
  0
MTEXT
  5
109
330
103
100
AcDbEntity
  8
NOTES
 62
     0
100
AcDbMText
 10
-0.8905274273
 20
-0.4242932305
 30
0.0
 40
0.2083333333
 41
0.0
 71
     2
 72
     1
  1
CENTRAL
  7
SLDTEXTSTYLE0
 73
     1
 44
1.0
  0
ENDBLK
  5
105
330
103
100
AcDbEntity
  8
0
100
AcDbBlockEnd
  0
BLOCK
  5
10F
330
10E
100
AcDbEntity
  8
0
100
AcDbBlockBegin
  2
SW_NOTE_2
 70
     0
 10
0.0
 20
0.0
 30
0.0
  3
SW_NOTE_2
  1

  0
MTEXT
  5
111
330
10E
100
AcDbEntity
  8
NOTES
 62
     0
100
AcDbMText
 10
5.146484375
 20
0.8056673374
 30
0.0
 40
0.625
 41
0.0
 71
     2
 72
     1
  1
TEMPLATE #: 1000001898
  7
SLDTEXTSTYLE0
 73
     1
 44
1.0
  0
MTEXT
  5
112
330
10E
100
AcDbEntity
  8
NOTES
 62
     0
100
AcDbMText
 10
5.1557424782
 20
-0.013833048
 30
0.0
 40
0.3125
 41
0.0
 71
     2
 72
     1
  1
60/40 GLASS DECK TOP MOUNT TEMPLATE 33" X 22" W/1" RADIUS
  7
SLDTEXTSTYLE0
 73
     1
 44
1.0
  0
ENDBLK
  5
110
330
10E
100
AcDbEntity
  8
0
100
AcDbBlockEnd
  0
BLOCK
  5
115
330
114
100
AcDbEntity
  8
0
100
AcDbBlockBegin
  2
SW_NOTE_3
 70
     0
 10
0.0
 20
0.0
 30
0.0
  3
SW_NOTE_3
  1

  0
MTEXT
  5
117
330
114
100
AcDbEntity
  8
NOTES
 62
     0
100
AcDbMText
 10
0.0223491031
 20
0.4086684653
 30
0.0
 40
0.2083333333
 41
0.0
 71
     1
 72
     1
  1
RIM OF SINK
  7
SLDTEXTSTYLE0
 73
     1
 44
1.0
  0
MTEXT
  5
118
330
114
100
AcDbEntity
  8
NOTES
 62
     0
100
AcDbMText
 10
0.0223491031
 20
-0.1468870835
 30
0.0
 40
0.2083333333
 41
0.0
 71
     1
 72
     1
  1
RIM DE FREGADERO
  7
SLDTEXTSTYLE0
 73
     1
 44
1.0
  0
ENDBLK
  5
116
330
114
100
AcDbEntity
  8
0
100
AcDbBlockEnd
  0
BLOCK
  5
11C
330
11B
100
AcDbEntity
  8
0
100
AcDbBlockBegin
  2
SW_NOTE_4
 70
     0
 10
0.0
 20
0.0
 30
0.0
  3
SW_NOTE_4
  1

  0
MTEXT
  5
11E
330
11B
100
AcDbEntity
  8
NOTES
 62
     0
100
AcDbMText
 10
0.0229432736
 20
0.4087762003
 30
0.0
 40
0.2083333333
 41
0.0
 71
     1
 72
     1
  1
CUT LINE
  7
SLDTEXTSTYLE0
 73
     1
 44
1.0
  0
MTEXT
  5
11F
330
11B
100
AcDbEntity
  8
NOTES
 62
     0
100
AcDbMText
 10
0.0229432736
 20
-0.1467793485
 30
0.0
 40
0.2083333333
 41
0.0
 71
     1
 72
     1
  1
LÍNEA DE CORTE
  7
SLDTEXTSTYLE0
 73
     1
 44
1.0
  0
ENDBLK
  5
11D
330
11B
100
AcDbEntity
  8
0
100
AcDbBlockEnd
  0
BLOCK
  5
123
330
122
100
AcDbEntity
  8
0
100
AcDbBlockBegin
  2
SW_NOTE_5
 70
     0
 10
0.0
 20
0.0
 30
0.0
  3
SW_NOTE_5
  1

  0
MTEXT
  5
125
330
122
100
AcDbEntity
  8
NOTES
 62
     0
100
AcDbMText
 10
0.0000661745
 20
0.408728585
 30
0.0
 40
0.2083333333
 41
0.0
 71
     3
 72
     1
  1
FAUCET HOLES
  7
SLDTEXTSTYLE0
 73
     1
 44
1.0
  0
MTEXT
  5
126
330
122
100
AcDbEntity
  8
NOTES
 62
     0
100
AcDbMText
 10
0.0044068124
 20
-0.1468269638
 30
0.0
 40
0.2083333333
 41
0.0
 71
     3
 72
     1
  1
AGUJEROS DEL GRIFO
  7
SLDTEXTSTYLE0
 73
     1
 44
1.0
  0
ENDBLK
  5
124
330
122
100
AcDbEntity
  8
0
100
AcDbBlockEnd
  0
ENDSEC
  0
SECTION
  2
ENTITIES
  0
LINE
  5
4B
330
1F
100
AcDbEntity
  8
OBJECTS
100
AcDbLine
 10
0.4537666752
 20
20.3469816441
 30
0.0
 11
0.4537666752
 21
1.4719816441
 31
0.0
  0
LINE
  5
4C
330
1F
100
AcDbEntity
  8
OBJECTS
100
AcDbLine
 10
1.7037666752
 20
0.2219816441
 30
0.0
 11
32.3287666752
 21
0.2219816441
 31
0.0
  0
LINE
  5
4D
330
1F
100
AcDbEntity
  8
OBJECTS
  6
CENTERX2
100
AcDbLine
 10
32.3287666752
 20
9.7844816441
 30
0.0
 11
30.23446766
 21
9.7844816441
 31
0.0
  0
LINE
  5
4E
330
1F
100
AcDbEntity
  8
OBJECTS
100
AcDbLine
 10
33.5787666752
 20
1.4719816441
 30
0.0
 11
33.5787666752
 21
20.3469816441
 31
0.0
  0
LINE
  5
4F
330
1F
100
AcDbEntity
  8
OBJECTS
  6
CENTERX2
100
AcDbLine
 10
3.7980656904
 20
9.7844816441
 30
0.0
 11
1.7037666752
 21
9.7844816441
 31
0.0
  0
LINE
  5
50
330
1F
100
AcDbEntity
  8
OBJECTS
100
AcDbLine
 10
32.3287666752
 20
21.5969816441
 30
0.0
 11
1.7037666752
 21
21.5969816441
 31
0.0
  0
LINE
  5
51
330
1F
100
AcDbEntity
  8
OBJECTS
  6
CENTERX2
100
AcDbLine
 10
32.3287666752
 20
2.4719816441
 30
0.0
 11
32.3287666752
 21
17.0969816441
 31
0.0
  0
LINE
  5
52
330
1F
100
AcDbEntity
  8
OBJECTS
  6
CENTERX2
100
AcDbLine
 10
31.3287666752
 20
18.0969816441
 30
0.0
 11
2.7037666752
 21
18.0969816441
 31
0.0
  0
LINE
  5
53
330
1F
100
AcDbEntity
  8
OBJECTS
  6
CENTERX2
100
AcDbLine
 10
1.7037666752
 20
17.0969816441
 30
0.0
 11
1.7037666752
 21
2.4719816441
 31
0.0
  0
LINE
  5
54
330
1F
100
AcDbEntity
  8
OBJECTS
  6
CENTERX2
100
AcDbLine
 10
2.7037666752
 20
1.4719816441
 30
0.0
 11
31.3287666752
 21
1.4719816441
 31
0.0
  0
LINE
  5
55
330
1F
100
AcDbEntity
  8
OBJECTS
  6
CENTERX2
100
AcDbLine
 10
17.0162666752
 20
1.4719816441
 30
0.0
 11
17.0162666752
 21
3.5662806594
 31
0.0
  0
LINE
  5
56
330
1F
100
AcDbEntity
  8
OBJECTS
  6
CENTERX2
100
AcDbLine
 10
17.0162666752
 20
18.0969816441
 30
0.0
 11
17.0162666752
 21
16.0026826289
 31
0.0
  0
ARC
  5
57
330
1F
100
AcDbEntity
  8
OBJECTS
100
AcDbCircle
 10
1.7037666752
 20
1.4719816441
 30
0.0
 40
1.25
100
AcDbArc
 50
180.0
 51
270.0
  0
ARC
  5
58
330
1F
100
AcDbEntity
  8
OBJECTS
100
AcDbCircle
 10
32.3287666752
 20
1.4719816441
 30
0.0
 40
1.25
100
AcDbArc
 50
270.0
 51
0.0
  0
ARC
  5
59
330
1F
100
AcDbEntity
  8
OBJECTS
100
AcDbCircle
 10
32.3287666752
 20
20.3469816441
 30
0.0
 40
1.25
100
AcDbArc
 50
0.0
 51
90.0
  0
ARC
  5
5A
330
1F
100
AcDbEntity
  8
OBJECTS
100
AcDbCircle
 10
1.7037666752
 20
20.3469816441
 30
0.0
 40
1.250000000000004
100
AcDbArc
 50
90.0
 51
180.0
  0
ARC
  5
5B
330
1F
100
AcDbEntity
  8
OBJECTS
  6
CENTERX2
100
AcDbCircle
 10
31.3287666752
 20
17.0969816441
 30
0.0
 40
1.0
100
AcDbArc
 50
0.0
 51
90.0
  0
ARC
  5
5C
330
1F
100
AcDbEntity
  8
OBJECTS
  6
CENTERX2
100
AcDbCircle
 10
2.7037666752
 20
17.0969816441
 30
0.0
 40
1.0
100
AcDbArc
 50
90.0
 51
180.0
  0
ARC
  5
5D
330
1F
100
AcDbEntity
  8
OBJECTS
  6
CENTERX2
100
AcDbCircle
 10
2.7037666752
 20
2.4719816441
 30
0.0
 40
0.9999999999999993
100
AcDbArc
 50
180.0
 51
270.0
  0
ARC
  5
5E
330
1F
100
AcDbEntity
  8
OBJECTS
  6
CENTERX2
100
AcDbCircle
 10
31.3287666752
 20
2.4719816441
 30
0.0
 40
1.000000000000003
100
AcDbArc
 50
270.0
 51
0.0
  0
CIRCLE
  5
5F
330
1F
100
AcDbEntity
  8
OBJECTS
  6
CENTERX2
100
AcDbCircle
 10
19.5037666752
 20
19.6659816441
 30
0.0
 40
0.7500000000000006
  0
CIRCLE
  5
60
330
1F
100
AcDbEntity
  8
OBJECTS
  6
CENTERX2
100
AcDbCircle
 10
29.0787666752
 20
19.6659816441
 30
0.0
 40
0.7500000000000026
  0
DIMENSION
  5
61
330
1F
100
AcDbEntity
  8
DIMS
100
AcDbDimension
  2
_D
 10
8.0429519346
 20
1.4719816441
 30
0.0
 11
8.0429519346
 21
10.0920439771
 31
0.0
 70
   160
  1
<>
 71
     2
 42
-1.0
  3
SLDDIMSTYLE0
100
AcDbAlignedDimension
 13
2.7037666752
 23
18.0969816441
 33
0.0
 14
2.7037666752
 24
1.4719816441
 34
0.0
 50
90.0
100
AcDbRotatedDimension
  0
DIMENSION
  5
77
330
1F
100
AcDbEntity
  8
DIMS
100
AcDbDimension
  2
_D_1
 10
2.7037666752
 20
17.0969816441
 30
0.0
 11
4.4072699037
 21
16.1446937031
 31
0.0
 70
   164
  1
<>
 71
     1
 42
-1.0
  3
SLDDIMSTYLE1
100
AcDbRadialDimension
 15
2.0154027815
 25
17.8223471725
 35
0.0
 40
0.0
  0
DIMENSION
  5
87
330
1F
100
AcDbEntity
  8
DIMS
100
AcDbDimension
  2
_D_2
 10
32.3287666752
 20
4.8967534419
 30
0.0
 11
5.349467554
 21
4.8967534419
 31
0.0
 70
   160
  1
<>
 71
     2
 42
-1.0
  3
SLDDIMSTYLE0
100
AcDbAlignedDimension
 13
1.7037666752
 23
2.4719816441
 33
0.0
 14
32.3287666752
 24
2.4719816441
 34
0.0
 50
0.0
100
AcDbRotatedDimension
  0
DIMENSION
  5
9B
330
1F
100
AcDbEntity
  8
DIMS
100
AcDbDimension
  2
_D_3
 10
33.5787666752
 20
19.4024059178
 30
0.0
 11
31.338224594
 21
19.4024059178
 31
0.0
 70
   160
  1
<>
 71
     2
 42
-1.0
  3
SLDDIMSTYLE0
100
AcDbAlignedDimension
 13
29.0787666752
 23
19.6659816441
 33
0.0
 14
33.5787666752
 24
20.3469816441
 34
0.0
100
AcDbRotatedDimension
  0
DIMENSION
  5
B0
330
1F
100
AcDbEntity
  8
DIMS
100
AcDbDimension
  2
_D_4
 10
33.5787666752
 20
20.5343367166
 30
0.0
 11
25.7321127602
 21
20.5343367166
 31
0.0
 70
   160
  1
<>
 71
     2
 42
-1.0
  3
SLDDIMSTYLE0
100
AcDbAlignedDimension
 13
19.5037666752
 23
19.6659816441
 33
0.0
 14
33.5787666752
 24
20.3469816441
 34
0.0
100
AcDbRotatedDimension
  0
DIMENSION
  5
C6
330
1F
100
AcDbEntity
  8
DIMS
100
AcDbDimension
  2
_D_5
 10
18.7843311805
 20
19.8779075013
 30
0.0
 11
22.3363024456
 21
19.0815122657
 31
0.0
 70
   163
  1
<>
 71
     1
 42
-1.0
  3
SLDDIMSTYLE2
100
AcDbDiametricDimension
 15
20.2232021699
 25
19.454055787
 35
0.0
 40
0.0
  0
DIMENSION
  5
DB
330
1F
100
AcDbEntity
  8
DIMS
100
AcDbDimension
  2
_D_6
 10
17.5020917917
 20
21.5969816441
 30
0.0
 11
17.5020917917
 21
19.1720582953
 31
0.0
 70
   160
  1
<>
 71
     2
 42
-1.0
  3
SLDDIMSTYLE0
100
AcDbAlignedDimension
 13
19.5037666752
 23
19.6659816441
 33
0.0
 14
32.3287666752
 24
21.5969816441
 34
0.0
 50
90.0
100
AcDbRotatedDimension
  0
INSERT
  5
102
330
1F
100
AcDbEntity
  8
NOTES
100
AcDbBlockReference
  2
SW_NOTE_0
 10
21.2634647257
 20
17.2221586148
 30
0.0
  0
INSERT
  5
10A
102
{ACAD_REACTORS
330
10C
330
10D
102
}
330
1F
100
AcDbEntity
  8
NOTES
100
AcDbBlockReference
  2
SW_NOTE_1
 10
26.1258464776
 20
6.6444835965
 30
0.0
  0
LEADER
  5
10C
330
1F
100
AcDbEntity
  8
NOTES
100
AcDbLeader
  3
SLDDIMSTYLE3
 73
     2
 76
     3
 10
31.2897348887
 20
9.7844816441
 30
0.0
 10
26.3758464776
 20
6.6444835965
 30
0.0
 10
26.1258464776
 20
6.6444835965
 30
0.0
340
10A
  0
LEADER
  5
10D
330
1F
100
AcDbEntity
  8
NOTES
100
AcDbLeader
  3
SLDDIMSTYLE3
 73
     2
 76
     3
 10
17.0162666752
 20
2.5952388834
 30
0.0
 10
24.0788090447
 20
6.6444835965
 30
0.0
 10
24.3288090447
 20
6.6444835965
 30
0.0
340
10A
212
-1.797037432887166
222
0.0
232
0.0
  0
INSERT
  5
113
330
1F
100
AcDbEntity
  8
NOTES
100
AcDbBlockReference
  2
SW_NOTE_2
 10
11.7909983122
 20
9.2733867553
 30
0.0
  0
INSERT
  5
119
102
{ACAD_REACTORS
330
11A
102
}
330
1F
100
AcDbEntity
  8
NOTES
100
AcDbBlockReference
  2
SW_NOTE_3
 10
4.3849208006
 20
20.3029366822
 30
0.0
  0
LEADER
  5
11A
330
1F
100
AcDbEntity
  8
NOTES
100
AcDbLeader
  3
SLDDIMSTYLE3
 73
     2
 76
     3
 10
3.3051749735
 20
21.5969816441
 30
0.0
 10
4.1349208006
 20
20.3029366822
 30
0.0
 10
4.3849208006
 20
20.3029366822
 30
0.0
340
119
  0
INSERT
  5
120
102
{ACAD_REACTORS
330
121
102
}
330
1F
100
AcDbEntity
  8
NOTES
100
AcDbBlockReference
  2
SW_NOTE_4
 10
10.7935179232
 20
17.0819381936
 30
0.0
  0
LEADER
  5
121
330
1F
100
AcDbEntity
  8
NOTES
100
AcDbLeader
  3
SLDDIMSTYLE3
 73
     2
 76
     3
 10
9.8729798515
 20
18.0969816441
 30
0.0
 10
10.5435179232
 20
17.0819381936
 30
0.0
 10
10.7935179232
 20
17.0819381936
 30
0.0
340
120
  0
INSERT
  5
127
102
{ACAD_REACTORS
330
128
102
}
330
1F
100
AcDbEntity
  8
NOTES
100
AcDbBlockReference
  2
SW_NOTE_5
 10
26.7395688079
 20
18.8750928933
 30
0.0
  0
LEADER
  5
128
330
1F
100
AcDbEntity
  8
NOTES
100
AcDbLeader
  3
SLDDIMSTYLE3
 73
     2
 76
     3
 10
28.4044118109
 20
19.3377355216
 30
0.0
 10
26.9895688079
 20
18.8750928933
 30
0.0
 10
26.7395688079
 20
18.8750928933
 30
0.0
340
127
  0
ENDSEC
  0
SECTION
  2
OBJECTS
  0
DICTIONARY
  5
C
330
0
100
AcDbDictionary
281
     1
  3
ACAD_GROUP
350
D
  3
ACAD_LAYOUT
350
1A
  3
ACAD_MLINESTYLE
350
17
  3
ACAD_PLOTSETTINGS
350
19
  3
ACAD_PLOTSTYLENAME
350
E
  0
DICTIONARY
  5
D
102
{ACAD_REACTORS
330
C
102
}
330
C
100
AcDbDictionary
281
     1
  0
DICTIONARY
  5
1A
102
{ACAD_REACTORS
330
C
102
}
330
C
100
AcDbDictionary
281
     1
  3
Layout1
350
1E
  3
Layout2
350
26
  3
Model
350
22
  0
DICTIONARY
  5
17
102
{ACAD_REACTORS
330
C
102
}
330
C
100
AcDbDictionary
281
     1
  3
Standard
350
18
  0
DICTIONARY
  5
19
102
{ACAD_REACTORS
330
C
102
}
330
C
100
AcDbDictionary
281
     1
  0
ACDBDICTIONARYWDFLT
  5
E
102
{ACAD_REACTORS
330
C
102
}
330
C
100
AcDbDictionary
281
     1
  3
Normal
350
F
100
AcDbDictionaryWithDefault
340
F
  0
LAYOUT
  5
1E
102
{ACAD_REACTORS
330
1A
102
}
330
1A
100
AcDbPlotSettings
  1

  2
none_device
  4

  6

 40
0.0
 41
0.0
 42
0.0
 43
0.0
 44
0.0
 45
0.0
 46
0.0
 47
0.0
 48
0.0
 49
0.0
140
0.0
141
0.0
142
1.0
143
1.0
 70
   688
 72
     0
 73
     0
 74
     5
  7

 75
    16
147
1.0
148
0.0
149
0.0
100
AcDbLayout
  1
Layout1
 70
     1
 71
     1
 10
0.0
 20
0.0
 11
12.0
 21
9.0
 12
0.0
 22
0.0
 32
0.0
 14
1.0000000000E+20
 24
1.0000000000E+20
 34
1.0000000000E+20
 15
-1.0000000000E+20
 25
-1.0000000000E+20
 35
-1.0000000000E+20
146
0.0
 13
0.0
 23
0.0
 33
0.0
 16
1.0
 26
0.0
 36
0.0
 17
0.0
 27
1.0
 37
0.0
 76
     0
330
1B
  0
LAYOUT
  5
26
102
{ACAD_REACTORS
330
1A
102
}
330
1A
100
AcDbPlotSettings
  1

  2
none_device
  4

  6

 40
0.0
 41
0.0
 42
0.0
 43
0.0
 44
0.0
 45
0.0
 46
0.0
 47
0.0
 48
0.0
 49
0.0
140
0.0
141
0.0
142
1.0
143
1.0
 70
   688
 72
     0
 73
     0
 74
     5
  7

 75
    16
147
1.0
148
0.0
149
0.0
100
AcDbLayout
  1
Layout2
 70
     1
 71
     2
 10
0.0
 20
0.0
 11
0.0
 21
0.0
 12
0.0
 22
0.0
 32
0.0
 14
0.0
 24
0.0
 34
0.0
 15
0.0
 25
0.0
 35
0.0
146
0.0
 13
0.0
 23
0.0
 33
0.0
 16
1.0
 26
0.0
 36
0.0
 17
0.0
 27
1.0
 37
0.0
 76
     0
330
23
  0
LAYOUT
  5
22
102
{ACAD_REACTORS
330
1A
102
}
330
1A
100
AcDbPlotSettings
  1

  2
none_device
  4

  6

 40
0.0
 41
0.0
 42
0.0
 43
0.0
 44
0.0
 45
0.0
 46
0.0
 47
0.0
 48
0.0
 49
0.0
140
0.0
141
0.0
142
1.0
143
1.0
 70
  1712
 72
     0
 73
     0
 74
     0
  7

 75
     0
147
1.0
148
0.0
149
0.0
100
AcDbLayout
  1
Model
 70
     1
 71
     0
 10
0.0
 20
0.0
 11
34.0
 21
22.0
 12
0.0
 22
0.0
 32
0.0
 14
0.0
 24
0.0
 34
0.0
 15
34.0
 25
22.0
 35
0.0
146
0.0
 13
0.0
 23
0.0
 33
0.0
 16
1.0
 26
0.0
 36
0.0
 17
0.0
 27
1.0
 37
0.0
 76
     0
330
1F
331
29
  0
MLINESTYLE
  5
18
102
{ACAD_REACTORS
330
17
102
}
330
17
100
AcDbMlineStyle
  2
Standard
 70
     0
  3

 62
   256
 51
90.0
 52
90.0
 71
     2
 49
0.5
 62
   256
  6
BYLAYER
 49
-0.5
 62
   256
  6
BYLAYER
  0
ACDBPLACEHOLDER
  5
F
102
{ACAD_REACTORS
330
E
102
}
330
E
  0
ENDSEC
  0
EOF
