  0
SECTION
  2
HEADER
  9
$ACADVER
  1
AC1012
  9
$DWGCODEPAGE
  3
ansi_1252
  9
$INSBASE
 10
0.0
 20
0.0
 30
0.0
  9
$EXTMIN
 10
0.0
 20
0.0
 30
0.0
  9
$EXTMAX
 10
26.0
 20
23.0
 30
0.0
  9
$LIMMIN
 10
0.0
 20
0.0
  9
$LIMMAX
 10
26.0
 20
23.0
  9
$ORTHOMODE
 70
     0
  9
$REGENMODE
 70
     1
  9
$FILLMODE
 70
     1
  9
$QTEXTMODE
 70
     0
  9
$MIRRTEXT
 70
     1
  9
$DRAGMODE
 70
     2
  9
$LTSCALE
 40
1.0
  9
$OSMODE
 70
    37
  9
$ATTMODE
 70
     1
  9
$TEXTSIZE
 40
0.2777777778
  9
$TRACEWID
 40
0.05
  9
$TEXTSTYLE
  7
STANDARD
  9
$CLAYER
  8
0
  9
$CELTYPE
  6
BYLAYER
  9
$CECOLOR
 62
   256
  9
$CELTSCALE
 40
1.0
  9
$DELOBJ
 70
     1
  9
$DISPSILH
 70
     0
  9
$DIMSCALE
 40
1.0
  9
$DIMASZ
 40
0.262898763
  9
$DIMEXO
 40
0.05
  9
$DIMDLI
 40
0.38
  9
$DIMRND
 40
0.0
  9
$DIMDLE
 40
0.0
  9
$DIMEXE
 40
0.125
  9
$DIMTP
 40
0.0
  9
$DIMTM
 40
0.0
  9
$DIMTXT
 40
0.3611111111
  9
$DIMCEN
 40
0.09
  9
$DIMTSZ
 40
0.0
  9
$DIMTOL
 70
     0
  9
$DIMLIM
 70
     0
  9
$DIMTIH
 70
     1
  9
$DIMTOH
 70
     1
  9
$DIMSE1
 70
     0
  9
$DIMSE2
 70
     0
  9
$DIMTAD
 70
     0
  9
$DIMZIN
 70
     0
  9
$DIMBLK
  1

  9
$DIMASO
 70
     1
  9
$DIMSHO
 70
     1
  9
$DIMPOST
  1

  9
$DIMAPOST
  1

  9
$DIMALT
 70
     0
  9
$DIMALTD
 70
     2
  9
$DIMALTF
 40
25.4
  9
$DIMLFAC
 40
1.0
  9
$DIMTOFL
 70
     0
  9
$DIMTVP
 40
0.0
  9
$DIMTIX
 70
     0
  9
$DIMSOXD
 70
     0
  9
$DIMSAH
 70
     0
  9
$DIMBLK1
  1

  9
$DIMBLK2
  1

  9
$DIMSTYLE
  2
STANDARD
  9
$DIMCLRD
 70
     0
  9
$DIMCLRE
 70
     0
  9
$DIMCLRT
 70
     0
  9
$DIMTFAC
 40
1.0
  9
$DIMGAP
 40
0.06
  9
$DIMJUST
 70
     0
  9
$DIMSD1
 70
     0
  9
$DIMSD2
 70
     0
  9
$DIMTOLJ
 70
     1
  9
$DIMTZIN
 70
     0
  9
$DIMALTZ
 70
     0
  9
$DIMALTTZ
 70
     0
  9
$DIMFIT
 70
     3
  9
$DIMUPT
 70
     0
  9
$DIMUNIT
 70
     2
  9
$DIMDEC
 70
     3
  9
$DIMTDEC
 70
     3
  9
$DIMALTU
 70
     2
  9
$DIMALTTD
 70
     2
  9
$DIMTXSTY
  7
STANDARD
  9
$DIMAUNIT
 70
     0
  9
$LUNITS
 70
     2
  9
$LUPREC
 70
     3
  9
$SKETCHINC
 40
0.1
  9
$FILLETRAD
 40
0.5
  9
$AUNITS
 70
     0
  9
$AUPREC
 70
     1
  9
$MENU
  1
.
  9
$ELEVATION
 40
0.0
  9
$PELEVATION
 40
0.0
  9
$THICKNESS
 40
0.0
  9
$LIMCHECK
 70
     0
  9
$CHAMFERA
 40
0.5
  9
$CHAMFERB
 40
0.5
  9
$CHAMFERC
 40
1.0
  9
$CHAMFERD
 40
0.0
  9
$SKPOLY
 70
     0
  9
$TDCREATE
 40
2457228.585798993
  9
$TDUPDATE
 40
2457228.585799456
  9
$TDINDWG
 40
0.0000000116
  9
$TDUSRTIMER
 40
0.0000000116
  9
$USRTIMER
 70
     1
  9
$ANGBASE
 50
0.0
  9
$ANGDIR
 70
     0
  9
$PDMODE
 70
     0
  9
$PDSIZE
 40
-1.0
  9
$PLINEWID
 40
0.0
  9
$COORDS
 70
     1
  9
$SPLFRAME
 70
     0
  9
$SPLINETYPE
 70
     6
  9
$SPLINESEGS
 70
     8
  9
$ATTDIA
 70
     0
  9
$ATTREQ
 70
     1
  9
$HANDLING
 70
     1
  9
$HANDSEED
  5
176
  9
$SURFTAB1
 70
     6
  9
$SURFTAB2
 70
     6
  9
$SURFTYPE
 70
     6
  9
$SURFU
 70
     6
  9
$SURFV
 70
     6
  9
$UCSNAME
  2

  9
$UCSORG
 10
0.0
 20
0.0
 30
0.0
  9
$UCSXDIR
 10
1.0
 20
0.0
 30
0.0
  9
$UCSYDIR
 10
0.0
 20
1.0
 30
0.0
  9
$PUCSNAME
  2

  9
$PUCSORG
 10
0.0
 20
0.0
 30
0.0
  9
$PUCSXDIR
 10
1.0
 20
0.0
 30
0.0
  9
$PUCSYDIR
 10
0.0
 20
1.0
 30
0.0
  9
$USERI1
 70
     0
  9
$USERI2
 70
     0
  9
$USERI3
 70
     0
  9
$USERI4
 70
     0
  9
$USERI5
 70
     0
  9
$USERR1
 40
0.0
  9
$USERR2
 40
0.0
  9
$USERR3
 40
0.0
  9
$USERR4
 40
0.0
  9
$USERR5
 40
0.0
  9
$WORLDVIEW
 70
     1
  9
$SHADEDGE
 70
     3
  9
$SHADEDIF
 70
    70
  9
$TILEMODE
 70
     1
  9
$MAXACTVP
 70
    64
  9
$PINSBASE
 10
0.0
 20
0.0
 30
0.0
  9
$PLIMCHECK
 70
     0
  9
$PEXTMIN
 10
1.0000000000E+20
 20
1.0000000000E+20
 30
1.0000000000E+20
  9
$PEXTMAX
 10
-1.0000000000E+20
 20
-1.0000000000E+20
 30
-1.0000000000E+20
  9
$PLIMMIN
 10
0.0
 20
0.0
  9
$PLIMMAX
 10
12.0
 20
9.0
  9
$UNITMODE
 70
     0
  9
$VISRETAIN
 70
     1
  9
$PLINEGEN
 70
     0
  9
$PSLTSCALE
 70
     1
  9
$TREEDEPTH
 70
  3020
  9
$PICKSTYLE
 70
     1
  9
$CMLSTYLE
  2
STANDARD
  9
$CMLJUST
 70
     0
  9
$CMLSCALE
 40
1.0
  9
$SAVEIMAGES
 70
     1
  0
ENDSEC
  0
SECTION
  2
CLASSES
  0
CLASS
  1
ACDBDICTIONARYWDFLT
  2
AcDbDictionaryWithDefault
  3
ObjectDBX Classes
 90
    32768
280
     0
281
     0
  0
CLASS
  1
VISUALSTYLE
  2
AcDbVisualStyle
  3
ObjectDBX Classes
 90
     4095
280
     0
281
     0
  0
CLASS
  1
MATERIAL
  2
AcDbMaterial
  3
ObjectDBX Classes
 90
     1153
280
     0
281
     0
  0
CLASS
  1
XRECORD
  2
AcDbXrecord
  3
AutoCAD 2000
 90
    32768
280
     0
281
     0
  0
ENDSEC
  0
SECTION
  2
TABLES
  0
TABLE
  2
VPORT
  5
8
330
0
100
AcDbSymbolTable
 70
     1
  0
VPORT
  5
29
330
8
100
AcDbSymbolTableRecord
100
AcDbViewportTableRecord
  2
*ACTIVE
 70
     0
 10
0.0
 20
0.0
 11
1.0
 21
1.0
 12
13.0
 22
11.5
 13
0.0
 23
0.0
 14
0.5
 24
0.5
 15
0.5
 25
0.5
 16
0.0
 26
0.0
 36
1.0
 17
0.0
 27
0.0
 37
0.0
 40
23.0
 41
1.1304347826
 42
50.0
 43
0.0
 44
0.0
 50
0.0
 51
0.0
 71
     0
 72
  2000
 73
     1
 74
     3
 75
     0
 76
     0
 77
     0
 78
     0
  0
ENDTAB
  0
TABLE
  2
LTYPE
  5
5
330
0
100
AcDbSymbolTable
 70
     6
  0
LTYPE
  5
14
330
5
100
AcDbSymbolTableRecord
100
AcDbLinetypeTableRecord
  2
BYBLOCK
 70
     0
  3

 72
    65
 73
     0
 40
0.0
  0
LTYPE
  5
15
330
5
100
AcDbSymbolTableRecord
100
AcDbLinetypeTableRecord
  2
BYLAYER
 70
     0
  3

 72
    65
 73
     0
 40
0.0
  0
LTYPE
  5
16
330
5
100
AcDbSymbolTableRecord
100
AcDbLinetypeTableRecord
  2
CONTINUOUS
 70
     0
  3
Solid line
 72
    65
 73
     0
 40
0.0
  0
LTYPE
  5
3F
330
5
100
AcDbSymbolTableRecord
100
AcDbLinetypeTableRecord
  2
HIDDEN
 70
     0
  3
Hidden __ __ __ __ __ __ __ __ __ __ __ __ __ __
 72
    65
 73
     2
 40
0.075
 49
0.05
 74
     0
 49
-0.025
 74
     0
  0
LTYPE
  5
40
330
5
100
AcDbSymbolTableRecord
100
AcDbLinetypeTableRecord
  2
PHANTOM
 70
     0
  3
Phantom ______  __  __  ______  __  __  ______
 72
    65
 73
     6
 40
0.5
 49
0.25
 74
     0
 49
-0.05
 74
     0
 49
0.05
 74
     0
 49
-0.05
 74
     0
 49
0.05
 74
     0
 49
-0.05
 74
     0
  0
LTYPE
  5
41
330
5
100
AcDbSymbolTableRecord
100
AcDbLinetypeTableRecord
  2
CENTER
 70
     0
  3
Center ____ _ ____ _ ____ _ ____ _ ____ _ ____
 72
    65
 73
     4
 40
0.4
 49
0.25
 74
     0
 49
-0.05
 74
     0
 49
0.05
 74
     0
 49
-0.05
 74
     0
  0
LTYPE
  5
42
330
5
100
AcDbSymbolTableRecord
100
AcDbLinetypeTableRecord
  2
CENTERX2
 70
     0
  3
Center (2x) ________  __  ________  __  _____
 72
    65
 73
     4
 40
0.8
 49
0.5
 74
     0
 49
-0.1
 74
     0
 49
0.1
 74
     0
 49
-0.1
 74
     0
  0
LTYPE
  5
43
330
5
100
AcDbSymbolTableRecord
100
AcDbLinetypeTableRecord
  2
DOT2
 70
     0
  3
Dot (.5x) ........................................
 72
    65
 73
     2
 40
0.025
 49
0.0
 74
     0
 49
-0.025
 74
     0
  0
ENDTAB
  0
TABLE
  2
LAYER
  5
2
330
0
100
AcDbSymbolTable
 70
     8
  0
LAYER
  5
10
330
2
100
AcDbSymbolTableRecord
100
AcDbLayerTableRecord
  2
0
 70
     0
 62
     7
  6
CONTINUOUS
  0
LAYER
  5
44
330
2
100
AcDbSymbolTableRecord
100
AcDbLayerTableRecord
  2
SLD-0
 70
     0
 62
   179
  6
CONTINUOUS
  0
LAYER
  5
45
330
2
100
AcDbSymbolTableRecord
100
AcDbLayerTableRecord
  2
OBJECTS
 70
     0
 62
     5
  6
CONTINUOUS
  0
LAYER
  5
46
330
2
100
AcDbSymbolTableRecord
100
AcDbLayerTableRecord
  2
DIMS
 70
     0
 62
     1
  6
CONTINUOUS
  0
LAYER
  5
47
330
2
100
AcDbSymbolTableRecord
100
AcDbLayerTableRecord
  2
NOTES
 70
     0
 62
     7
  6
CONTINUOUS
  0
LAYER
  5
48
330
2
100
AcDbSymbolTableRecord
100
AcDbLayerTableRecord
  2
IMAGES
 70
     0
 62
     7
  6
CONTINUOUS
  0
LAYER
  5
49
330
2
100
AcDbSymbolTableRecord
100
AcDbLayerTableRecord
  2
CENTERLINES
 70
     0
 62
     7
  6
HIDDEN
  0
LAYER
  5
4A
330
2
100
AcDbSymbolTableRecord
100
AcDbLayerTableRecord
  2
BLOCKS
 70
     0
 62
    16
  6
CONTINUOUS
  0
ENDTAB
  0
TABLE
  2
STYLE
  5
3
330
0
100
AcDbSymbolTable
 70
     3
  0
STYLE
  5
11
330
3
100
AcDbSymbolTableRecord
100
AcDbTextStyleTableRecord
  2
STANDARD
 70
     0
 40
0.0
 41
1.0
 50
0.0
 71
     0
 42
0.2777777778
  3
ARIAL.TTF
  4

1001
ACAD
1000
ARIAL
1071
       34
  0
STYLE
  5
DD
330
3
100
AcDbSymbolTableRecord
100
AcDbTextStyleTableRecord
  2
SLDTEXTSTYLE0
 70
     0
 40
0.0
 41
0.948
 50
0.0
 71
     0
 42
0.2
  3
ARIAL.TTF
  4

1001
ACAD
1000
Arial
1071
      290
  0
STYLE
  5
165
330
3
100
AcDbSymbolTableRecord
100
AcDbTextStyleTableRecord
  2
SLDTEXTSTYLE1
 70
     0
 40
0.0
 41
0.948
 50
0.0
 71
     0
 42
0.2
  3
ARIALBD.TTF
  4

1001
ACAD
1000
Arial
1071
 33554722
  0
ENDTAB
  0
TABLE
  2
VIEW
  5
6
330
0
100
AcDbSymbolTable
 70
     0
  0
ENDTAB
  0
TABLE
  2
UCS
  5
7
330
0
100
AcDbSymbolTable
 70
     0
  0
ENDTAB
  0
TABLE
  2
APPID
  5
9
330
0
100
AcDbSymbolTable
 70
     1
  0
APPID
  5
12
330
9
100
AcDbSymbolTableRecord
100
AcDbRegAppTableRecord
  2
ACAD
 70
     0
  0
ENDTAB
  0
TABLE
  2
DIMSTYLE
  5
A
330
0
100
AcDbSymbolTable
 70
     3
  0
DIMSTYLE
105
27
330
A
100
AcDbSymbolTableRecord
100
AcDbDimStyleTableRecord
  2
STANDARD
 70
     0
  3

  4

  5

  6

  7

 40
1.0
 41
0.18
 42
0.0625
 43
0.38
 44
0.18
 45
0.0
 46
0.0
 47
0.0
 48
0.0
140
0.18
141
0.09
142
0.0
143
25.4
144
1.0
145
0.0
146
1.0
147
0.09
 71
     0
 72
     0
 73
     1
 74
     1
 75
     0
 76
     0
 77
     0
 78
     0
170
     0
171
     2
172
     0
173
     0
174
     0
175
     0
176
     0
177
     0
178
     0
270
     2
271
     4
272
     4
273
     2
274
     2
340
11
275
     0
280
     0
281
     0
282
     0
283
     1
284
     0
285
     0
286
     0
287
     3
288
     0
  0
DIMSTYLE
105
100
102
{ACAD_REACTORS
330
FF
330
116
330
12C
330
140
102
}
330
A
100
AcDbSymbolTableRecord
100
AcDbDimStyleTableRecord
  2
SLDDIMSTYLE0
 70
     0
  3

  4

  5

  6

  7

 40
1.0
 41
0.262898763
 42
0.0625
 43
0.38
 44
0.0
 45
0.000000001
 46
0.0
 47
0.0
 48
0.0
140
0.262898763
141
0.09
142
0.0
143
25.4
144
1.0
145
0.0
146
1.0
147
0.0657246908
 71
     0
 72
     0
 73
     1
 74
     1
 75
     0
 76
     0
 77
     0
 78
    12
170
     1
171
     2
172
     0
173
     1
174
     0
175
     0
176
     0
177
     0
178
     0
270
     5
271
     6
272
     3
273
     2
274
     2
340
DD
275
     0
280
     0
281
     0
282
     0
283
     1
284
    12
285
     0
286
     0
287
     3
288
     0
  0
DIMSTYLE
105
15B
330
A
100
AcDbSymbolTableRecord
100
AcDbDimStyleTableRecord
  2
SLDDIMSTYLE1
 70
     0
  3

  4

  5

  6

  7

 40
1.0
 41
0.262898763
 42
0.0625
 43
0.38
 44
0.0
 45
0.000000001
 46
0.0
 47
0.0
 48
0.0
140
0.0
141
0.09
142
0.0
143
25.4
144
1.0
145
0.0
146
0.262898763
147
0.0
 71
     0
 72
     0
 73
     1
 74
     1
 75
     0
 76
     0
 77
     0
 78
     0
170
     0
171
     2
172
     0
173
     1
174
     0
175
     0
176
     0
177
     0
178
     0
270
     5
271
     0
272
     0
273
     2
274
     2
340
11
275
     0
280
     0
281
     0
282
     0
283
     1
284
     0
285
     0
286
     0
287
     3
288
     0
  0
ENDTAB
  0
TABLE
  2
BLOCK_RECORD
  5
1
330
0
100
AcDbSymbolTable
 70
    10
  0
BLOCK_RECORD
  5
1F
330
1
100
AcDbSymbolTableRecord
100
AcDbBlockTableRecord
  2
*MODEL_SPACE
  0
BLOCK_RECORD
  5
1B
330
1
100
AcDbSymbolTableRecord
100
AcDbBlockTableRecord
  2
*PAPER_SPACE
  0
BLOCK_RECORD
  5
23
330
1
100
AcDbSymbolTableRecord
100
AcDbBlockTableRecord
  2
*PAPER_SPACE0
  0
BLOCK_RECORD
  5
4B
330
1
100
AcDbSymbolTableRecord
100
AcDbBlockTableRecord
  2
REVEAL-__500
  0
BLOCK_RECORD
  5
CD
330
1
100
AcDbSymbolTableRecord
100
AcDbBlockTableRecord
  2
SW_BLOCK_DIMENSION_0
  0
BLOCK_RECORD
  5
101
330
1
100
AcDbSymbolTableRecord
100
AcDbBlockTableRecord
  2
_D
  0
BLOCK_RECORD
  5
117
330
1
100
AcDbSymbolTableRecord
100
AcDbBlockTableRecord
  2
_D_1
  0
BLOCK_RECORD
  5
12D
330
1
100
AcDbSymbolTableRecord
100
AcDbBlockTableRecord
  2
_D_2
  0
BLOCK_RECORD
  5
141
330
1
100
AcDbSymbolTableRecord
100
AcDbBlockTableRecord
  2
_D_3
  0
BLOCK_RECORD
  5
155
330
1
100
AcDbSymbolTableRecord
100
AcDbBlockTableRecord
  2
SW_NOTE_0
  0
BLOCK_RECORD
  5
15D
330
1
100
AcDbSymbolTableRecord
100
AcDbBlockTableRecord
  2
SW_NOTE_1
  0
BLOCK_RECORD
  5
170
330
1
100
AcDbSymbolTableRecord
100
AcDbBlockTableRecord
  2
SW_NOTE_2
  0
ENDTAB
  0
ENDSEC
  0
SECTION
  2
BLOCKS
  0
BLOCK
  5
20
330
1F
100
AcDbEntity
  8
0
100
AcDbBlockBegin
  2
*MODEL_SPACE
 70
     0
 10
0.0
 20
0.0
 30
0.0
  3
*MODEL_SPACE
  1

  0
ENDBLK
  5
21
330
1F
100
AcDbEntity
  8
0
100
AcDbBlockEnd
  0
BLOCK
  5
1C
330
1B
100
AcDbEntity
 67
     1
  8
0
100
AcDbBlockBegin
  2
*PAPER_SPACE
 70
     0
 10
0.0
 20
0.0
 30
0.0
  3
*PAPER_SPACE
  1

  0
ENDBLK
  5
1D
330
1B
100
AcDbEntity
 67
     1
  8
0
100
AcDbBlockEnd
  0
BLOCK
  5
24
330
23
100
AcDbEntity
  8
0
100
AcDbBlockBegin
  2
*PAPER_SPACE0
 70
     0
 10
0.0
 20
0.0
 30
0.0
  3
*PAPER_SPACE0
  1

  0
ENDBLK
  5
25
330
23
100
AcDbEntity
  8
0
100
AcDbBlockEnd
  0
BLOCK
  5
4C
330
4B
100
AcDbEntity
  8
0
100
AcDbBlockBegin
  2
REVEAL-__500
 70
     0
 10
0.0
 20
0.0
 30
0.0
  3
REVEAL-__500
  1

  0
ARC
  5
4E
330
4B
100
AcDbEntity
  8
BLOCKS
100
AcDbCircle
 10
20.1601934329
 20
28.8878838846
 30
0.0
 40
0.2338576391325233
100
AcDbArc
 50
0.0
 51
90.0
  0
ARC
  5
4F
330
4B
100
AcDbEntity
  8
BLOCKS
100
AcDbCircle
 10
19.8280715192
 20
29.4726468145
 30
0.0
 40
0.0659795528056719
100
AcDbArc
 50
0.0
 51
90.0
  0
ARC
  5
50
330
4B
100
AcDbEntity
  8
BLOCKS
100
AcDbCircle
 10
19.0470381676
 20
28.990848696
 30
0.0
 40
0.0881257319589152
100
AcDbArc
 50
200.9822712638
 51
339.0177287362
  0
ARC
  5
51
330
4B
100
AcDbEntity
  8
BLOCKS
100
AcDbCircle
 10
20.1601934329
 20
28.8878838846
 30
0.0
 40
0.1878262552218324
100
AcDbArc
 50
0.0
 51
90.0
  0
LINE
  5
52
330
4B
100
AcDbEntity
  8
BLOCKS
100
AcDbLine
 10
19.8280715192
 20
29.5386263673
 30
0.0
 11
18.2509355515
 21
29.5386263673
 31
0.0
  0
LINE
  5
53
330
4B
100
AcDbEntity
  8
BLOCKS
100
AcDbLine
 10
18.2806192052
 20
29.1434426864
 30
0.0
 11
19.894051072
 21
29.1434426864
 31
0.0
  0
LINE
  5
54
330
4B
100
AcDbEntity
  8
BLOCKS
100
AcDbLine
 10
19.3470309437
 20
29.1217415238
 30
0.0
 11
20.1601934329
 21
29.1217415238
 31
0.0
  0
LINE
  5
55
330
4B
100
AcDbEntity
  8
BLOCKS
100
AcDbLine
 10
20.394051072
 20
28.8878838846
 30
0.0
 11
20.394051072
 21
28.4971795949
 31
0.0
  0
LINE
  5
56
330
4B
100
AcDbEntity
  8
BLOCKS
100
AcDbLine
 10
20.394051072
 20
28.4971795949
 30
0.0
 11
20.3480196881
 21
28.4971795949
 31
0.0
  0
LINE
  5
57
330
4B
100
AcDbEntity
  8
BLOCKS
100
AcDbLine
 10
20.3480196881
 20
28.4971795949
 30
0.0
 11
20.3480196881
 21
28.8878838846
 31
0.0
  0
LINE
  5
58
330
4B
100
AcDbEntity
  8
BLOCKS
100
AcDbLine
 10
20.1601934329
 20
29.0757101398
 30
0.0
 11
19.3470309437
 21
29.0757101398
 31
0.0
  0
LINE
  5
59
330
4B
100
AcDbEntity
  8
BLOCKS
100
AcDbLine
 10
19.3470309437
 20
29.0757101398
 30
0.0
 11
19.3470309437
 21
29.1217415238
 31
0.0
  0
LINE
  5
5A
330
4B
100
AcDbEntity
  8
BLOCKS
100
AcDbLine
 10
19.679261078
 20
29.0223488565
 30
0.0
 11
19.7319208682
 21
29.073015856
 31
0.0
  0
LINE
  5
5B
330
4B
100
AcDbEntity
  8
BLOCKS
100
AcDbLine
 10
19.7319208682
 20
29.073015856
 30
0.0
 11
19.7745573648
 21
29.0287024176
 31
0.0
  0
LINE
  5
5C
330
4B
100
AcDbEntity
  8
BLOCKS
100
AcDbLine
 10
19.7745573648
 20
29.0287024176
 30
0.0
 11
19.705650009
 21
28.9624027047
 31
0.0
  0
LINE
  5
5D
330
4B
100
AcDbEntity
  8
BLOCKS
100
AcDbLine
 10
18.4381035755
 20
29.0888229672
 30
0.0
 11
18.385550816
 21
29.1434426864
 31
0.0
  0
LINE
  5
5E
330
4B
100
AcDbEntity
  8
BLOCKS
100
AcDbLine
 10
18.385550816
 20
29.1434426864
 30
0.0
 11
18.3431444562
 21
29.1026410993
 31
0.0
  0
LINE
  5
5F
330
4B
100
AcDbEntity
  8
BLOCKS
100
AcDbLine
 10
18.3431444562
 20
29.1026410993
 30
0.0
 11
18.4052557657
 21
29.0380868815
 31
0.0
  0
LINE
  5
60
330
4B
100
AcDbEntity
  8
BLOCKS
100
AcDbLine
 10
18.4381035755
 20
29.0888229672
 30
0.0
 11
19.679261078
 21
29.0223488565
 31
0.0
  0
LINE
  5
61
330
4B
100
AcDbEntity
  8
BLOCKS
100
AcDbLine
 10
19.705650009
 20
28.9624027047
 30
0.0
 11
18.4052557657
 21
29.0380868815
 31
0.0
  0
LINE
  5
62
330
4B
100
AcDbEntity
  8
BLOCKS
100
AcDbLine
 10
19.1283677378
 20
29.0518536895
 30
0.0
 11
19.1283677378
 21
28.9960010797
 31
0.0
  0
LINE
  5
63
330
4B
100
AcDbEntity
  8
BLOCKS
100
AcDbLine
 10
18.9737480593
 20
29.0601348348
 30
0.0
 11
18.9737480593
 21
29.0050000915
 31
0.0
  0
LINE
  5
64
330
4B
100
AcDbEntity
  8
BLOCKS
100
AcDbLine
 10
18.964755941
 20
28.9592927168
 30
0.0
 11
19.1293203942
 21
28.9592927168
 31
0.0
  0
LINE
  5
65
330
4B
100
AcDbEntity
  8
BLOCKS
100
AcDbLine
 10
19.0095275609
 20
29.3495924534
 30
0.0
 11
19.0095275609
 21
28.9592927168
 31
0.0
  0
LINE
  5
66
330
4B
100
AcDbEntity
  8
BLOCKS
100
AcDbLine
 10
19.0864194327
 20
29.3495924534
 30
0.0
 11
19.0864194327
 21
28.9592927168
 31
0.0
  0
LINE
  5
67
330
4B
100
AcDbEntity
  8
BLOCKS
100
AcDbLine
 10
18.9467524826
 20
29.0033177842
 30
0.0
 11
19.1591684741
 21
28.9909549723
 31
0.0
  0
LINE
  5
68
330
4B
100
AcDbEntity
  8
BLOCKS
100
AcDbLine
 10
19.0095275609
 20
29.3495924534
 30
0.0
 11
19.0474925407
 21
29.4047818344
 31
0.0
  0
LINE
  5
69
330
4B
100
AcDbEntity
  8
BLOCKS
100
AcDbLine
 10
19.0474925407
 20
29.4047818344
 30
0.0
 11
19.0864194327
 21
29.3495924534
 31
0.0
  0
LINE
  5
6A
330
4B
100
AcDbEntity
  8
BLOCKS
100
AcDbLine
 10
19.1572986604
 20
28.9588281114
 30
0.0
 11
18.9448826689
 21
28.9711909233
 31
0.0
  0
LINE
  5
6B
330
4B
100
AcDbEntity
  8
BLOCKS
100
AcDbLine
 10
19.1591684741
 20
28.9909549723
 30
0.0
 11
19.1572986604
 21
28.9588281114
 31
0.0
  0
LINE
  5
6C
330
4B
100
AcDbEntity
  8
BLOCKS
100
AcDbLine
 10
18.9467524826
 20
29.0033177842
 30
0.0
 11
18.9448826689
 21
28.9711909233
 31
0.0
  0
LINE
  5
6D
330
4B
100
AcDbEntity
  8
BLOCKS
100
AcDbLine
 10
19.1142839592
 20
29.1434426864
 30
0.0
 11
19.1142839592
 21
29.4238049236
 31
0.0
  0
LINE
  5
6E
330
4B
100
AcDbEntity
  8
BLOCKS
100
AcDbLine
 10
19.1142839592
 20
29.4238049236
 30
0.0
 11
18.9877469673
 21
29.4238049236
 31
0.0
  0
LINE
  5
6F
330
4B
100
AcDbEntity
  8
BLOCKS
100
AcDbLine
 10
18.9877469673
 20
29.4238049236
 30
0.0
 11
18.9877469673
 21
29.1434426864
 31
0.0
  0
LINE
  5
70
330
4B
100
AcDbEntity
  8
BLOCKS
  6
CONTINUOUS
100
AcDbLine
 10
19.894051072
 20
29.1434426864
 30
0.0
 11
19.894051072
 21
29.4726468145
 31
0.0
  0
LINE
  5
71
330
4B
100
AcDbEntity
  8
BLOCKS
100
AcDbLine
 10
19.3020232313
 20
29.1434426864
 30
0.0
 11
19.3470309437
 21
29.0987258318
 31
0.0
  0
LINE
  5
72
330
4B
100
AcDbEntity
  8
BLOCKS
100
AcDbLine
 10
19.894051072
 20
29.1434426864
 30
0.0
 11
19.9068063572
 21
29.1217415238
 31
0.0
  0
SPLINE
  5
73
330
4B
100
AcDbEntity
  8
BLOCKS
100
AcDbSpline
210
0.0
220
0.0
230
1.0
 70
     8
 71
     3
 72
     9
 73
     5
 74
     0
 42
0.00000001
 43
0.00000001
 12
1.0
 22
0.0
 32
0.0
 13
1.0
 23
0.0
 33
0.0
 40
0.0
 40
0.0
 40
0.0
 40
0.0
 40
0.5928291688347104
 40
1.0
 40
1.0
 40
1.0
 40
1.0
 10
18.28061920517429
 20
29.14344268635683
 30
0.0
 10
18.23604355296101
 20
29.22927712752978
 30
0.0
 10
18.31552651528452
 20
29.34850064146643
 30
0.0
 10
18.29741369383499
 20
29.50274888669875
 30
0.0
 10
18.25093555152442
 20
29.53862636728042
 30
0.0
  0
LINE
  5
74
330
4B
100
AcDbEntity
  8
BLOCKS
 62
    16
100
AcDbLine
 10
18.2853394197
 20
29.5106595711
 30
0.0
 11
18.3133062159
 21
29.5386263673
 31
0.0
  0
LINE
  5
75
330
4B
100
AcDbEntity
  8
BLOCKS
 62
    16
100
AcDbLine
 10
18.2988735511
 20
29.4358053548
 30
0.0
 11
18.3626792239
 21
29.4996110276
 31
0.0
  0
LINE
  5
76
330
4B
100
AcDbEntity
  8
BLOCKS
 62
    16
100
AcDbLine
 10
18.3737277674
 20
29.4222712234
 30
0.0
 11
18.484213202
 21
29.532756658
 31
0.0
  0
LINE
  5
77
330
4B
100
AcDbEntity
  8
BLOCKS
 62
    16
100
AcDbLine
 10
18.284928357
 20
29.3334718131
 30
0.0
 11
18.3295335936
 21
29.3780770496
 31
0.0
  0
LINE
  5
78
330
4B
100
AcDbEntity
  8
BLOCKS
 62
    16
100
AcDbLine
 10
18.4952617454
 20
29.4554168538
 30
0.0
 11
18.5784712589
 21
29.5386263673
 31
0.0
  0
LINE
  5
79
330
4B
100
AcDbEntity
  8
BLOCKS
 62
    16
100
AcDbLine
 10
18.340582137
 20
29.3007372454
 30
0.0
 11
18.4510675716
 21
29.41122268
 31
0.0
  0
LINE
  5
7A
330
4B
100
AcDbEntity
  8
BLOCKS
 62
    16
100
AcDbLine
 10
18.2618658043
 20
29.2220209127
 30
0.0
 11
18.2963879632
 21
29.2565430716
 31
0.0
  0
LINE
  5
7B
330
4B
100
AcDbEntity
  8
BLOCKS
 62
    16
100
AcDbLine
 10
18.6167957234
 20
29.4885624842
 30
0.0
 11
18.6668596065
 21
29.5386263673
 31
0.0
  0
LINE
  5
7C
330
4B
100
AcDbEntity
  8
BLOCKS
 62
    16
100
AcDbLine
 10
18.462116115
 20
29.3338828758
 30
0.0
 11
18.5726015496
 21
29.4443683103
 31
0.0
  0
LINE
  5
7D
330
4B
100
AcDbEntity
  8
BLOCKS
 62
    16
100
AcDbLine
 10
18.3074365067
 20
29.1792032674
 30
0.0
 11
18.4179219412
 21
29.289688702
 31
0.0
  0
LINE
  5
7E
330
4B
100
AcDbEntity
  8
BLOCKS
 62
    16
100
AcDbLine
 10
18.7383297014
 20
29.5217081145
 30
0.0
 11
18.7552479542
 21
29.5386263673
 31
0.0
  0
LINE
  5
7F
330
4B
100
AcDbEntity
  8
BLOCKS
 62
    16
100
AcDbLine
 10
18.5836500931
 20
29.3670285062
 30
0.0
 11
18.6941355276
 21
29.4775139407
 31
0.0
  0
LINE
  5
80
330
4B
100
AcDbEntity
  8
BLOCKS
 62
    16
100
AcDbLine
 10
18.4289704847
 20
29.2123488978
 30
0.0
 11
18.5394559192
 21
29.3228343323
 31
0.0
  0
LINE
  5
81
330
4B
100
AcDbEntity
  8
BLOCKS
 62
    16
100
AcDbLine
 10
18.3600642733
 20
29.1434426864
 30
0.0
 11
18.3847763109
 21
29.1681547239
 31
0.0
  0
LINE
  5
82
330
4B
100
AcDbEntity
  8
BLOCKS
 62
    16
100
AcDbLine
 10
18.7051840711
 20
29.4001741365
 30
0.0
 11
18.8156695056
 21
29.5106595711
 31
0.0
  0
LINE
  5
83
330
4B
100
AcDbEntity
  8
BLOCKS
 62
    16
100
AcDbLine
 10
18.5505044627
 20
29.2454945281
 30
0.0
 11
18.6609898973
 21
29.3559799627
 31
0.0
  0
LINE
  5
84
330
4B
100
AcDbEntity
  8
BLOCKS
 62
    16
100
AcDbLine
 10
18.4484526209
 20
29.1434426864
 30
0.0
 11
18.5063102889
 21
29.2013003543
 31
0.0
  0
LINE
  5
85
330
4B
100
AcDbEntity
  8
BLOCKS
 62
    16
100
AcDbLine
 10
18.8267180491
 20
29.4333197669
 30
0.0
 11
18.9320246495
 21
29.5386263673
 31
0.0
  0
LINE
  5
86
330
4B
100
AcDbEntity
  8
BLOCKS
 62
    16
100
AcDbLine
 10
18.6720384407
 20
29.2786401585
 30
0.0
 11
18.7825238753
 21
29.3891255931
 31
0.0
  0
LINE
  5
87
330
4B
100
AcDbEntity
  8
BLOCKS
 62
    16
100
AcDbLine
 10
18.5368409686
 20
29.1434426864
 30
0.0
 11
18.6278442669
 21
29.2344459847
 31
0.0
  0
LINE
  5
88
330
4B
100
AcDbEntity
  8
BLOCKS
 62
    16
100
AcDbLine
 10
18.9482520271
 20
29.4664653973
 30
0.0
 11
19.0204129971
 21
29.5386263673
 31
0.0
  0
LINE
  5
89
330
4B
100
AcDbEntity
  8
BLOCKS
 62
    16
100
AcDbLine
 10
18.7935724187
 20
29.3117857889
 30
0.0
 11
18.9040578533
 21
29.4222712234
 31
0.0
  0
LINE
  5
8A
330
4B
100
AcDbEntity
  8
BLOCKS
 62
    16
100
AcDbLine
 10
18.6388928103
 20
29.1571061805
 30
0.0
 11
18.7493782449
 21
29.267591615
 31
0.0
  0
LINE
  5
8B
330
4B
100
AcDbEntity
  8
BLOCKS
 62
    16
100
AcDbLine
 10
18.9151063967
 20
29.3449314192
 30
0.0
 11
18.9877469673
 21
29.4175719898
 31
0.0
  0
LINE
  5
8C
330
4B
100
AcDbEntity
  8
BLOCKS
 62
    16
100
AcDbLine
 10
18.7604267884
 20
29.1902518109
 30
0.0
 11
18.8709122229
 21
29.3007372454
 31
0.0
  0
LINE
  5
8D
330
4B
100
AcDbEntity
  8
BLOCKS
 62
    16
100
AcDbLine
 10
18.7136176639
 20
29.1434426864
 30
0.0
 11
18.7162326145
 21
29.146057637
 31
0.0
  0
LINE
  5
8E
330
4B
100
AcDbEntity
  8
BLOCKS
 62
    16
100
AcDbLine
 10
19.0697860051
 20
29.4996110276
 30
0.0
 11
19.1088013448
 21
29.5386263673
 31
0.0
  0
LINE
  5
8F
330
4B
100
AcDbEntity
  8
BLOCKS
 62
    16
100
AcDbLine
 10
18.993979901
 20
29.4238049236
 30
0.0
 11
19.0255918313
 21
29.4554168538
 31
0.0
  0
LINE
  5
90
330
4B
100
AcDbEntity
  8
BLOCKS
 62
    16
100
AcDbLine
 10
18.8819607664
 20
29.2233974412
 30
0.0
 11
18.9877469673
 21
29.3291836422
 31
0.0
  0
LINE
  5
91
330
4B
100
AcDbEntity
  8
BLOCKS
 62
    16
100
AcDbLine
 10
18.8020060115
 20
29.1434426864
 30
0.0
 11
18.8377665925
 21
29.1792032674
 31
0.0
  0
LINE
  5
92
330
4B
100
AcDbEntity
  8
BLOCKS
 62
    16
100
AcDbLine
 10
19.1913199831
 20
29.532756658
 30
0.0
 11
19.1971896924
 21
29.5386263673
 31
0.0
  0
LINE
  5
93
330
4B
100
AcDbEntity
  8
BLOCKS
 62
    16
100
AcDbLine
 10
19.0823682487
 20
29.4238049236
 30
0.0
 11
19.1471258093
 21
29.4885624842
 31
0.0
  0
LINE
  5
94
330
4B
100
AcDbEntity
  8
BLOCKS
 62
    16
100
AcDbLine
 10
18.8903943592
 20
29.1434426864
 30
0.0
 11
18.9593005706
 21
29.2123488978
 31
0.0
  0
LINE
  5
95
330
4B
100
AcDbEntity
  8
BLOCKS
 62
    16
100
AcDbLine
 10
19.1581743528
 20
29.41122268
 30
0.0
 11
19.2686597873
 21
29.5217081145
 31
0.0
  0
LINE
  5
96
330
4B
100
AcDbEntity
  8
BLOCKS
 62
    16
100
AcDbLine
 10
18.9787827068
 20
29.1434426864
 30
0.0
 11
18.9877469673
 21
29.1524069469
 31
0.0
  0
LINE
  5
97
330
4B
100
AcDbEntity
  8
BLOCKS
 62
    16
100
AcDbLine
 10
19.2797083308
 20
29.4443683103
 30
0.0
 11
19.3739663877
 21
29.5386263673
 31
0.0
  0
LINE
  5
98
330
4B
100
AcDbEntity
  8
BLOCKS
 62
    16
100
AcDbLine
 10
19.1250287224
 20
29.289688702
 30
0.0
 11
19.235514157
 21
29.4001741365
 31
0.0
  0
LINE
  5
99
330
4B
100
AcDbEntity
  8
BLOCKS
 62
    16
100
AcDbLine
 10
19.4012423088
 20
29.4775139407
 30
0.0
 11
19.4623547354
 21
29.5386263673
 31
0.0
  0
LINE
  5
9A
330
4B
100
AcDbEntity
  8
BLOCKS
 62
    16
100
AcDbLine
 10
19.2465627004
 20
29.3228343323
 30
0.0
 11
19.357048135
 21
29.4333197669
 31
0.0
  0
LINE
  5
9B
330
4B
100
AcDbEntity
  8
BLOCKS
 62
    16
100
AcDbLine
 10
19.1142839592
 20
29.1905555911
 30
0.0
 11
19.2023685266
 21
29.2786401585
 31
0.0
  0
LINE
  5
9C
330
4B
100
AcDbEntity
  8
BLOCKS
 62
    16
100
AcDbLine
 10
19.5227762868
 20
29.5106595711
 30
0.0
 11
19.550743083
 21
29.5386263673
 31
0.0
  0
LINE
  5
9D
330
4B
100
AcDbEntity
  8
BLOCKS
 62
    16
100
AcDbLine
 10
19.3680966784
 20
29.3559799627
 30
0.0
 11
19.478582113
 21
29.4664653973
 31
0.0
  0
LINE
  5
9E
330
4B
100
AcDbEntity
  8
BLOCKS
 62
    16
100
AcDbLine
 10
19.2134170701
 20
29.2013003543
 30
0.0
 11
19.3239025046
 21
29.3117857889
 31
0.0
  0
LINE
  5
9F
330
4B
100
AcDbEntity
  8
BLOCKS
 62
    16
100
AcDbLine
 10
19.1555594021
 20
29.1434426864
 30
0.0
 11
19.1692228962
 21
29.1571061805
 31
0.0
  0
LINE
  5
A0
330
4B
100
AcDbEntity
  8
BLOCKS
 62
    16
100
AcDbLine
 10
19.4896306565
 20
29.3891255931
 30
0.0
 11
19.600116091
 21
29.4996110276
 31
0.0
  0
LINE
  5
A1
330
4B
100
AcDbEntity
  8
BLOCKS
 62
    16
100
AcDbLine
 10
19.3349510481
 20
29.2344459847
 30
0.0
 11
19.4454364826
 21
29.3449314192
 31
0.0
  0
LINE
  5
A2
330
4B
100
AcDbEntity
  8
BLOCKS
 62
    16
100
AcDbLine
 10
19.2439477497
 20
29.1434426864
 30
0.0
 11
19.2907568742
 21
29.1902518109
 31
0.0
  0
LINE
  5
A3
330
4B
100
AcDbEntity
  8
BLOCKS
 62
    16
100
AcDbLine
 10
19.6111646345
 20
29.4222712234
 30
0.0
 11
19.721650069
 21
29.532756658
 31
0.0
  0
LINE
  5
A4
330
4B
100
AcDbEntity
  8
BLOCKS
 62
    16
100
AcDbLine
 10
19.4564850261
 20
29.267591615
 30
0.0
 11
19.5669704606
 21
29.3780770496
 31
0.0
  0
LINE
  5
A5
330
4B
100
AcDbEntity
  8
BLOCKS
 62
    16
100
AcDbLine
 10
19.3323360974
 20
29.1434426864
 30
0.0
 11
19.4122908523
 21
29.2233974412
 31
0.0
  0
LINE
  5
A6
330
4B
100
AcDbEntity
  8
BLOCKS
 62
    16
100
AcDbLine
 10
19.7326986125
 20
29.4554168538
 30
0.0
 11
19.815908126
 21
29.5386263673
 31
0.0
  0
LINE
  5
A7
330
4B
100
AcDbEntity
  8
BLOCKS
 62
    16
100
AcDbLine
 10
19.5780190041
 20
29.3007372454
 30
0.0
 11
19.6885044387
 21
29.41122268
 31
0.0
  0
LINE
  5
A8
330
4B
100
AcDbEntity
  8
BLOCKS
 62
    16
100
AcDbLine
 10
19.4233393957
 20
29.146057637
 30
0.0
 11
19.5338248303
 21
29.2565430716
 31
0.0
  0
LINE
  5
A9
330
4B
100
AcDbEntity
  8
BLOCKS
 62
    16
100
AcDbLine
 10
19.8542325905
 20
29.4885624842
 30
0.0
 11
19.8795667187
 21
29.5138966123
 31
0.0
  0
LINE
  5
AA
330
4B
100
AcDbEntity
  8
BLOCKS
 62
    16
100
AcDbLine
 10
19.6995529821
 20
29.3338828758
 30
0.0
 11
19.8100384167
 21
29.4443683103
 31
0.0
  0
LINE
  5
AB
330
4B
100
AcDbEntity
  8
BLOCKS
 62
    16
100
AcDbLine
 10
19.5448733737
 20
29.1792032674
 30
0.0
 11
19.6553588083
 21
29.289688702
 31
0.0
  0
LINE
  5
AC
330
4B
100
AcDbEntity
  8
BLOCKS
 62
    16
100
AcDbLine
 10
19.8210869601
 20
29.3670285062
 30
0.0
 11
19.894051072
 21
29.439992618
 31
0.0
  0
LINE
  5
AD
330
4B
100
AcDbEntity
  8
BLOCKS
 62
    16
100
AcDbLine
 10
19.6664073518
 20
29.2123488978
 30
0.0
 11
19.7768927863
 21
29.3228343323
 31
0.0
  0
LINE
  5
AE
330
4B
100
AcDbEntity
  8
BLOCKS
 62
    16
100
AcDbLine
 10
19.5975011403
 20
29.1434426864
 30
0.0
 11
19.6222131779
 21
29.1681547239
 31
0.0
  0
LINE
  5
AF
330
4B
100
AcDbEntity
  8
BLOCKS
 62
    16
100
AcDbLine
 10
19.7879413298
 20
29.2454945281
 30
0.0
 11
19.894051072
 21
29.3516042704
 31
0.0
  0
LINE
  5
B0
330
4B
100
AcDbEntity
  8
BLOCKS
 62
    16
100
AcDbLine
 10
19.685889488
 20
29.1434426864
 30
0.0
 11
19.7437471559
 21
29.2013003543
 31
0.0
  0
LINE
  5
B1
330
4B
100
AcDbEntity
  8
BLOCKS
 62
    16
100
AcDbLine
 10
19.7742778356
 20
29.1434426864
 30
0.0
 11
19.865281134
 21
29.2344459847
 31
0.0
  0
LINE
  5
B2
330
4B
100
AcDbEntity
  8
BLOCKS
 62
    16
100
AcDbLine
 10
19.8763296774
 20
29.1571061805
 30
0.0
 11
19.894051072
 21
29.1748275751
 31
0.0
  0
LINE
  5
B3
330
4B
100
AcDbEntity
  8
BLOCKS
 62
    16
100
AcDbLine
 10
19.0540492515
 20
29.3954859264
 30
0.0
 11
19.0125511605
 21
29.3539878353
 31
0.0
  0
LINE
  5
B4
330
4B
100
AcDbEntity
  8
BLOCKS
 62
    16
100
AcDbLine
 10
19.0864194327
 20
29.3394677599
 30
0.0
 11
19.0095275609
 21
29.2625758881
 31
0.0
  0
LINE
  5
B5
330
4B
100
AcDbEntity
  8
BLOCKS
 62
    16
100
AcDbLine
 10
19.0864194327
 20
29.2510794123
 30
0.0
 11
19.0095275609
 21
29.1741875405
 31
0.0
  0
LINE
  5
B6
330
4B
100
AcDbEntity
  8
BLOCKS
 62
    16
100
AcDbLine
 10
19.0864194327
 20
29.1626910646
 30
0.0
 11
19.0671710544
 21
29.1434426864
 31
0.0
  0
LINE
  5
B7
330
4B
100
AcDbEntity
  8
BLOCKS
 62
    16
100
AcDbLine
 10
19.066235184
 20
29.3782090764
 30
0.0
 11
19.0095275609
 21
29.3215014533
 31
0.0
  0
LINE
  5
B8
330
4B
100
AcDbEntity
  8
BLOCKS
 62
    16
100
AcDbLine
 10
19.0864194327
 20
29.3100049774
 30
0.0
 11
19.0095275609
 21
29.2331131056
 31
0.0
  0
LINE
  5
B9
330
4B
100
AcDbEntity
  8
BLOCKS
 62
    16
100
AcDbLine
 10
19.0864194327
 20
29.2216166298
 30
0.0
 11
19.0095275609
 21
29.144724758
 31
0.0
  0
LINE
  5
BA
330
4B
100
AcDbEntity
  8
BLOCKS
 62
    16
100
AcDbLine
 10
19.0671710544
 20
29.1434426864
 30
0.0
 11
19.0095275609
 21
29.0857991928
 31
0.0
  0
LINE
  5
BB
330
4B
100
AcDbEntity
  8
BLOCKS
 62
    16
100
AcDbLine
 10
19.0864194327
 20
29.074302717
 30
0.0
 11
19.0672440761
 21
29.0551273603
 31
0.0
  0
LINE
  5
BC
330
4B
100
AcDbEntity
  8
BLOCKS
 62
    16
100
AcDbLine
 10
19.0864194327
 20
29.1332282821
 30
0.0
 11
19.0113140216
 21
29.0581228711
 31
0.0
  0
LINE
  5
BD
330
4B
100
AcDbEntity
  8
BLOCKS
 62
    16
100
AcDbLine
 10
19.0672440761
 20
29.0551273603
 30
0.0
 11
19.0147315304
 21
29.0026148146
 31
0.0
  0
LINE
  5
BE
330
4B
100
AcDbEntity
  8
BLOCKS
 62
    16
100
AcDbLine
 10
19.0113140216
 20
29.0581228711
 30
0.0
 11
19.0095275609
 21
29.0563364103
 31
0.0
  0
LINE
  5
BF
330
4B
100
AcDbEntity
  8
BLOCKS
 62
    16
100
AcDbLine
 10
19.0864194327
 20
29.0448399345
 30
0.0
 11
19.0425738628
 21
29.0009943645
 31
0.0
  0
LINE
  5
C0
330
4B
100
AcDbEntity
  8
BLOCKS
 62
    16
100
AcDbLine
 10
19.0116569958
 20
28.9995402801
 30
0.0
 11
19.0095275609
 21
28.9974108452
 31
0.0
  0
LINE
  5
C1
330
4B
100
AcDbEntity
  8
BLOCKS
 62
    16
100
AcDbLine
 10
19.0864194327
 20
28.9859143693
 30
0.0
 11
19.0647212668
 21
28.9642162034
 31
0.0
  0
LINE
  5
C2
330
4B
100
AcDbEntity
  8
BLOCKS
 62
    16
100
AcDbLine
 10
19.0394993282
 20
28.9979198299
 30
0.0
 11
19.0095275609
 21
28.9679480627
 31
0.0
  0
LINE
  5
C3
330
4B
100
AcDbEntity
  8
BLOCKS
 62
    16
100
AcDbLine
 10
19.0095275609
 20
28.9974108452
 30
0.0
 11
18.9811942695
 21
28.9690775538
 31
0.0
  0
LINE
  5
C4
330
4B
100
AcDbEntity
  8
BLOCKS
 62
    16
100
AcDbLine
 10
18.9559723309
 20
29.0027811803
 30
0.0
 11
18.946149557
 21
28.9929584064
 31
0.0
  0
LINE
  5
C5
330
4B
100
AcDbEntity
  8
BLOCKS
 62
    16
100
AcDbLine
 10
19.0095275609
 20
28.9679480627
 30
0.0
 11
19.0090366019
 21
28.9674571036
 31
0.0
  0
LINE
  5
C6
330
4B
100
AcDbEntity
  8
BLOCKS
 62
    16
100
AcDbLine
 10
19.0951839931
 20
28.9946789297
 30
0.0
 11
19.0864194327
 21
28.9859143693
 31
0.0
  0
LINE
  5
C7
330
4B
100
AcDbEntity
  8
BLOCKS
 62
    16
100
AcDbLine
 10
19.1578905048
 20
28.9689970938
 30
0.0
 11
19.1482482641
 21
28.959354853
 31
0.0
  0
LINE
  5
C8
330
4B
100
AcDbEntity
  8
BLOCKS
 62
    16
100
AcDbLine
 10
19.1230263255
 20
28.9930584796
 30
0.0
 11
19.0925635992
 21
28.9625957533
 31
0.0
  0
LINE
  5
C9
330
4B
100
AcDbEntity
  8
BLOCKS
 62
    16
100
AcDbLine
 10
18.9714094326
 20
28.9592927168
 30
0.0
 11
18.9667139662
 21
28.9545972505
 31
0.0
  0
LINE
  5
CA
330
4B
100
AcDbEntity
  8
BLOCKS
 62
    16
100
AcDbLine
 10
19.0597977802
 20
28.9592927168
 30
0.0
 11
19.0109541882
 21
28.9104491248
 31
0.0
  0
LINE
  5
CB
330
4B
100
AcDbEntity
  8
BLOCKS
 62
    16
100
AcDbLine
 10
19.0008722151
 20
28.9592927168
 30
0.0
 11
18.9778485343
 21
28.9362690361
 31
0.0
  0
LINE
  5
CC
330
4B
100
AcDbEntity
  8
BLOCKS
 62
    16
100
AcDbLine
 10
19.0892605627
 20
28.9592927168
 30
0.0
 11
19.0337052462
 21
28.9037374003
 31
0.0
  0
INSERT
  5
E4
330
4B
100
AcDbEntity
  8
BLOCKS
100
AcDbBlockReference
  2
SW_BLOCK_DIMENSION_0
 10
19.8746516971
 20
29.6493704876
 30
0.0
  0
ENDBLK
  5
4D
330
4B
100
AcDbEntity
  8
0
100
AcDbBlockEnd
  0
BLOCK
  5
CE
330
CD
100
AcDbEntity
  8
0
100
AcDbBlockBegin
  2
SW_BLOCK_DIMENSION_0
 70
     0
 10
0.0
 20
0.0
 30
0.0
  3
SW_BLOCK_DIMENSION_0
  1

  0
SOLID
  5
D0
330
CD
100
AcDbEntity
  8
BLOCKS
 62
     0
100
AcDbTrace
 10
0.5193993749
 20
-0.0313006311
 30
0.0
 11
0.6205142837
 21
-0.0468567709
 31
0.0
 12
0.6205142837
 22
-0.0157444913
 32
0.0
 13
0.6205142837
 23
-0.0157444913
 33
0.0
  0
SOLID
  5
D1
330
CD
100
AcDbEntity
  8
BLOCKS
 62
     0
100
AcDbTrace
 10
0.0193993749
 20
-0.0313006311
 30
0.0
 11
-0.081715534
 21
-0.0157444913
 31
0.0
 12
-0.081715534
 22
-0.0468567709
 32
0.0
 13
-0.081715534
 23
-0.0468567709
 33
0.0
  0
LINE
  5
D2
330
CD
100
AcDbEntity
  8
BLOCKS
 62
     0
100
AcDbLine
 10
0.2036072721
 20
0.0798201425
 30
0.0
 11
0.3102816564
 21
0.0798201425
 31
0.0
  0
LINE
  5
D3
330
CD
100
AcDbEntity
  8
BLOCKS
 62
     0
100
AcDbLine
 10
0.079089508
 20
-0.0940224566
 30
0.0
 11
0.0559413594
 21
-0.0940224566
 31
0.0
  0
LINE
  5
D4
330
CD
100
AcDbEntity
  8
BLOCKS
 62
     0
100
AcDbLine
 10
0.0559413594
 20
-0.0940224566
 30
0.0
 11
0.0559413594
 21
-0.249307956
 31
0.0
  0
LINE
  5
D5
330
CD
100
AcDbEntity
  8
BLOCKS
 62
     0
100
AcDbLine
 10
0.0559413594
 20
-0.249307956
 30
0.0
 11
0.079089508
 21
-0.249307956
 31
0.0
  0
LINE
  5
D6
330
CD
100
AcDbEntity
  8
BLOCKS
 62
     0
100
AcDbLine
 10
0.4841821217
 20
-0.0940224566
 30
0.0
 11
0.5073302703
 21
-0.0940224566
 31
0.0
  0
LINE
  5
D7
330
CD
100
AcDbEntity
  8
BLOCKS
 62
     0
100
AcDbLine
 10
0.5073302703
 20
-0.0940224566
 30
0.0
 11
0.5073302703
 21
-0.249307956
 31
0.0
  0
LINE
  5
D8
330
CD
100
AcDbEntity
  8
BLOCKS
 62
     0
100
AcDbLine
 10
0.5073302703
 20
-0.249307956
 30
0.0
 11
0.4841821217
 21
-0.249307956
 31
0.0
  0
LINE
  5
D9
330
CD
100
AcDbEntity
  8
BLOCKS
 62
     0
100
AcDbLine
 10
0.5193993749
 20
-0.711486603
 30
0.0
 11
0.5193993749
 21
0.0936993689
 31
0.0
  0
LINE
  5
DA
330
CD
100
AcDbEntity
  8
BLOCKS
 62
     0
100
AcDbLine
 10
0.0193993749
 20
-0.1267236731
 30
0.0
 11
0.0193993749
 21
0.0936993689
 31
0.0
  0
LINE
  5
DB
330
CD
100
AcDbEntity
  8
BLOCKS
 62
     0
100
AcDbLine
 10
0.5193993749
 20
-0.0313006311
 30
0.0
 11
0.7138511227
 21
-0.0313006311
 31
0.0
  0
LINE
  5
DC
330
CD
100
AcDbEntity
  8
BLOCKS
 62
     0
100
AcDbLine
 10
0.0193993749
 20
-0.0313006311
 30
0.0
 11
-0.1750523729
 21
-0.0313006311
 31
0.0
  0
MTEXT
  5
DE
330
CD
100
AcDbEntity
  8
BLOCKS
 62
     0
100
AcDbMText
 10
0.0
 20
0.1342778896
 30
0.0039370079
 40
0.1041666667
 41
0.0
 71
     1
 72
     1
  1
 
  7
SLDTEXTSTYLE0
  0
MTEXT
  5
DF
330
CD
100
AcDbEntity
  8
BLOCKS
 62
     0
100
AcDbMText
 10
0.2183642158
 20
0.2052438631
 30
0.0039370079
 40
0.1041666667
 41
0.0
 71
     1
 72
     1
  1
1
  7
SLDTEXTSTYLE0
  0
MTEXT
  5
E0
330
CD
100
AcDbEntity
  8
BLOCKS
 62
     0
100
AcDbMText
 10
0.2183642158
 20
0.0634035871
 30
0.0039370079
 40
0.1041666667
 41
0.0
 71
     1
 72
     1
  1
2
  7
SLDTEXTSTYLE0
  0
MTEXT
  5
E1
330
CD
100
AcDbEntity
  8
BLOCKS
 62
     0
100
AcDbMText
 10
0.3250386001
 20
0.1342778896
 30
0.0039370079
 40
0.1041666667
 41
0.0
 71
     1
 72
     1
  1
"
  7
SLDTEXTSTYLE0
  0
MTEXT
  5
E2
330
CD
100
AcDbEntity
  8
BLOCKS
 62
     0
100
AcDbMText
 10
0.1080246921
 20
-0.1150300596
 30
0.0039370079
 40
0.1041666667
 41
0.0
 71
     1
 72
     1
  1
12.70
  7
SLDTEXTSTYLE0
  0
MTEXT
  5
E3
330
CD
100
AcDbEntity
  8
BLOCKS
 62
     0
100
AcDbMText
 10
0.5246914087
 20
0.1342778896
 30
0.0039370079
 40
0.1041666667
 41
0.0
 71
     1
 72
     1
  1
 
  7
SLDTEXTSTYLE0
  0
ENDBLK
  5
CF
330
CD
100
AcDbEntity
  8
0
100
AcDbBlockEnd
  0
BLOCK
  5
102
330
101
100
AcDbEntity
  8
0
100
AcDbBlockBegin
  2
_D
 70
     0
 10
0.0
 20
0.0
 30
0.0
  3
_D
  1

  0
SOLID
  5
104
330
101
100
AcDbEntity
  8
DIMS
100
AcDbTrace
 10
1.8075762082
 20
1.3244011117
 30
0.0
 11
1.8480221718
 21
1.5872998747
 31
0.0
 12
1.7671302447
 22
1.5872998747
 32
0.0
 13
1.7671302447
 23
1.5872998747
 33
0.0
  0
SOLID
  5
105
330
101
100
AcDbEntity
  8
DIMS
100
AcDbTrace
 10
1.8075762082
 20
20.7320745814
 30
0.0
 11
1.7671302447
 21
20.4691758184
 31
0.0
 12
1.8480221718
 22
20.4691758184
 32
0.0
 13
1.8480221718
 23
20.4691758184
 33
0.0
  0
LINE
  5
106
330
101
100
AcDbEntity
  8
DIMS
100
AcDbLine
 10
1.7050106339
 20
8.3666800691
 30
0.0
 11
2.1829813107
 21
8.3666800691
 31
0.0
  0
LINE
  5
107
330
101
100
AcDbEntity
  8
DIMS
100
AcDbLine
 10
1.1806471772
 20
7.9146893414
 30
0.0
 11
1.1204619913
 21
7.9146893414
 31
0.0
  0
LINE
  5
108
330
101
100
AcDbEntity
  8
DIMS
100
AcDbLine
 10
1.1204619913
 20
7.9146893414
 30
0.0
 11
1.1204619913
 21
7.5109470721
 31
0.0
  0
LINE
  5
109
330
101
100
AcDbEntity
  8
DIMS
100
AcDbLine
 10
1.1204619913
 20
7.5109470721
 30
0.0
 11
1.1806471772
 21
7.5109470721
 31
0.0
  0
LINE
  5
10A
330
101
100
AcDbEntity
  8
DIMS
100
AcDbLine
 10
2.4345052026
 20
7.9146893414
 30
0.0
 11
2.4946903886
 21
7.9146893414
 31
0.0
  0
LINE
  5
10B
330
101
100
AcDbEntity
  8
DIMS
100
AcDbLine
 10
2.4946903886
 20
7.9146893414
 30
0.0
 11
2.4946903886
 21
7.5109470721
 31
0.0
  0
LINE
  5
10C
330
101
100
AcDbEntity
  8
DIMS
100
AcDbLine
 10
2.4946903886
 20
7.5109470721
 30
0.0
 11
2.4345052026
 21
7.5109470721
 31
0.0
  0
LINE
  5
10D
330
101
100
AcDbEntity
  8
DIMS
100
AcDbLine
 10
17.0681608759
 20
1.3244011117
 30
0.0
 11
1.6825762082
 21
1.3244011117
 31
0.0
  0
LINE
  5
10E
330
101
100
AcDbEntity
  8
DIMS
100
AcDbLine
 10
9.0023698879
 20
20.7320745814
 30
0.0
 11
1.6825762082
 21
20.7320745814
 31
0.0
  0
LINE
  5
10F
330
101
100
AcDbEntity
  8
DIMS
100
AcDbLine
 10
1.8075762082
 20
1.3244011117
 30
0.0
 11
1.8075762082
 21
7.450761964
 31
0.0
  0
LINE
  5
110
330
101
100
AcDbEntity
  8
DIMS
100
AcDbLine
 10
1.8075762082
 20
20.7320745814
 30
0.0
 11
1.8075762082
 21
8.7047703576
 31
0.0
  0
MTEXT
  5
111
330
101
100
AcDbEntity
  8
DIMS
100
AcDbMText
 10
1.2654080181
 20
8.5082702344
 30
0.0039370079
 40
0.2708333333
 41
0.0
 71
     1
 72
     1
  1
19
  7
SLDTEXTSTYLE0
  0
MTEXT
  5
112
330
101
100
AcDbEntity
  8
DIMS
100
AcDbMText
 10
1.8436873336
 20
8.6927817546
 30
0.0039370079
 40
0.2708333333
 41
0.0
 71
     1
 72
     1
  1
7
  7
SLDTEXTSTYLE0
  0
MTEXT
  5
113
330
101
100
AcDbEntity
  8
DIMS
100
AcDbMText
 10
1.7433786949
 20
8.3239970173
 30
0.0039370079
 40
0.2708333333
 41
0.0
 71
     1
 72
     1
  1
16
  7
SLDTEXTSTYLE0
  0
MTEXT
  5
114
330
101
100
AcDbEntity
  8
DIMS
100
AcDbMText
 10
2.221349335
 20
8.5082702344
 30
0.0039370079
 40
0.2708333333
 41
0.0
 71
     1
 72
     1
  1
"
  7
SLDTEXTSTYLE0
  0
MTEXT
  5
115
330
101
100
AcDbEntity
  8
DIMS
100
AcDbMText
 10
1.2558786632
 20
7.8600695758
 30
0.0039370079
 40
0.2708333333
 41
0.0
 71
     1
 72
     1
  1
492.95
  7
SLDTEXTSTYLE0
  0
ENDBLK
  5
103
330
101
100
AcDbEntity
  8
0
100
AcDbBlockEnd
  0
BLOCK
  5
118
330
117
100
AcDbEntity
  8
0
100
AcDbBlockBegin
  2
_D_1
 70
     0
 10
0.0
 20
0.0
 30
0.0
  3
_D_1
  1

  0
SOLID
  5
11A
330
117
100
AcDbEntity
  8
DIMS
100
AcDbTrace
 10
23.9977932607
 20
21.4863063262
 30
0.0
 11
23.7348944977
 21
21.5267522898
 31
0.0
 12
23.7348944977
 22
21.4458603627
 32
0.0
 13
23.7348944977
 23
21.4458603627
 33
0.0
  0
SOLID
  5
11B
330
117
100
AcDbEntity
  8
DIMS
100
AcDbTrace
 10
2.5909234584
 20
21.4863063262
 30
0.0
 11
2.8538222214
 21
21.4458603627
 31
0.0
 12
2.8538222214
 22
21.5267522898
 32
0.0
 13
2.8538222214
 23
21.5267522898
 33
0.0
  0
LINE
  5
11C
330
117
100
AcDbEntity
  8
DIMS
100
AcDbLine
 10
15.2174527011
 20
21.7752202345
 30
0.0
 11
15.6954233779
 21
21.7752202345
 31
0.0
  0
LINE
  5
11D
330
117
100
AcDbEntity
  8
DIMS
100
AcDbLine
 10
14.6930892444
 20
21.3232295068
 30
0.0
 11
14.6329040584
 21
21.3232295068
 31
0.0
  0
LINE
  5
11E
330
117
100
AcDbEntity
  8
DIMS
100
AcDbLine
 10
14.6329040584
 20
21.3232295068
 30
0.0
 11
14.6329040584
 21
20.9194872375
 31
0.0
  0
LINE
  5
11F
330
117
100
AcDbEntity
  8
DIMS
100
AcDbLine
 10
14.6329040584
 20
20.9194872375
 30
0.0
 11
14.6930892444
 21
20.9194872375
 31
0.0
  0
LINE
  5
120
330
117
100
AcDbEntity
  8
DIMS
100
AcDbLine
 10
15.9469472697
 20
21.3232295068
 30
0.0
 11
16.0071324557
 21
21.3232295068
 31
0.0
  0
LINE
  5
121
330
117
100
AcDbEntity
  8
DIMS
100
AcDbLine
 10
16.0071324557
 20
21.3232295068
 30
0.0
 11
16.0071324557
 21
20.9194872375
 31
0.0
  0
LINE
  5
122
330
117
100
AcDbEntity
  8
DIMS
100
AcDbLine
 10
16.0071324557
 20
20.9194872375
 30
0.0
 11
15.9469472697
 21
20.9194872375
 31
0.0
  0
LINE
  5
123
330
117
100
AcDbEntity
  8
DIMS
100
AcDbLine
 10
23.9977932607
 20
10.7014320494
 30
0.0
 11
23.9977932607
 21
21.6113063262
 31
0.0
  0
LINE
  5
124
330
117
100
AcDbEntity
  8
DIMS
100
AcDbLine
 10
2.5909234584
 20
12.7239180217
 30
0.0
 11
2.5909234584
 21
21.6113063262
 31
0.0
  0
LINE
  5
125
330
117
100
AcDbEntity
  8
DIMS
100
AcDbLine
 10
23.9977932607
 20
21.4863063262
 30
0.0
 11
16.1124939252
 21
21.4863063262
 31
0.0
  0
LINE
  5
126
330
117
100
AcDbEntity
  8
DIMS
100
AcDbLine
 10
2.5909234584
 20
21.4863063262
 30
0.0
 11
14.5275426256
 21
21.4863063262
 31
0.0
  0
MTEXT
  5
127
330
117
100
AcDbEntity
  8
DIMS
100
AcDbMText
 10
14.7778500852
 20
21.9168103998
 30
0.0039370079
 40
0.2708333333
 41
0.0
 71
     1
 72
     1
  1
21
  7
SLDTEXTSTYLE0
  0
MTEXT
  5
128
330
117
100
AcDbEntity
  8
DIMS
100
AcDbMText
 10
15.3561294007
 20
22.10132192
 30
0.0039370079
 40
0.2708333333
 41
0.0
 71
     1
 72
     1
  1
7
  7
SLDTEXTSTYLE0
  0
MTEXT
  5
129
330
117
100
AcDbEntity
  8
DIMS
100
AcDbMText
 10
15.255820762
 20
21.7325371827
 30
0.0039370079
 40
0.2708333333
 41
0.0
 71
     1
 72
     1
  1
16
  7
SLDTEXTSTYLE0
  0
MTEXT
  5
12A
330
117
100
AcDbEntity
  8
DIMS
100
AcDbMText
 10
15.7337914021
 20
21.9168103998
 30
0.0039370079
 40
0.2708333333
 41
0.0
 71
     1
 72
     1
  1
"
  7
SLDTEXTSTYLE0
  0
MTEXT
  5
12B
330
117
100
AcDbEntity
  8
DIMS
100
AcDbMText
 10
14.7683207303
 20
21.2686097412
 30
0.0039370079
 40
0.2708333333
 41
0.0
 71
     1
 72
     1
  1
543.73
  7
SLDTEXTSTYLE0
  0
ENDBLK
  5
119
330
117
100
AcDbEntity
  8
0
100
AcDbBlockEnd
  0
BLOCK
  5
12E
330
12D
100
AcDbEntity
  8
0
100
AcDbBlockBegin
  2
_D_2
 70
     0
 10
0.0
 20
0.0
 30
0.0
  3
_D_2
  1

  0
SOLID
  5
130
330
12D
100
AcDbEntity
  8
DIMS
100
AcDbTrace
 10
14.0077932607
 20
18.7298458438
 30
0.0
 11
13.7448944977
 21
18.7702918074
 31
0.0
 12
13.7448944977
 22
18.6893998803
 32
0.0
 13
13.7448944977
 23
18.6893998803
 33
0.0
  0
SOLID
  5
131
330
12D
100
AcDbEntity
  8
DIMS
100
AcDbTrace
 10
7.350119791
 20
18.7298458438
 30
0.0
 11
7.6130185541
 21
18.6893998803
 31
0.0
 12
7.6130185541
 22
18.7702918074
 32
0.0
 13
7.6130185541
 23
18.7702918074
 33
0.0
  0
LINE
  5
132
330
12D
100
AcDbEntity
  8
DIMS
100
AcDbLine
 10
10.9102937595
 20
19.0187597521
 30
0.0
 11
11.3882644363
 21
19.0187597521
 31
0.0
  0
LINE
  5
133
330
12D
100
AcDbEntity
  8
DIMS
100
AcDbLine
 10
10.4862389691
 20
18.5667690244
 30
0.0
 11
10.4260537831
 21
18.5667690244
 31
0.0
  0
LINE
  5
134
330
12D
100
AcDbEntity
  8
DIMS
100
AcDbLine
 10
10.4260537831
 20
18.5667690244
 30
0.0
 11
10.4260537831
 21
18.1630267551
 31
0.0
  0
LINE
  5
135
330
12D
100
AcDbEntity
  8
DIMS
100
AcDbLine
 10
10.4260537831
 20
18.1630267551
 30
0.0
 11
10.4862389691
 21
18.1630267551
 31
0.0
  0
LINE
  5
136
330
12D
100
AcDbEntity
  8
DIMS
100
AcDbLine
 10
11.7400969944
 20
18.5667690244
 30
0.0
 11
11.8002821804
 21
18.5667690244
 31
0.0
  0
LINE
  5
137
330
12D
100
AcDbEntity
  8
DIMS
100
AcDbLine
 10
11.8002821804
 20
18.5667690244
 30
0.0
 11
11.8002821804
 21
18.1630267551
 31
0.0
  0
LINE
  5
138
330
12D
100
AcDbEntity
  8
DIMS
100
AcDbLine
 10
11.8002821804
 20
18.1630267551
 30
0.0
 11
11.7400969944
 21
18.1630267551
 31
0.0
  0
LINE
  5
139
330
12D
100
AcDbEntity
  8
DIMS
100
AcDbLine
 10
14.0077932607
 20
18.7298458438
 30
0.0
 11
11.9056436499
 21
18.7298458438
 31
0.0
  0
LINE
  5
13A
330
12D
100
AcDbEntity
  8
DIMS
100
AcDbLine
 10
7.350119791
 20
18.7298458438
 30
0.0
 11
10.3206923502
 21
18.7298458438
 31
0.0
  0
MTEXT
  5
13B
330
12D
100
AcDbEntity
  8
DIMS
100
AcDbMText
 10
10.6713084211
 20
19.1603499174
 30
0.0039370079
 40
0.2708333333
 41
0.0
 71
     1
 72
     1
  1
6
  7
SLDTEXTSTYLE0
  0
MTEXT
  5
13C
330
12D
100
AcDbEntity
  8
DIMS
100
AcDbMText
 10
10.9486618205
 20
19.3448614376
 30
0.0039370079
 40
0.2708333333
 41
0.0
 71
     1
 72
     1
  1
11
  7
SLDTEXTSTYLE0
  0
MTEXT
  5
13D
330
12D
100
AcDbEntity
  8
DIMS
100
AcDbMText
 10
10.9486618205
 20
18.9760767003
 30
0.0039370079
 40
0.2708333333
 41
0.0
 71
     1
 72
     1
  1
16
  7
SLDTEXTSTYLE0
  0
MTEXT
  5
13E
330
12D
100
AcDbEntity
  8
DIMS
100
AcDbMText
 10
11.4266325156
 20
19.1603499174
 30
0.0039370079
 40
0.2708333333
 41
0.0
 71
     1
 72
     1
  1
"
  7
SLDTEXTSTYLE0
  0
MTEXT
  5
13F
330
12D
100
AcDbEntity
  8
DIMS
100
AcDbMText
 10
10.561470455
 20
18.5121492588
 30
0.0039370079
 40
0.2708333333
 41
0.0
 71
     1
 72
     1
  1
169.10
  7
SLDTEXTSTYLE0
  0
ENDBLK
  5
12F
330
12D
100
AcDbEntity
  8
0
100
AcDbBlockEnd
  0
BLOCK
  5
142
330
141
100
AcDbEntity
  8
0
100
AcDbBlockBegin
  2
_D_3
 70
     0
 10
0.0
 20
0.0
 30
0.0
  3
_D_3
  1

  0
SOLID
  5
144
330
141
100
AcDbEntity
  8
DIMS
100
AcDbTrace
 10
9.4863513265
 20
14.4320745814
 30
0.0
 11
9.5267972901
 21
14.6949733444
 31
0.0
 12
9.445905363
 22
14.6949733444
 32
0.0
 13
9.445905363
 23
14.6949733444
 33
0.0
  0
SOLID
  5
145
330
141
100
AcDbEntity
  8
DIMS
100
AcDbTrace
 10
9.4863513265
 20
20.7320745814
 30
0.0
 11
9.445905363
 21
20.4691758184
 31
0.0
 12
9.5267972901
 22
20.4691758184
 32
0.0
 13
9.5267972901
 23
20.4691758184
 33
0.0
  0
LINE
  5
146
330
141
100
AcDbEntity
  8
DIMS
100
AcDbLine
 10
9.283477086
 20
16.8661033457
 30
0.0
 11
9.7614477628
 21
16.8661033457
 31
0.0
  0
LINE
  5
147
330
141
100
AcDbEntity
  8
DIMS
100
AcDbLine
 10
8.8594222955
 20
16.414112618
 30
0.0
 11
8.7992371096
 21
16.414112618
 31
0.0
  0
LINE
  5
148
330
141
100
AcDbEntity
  8
DIMS
100
AcDbLine
 10
8.7992371096
 20
16.414112618
 30
0.0
 11
8.7992371096
 21
16.0103703487
 31
0.0
  0
LINE
  5
149
330
141
100
AcDbEntity
  8
DIMS
100
AcDbLine
 10
8.7992371096
 20
16.0103703487
 30
0.0
 11
8.8594222955
 21
16.0103703487
 31
0.0
  0
LINE
  5
14A
330
141
100
AcDbEntity
  8
DIMS
100
AcDbLine
 10
10.1132803209
 20
16.414112618
 30
0.0
 11
10.1734655069
 21
16.414112618
 31
0.0
  0
LINE
  5
14B
330
141
100
AcDbEntity
  8
DIMS
100
AcDbLine
 10
10.1734655069
 20
16.414112618
 30
0.0
 11
10.1734655069
 21
16.0103703487
 31
0.0
  0
LINE
  5
14C
330
141
100
AcDbEntity
  8
DIMS
100
AcDbLine
 10
10.1734655069
 20
16.0103703487
 30
0.0
 11
10.1132803209
 21
16.0103703487
 31
0.0
  0
LINE
  5
14D
330
141
100
AcDbEntity
  8
DIMS
100
AcDbLine
 10
6.605796051
 20
14.4320745814
 30
0.0
 11
9.6113513265
 21
14.4320745814
 31
0.0
  0
LINE
  5
14E
330
141
100
AcDbEntity
  8
DIMS
100
AcDbLine
 10
9.4863513265
 20
14.4320745814
 30
0.0
 11
9.4863513265
 21
15.9501852407
 31
0.0
  0
LINE
  5
14F
330
141
100
AcDbEntity
  8
DIMS
100
AcDbLine
 10
9.4863513265
 20
20.7320745814
 30
0.0
 11
9.4863513265
 21
17.2041936343
 31
0.0
  0
MTEXT
  5
150
330
141
100
AcDbEntity
  8
DIMS
100
AcDbMText
 10
9.0444917476
 20
17.007693511
 30
0.0039370079
 40
0.2708333333
 41
0.0
 71
     1
 72
     1
  1
6
  7
SLDTEXTSTYLE0
  0
MTEXT
  5
151
330
141
100
AcDbEntity
  8
DIMS
100
AcDbMText
 10
9.4221537857
 20
17.1922050312
 30
0.0039370079
 40
0.2708333333
 41
0.0
 71
     1
 72
     1
  1
5
  7
SLDTEXTSTYLE0
  0
MTEXT
  5
152
330
141
100
AcDbEntity
  8
DIMS
100
AcDbMText
 10
9.3218451469
 20
16.8234202939
 30
0.0039370079
 40
0.2708333333
 41
0.0
 71
     1
 72
     1
  1
16
  7
SLDTEXTSTYLE0
  0
MTEXT
  5
153
330
141
100
AcDbEntity
  8
DIMS
100
AcDbMText
 10
9.799815842
 20
17.007693511
 30
0.0039370079
 40
0.2708333333
 41
0.0
 71
     1
 72
     1
  1
"
  7
SLDTEXTSTYLE0
  0
MTEXT
  5
154
330
141
100
AcDbEntity
  8
DIMS
100
AcDbMText
 10
8.9346537815
 20
16.3594928524
 30
0.0039370079
 40
0.2708333333
 41
0.0
 71
     1
 72
     1
  1
160.02
  7
SLDTEXTSTYLE0
  0
ENDBLK
  5
143
330
141
100
AcDbEntity
  8
0
100
AcDbBlockEnd
  0
BLOCK
  5
156
330
155
100
AcDbEntity
  8
0
100
AcDbBlockBegin
  2
SW_NOTE_0
 70
     0
 10
0.0
 20
0.0
 30
0.0
  3
SW_NOTE_0
  1

  0
MTEXT
  5
158
330
155
100
AcDbEntity
  8
NOTES
 62
     0
100
AcDbMText
 10
0.0015030457
 20
0.2165104323
 30
0.0
 40
0.1666666667
 41
0.0
 71
     3
 72
     1
  1
1/2" REVEAL
  7
SLDTEXTSTYLE0
  0
MTEXT
  5
159
330
155
100
AcDbEntity
  8
NOTES
 62
     0
100
AcDbMText
 10
0.005476796
 20
-0.0057117873
 30
0.0
 40
0.1666666667
 41
0.0
 71
     3
 72
     1
  1
[12.7 REVELADO]
  7
SLDTEXTSTYLE0
  0
ENDBLK
  5
157
330
155
100
AcDbEntity
  8
0
100
AcDbBlockEnd
  0
BLOCK
  5
15E
330
15D
100
AcDbEntity
  8
0
100
AcDbBlockBegin
  2
SW_NOTE_1
 70
     0
 10
0.0
 20
0.0
 30
0.0
  3
SW_NOTE_1
  1

  0
MTEXT
  5
160
330
15D
100
AcDbEntity
  8
NOTES
 62
     0
100
AcDbMText
 10
0.0
 20
0.1342778896
 30
0.0
 40
0.1041666667
 41
0.0
 71
     1
 72
     1
  1
NOTES:
  7
SLDTEXTSTYLE0
  0
MTEXT
  5
161
330
15D
100
AcDbEntity
  8
NOTES
 62
     0
100
AcDbMText
 10
0.3937007786
 20
-0.1434998849
 30
0.0
 40
0.1041666667
 41
0.0
 71
     1
 72
     1
  1
THOROUGHLY READ ALL  INSTALLATION INSTRUCTIONS
  7
SLDTEXTSTYLE0
  0
MTEXT
  5
162
330
15D
100
AcDbEntity
  8
NOTES
 62
     0
100
AcDbMText
 10
0.0
 20
-0.1434998849
 30
0.0
 40
0.1041666667
 41
0.0
 71
     1
 72
     1
  1
1.
  7
SLDTEXTSTYLE0
  0
MTEXT
  5
163
330
15D
100
AcDbEntity
  8
NOTES
 62
     0
100
AcDbMText
 10
0.0
 20
-0.2823887721
 30
0.0
 40
0.1041666667
 41
0.0
 71
     1
 72
     1
  1
BEFORE CUTTING COUNTERTOP.
  7
SLDTEXTSTYLE0
  0
MTEXT
  5
164
330
15D
100
AcDbEntity
  8
NOTES
 62
     0
100
AcDbMText
 10
0.0
 20
-0.5601665465
 30
0.0
 40
0.1041666667
 41
0.0
 71
     1
 72
     1
  1
2.  DIMENSIONS ARE IN INCHES [MM].
  7
SLDTEXTSTYLE0
  0
MTEXT
  5
166
330
15D
100
AcDbEntity
  8
NOTES
 62
     0
100
AcDbMText
 10
0.0
 20
-0.9768332081
 30
0.0
 40
0.1041666667
 41
0.0
 71
     1
 72
     1
  1
PLEASE CHECK TEMPLATE AGAINST PHYSICAL SINK FOR MOST ACCURATE 
  7
SLDTEXTSTYLE1
  0
MTEXT
  5
167
330
15D
100
AcDbEntity
  8
NOTES
 62
     0
100
AcDbMText
 10
0.0
 20
-1.1157220953
 30
0.0
 40
0.1041666667
 41
0.0
 71
     1
 72
     1
  1
CUT.
  7
SLDTEXTSTYLE1
  0
MTEXT
  5
168
330
15D
100
AcDbEntity
  8
NOTES
 62
     0
100
AcDbMText
 10
0.0
 20
-1.6712776442
 30
0.0
 40
0.1041666667
 41
0.0
 71
     1
 72
     1
  1
NOTAS:
  7
SLDTEXTSTYLE0
  0
MTEXT
  5
169
330
15D
100
AcDbEntity
  8
NOTES
 62
     0
100
AcDbMText
 10
0.0
 20
-1.9490554186
 30
0.0
 40
0.1041666667
 41
0.0
 71
     1
 72
     1
  1
1.  LEA ATENTAMENTE LAS INSTRUCCIONES DE INSTALACIÓN ANTES DE 
  7
SLDTEXTSTYLE0
  0
MTEXT
  5
16A
330
15D
100
AcDbEntity
  8
NOTES
 62
     0
100
AcDbMText
 10
0.0
 20
-2.0879443058
 30
0.0
 40
0.1041666667
 41
0.0
 71
     1
 72
     1
  1
CORTAR LA ENCIMERA.
  7
SLDTEXTSTYLE0
  0
MTEXT
  5
16B
330
15D
100
AcDbEntity
  8
NOTES
 62
     0
100
AcDbMText
 10
0.0
 20
-2.3657220802
 30
0.0
 40
0.1041666667
 41
0.0
 71
     1
 72
     1
  1
2.  DIMENSIONES EN PULGADAS [MM].
  7
SLDTEXTSTYLE0
  0
MTEXT
  5
16C
330
15D
100
AcDbEntity
  8
NOTES
 62
     0
100
AcDbMText
 10
0.0
 20
-2.7823887419
 30
0.0
 40
0.1041666667
 41
0.0
 71
     1
 72
     1
  1
POR FAVOR COMPRUEBE PLANTILLA CONTRA FREGADERO FÍSICO PARA 
  7
SLDTEXTSTYLE1
  0
MTEXT
  5
16D
330
15D
100
AcDbEntity
  8
NOTES
 62
     0
100
AcDbMText
 10
0.0
 20
-2.9212776291
 30
0.0
 40
0.1041666667
 41
0.0
 71
     1
 72
     1
  1
CORTE MÁS EXACTO.
  7
SLDTEXTSTYLE1
  0
ENDBLK
  5
15F
330
15D
100
AcDbEntity
  8
0
100
AcDbBlockEnd
  0
BLOCK
  5
171
330
170
100
AcDbEntity
  8
0
100
AcDbBlockBegin
  2
SW_NOTE_2
 70
     0
 10
0.0
 20
0.0
 30
0.0
  3
SW_NOTE_2
  1

  0
MTEXT
  5
173
330
170
100
AcDbEntity
  8
NOTES
 62
     0
100
AcDbMText
 10
4.1171875
 20
0.6445338699
 30
0.0
 40
0.5
 41
0.0
 71
     2
 72
     1
  1
TEMPLATE #: 1000001541
  7
SLDTEXTSTYLE0
  0
MTEXT
  5
174
330
170
100
AcDbEntity
  8
NOTES
 62
     0
100
AcDbMText
 10
4.1114011998
 20
-0.0110663944
 30
0.0
 40
0.25
 41
0.0
 71
     2
 72
     1
  1
REVEAL UNDERMOUNT TEMPLATE TEXAS SINK
  7
SLDTEXTSTYLE0
  0
ENDBLK
  5
172
330
170
100
AcDbEntity
  8
0
100
AcDbBlockEnd
  0
ENDSEC
  0
SECTION
  2
ENTITIES
  0
LINE
  5
E5
330
1F
100
AcDbEntity
  8
OBJECTS
100
AcDbLine
 10
23.2577932607
 20
13.337905973
 30
0.0
 11
23.2577932607
 21
14.9375704942
 31
0.0
  0
LINE
  5
E6
330
1F
100
AcDbEntity
  8
OBJECTS
100
AcDbLine
 10
6.555796051
 20
14.4320745814
 30
0.0
 11
4.3606821013
 21
14.4320745814
 31
0.0
  0
LINE
  5
E7
330
1F
100
AcDbEntity
  8
OBJECTS
100
AcDbLine
 10
7.350119791
 20
19.0298244845
 30
0.0
 11
7.350119791
 21
15.2263983214
 31
0.0
  0
LINE
  5
E8
330
1F
100
AcDbEntity
  8
OBJECTS
100
AcDbLine
 10
12.3055431639
 20
20.7320745814
 30
0.0
 11
9.0523698879
 21
20.7320745814
 31
0.0
  0
LINE
  5
E9
330
1F
100
AcDbEntity
  8
OBJECTS
100
AcDbLine
 10
14.0077932607
 20
17.7372033759
 30
0.0
 11
14.0077932607
 21
19.0298244845
 31
0.0
  0
ARC
  5
EA
330
1F
100
AcDbEntity
  8
OBJECTS
100
AcDbCircle
 10
17.8897439386
 20
31.1379365729
 30
0.0
 40
14.54616326515051
100
AcDbArc
 50
257.0250726222
 51
278.749780473
  0
ARC
  5
EB
330
1F
100
AcDbEntity
  8
OBJECTS
100
AcDbCircle
 10
20.7039565259
 20
12.8532378465
 30
0.0
 40
3.953836734849498
100
AcDbArc
 50
67.7767636975
 51
98.749780473
  0
ARC
  5
EC
330
1F
100
AcDbEntity
  8
OBJECTS
100
AcDbCircle
 10
20.7939565259
 20
10.6514320494
 30
0.0
 40
3.203836734849494
100
AcDbArc
 50
315.0085777158
 51
30.8008641779
  0
ARC
  5
ED
330
1F
100
AcDbEntity
  8
OBJECTS
100
AcDbCircle
 10
7.1801133256
 20
24.2611996197
 30
0.0
 40
22.4538367348495
100
AcDbArc
 50
303.6308239202
 51
315.0085777158
  0
ARC
  5
EE
330
1F
100
AcDbEntity
  8
OBJECTS
100
AcDbCircle
 10
20.4722628421
 20
4.2782378465
 30
0.0
 40
1.546163265150508
100
AcDbArc
 50
123.6308239202
 51
196.601549599
  0
ARC
  5
EF
330
1F
100
AcDbEntity
  8
OBJECTS
100
AcDbCircle
 10
17.1181608759
 20
3.2782378465
 30
0.0
 40
1.953836734849498
100
AcDbArc
 50
270.0
 51
16.601549599
  0
ARC
  5
F0
330
1F
100
AcDbEntity
  8
OBJECTS
100
AcDbCircle
 10
17.1181608759
 20
5.4032378465
 30
0.0
 40
4.078836734849498
100
AcDbArc
 50
217.5401645545
 51
270.0
  0
ARC
  5
F1
330
1F
100
AcDbEntity
  8
OBJECTS
100
AcDbCircle
 10
-2.3846864905
 20
-9.5835562348
 30
0.0
 40
20.5172005929726
100
AcDbArc
 50
37.5401645545
 51
45.2687372297
  0
ARC
  5
F2
330
1F
100
AcDbEntity
  8
OBJECTS
100
AcDbCircle
 10
14.8375998078
 20
7.8010496727
 30
0.0
 40
3.953836734849494
100
AcDbArc
 50
198.9434814843
 51
225.2687372297
  0
ARC
  5
F3
330
1F
100
AcDbEntity
  8
OBJECTS
100
AcDbCircle
 10
9.1625642053
 20
5.8532378465
 30
0.0
 40
2.046163265150505
100
AcDbArc
 50
18.9434814843
 51
118.687572112
  0
ARC
  5
F4
330
1F
100
AcDbEntity
  8
OBJECTS
100
AcDbCircle
 10
7.1789565259
 20
9.4782378465
 30
0.0
 40
2.086066692858709
100
AcDbArc
 50
181.3638223141
 51
298.687572112
  0
ARC
  5
F5
330
1F
100
AcDbEntity
  8
OBJECTS
100
AcDbCircle
 10
3.8299880571
 20
9.3985066555
 30
0.0
 40
1.263850749052291
100
AcDbArc
 50
1.3638223141
 51
61.7595570865
  0
ARC
  5
F6
330
1F
100
AcDbEntity
  8
OBJECTS
100
AcDbCircle
 10
7.9549600058
 20
17.0785249817
 30
0.0
 40
7.453836734849497
100
AcDbArc
 50
230.8228834206
 51
241.7595570865
  0
SPLINE
  5
F7
330
1F
100
AcDbEntity
  8
OBJECTS
100
AcDbSpline
210
0.0
220
0.0
230
1.0
 70
     8
 71
     3
 72
    30
 73
    26
 74
     0
 42
0.00000001
 43
0.00000001
 12
1.0
 22
0.0
 32
0.0
 13
1.0
 23
0.0
 33
0.0
 40
0.0
 40
0.0
 40
0.0
 40
0.0
 40
0.1250000000000031
 40
0.1250000000000031
 40
0.2500000000000063
 40
0.2500000000000063
 40
0.312500000000007
 40
0.312500000000007
 40
0.3750000000000077
 40
0.3750000000000077
 40
0.500000000000007
 40
0.500000000000007
 40
0.562500000000007
 40
0.562500000000007
 40
0.593750000000007
 40
0.593750000000007
 40
0.625000000000007
 40
0.625000000000007
 40
0.7500000000000044
 40
0.7500000000000044
 40
0.8125000000000038
 40
0.8125000000000038
 40
0.875000000000003
 40
0.875000000000003
 40
1.0
 40
1.0
 40
1.0
 40
1.0
 10
23.25779326074241
 20
14.93757049423541
 30
0.0
 10
23.25779326074242
 20
15.02219161763199
 30
0.0
 10
23.2515245875818
 20
15.10574559751632
 30
0.0
 10
23.22696164827495
 20
15.27080638825787
 30
0.0
 10
23.20866618130108
 20
15.35231299469292
 30
0.0
 10
23.17198453515706
 20
15.47300020353291
 30
0.0
 10
23.15814512554418
 20
15.51311696534872
 30
0.0
 10
23.12774086758003
 20
15.59163998775907
 30
0.0
 10
23.11116132690036
 20
15.63013817950336
 30
0.0
 10
23.05738071466384
 20
15.7433928073161
 30
0.0
 10
23.016159014721
 20
15.81592113402749
 30
0.0
 10
22.94623486538987
 20
15.92022950702522
 30
0.0
 10
22.92157289161184
 20
15.95424866139375
 30
0.0
 10
22.88249314622279
 20
16.00412096063825
 30
0.0
 10
22.86912705904131
 20
16.02053631159239
 30
0.0
 10
22.84192384566219
 20
16.05270954056404
 30
0.0
 10
22.82806022597584
 20
16.06850180490434
 30
0.0
 10
22.75744378441692
 20
16.14600454442412
 30
0.0
 10
22.69682690969508
 20
16.20337407265617
 30
0.0
 10
22.59980161468549
 20
16.2825755337158
 30
0.0
 10
22.56643908394343
 20
16.3078292740189
 30
0.0
 10
22.49763647142937
 20
16.35600279617445
 30
0.0
 10
22.46208007096952
 20
16.3789888910151
 30
0.0
 10
22.35316352832404
 20
16.44376195019334
 30
0.0
 10
22.27769682547514
 20
16.48136781822626
 30
0.0
 10
22.19936179935823
 20
16.51337281589242
 30
0.0
  0
SPLINE
  5
F8
330
1F
100
AcDbEntity
  8
OBJECTS
100
AcDbSpline
210
0.0
220
0.0
230
1.0
 70
     8
 71
     3
 72
    16
 73
    12
 74
     0
 42
0.00000001
 43
0.00000001
 12
1.0
 22
0.0
 32
0.0
 13
1.0
 23
0.0
 33
0.0
 40
0.0
 40
0.0
 40
0.0
 40
0.0
 40
0.2500000000000006
 40
0.2500000000000006
 40
0.5000000000000012
 40
0.5000000000000012
 40
0.6250000000000008
 40
0.6250000000000008
 40
0.7500000000000002
 40
0.7500000000000002
 40
1.0
 40
1.0
 40
1.0
 40
1.0
 10
23.54589905385077
 20
12.29197529677769
 30
0.0
 10
23.49891413651233
 20
12.37079052606592
 30
0.0
 10
23.45753569211896
 20
12.45221813323138
 30
0.0
 10
23.38584031069929
 20
12.62022753940771
 30
0.0
 10
23.35547709901122
 20
12.70711123411978
 30
0.0
 10
23.31903269915147
 20
12.83937056729424
 30
0.0
 10
23.3083705784497
 20
12.88383962511447
 30
0.0
 10
23.2900279852422
 20
12.97354544531632
 30
0.0
 10
23.28234448839674
 20
13.01884107715661
 30
0.0
 10
23.26394646561629
 20
13.15491381833578
 30
0.0
 10
23.25779326074241
 20
13.24614842694592
 30
0.0
 10
23.25779326074241
 20
13.33790597301751
 30
0.0
  0
SPLINE
  5
F9
330
1F
100
AcDbEntity
  8
OBJECTS
100
AcDbSpline
210
0.0
220
0.0
230
1.0
 70
     8
 71
     3
 72
    58
 73
    54
 74
     0
 42
0.00000001
 43
0.00000001
 12
1.0
 22
0.0
 32
0.0
 13
1.0
 23
0.0
 33
0.0
 40
0.0
 40
0.0
 40
0.0
 40
0.0
 40
0.0624999999999954
 40
0.0624999999999954
 40
0.1249999999999908
 40
0.1249999999999908
 40
0.1562499999999888
 40
0.1562499999999888
 40
0.1874999999999869
 40
0.1874999999999869
 40
0.2499999999999837
 40
0.2499999999999837
 40
0.2656249999999831
 40
0.2656249999999831
 40
0.2812499999999826
 40
0.2812499999999826
 40
0.312499999999982
 40
0.312499999999982
 40
0.3749999999999808
 40
0.3749999999999808
 40
0.4062499999999801
 40
0.4062499999999801
 40
0.4218749999999799
 40
0.4218749999999799
 40
0.4374999999999799
 40
0.4374999999999799
 40
0.4999999999999809
 40
0.4999999999999809
 40
0.531249999999981
 40
0.531249999999981
 40
0.5468749999999813
 40
0.5468749999999813
 40
0.5624999999999817
 40
0.5624999999999817
 40
0.6249999999999835
 40
0.6249999999999835
 40
0.6874999999999853
 40
0.6874999999999853
 40
0.7499999999999872
 40
0.7499999999999872
 40
0.8124999999999891
 40
0.8124999999999891
 40
0.8281249999999898
 40
0.8281249999999898
 40
0.8437499999999906
 40
0.8437499999999906
 40
0.8749999999999921
 40
0.8749999999999921
 40
0.9374999999999961
 40
0.9374999999999961
 40
0.9687499999999981
 40
0.9687499999999981
 40
1.0
 40
1.0
 40
1.0
 40
1.0
 10
4.360682101331844
 20
14.43207458138116
 30
0.0
 10
4.269347559128271
 20
14.43207458138117
 30
0.0
 10
4.179191417884088
 20
14.42513178041359
 30
0.0
 10
4.001145045950112
 20
14.39789608243178
 30
0.0
 10
3.913254961159499
 20
14.37760232582136
 30
0.0
 10
3.783173270179653
 20
14.33683094695047
 30
0.0
 10
3.740018058294171
 20
14.32146117617444
 30
0.0
 10
3.655762501996599
 20
14.2877551634272
 30
0.0
 10
3.614483360893446
 20
14.26937143132532
 30
0.0
 10
3.493144612141164
 20
14.20971326062955
 30
0.0
 10
3.415570775318617
 20
14.16395512269877
 30
0.0
 10
3.322819853605643
 20
14.09915218172261
 30
0.0
 10
3.304481999919734
 20
14.08580860294182
 30
0.0
 10
3.268235862987901
 20
14.05834660939107
 30
0.0
 10
3.250289601390293
 20
14.04419628008059
 30
0.0
 10
3.197422393904313
 20
14.00081489011044
 30
0.0
 10
3.163517091012333
 20
13.9707079878253
 30
0.0
 10
3.065712785084997
 20
13.87692400489823
 30
0.0
 10
3.005705846983882
 20
13.80980094668052
 30
0.0
 10
2.923491150303452
 20
13.70221415090549
 30
0.0
 10
2.897391198550722
 20
13.665196504465
 30
0.0
 10
2.860252468428337
 20
13.60788934984004
 30
0.0
 10
2.848187961299307
 20
13.58845313248488
 30
0.0
 10
2.824930606887622
 20
13.54929890328307
 30
0.0
 10
2.813717812870695
 20
13.52955315194505
 30
0.0
 10
2.759701269286997
 20
13.42999418298968
 30
0.0
 10
2.723006077801836
 20
13.34770400229596
 30
0.0
 10
2.677588994416199
 20
13.22036559852226
 30
0.0
 10
2.664061352032175
 20
13.17726606224244
 30
0.0
 10
2.646232852957585
 20
13.11161804879078
 30
0.0
 10
2.6407032869841
 20
13.08956780172238
 30
0.0
 10
2.630474909251169
 20
13.04513044453451
 30
0.0
 10
2.625783459335364
 20
13.02276532136392
 30
0.0
 10
2.604625963328663
 20
12.91106845658291
 30
0.0
 10
2.594800934408374
 20
12.82137368138918
 30
0.0
 10
2.588922299738366
 20
12.64133001284818
 30
0.0
 10
2.592870523808711
 20
12.55094602380834
 30
0.0
 10
2.61508594351805
 20
12.3696387480484
 30
0.0
 10
2.633061560426
 20
12.28102334894855
 30
0.0
 10
2.682149892778388
 20
12.10769134313014
 30
0.0
 10
2.713260762988435
 20
12.02297418878798
 30
0.0
 10
2.760575668266671
 20
11.91957848545975
 30
0.0
 10
2.770486791128556
 20
11.89898189436332
 30
0.0
 10
2.791038161290744
 20
11.85829444325162
 30
0.0
 10
2.801672690470091
 20
11.83820864937759
 30
0.0
 10
2.834645548015685
 20
11.77871984277916
 30
0.0
 10
2.858045595447266
 20
11.74007997757608
 30
0.0
 10
2.932413060549378
 20
11.62715579023891
 30
0.0
 10
2.987524491709753
 20
11.55585012199381
 30
0.0
 10
3.078596304602208
 20
11.45493276586773
 30
0.0
 10
3.110449904527081
 20
11.42222183905956
 30
0.0
 10
3.176587492672246
 20
11.35933154782681
 30
0.0
 10
3.210822321866908
 20
11.3291836899433
 30
0.0
 10
3.246224154062795
 20
11.30033419661937
 30
0.0
  0
SPLINE
  5
FA
330
1F
100
AcDbEntity
  8
OBJECTS
100
AcDbSpline
210
0.0
220
0.0
230
1.0
 70
     8
 71
     3
 72
    29
 73
    25
 74
     0
 42
0.00000001
 43
0.00000001
 12
1.0
 22
0.0
 32
0.0
 13
1.0
 23
0.0
 33
0.0
 40
0.0
 40
0.0
 40
0.0
 40
0.0
 40
0.1249999999999986
 40
0.1249999999999986
 40
0.1874999999999982
 40
0.1874999999999982
 40
0.2499999999999978
 40
0.2499999999999978
 40
0.3749999999999982
 40
0.3749999999999982
 40
0.4374999999999984
 40
0.4374999999999984
 40
0.4999999999999987
 40
0.4999999999999987
 40
0.6249999999999991
 40
0.6249999999999991
 40
0.6874999999999997
 40
0.6874999999999997
 40
0.7500000000000001
 40
0.8125000000000007
 40
0.8125000000000007
 40
0.8750000000000012
 40
0.8750000000000012
 40
1.0
 40
1.0
 40
1.0
 40
1.0
 10
7.350119791043421
 20
15.22639832137657
 30
0.0
 10
7.350119791043418
 20
15.17394302274374
 30
0.0
 10
7.344997098836605
 20
15.1223586174278
 30
0.0
 10
7.329923632959015
 20
15.04623826355318
 30
0.0
 10
7.323658542500384
 20
15.02107572320484
 30
0.0
 10
7.308588083266368
 20
14.97118250749631
 30
0.0
 10
7.29973905219119
 20
14.94638079851514
 30
0.0
 10
7.269912683073398
 20
14.87423083635719
 30
0.0
 10
7.245566325002847
 20
14.82860384363216
 30
0.0
 10
7.202407441445921
 20
14.76384299875935
 30
0.0
 10
7.186853290669987
 20
14.74280904006718
 30
0.0
 10
7.153663209236154
 20
14.70231077156174
 30
0.0
 10
7.136197818714702
 20
14.68304072069776
 30
0.0
 10
7.081272911626406
 20
14.62807522083403
 30
0.0
 10
7.041308431604905
 20
14.59519768262722
 30
0.0
 10
6.976225482120078
 20
14.55165927853653
 30
0.0
 10
6.953667811557209
 20
14.53813824160927
 30
0.0
 10
6.907821160227417
 20
14.51363692030229
 30
0.0
 10
6.861002201199109
 20
14.49150509350815
 30
0.0
 10
6.812269951863867
 20
14.47403591711843
 30
0.0
 10
6.762569190102076
 20
14.45892698623927
 30
0.0
 10
6.737122497218548
 20
14.45253225791404
 30
0.0
 10
6.660139829442978
 20
14.43719793282586
 30
0.0
 10
6.60825219150003
 20
14.43207458138116
 30
0.0
 10
6.555796051048017
 20
14.43207458138116
 30
0.0
  0
SPLINE
  5
FB
330
1F
100
AcDbEntity
  8
OBJECTS
100
AcDbSpline
210
0.0
220
0.0
230
1.0
 70
     8
 71
     3
 72
    38
 73
    34
 74
     0
 42
0.00000001
 43
0.00000001
 12
1.0
 22
0.0
 32
0.0
 13
1.0
 23
0.0
 33
0.0
 40
0.0
 40
0.0
 40
0.0
 40
0.0
 40
0.1249999999999997
 40
0.1249999999999997
 40
0.1874999999999993
 40
0.1874999999999993
 40
0.2187499999999996
 40
0.2187499999999996
 40
0.2499999999999999
 40
0.2499999999999999
 40
0.3750000000000003
 40
0.3750000000000003
 40
0.4062500000000004
 40
0.4062500000000004
 40
0.4375000000000006
 40
0.4375000000000006
 40
0.5000000000000001
 40
0.5000000000000001
 40
0.6249999999999983
 40
0.6249999999999983
 40
0.6562499999999987
 40
0.6562499999999987
 40
0.687499999999999
 40
0.687499999999999
 40
0.749999999999998
 40
0.749999999999998
 40
0.812499999999997
 40
0.812499999999997
 40
0.843749999999997
 40
0.843749999999997
 40
0.874999999999997
 40
0.874999999999997
 40
1.0
 40
1.0
 40
1.0
 40
1.0
 10
9.052369887934452
 20
20.73207458138117
 30
0.0
 10
8.939967419694968
 20
20.73207458138116
 30
0.0
 10
8.829437394335788
 20
20.72107148146108
 30
0.0
 10
8.666339261518818
 20
20.68871891550157
 30
0.0
 10
8.612426021447545
 20
20.67527389808788
 30
0.0
 10
8.53225113570212
 20
20.65102247043862
 30
0.0
 10
8.505598700733753
 20
20.64224107551897
 30
0.0
 10
8.452724115463765
 20
20.62335299633677
 30
0.0
 10
8.426627724898925
 20
20.61329383211922
 30
0.0
 10
8.297815895230102
 20
20.55998443624844
 30
0.0
 10
8.200063436850904
 20
20.5077789886205
 30
0.0
 10
8.084436835347939
 20
20.43067813103573
 30
0.0
 10
8.061642658831532
 20
20.41466044277016
 30
0.0
 10
8.016727192503762
 20
20.38141090763066
 30
0.0
 10
7.994550210789111
 20
20.36413259420864
 30
0.0
 10
7.929479205672588
 20
20.31078836527212
 30
0.0
 10
7.888192485365041
 20
20.27336264728185
 30
0.0
 10
7.770416823915963
 20
20.15567237103057
 30
0.0
 10
7.699955010518177
 20
20.07004573169476
 30
0.0
 10
7.622180644018501
 20
19.9538463771862
 30
0.0
 10
7.60710648841596
 20
19.93007596506179
 30
0.0
 10
7.578275602875646
 20
19.88202049735497
 30
0.0
 10
7.564507441151213
 20
19.85772689178239
 30
0.0
 10
7.525108504783509
 20
19.78406336786153
 30
0.0
 10
7.501378791182066
 20
19.73391258566627
 30
0.0
 10
7.458912394294236
 20
19.63156012613129
 30
0.0
 10
7.440175745816667
 20
19.5793584344938
 30
0.0
 10
7.415864154918164
 20
19.49949775942166
 30
0.0
 10
7.408393637308848
 20
19.47261738651098
 30
0.0
 10
7.39474147824564
 20
19.41832723275852
 30
0.0
 10
7.388552154694901
 20
19.39086715342017
 30
0.0
 10
7.361124256993409
 20
19.25340894130049
 30
0.0
 10
7.350119791043421
 20
19.1422277315998
 30
0.0
 10
7.35011979104342
 20
19.02982448449013
 30
0.0
  0
SPLINE
  5
FC
330
1F
100
AcDbEntity
  8
OBJECTS
100
AcDbSpline
210
0.0
220
0.0
230
1.0
 70
     8
 71
     3
 72
    38
 73
    34
 74
     0
 42
0.00000001
 43
0.00000001
 12
1.0
 22
0.0
 32
0.0
 13
1.0
 23
0.0
 33
0.0
 40
0.0
 40
0.0
 40
0.0
 40
0.0
 40
0.1249999999999962
 40
0.1249999999999962
 40
0.1874999999999943
 40
0.1874999999999943
 40
0.2187499999999939
 40
0.2187499999999939
 40
0.2499999999999936
 40
0.2499999999999936
 40
0.374999999999992
 40
0.374999999999992
 40
0.4062499999999919
 40
0.4062499999999919
 40
0.4374999999999918
 40
0.4374999999999918
 40
0.4999999999999927
 40
0.4999999999999927
 40
0.6249999999999934
 40
0.6249999999999934
 40
0.6562499999999941
 40
0.6562499999999941
 40
0.6874999999999949
 40
0.6874999999999949
 40
0.7499999999999958
 40
0.7499999999999958
 40
0.8124999999999968
 40
0.8124999999999968
 40
0.8437499999999973
 40
0.8437499999999973
 40
0.8749999999999978
 40
0.8749999999999978
 40
1.0
 40
1.0
 40
1.0
 40
1.0
 10
14.00779326074241
 20
19.02982448449013
 30
0.0
 10
14.00779326074241
 20
19.14222695272962
 30
0.0
 10
13.99679016082232
 20
19.2527569780888
 30
0.0
 10
13.96443759486282
 20
19.41585511090577
 30
0.0
 10
13.95099257744913
 20
19.46976835097704
 30
0.0
 10
13.92674114979986
 20
19.54994323672247
 30
0.0
 10
13.91795975488021
 20
19.57659567169083
 30
0.0
 10
13.89907167569802
 20
19.62947025696082
 30
0.0
 10
13.88901251148047
 20
19.65556664752566
 30
0.0
 10
13.83570311560968
 20
19.78437847719448
 30
0.0
 10
13.78349766798175
 20
19.88213093557368
 30
0.0
 10
13.70639681039697
 20
19.99775753707664
 30
0.0
 10
13.69037912213141
 20
20.02055171359305
 30
0.0
 10
13.65712958699191
 20
20.06546717992082
 30
0.0
 10
13.63985127356989
 20
20.08764416163547
 30
0.0
 10
13.58650704463336
 20
20.15271516675199
 30
0.0
 10
13.5490813266431
 20
20.19400188705954
 30
0.0
 10
13.43139105039182
 20
20.31177754850862
 30
0.0
 10
13.345764411056
 20
20.38223936190641
 30
0.0
 10
13.22956505654745
 20
20.46001372840609
 30
0.0
 10
13.20579464442303
 20
20.47508788400862
 30
0.0
 10
13.15773917671622
 20
20.50391876954894
 30
0.0
 10
13.13344557114364
 20
20.51768693127337
 30
0.0
 10
13.05978204722278
 20
20.55708586764107
 30
0.0
 10
13.00963126502752
 20
20.58081558124251
 30
0.0
 10
12.90727880549254
 20
20.62328197813035
 30
0.0
 10
12.85507711385505
 20
20.64201862660791
 30
0.0
 10
12.77521643878291
 20
20.66633021750642
 30
0.0
 10
12.74833606587223
 20
20.67380073511574
 30
0.0
 10
12.69404591211977
 20
20.68745289417894
 30
0.0
 10
12.66658583278142
 20
20.69364221772968
 30
0.0
 10
12.52912762066174
 20
20.72107011543117
 30
0.0
 10
12.41794641096105
 20
20.73207458138117
 30
0.0
 10
12.30554316385138
 20
20.73207458138116
 30
0.0
  0
SPLINE
  5
FD
330
1F
100
AcDbEntity
  8
OBJECTS
100
AcDbSpline
210
0.0
220
0.0
230
1.0
 70
     8
 71
     3
 72
    22
 73
    18
 74
     0
 42
0.00000001
 43
0.00000001
 12
1.0
 22
0.0
 32
0.0
 13
1.0
 23
0.0
 33
0.0
 40
0.0
 40
0.0
 40
0.0
 40
0.0
 40
0.125
 40
0.125
 40
0.25
 40
0.25
 40
0.375
 40
0.375
 40
0.5
 40
0.5
 40
0.625
 40
0.625
 40
0.75
 40
0.75
 40
0.875
 40
0.875
 40
1.0
 40
1.0
 40
1.0
 40
1.0
 10
14.62377174208955
 20
16.96315998389125
 30
0.0
 10
14.5799982556953
 20
16.97324571530372
 30
0.0
 10
14.5376971689254
 20
16.9868632539485
 30
0.0
 10
14.45592127813088
 20
17.02087766320419
 30
0.0
 10
14.41644630110524
 20
17.04127411884203
 30
0.0
 10
14.34044816201263
 20
17.08914747298594
 30
0.0
 10
14.30497867635369
 20
17.11596481318691
 30
0.0
 10
14.2390022783857
 20
17.17504641680859
 30
0.0
 10
14.20847550772966
 20
17.20732295602752
 30
0.0
 10
14.1525549683808
 20
17.27758107382273
 30
0.0
 10
14.12791278214653
 20
17.31463087823753
 30
0.0
 10
14.08514496132765
 20
17.39218859405839
 30
0.0
 10
14.06699052984014
 20
17.43273325343079
 30
0.0
 10
14.03740328931075
 20
17.51749779379123
 30
0.0
 10
14.02636071428355
 20
17.56063040228334
 30
0.0
 10
14.01156544335727
 20
17.6479947739341
 30
0.0
 10
14.00779326074241
 20
17.69228352025194
 30
0.0
 10
14.00779326074241
 20
17.73720337585191
 30
0.0
  0
INSERT
  5
FE
330
1F
100
AcDbEntity
  8
BLOCKS
100
AcDbBlockReference
  2
REVEAL-__500
 10
-3.1868777416
 20
-14.3213077873
 30
0.0
  0
DIMENSION
  5
FF
330
1F
100
AcDbEntity
  8
DIMS
100
AcDbDimension
  2
_D
 10
1.8075762082
 20
20.7320745814
 30
0.0
 11
1.8075762082
 21
8.0777661608
 31
0.0
 70
   160
  1
<>
  3
SLDDIMSTYLE0
100
AcDbAlignedDimension
 13
17.1181608759
 23
1.3244011117
 33
0.0
 14
9.0523698879
 24
20.7320745814
 34
0.0
 50
90.0
100
AcDbRotatedDimension
  0
DIMENSION
  5
116
330
1F
100
AcDbEntity
  8
DIMS
100
AcDbDimension
  2
_D_1
 10
2.5909234584
 20
21.4863063262
 30
0.0
 11
15.3200182754
 21
21.4863063262
 31
0.0
 70
   160
  1
<>
  3
SLDDIMSTYLE0
100
AcDbAlignedDimension
 13
23.9977932607
 23
10.6514320494
 33
0.0
 14
2.5909234584
 24
12.6739180217
 34
0.0
 50
0.0
100
AcDbRotatedDimension
  0
DIMENSION
  5
12C
330
1F
100
AcDbEntity
  8
DIMS
100
AcDbDimension
  2
_D_2
 10
7.350119791
 20
18.7298458438
 30
0.0
 11
11.1131680001
 21
18.7298458438
 31
0.0
 70
   160
  1
<>
  3
SLDDIMSTYLE0
100
AcDbAlignedDimension
 13
14.0077932607
 23
19.0298244845
 33
0.0
 14
7.350119791
 24
19.0298244845
 34
0.0
100
AcDbRotatedDimension
  0
DIMENSION
  5
140
330
1F
100
AcDbEntity
  8
DIMS
100
AcDbDimension
  2
_D_3
 10
9.4863513265
 20
20.7320745814
 30
0.0
 11
9.4863513265
 21
16.5771894375
 31
0.0
 70
   160
  1
<>
  3
SLDDIMSTYLE0
100
AcDbAlignedDimension
 13
6.555796051
 23
14.4320745814
 33
0.0
 14
9.0523698879
 24
20.7320745814
 34
0.0
 50
90.0
100
AcDbRotatedDimension
  0
INSERT
  5
15A
102
{ACAD_REACTORS
330
15C
102
}
330
1F
100
AcDbEntity
  8
NOTES
100
AcDbBlockReference
  2
SW_NOTE_0
 10
16.7392621727
 20
16.037344885
 30
0.0
  0
LEADER
  5
15C
330
1F
100
AcDbEntity
  8
NOTES
100
AcDbLeader
  3
SLDDIMSTYLE1
 73
     2
 76
     3
 10
17.2026342527
 20
16.608010695
 30
0.0
 10
16.9892621727
 20
16.037344885
 30
0.0
 10
16.7392621727
 20
16.037344885
 30
0.0
340
15A
1001
ACAD
1000
DSTYLE
1002
{
1070
     6
1000

1002
}
  0
INSERT
  5
16E
330
1F
100
AcDbEntity
  8
NOTES
100
AcDbBlockReference
  2
SW_NOTE_1
 10
13.0187791595
 20
10.4093633537
 30
0.0
  0
MTEXT
  5
16F
330
1F
100
AcDbEntity
  8
NOTES
100
AcDbMText
 10
16.4715341871
 20
2.695950987
 30
0.0
 40
0.2083333333
 41
0.0
 71
     1
 72
     1
  1
REV_D  7/15
  7
SLDTEXTSTYLE0
  0
INSERT
  5
175
330
1F
100
AcDbEntity
  8
NOTES
100
AcDbBlockReference
  2
SW_NOTE_2
 10
10.4323342478
 20
11.6500151916
 30
0.0
  0
ENDSEC
  0
SECTION
  2
OBJECTS
  0
DICTIONARY
  5
C
330
0
100
AcDbDictionary
  3
ACAD_GROUP
350
D
  3
ACAD_MLINESTYLE
350
17
1001
ACAD
1000
TREAT_AS_HARD
1070
     0
  0
DICTIONARY
  5
D
102
{ACAD_REACTORS
330
C
102
}
330
C
100
AcDbDictionary
1001
ACAD
1000
TREAT_AS_HARD
1070
     0
  0
DICTIONARY
  5
17
102
{ACAD_REACTORS
330
C
102
}
330
C
100
AcDbDictionary
  3
STANDARD
350
18
1001
ACAD
1000
TREAT_AS_HARD
1070
     0
  0
MLINESTYLE
  5
18
102
{ACAD_REACTORS
330
17
102
}
330
17
100
AcDbMlineStyle
  2
Standard
 70
     0
  3

 62
   256
 51
90.0
 52
90.0
 71
     2
 49
0.5
 62
   256
  6
BYLAYER
 49
-0.5
 62
   256
  6
BYLAYER
  0
ENDSEC
  0
EOF
