  0
SECTION
  2
HEADER
  9
$ACADVER
  1
AC1015
  9
$ACADMAINTVER
 70
     6
  9
$DWGCODEPAGE
  3
ANSI_1252
  9
$INSBASE
 10
0.0
 20
0.0
 30
0.0
  9
$EXTMIN
 10
0.0
 20
0.0
 30
0.0
  9
$EXTMAX
 10
40.0
 20
28.0
 30
0.0
  9
$LIMMIN
 10
0.0
 20
0.0
  9
$LIMMAX
 10
40.0
 20
28.0
  9
$ORTHOMODE
 70
     0
  9
$REGENMODE
 70
     1
  9
$FILLMODE
 70
     1
  9
$QTEXTMODE
 70
     0
  9
$MIRRTEXT
 70
     1
  9
$LTSCALE
 40
1.0
  9
$ATTMODE
 70
     1
  9
$TEXTSIZE
 40
0.2777777778
  9
$TRACEWID
 40
0.05
  9
$TEXTSTYLE
  7
STANDARD
  9
$CLAYER
  8
0
  9
$CELTYPE
  6
ByLayer
  9
$CECOLOR
 62
   256
  9
$CELTSCALE
 40
1.0
  9
$DISPSILH
 70
     0
  9
$DIMSCALE
 40
1.0
  9
$DIMASZ
 40
0.3640136719
  9
$DIMEXO
 40
0.05
  9
$DIMDLI
 40
0.38
  9
$DIMRND
 40
0.0
  9
$DIMDLE
 40
0.0
  9
$DIMEXE
 40
0.125
  9
$DIMTP
 40
0.0
  9
$DIMTM
 40
0.0
  9
$DIMTXT
 40
0.5
  9
$DIMCEN
 40
0.09
  9
$DIMTSZ
 40
0.0
  9
$DIMTOL
 70
     0
  9
$DIMLIM
 70
     0
  9
$DIMTIH
 70
     1
  9
$DIMTOH
 70
     1
  9
$DIMSE1
 70
     0
  9
$DIMSE2
 70
     0
  9
$DIMTAD
 70
     0
  9
$DIMZIN
 70
     0
  9
$DIMBLK
  1

  9
$DIMASO
 70
     1
  9
$DIMSHO
 70
     1
  9
$DIMPOST
  1

  9
$DIMAPOST
  1

  9
$DIMALT
 70
     0
  9
$DIMALTD
 70
     2
  9
$DIMALTF
 40
25.4
  9
$DIMLFAC
 40
1.0
  9
$DIMTOFL
 70
     0
  9
$DIMTVP
 40
0.0
  9
$DIMTIX
 70
     0
  9
$DIMSOXD
 70
     0
  9
$DIMSAH
 70
     0
  9
$DIMBLK1
  1

  9
$DIMBLK2
  1

  9
$DIMSTYLE
  2
Standard
  9
$DIMCLRD
 70
     0
  9
$DIMCLRE
 70
     0
  9
$DIMCLRT
 70
     0
  9
$DIMTFAC
 40
1.0
  9
$DIMGAP
 40
0.06
  9
$DIMJUST
 70
     0
  9
$DIMSD1
 70
     0
  9
$DIMSD2
 70
     0
  9
$DIMTOLJ
 70
     1
  9
$DIMTZIN
 70
     0
  9
$DIMALTZ
 70
     0
  9
$DIMALTTZ
 70
     0
  9
$DIMUPT
 70
     0
  9
$DIMDEC
 70
     3
  9
$DIMTDEC
 70
     3
  9
$DIMALTU
 70
     2
  9
$DIMALTTD
 70
     2
  9
$DIMTXSTY
  7
STANDARD
  9
$DIMAUNIT
 70
     0
  9
$DIMADEC
 70
     1
  9
$DIMALTRND
 40
0.0
  9
$DIMAZIN
 70
     0
  9
$DIMDSEP
 70
    46
  9
$DIMATFIT
 70
     3
  9
$DIMFRAC
 70
     0
  9
$DIMLDRBLK
  1

  9
$DIMLUNIT
 70
     2
  9
$DIMLWD
 70
    -2
  9
$DIMLWE
 70
    -2
  9
$DIMTMOVE
 70
     0
  9
$LUNITS
 70
     2
  9
$LUPREC
 70
     3
  9
$SKETCHINC
 40
0.1
  9
$FILLETRAD
 40
0.5
  9
$AUNITS
 70
     0
  9
$AUPREC
 70
     1
  9
$MENU
  1
.
  9
$ELEVATION
 40
0.0
  9
$PELEVATION
 40
0.0
  9
$THICKNESS
 40
0.0
  9
$LIMCHECK
 70
     0
  9
$CHAMFERA
 40
0.5
  9
$CHAMFERB
 40
0.5
  9
$CHAMFERC
 40
1.0
  9
$CHAMFERD
 40
0.0
  9
$SKPOLY
 70
     0
  9
$TDCREATE
 40
2456800.566312847
  9
$TDUCREATE
 40
2456800.774646181
  9
$TDUPDATE
 40
2456800.566314063
  9
$TDUUPDATE
 40
2456800.774647396
  9
$TDINDWG
 40
0.0000000116
  9
$TDUSRTIMER
 40
0.0000000116
  9
$USRTIMER
 70
     1
  9
$ANGBASE
 50
0.0
  9
$ANGDIR
 70
     0
  9
$PDMODE
 70
     0
  9
$PDSIZE
 40
-1.0
  9
$PLINEWID
 40
0.0
  9
$SPLFRAME
 70
     0
  9
$SPLINETYPE
 70
     6
  9
$SPLINESEGS
 70
     8
  9
$HANDSEED
  5
203
  9
$SURFTAB1
 70
     6
  9
$SURFTAB2
 70
     6
  9
$SURFTYPE
 70
     6
  9
$SURFU
 70
     6
  9
$SURFV
 70
     6
  9
$UCSBASE
  2

  9
$UCSNAME
  2

  9
$UCSORG
 10
0.0
 20
0.0
 30
0.0
  9
$UCSXDIR
 10
1.0
 20
0.0
 30
0.0
  9
$UCSYDIR
 10
0.0
 20
1.0
 30
0.0
  9
$UCSORTHOREF
  2

  9
$UCSORTHOVIEW
 70
     0
  9
$UCSORGTOP
 10
0.0
 20
0.0
 30
0.0
  9
$UCSORGBOTTOM
 10
0.0
 20
0.0
 30
0.0
  9
$UCSORGLEFT
 10
0.0
 20
0.0
 30
0.0
  9
$UCSORGRIGHT
 10
0.0
 20
0.0
 30
0.0
  9
$UCSORGFRONT
 10
0.0
 20
0.0
 30
0.0
  9
$UCSORGBACK
 10
0.0
 20
0.0
 30
0.0
  9
$PUCSBASE
  2

  9
$PUCSNAME
  2

  9
$PUCSORG
 10
0.0
 20
0.0
 30
0.0
  9
$PUCSXDIR
 10
1.0
 20
0.0
 30
0.0
  9
$PUCSYDIR
 10
0.0
 20
1.0
 30
0.0
  9
$PUCSORTHOREF
  2

  9
$PUCSORTHOVIEW
 70
     0
  9
$PUCSORGTOP
 10
0.0
 20
0.0
 30
0.0
  9
$PUCSORGBOTTOM
 10
0.0
 20
0.0
 30
0.0
  9
$PUCSORGLEFT
 10
0.0
 20
0.0
 30
0.0
  9
$PUCSORGRIGHT
 10
0.0
 20
0.0
 30
0.0
  9
$PUCSORGFRONT
 10
0.0
 20
0.0
 30
0.0
  9
$PUCSORGBACK
 10
0.0
 20
0.0
 30
0.0
  9
$USERI1
 70
     0
  9
$USERI2
 70
     0
  9
$USERI3
 70
     0
  9
$USERI4
 70
     0
  9
$USERI5
 70
     0
  9
$USERR1
 40
0.0
  9
$USERR2
 40
0.0
  9
$USERR3
 40
0.0
  9
$USERR4
 40
0.0
  9
$USERR5
 40
0.0
  9
$WORLDVIEW
 70
     1
  9
$SHADEDGE
 70
     3
  9
$SHADEDIF
 70
    70
  9
$TILEMODE
 70
     1
  9
$MAXACTVP
 70
    64
  9
$PINSBASE
 10
0.0
 20
0.0
 30
0.0
  9
$PLIMCHECK
 70
     0
  9
$PEXTMIN
 10
1.0000000000E+20
 20
1.0000000000E+20
 30
1.0000000000E+20
  9
$PEXTMAX
 10
-1.0000000000E+20
 20
-1.0000000000E+20
 30
-1.0000000000E+20
  9
$PLIMMIN
 10
0.0
 20
0.0
  9
$PLIMMAX
 10
12.0
 20
9.0
  9
$UNITMODE
 70
     0
  9
$VISRETAIN
 70
     1
  9
$PLINEGEN
 70
     0
  9
$PSLTSCALE
 70
     1
  9
$TREEDEPTH
 70
  3020
  9
$CMLSTYLE
  2
Standard
  9
$CMLJUST
 70
     0
  9
$CMLSCALE
 40
1.0
  9
$PROXYGRAPHICS
 70
     1
  9
$MEASUREMENT
 70
     0
  9
$CELWEIGHT
370
    -1
  9
$ENDCAPS
280
     0
  9
$JOINSTYLE
280
     0
  9
$LWDISPLAY
290
     1
  9
$INSUNITS
 70
     1
  9
$HYPERLINKBASE
  1

  9
$STYLESHEET
  1

  9
$XEDIT
290
     1
  9
$CEPSNTYPE
380
     0
  9
$PSTYLEMODE
290
     1
  9
$FINGERPRINTGUID
  2
{B5671A02-6228-4A7D-9EED-8EF8A04BE44E}
  9
$VERSIONGUID
  2
{FAEB1C32-E019-11D5-929B-00C0DF256EC4}
  9
$EXTNAMES
290
     1
  9
$PSVPSCALE
 40
0.0
  9
$OLESTARTUP
290
     0
  0
ENDSEC
  0
SECTION
  2
CLASSES
  0
CLASS
  1
ACDBDICTIONARYWDFLT
  2
AcDbDictionaryWithDefault
  3
ObjectDBX Classes
 90
        0
280
     0
281
     0
  0
CLASS
  1
VISUALSTYLE
  2
AcDbVisualStyle
  3
ObjectDBX Classes
 90
     4095
280
     0
281
     0
  0
CLASS
  1
MATERIAL
  2
AcDbMaterial
  3
ObjectDBX Classes
 90
     1153
280
     0
281
     0
  0
CLASS
  1
ACDBPLACEHOLDER
  2
AcDbPlaceHolder
  3
ObjectDBX Classes
 90
        0
280
     0
281
     0
  0
CLASS
  1
LAYOUT
  2
AcDbLayout
  3
ObjectDBX Classes
 90
        0
280
     0
281
     0
  0
ENDSEC
  0
SECTION
  2
TABLES
  0
TABLE
  2
VPORT
  5
8
330
0
100
AcDbSymbolTable
 70
     1
  0
VPORT
  5
29
330
8
100
AcDbSymbolTableRecord
100
AcDbViewportTableRecord
  2
*Active
 70
     0
 10
0.0
 20
0.0
 11
1.0
 21
1.0
 12
20.0
 22
14.0
 13
0.0
 23
0.0
 14
0.5
 24
0.5
 15
0.5
 25
0.5
 16
0.0
 26
0.0
 36
1.0
 17
0.0
 27
0.0
 37
0.0
 40
28.0
 41
1.4285714286
 42
50.0
 43
0.0
 44
0.0
 50
0.0
 51
0.0
 71
     0
 72
  2000
 73
     1
 74
     3
 75
     0
 76
     0
 77
     0
 78
     0
281
     0
 65
     1
110
0.0
120
0.0
130
0.0
111
1.0
121
0.0
131
0.0
112
0.0
122
1.0
132
0.0
 79
     0
146
0.0
  0
ENDTAB
  0
TABLE
  2
LTYPE
  5
5
330
0
100
AcDbSymbolTable
 70
     6
  0
LTYPE
  5
14
330
5
100
AcDbSymbolTableRecord
100
AcDbLinetypeTableRecord
  2
ByBlock
 70
     0
  3

 72
    65
 73
     0
 40
0.0
  0
LTYPE
  5
15
330
5
100
AcDbSymbolTableRecord
100
AcDbLinetypeTableRecord
  2
ByLayer
 70
     0
  3

 72
    65
 73
     0
 40
0.0
  0
LTYPE
  5
16
330
5
100
AcDbSymbolTableRecord
100
AcDbLinetypeTableRecord
  2
Continuous
 70
     0
  3
Solid line
 72
    65
 73
     0
 40
0.0
  0
LTYPE
  5
3F
330
5
100
AcDbSymbolTableRecord
100
AcDbLinetypeTableRecord
  2
HIDDEN
 70
     0
  3
Hidden __ __ __ __ __ __ __ __ __ __ __ __ __ __
 72
    65
 73
     2
 40
0.075
 49
0.05
 74
     0
 49
-0.025
 74
     0
  0
LTYPE
  5
40
330
5
100
AcDbSymbolTableRecord
100
AcDbLinetypeTableRecord
  2
PHANTOM
 70
     0
  3
Phantom ______  __  __  ______  __  __  ______
 72
    65
 73
     6
 40
0.5
 49
0.25
 74
     0
 49
-0.05
 74
     0
 49
0.05
 74
     0
 49
-0.05
 74
     0
 49
0.05
 74
     0
 49
-0.05
 74
     0
  0
LTYPE
  5
41
330
5
100
AcDbSymbolTableRecord
100
AcDbLinetypeTableRecord
  2
CENTER
 70
     0
  3
Center ____ _ ____ _ ____ _ ____ _ ____ _ ____
 72
    65
 73
     4
 40
0.4
 49
0.25
 74
     0
 49
-0.05
 74
     0
 49
0.05
 74
     0
 49
-0.05
 74
     0
  0
LTYPE
  5
42
330
5
100
AcDbSymbolTableRecord
100
AcDbLinetypeTableRecord
  2
CENTERX2
 70
     0
  3
Center (2x) ________  __  ________  __  _____
 72
    65
 73
     4
 40
0.8
 49
0.5
 74
     0
 49
-0.1
 74
     0
 49
0.1
 74
     0
 49
-0.1
 74
     0
  0
LTYPE
  5
43
330
5
100
AcDbSymbolTableRecord
100
AcDbLinetypeTableRecord
  2
DOT2
 70
     0
  3
Dot (.5x) ........................................
 72
    65
 73
     2
 40
0.025
 49
0.0
 74
     0
 49
-0.025
 74
     0
  0
ENDTAB
  0
TABLE
  2
LAYER
  5
2
330
0
100
AcDbSymbolTable
 70
     8
  0
LAYER
  5
10
330
2
100
AcDbSymbolTableRecord
100
AcDbLayerTableRecord
  2
0
 70
     0
 62
     7
  6
Continuous
370
    -3
390
F
  0
LAYER
  5
44
330
2
100
AcDbSymbolTableRecord
100
AcDbLayerTableRecord
  2
SLD-0
 70
     0
 62
   179
  6
Continuous
370
    -3
390
F
  0
LAYER
  5
45
330
2
100
AcDbSymbolTableRecord
100
AcDbLayerTableRecord
  2
OBJECTS
 70
     0
 62
     5
  6
Continuous
370
    -3
390
F
  0
LAYER
  5
46
330
2
100
AcDbSymbolTableRecord
100
AcDbLayerTableRecord
  2
DIMS
 70
     0
 62
     1
  6
Continuous
370
    -3
390
F
  0
LAYER
  5
47
330
2
100
AcDbSymbolTableRecord
100
AcDbLayerTableRecord
  2
NOTES
 70
     0
 62
     7
  6
Continuous
370
    -3
390
F
  0
LAYER
  5
48
330
2
100
AcDbSymbolTableRecord
100
AcDbLayerTableRecord
  2
IMAGES
 70
     0
 62
     7
  6
Continuous
370
    -3
390
F
  0
LAYER
  5
49
330
2
100
AcDbSymbolTableRecord
100
AcDbLayerTableRecord
  2
CENTERLINES
 70
     0
 62
     7
  6
HIDDEN
370
    -3
390
F
  0
LAYER
  5
4A
330
2
100
AcDbSymbolTableRecord
100
AcDbLayerTableRecord
  2
BLOCKS
 70
     0
 62
    16
  6
Continuous
370
    -3
390
F
  0
ENDTAB
  0
TABLE
  2
STYLE
  5
3
330
0
100
AcDbSymbolTable
 70
     3
  0
STYLE
  5
11
330
3
100
AcDbSymbolTableRecord
100
AcDbTextStyleTableRecord
  2
STANDARD
 70
     0
 40
0.0
 41
1.0
 50
0.0
 71
     0
 42
0.2777777778
  3
ARIAL.TTF
  4

1001
ACAD
1000
ARIAL
1071
       34
  0
STYLE
  5
BE
330
3
100
AcDbSymbolTableRecord
100
AcDbTextStyleTableRecord
  2
SLDTEXTSTYLE0
 70
     0
 40
0.0
 41
0.948
 50
0.0
 71
     0
 42
0.2
  3
ARIAL.TTF
  4

1001
ACAD
1000
Arial
1071
      290
  0
STYLE
  5
1E0
330
3
100
AcDbSymbolTableRecord
100
AcDbTextStyleTableRecord
  2
SLDTEXTSTYLE1
 70
     0
 40
0.0
 41
0.948
 50
0.0
 71
     0
 42
0.2
  3
ARIALBD.TTF
  4

1001
ACAD
1000
Arial
1071
 33554722
  0
ENDTAB
  0
TABLE
  2
VIEW
  5
6
330
0
100
AcDbSymbolTable
 70
     0
  0
ENDTAB
  0
TABLE
  2
UCS
  5
7
330
0
100
AcDbSymbolTable
 70
     0
  0
ENDTAB
  0
TABLE
  2
APPID
  5
9
330
0
100
AcDbSymbolTable
 70
     1
  0
APPID
  5
12
330
9
100
AcDbSymbolTableRecord
100
AcDbRegAppTableRecord
  2
ACAD
 70
     0
  0
ENDTAB
  0
TABLE
  2
DIMSTYLE
  5
A
330
0
100
AcDbSymbolTable
 70
     6
100
AcDbDimStyleTable
  0
DIMSTYLE
105
27
330
A
100
AcDbSymbolTableRecord
100
AcDbDimStyleTableRecord
  2
Standard
 70
     0
178
     0
340
11
  0
DIMSTYLE
105
E9
102
{ACAD_REACTORS
330
E8
330
FD
330
1A6
330
1BC
102
}
330
A
100
AcDbSymbolTableRecord
100
AcDbDimStyleTableRecord
  2
SLDDIMSTYLE0
 70
     0
 41
0.3640136719
 44
0.0
 45
0.000000001
 78
    12
 79
     3
140
0.3640136719
147
0.091003418
148
0.000000001
170
     1
171
     0
173
     1
178
     0
271
     3
272
     3
274
     0
276
     2
277
     5
284
    12
340
BE
  0
DIMSTYLE
105
10E
102
{ACAD_REACTORS
330
10D
330
122
330
193
102
}
330
A
100
AcDbSymbolTableRecord
100
AcDbDimStyleTableRecord
  2
SLDDIMSTYLE1
 70
     0
 41
0.3640136719
 44
0.0
 45
0.000000001
 78
    12
 79
     3
140
0.3640136719
141
0.0
147
0.091003418
148
0.000000001
170
     1
171
     0
173
     1
178
     0
271
     3
272
     3
274
     0
276
     2
277
     5
279
     1
284
    12
340
BE
  0
DIMSTYLE
105
136
102
{ACAD_REACTORS
330
135
102
}
330
A
100
AcDbSymbolTableRecord
100
AcDbDimStyleTableRecord
  2
SLDDIMSTYLE2
 70
     0
 41
0.3640136719
 44
0.0
 45
0.000000001
 78
    12
 79
     3
140
0.3640136719
141
0.0
147
0.091003418
148
0.000000001
170
     1
171
     0
173
     1
178
     0
271
     3
272
     3
274
     0
276
     2
277
     5
284
    12
340
BE
  0
DIMSTYLE
105
149
102
{ACAD_REACTORS
330
148
330
15B
330
16E
330
180
102
}
330
A
100
AcDbSymbolTableRecord
100
AcDbDimStyleTableRecord
  2
SLDDIMSTYLE3
 70
     0
 41
0.3640136719
 44
0.0
 45
0.000000001
 78
    12
 79
     3
140
0.3640136719
141
0.0
147
0.091003418
148
0.000000001
170
     1
171
     0
173
     1
178
     0
271
     3
272
     3
274
     0
276
     2
277
     5
284
    12
340
BE
  0
DIMSTYLE
105
1F2
330
A
100
AcDbSymbolTableRecord
100
AcDbDimStyleTableRecord
  2
SLDDIMSTYLE4
 70
     0
 41
0.3640136719
 44
0.0
 45
0.000000001
140
0.0
146
0.3640136719
147
0.0
173
     1
178
     0
271
     0
272
     0
276
     2
277
     5
340
11
  0
ENDTAB
  0
TABLE
  2
BLOCK_RECORD
  5
1
330
0
100
AcDbSymbolTable
 70
    21
  0
BLOCK_RECORD
  5
1F
330
1
100
AcDbSymbolTableRecord
100
AcDbBlockTableRecord
  2
*Model_Space
340
22
  0
BLOCK_RECORD
  5
1B
330
1
100
AcDbSymbolTableRecord
100
AcDbBlockTableRecord
  2
*Paper_Space
340
1E
  0
BLOCK_RECORD
  5
23
330
1
100
AcDbSymbolTableRecord
100
AcDbBlockTableRecord
  2
*Paper_Space0
340
26
  0
BLOCK_RECORD
  5
4B
330
1
100
AcDbSymbolTableRecord
100
AcDbBlockTableRecord
  2
OVERHANG - .125
340
0
102
{BLKREFS
331
E7
102
}
  0
BLOCK_RECORD
  5
7C
330
1
100
AcDbSymbolTableRecord
100
AcDbBlockTableRecord
  2
REVEAL- .500
340
0
102
{BLKREFS
331
E6
102
}
  0
BLOCK_RECORD
  5
AE
330
1
100
AcDbSymbolTableRecord
100
AcDbBlockTableRecord
  2
SW_BLOCK_DIMENSION_0
340
0
102
{BLKREFS
331
C5
102
}
  0
BLOCK_RECORD
  5
EA
330
1
100
AcDbSymbolTableRecord
100
AcDbBlockTableRecord
  2
_D
340
0
  0
BLOCK_RECORD
  5
FE
330
1
100
AcDbSymbolTableRecord
100
AcDbBlockTableRecord
  2
_D_1
340
0
  0
BLOCK_RECORD
  5
10F
330
1
100
AcDbSymbolTableRecord
100
AcDbBlockTableRecord
  2
_D_2
340
0
  0
BLOCK_RECORD
  5
123
330
1
100
AcDbSymbolTableRecord
100
AcDbBlockTableRecord
  2
_D_3
340
0
  0
BLOCK_RECORD
  5
137
330
1
100
AcDbSymbolTableRecord
100
AcDbBlockTableRecord
  2
_D_4
340
0
  0
BLOCK_RECORD
  5
14A
330
1
100
AcDbSymbolTableRecord
100
AcDbBlockTableRecord
  2
_D_5
340
0
  0
BLOCK_RECORD
  5
15C
330
1
100
AcDbSymbolTableRecord
100
AcDbBlockTableRecord
  2
_D_6
340
0
  0
BLOCK_RECORD
  5
16F
330
1
100
AcDbSymbolTableRecord
100
AcDbBlockTableRecord
  2
_D_7
340
0
  0
BLOCK_RECORD
  5
181
330
1
100
AcDbSymbolTableRecord
100
AcDbBlockTableRecord
  2
_D_8
340
0
  0
BLOCK_RECORD
  5
194
330
1
100
AcDbSymbolTableRecord
100
AcDbBlockTableRecord
  2
_D_9
340
0
  0
BLOCK_RECORD
  5
1A7
330
1
100
AcDbSymbolTableRecord
100
AcDbBlockTableRecord
  2
_D_10
340
0
  0
BLOCK_RECORD
  5
1BD
330
1
100
AcDbSymbolTableRecord
100
AcDbBlockTableRecord
  2
_D_11
340
0
  0
BLOCK_RECORD
  5
1D2
330
1
100
AcDbSymbolTableRecord
100
AcDbBlockTableRecord
  2
SW_NOTE_0
340
0
102
{BLKREFS
331
1D7
102
}
  0
BLOCK_RECORD
  5
1D8
330
1
100
AcDbSymbolTableRecord
100
AcDbBlockTableRecord
  2
SW_NOTE_1
340
0
102
{BLKREFS
331
1E9
102
}
  0
BLOCK_RECORD
  5
1EA
330
1
100
AcDbSymbolTableRecord
100
AcDbBlockTableRecord
  2
SW_NOTE_2
340
0
102
{BLKREFS
331
1F1
102
}
  0
BLOCK_RECORD
  5
1F5
330
1
100
AcDbSymbolTableRecord
100
AcDbBlockTableRecord
  2
SW_NOTE_3
340
0
102
{BLKREFS
331
1FA
102
}
  0
BLOCK_RECORD
  5
1FC
330
1
100
AcDbSymbolTableRecord
100
AcDbBlockTableRecord
  2
SW_NOTE_4
340
0
102
{BLKREFS
331
201
102
}
  0
ENDTAB
  0
ENDSEC
  0
SECTION
  2
BLOCKS
  0
BLOCK
  5
20
330
1F
100
AcDbEntity
  8
0
100
AcDbBlockBegin
  2
*Model_Space
 70
     0
 10
0.0
 20
0.0
 30
0.0
  3
*Model_Space
  1

  0
ENDBLK
  5
21
330
1F
100
AcDbEntity
  8
0
100
AcDbBlockEnd
  0
BLOCK
  5
1C
330
1B
100
AcDbEntity
 67
     1
  8
0
100
AcDbBlockBegin
  2
*Paper_Space
 70
     0
 10
0.0
 20
0.0
 30
0.0
  3
*Paper_Space
  1

  0
ENDBLK
  5
1D
330
1B
100
AcDbEntity
 67
     1
  8
0
100
AcDbBlockEnd
  0
BLOCK
  5
24
330
23
100
AcDbEntity
  8
0
100
AcDbBlockBegin
  2
*Paper_Space0
 70
     0
 10
0.0
 20
0.0
 30
0.0
  3
*Paper_Space0
  1

  0
ENDBLK
  5
25
330
23
100
AcDbEntity
  8
0
100
AcDbBlockEnd
  0
BLOCK
  5
4C
330
4B
100
AcDbEntity
  8
0
100
AcDbBlockBegin
  2
OVERHANG - .125
 70
     0
 10
0.0
 20
0.0
 30
0.0
  3
OVERHANG - .125
  1

  0
ARC
  5
4E
330
4B
100
AcDbEntity
  8
0
  6
Continuous
 62
    16
370
     0
100
AcDbCircle
 10
21.0247390722
 20
26.9140495115
 30
0.0
 40
0.0659795528056719
100
AcDbArc
 50
0.0
 51
90.0
  0
ARC
  5
4F
330
4B
100
AcDbEntity
  8
0
  6
Continuous
 62
    16
370
     0
100
AcDbCircle
 10
20.0403577083
 20
26.4212514943
 30
0.0
 40
0.0881257319589152
100
AcDbArc
 50
200.9822712638
 51
339.0177287362
  0
ARC
  5
50
330
4B
100
AcDbEntity
  8
0
  6
Continuous
 62
    16
370
     0
100
AcDbCircle
 10
20.856618625
 20
26.3139893982
 30
0.0
 40
0.188000000000013
100
AcDbArc
 50
0.0
 51
90.0
  0
ARC
  5
51
330
4B
100
AcDbEntity
  8
0
  6
Continuous
 62
    16
370
     0
100
AcDbCircle
 10
20.856618625
 20
26.3139893982
 30
0.0
 40
0.2341000000000015
100
AcDbArc
 50
0.0
 51
90.0
  0
ARC
  5
52
330
4B
100
AcDbEntity
  8
BLOCKS
100
AcDbCircle
 10
21.338998585
 20
26.4678392711
 30
0.0
 40
0.2744692494289341
100
AcDbArc
 50
154.7670527487
 51
192.7125715066
  0
LINE
  5
53
330
4B
100
AcDbEntity
  8
0
  6
Continuous
 62
    16
370
     0
100
AcDbLine
 10
19.4314231162
 20
26.5192257655
 30
0.0
 11
19.3788703567
 21
26.5738454846
 31
0.0
  0
LINE
  5
54
330
4B
100
AcDbEntity
  8
0
  6
Continuous
 62
    16
370
     0
100
AcDbLine
 10
20.0408120814
 20
26.8351846327
 30
0.0
 11
20.0797389734
 21
26.7799952517
 31
0.0
  0
LINE
  5
55
330
4B
100
AcDbEntity
  8
0
  6
Continuous
 62
    16
370
     0
100
AcDbLine
 10
19.3788703567
 20
26.5738454846
 30
0.0
 11
19.3364639969
 21
26.5330438976
 31
0.0
  0
LINE
  5
56
330
4B
100
AcDbEntity
  8
0
  6
Continuous
 62
    16
370
     0
100
AcDbLine
 10
20.6725806187
 20
26.4527516548
 30
0.0
 11
20.7252404088
 21
26.5034186543
 31
0.0
  0
LINE
  5
57
330
4B
100
AcDbEntity
  8
0
  6
Continuous
 62
    16
370
     0
100
AcDbLine
 10
20.0797389734
 20
26.7799952517
 30
0.0
 11
20.0797389734
 21
26.3896955151
 31
0.0
  0
LINE
  5
58
330
4B
100
AcDbEntity
  8
0
  6
Continuous
 62
    16
370
     0
100
AcDbLine
 10
19.9814774532
 20
26.8652076206
 30
0.0
 11
19.9814774532
 21
26.5848453834
 31
0.0
  0
LINE
  5
59
330
4B
100
AcDbEntity
  8
0
  6
Continuous
 62
    16
370
     0
100
AcDbLine
 10
20.7678769055
 20
26.4591052159
 30
0.0
 11
20.6989695496
 21
26.392805503
 31
0.0
  0
LINE
  5
5A
330
4B
100
AcDbEntity
  8
0
  6
Continuous
 62
    16
370
     0
100
AcDbLine
 10
21.0247390722
 20
26.9800290643
 30
0.0
 11
19.2446660374
 21
26.9800290643
 31
0.0
  0
LINE
  5
5B
330
4B
100
AcDbEntity
  8
0
  6
Continuous
 62
    16
370
     0
100
AcDbLine
 10
19.9670675999
 20
26.4905376331
 30
0.0
 11
19.9670675999
 21
26.4354028898
 31
0.0
  0
LINE
  5
5C
330
4B
100
AcDbEntity
  8
0
  6
Continuous
 62
    16
370
     0
100
AcDbLine
 10
20.1524880148
 20
26.4213577706
 30
0.0
 11
20.1506182011
 21
26.3892309097
 31
0.0
  0
LINE
  5
5D
330
4B
100
AcDbEntity
  8
0
  6
Continuous
 62
    16
370
     0
100
AcDbLine
 10
19.3364639969
 20
26.5330438976
 30
0.0
 11
19.3985753063
 21
26.4684896798
 31
0.0
  0
LINE
  5
5E
330
4B
100
AcDbEntity
  8
0
  6
Continuous
 62
    16
370
     0
100
AcDbLine
 10
20.2906117643
 20
26.5019893982
 30
0.0
 11
20.2906117643
 21
26.5480893982
 31
0.0
  0
LINE
  5
5F
330
4B
100
AcDbEntity
  8
0
  6
Continuous
 62
    16
370
     0
100
AcDbLine
 10
19.4314231162
 20
26.5192257655
 30
0.0
 11
20.6725806187
 21
26.4527516548
 31
0.0
  0
LINE
  5
60
330
4B
100
AcDbEntity
  8
0
  6
Continuous
 62
    16
370
     0
100
AcDbLine
 10
19.9400720233
 20
26.4337205825
 30
0.0
 11
20.1524880148
 21
26.4213577706
 31
0.0
  0
LINE
  5
61
330
4B
100
AcDbEntity
  8
0
  6
Continuous
 62
    16
370
     0
100
AcDbLine
 10
21.090718625
 20
26.5848453834
 30
0.0
 11
21.090718625
 21
26.9140495115
 31
0.0
  0
LINE
  5
62
330
4B
100
AcDbEntity
  8
0
  6
Continuous
 62
    16
370
     0
100
AcDbLine
 10
20.856618625
 20
26.5019893982
 30
0.0
 11
20.2906117643
 21
26.5019893982
 31
0.0
  0
LINE
  5
63
330
4B
100
AcDbEntity
  8
0
  6
Continuous
 62
    16
370
     0
100
AcDbLine
 10
21.044618625
 20
25.9230893982
 30
0.0
 11
21.044618625
 21
26.3139893982
 31
0.0
  0
LINE
  5
64
330
4B
100
AcDbEntity
  8
0
  6
Continuous
 62
    16
370
     0
100
AcDbLine
 10
19.9580754817
 20
26.3896955151
 30
0.0
 11
20.1226399348
 21
26.3896955151
 31
0.0
  0
LINE
  5
65
330
4B
100
AcDbEntity
  8
0
  6
Continuous
 62
    16
370
     0
100
AcDbLine
 10
20.1506182011
 20
26.3892309097
 30
0.0
 11
19.9382022095
 21
26.4015937216
 31
0.0
  0
LINE
  5
66
330
4B
100
AcDbEntity
  8
0
  6
Continuous
 62
    16
370
     0
100
AcDbLine
 10
21.090718625
 20
25.9230893982
 30
0.0
 11
21.044618625
 21
25.9230893982
 31
0.0
  0
LINE
  5
67
330
4B
100
AcDbEntity
  8
0
  6
Continuous
 62
    16
370
     0
100
AcDbLine
 10
21.090718625
 20
26.3139893982
 30
0.0
 11
21.090718625
 21
25.9230893982
 31
0.0
  0
LINE
  5
68
330
4B
100
AcDbEntity
  8
0
  6
Continuous
 62
    16
370
     0
100
AcDbLine
 10
20.6989695496
 20
26.392805503
 30
0.0
 11
19.3985753063
 21
26.4684896798
 31
0.0
  0
LINE
  5
69
330
4B
100
AcDbEntity
  8
0
  6
Continuous
 62
    16
370
     0
100
AcDbLine
 10
19.2743496911
 20
26.5848453834
 30
0.0
 11
21.090718625
 21
26.5848453834
 31
0.0
  0
LINE
  5
6A
330
4B
100
AcDbEntity
  8
0
  6
Continuous
 62
    16
370
     0
100
AcDbLine
 10
20.0028471016
 20
26.7799952517
 30
0.0
 11
20.0408120814
 21
26.8351846327
 31
0.0
  0
LINE
  5
6B
330
4B
100
AcDbEntity
  8
0
  6
Continuous
 62
    16
370
     0
100
AcDbLine
 10
20.2906117643
 20
26.5480893982
 30
0.0
 11
20.856618625
 21
26.5480893982
 31
0.0
  0
LINE
  5
6C
330
4B
100
AcDbEntity
  8
0
  6
Continuous
 62
    16
370
     0
100
AcDbLine
 10
20.0028471016
 20
26.7799952517
 30
0.0
 11
20.0028471016
 21
26.3896955151
 31
0.0
  0
LINE
  5
6D
330
4B
100
AcDbEntity
  8
0
  6
Continuous
 62
    16
370
     0
100
AcDbLine
 10
20.1080144451
 20
26.8652076206
 30
0.0
 11
19.9814774532
 21
26.8652076206
 31
0.0
  0
LINE
  5
6E
330
4B
100
AcDbEntity
  8
0
  6
Continuous
 62
    16
370
     0
100
AcDbLine
 10
20.7252404088
 20
26.5034186543
 30
0.0
 11
20.7678769055
 21
26.4591052159
 31
0.0
  0
LINE
  5
6F
330
4B
100
AcDbEntity
  8
0
  6
Continuous
 62
    16
370
     0
100
AcDbLine
 10
19.9400720233
 20
26.4337205825
 30
0.0
 11
19.9382022095
 21
26.4015937216
 31
0.0
  0
LINE
  5
70
330
4B
100
AcDbEntity
  8
0
  6
Continuous
 62
    16
370
     0
100
AcDbLine
 10
20.1080144451
 20
26.5848453834
 30
0.0
 11
20.1080144451
 21
26.8652076206
 31
0.0
  0
LINE
  5
71
330
4B
100
AcDbEntity
  8
0
  6
Continuous
 62
    16
370
     0
100
AcDbLine
 10
20.1216872784
 20
26.4822564878
 30
0.0
 11
20.1216872784
 21
26.426403878
 31
0.0
  0
LINE
  5
72
330
4B
100
AcDbEntity
  8
BLOCKS
100
AcDbLine
 10
20.2906117643
 20
26.5480893982
 30
0.0
 11
20.2368944426
 21
26.5848453834
 31
0.0
  0
SPLINE
  5
73
330
4B
100
AcDbEntity
  8
0
  6
Continuous
 62
    16
370
     0
100
AcDbSpline
210
0.0
220
0.0
230
1.0
 70
     8
 71
     3
 72
     9
 73
     5
 74
     0
 42
0.00000001
 43
0.00000001
 12
1.0
 22
0.0
 32
0.0
 13
1.0
 23
0.0
 33
0.0
 40
0.0
 40
0.0
 40
0.0
 40
0.0
 40
0.5928291688347104
 40
1.0
 40
1.0
 40
1.0
 40
1.0
 10
19.27434969107827
 20
26.58484538338648
 30
0.0
 10
19.22977403886499
 20
26.67067982455944
 30
0.0
 10
19.30925700118849
 20
26.78990333849608
 30
0.0
 10
19.29114417973896
 20
26.94415158372841
 30
0.0
 10
19.24466603742839
 20
26.98002906431008
 30
0.0
  0
HATCH
  5
74
330
4B
100
AcDbEntity
  8
BLOCKS
 62
    16
100
AcDbHatch
 10
0.0
 20
0.0
 30
0.0
210
0.0
220
0.0
230
1.0
  2
ANSI36
 70
     0
 71
     0
 91
        1
 92
        0
 93
       10
 72
     4
 94
        3
 73
     1
 74
     0
 95
        9
 96
        5
 40
0.0
 40
0.0
 40
0.0
 40
0.0
 40
0.4071708311652896
 40
1.0
 40
1.0
 40
1.0
 40
1.0
 10
19.24466603742839
 20
26.98002906431008
 42
1.0
 10
19.29114417973896
 20
26.9441515837284
 42
1.0
 10
19.3092570011885
 20
26.78990333849607
 42
1.0
 10
19.22977403886498
 20
26.67067982455945
 42
1.0
 10
19.27434969107827
 20
26.58484538338648
 42
1.0
 72
     1
 10
19.27434969107827
 20
26.58484538338648
 11
19.98147745321076
 21
26.58484538338648
 72
     1
 10
19.98147745321076
 20
26.58484538338648
 11
19.98147745321076
 21
26.86520762058046
 72
     1
 10
19.98147745321076
 20
26.86520762058046
 11
20.10801444514525
 21
26.86520762058046
 72
     1
 10
20.10801444514525
 20
26.86520762058046
 11
20.10801444514525
 21
26.58484538338648
 72
     1
 10
20.10801444514525
 20
26.58484538338648
 11
20.23689444261453
 21
26.58484538338649
 72
     1
 10
20.23689444261453
 20
26.58484538338649
 11
21.0907186249667
 21
26.58484538338648
 72
     1
 10
21.0907186249667
 20
26.58484538338648
 11
21.0907186249667
 21
26.9140495115044
 72
     2
 10
21.02473907216103
 20
26.9140495115044
 40
0.0659795528056717
 50
0.0
 51
90.0
 73
     1
 72
     1
 10
21.02473907216103
 20
26.98002906431007
 11
19.24466603742839
 21
26.98002906431008
 97
        0
 75
     0
 76
     1
 52
0.0
 41
0.5
 77
     0
 78
     1
 53
45.0
 43
0.0
 44
0.0
 45
0.0331456303681194
 46
0.1215339780164378
 79
     4
 49
0.15625
 49
-0.03125
 49
0.0
 49
-0.03125
 98
        1
 10
0.0
 20
0.0
  0
HATCH
  5
75
330
4B
100
AcDbEntity
  8
BLOCKS
 62
    16
100
AcDbHatch
 10
0.0
 20
0.0
 30
0.0
210
0.0
220
0.0
230
1.0
  2
ANSI32
 70
     0
 71
     0
 91
        1
 92
        0
 93
        4
 72
     1
 10
20.07973897339712
 20
26.58484538338648
 11
20.00284710159458
 21
26.58484538338648
 72
     1
 10
20.00284710159458
 20
26.58484538338648
 11
20.00284710159458
 21
26.48862134888004
 72
     1
 10
20.00284710159458
 20
26.48862134888004
 11
20.07973897339712
 21
26.4845031617958
 72
     1
 10
20.07973897339712
 20
26.4845031617958
 11
20.07973897339712
 21
26.58484538338648
 97
        0
 75
     0
 76
     1
 52
0.0
 41
0.2
 77
     0
 78
     2
 53
45.0
 43
0.0
 44
0.0
 45
-0.0530330085889911
 46
0.0530330085889911
 79
     0
 53
45.0
 43
0.035355339
 44
0.0
 45
-0.0530330085889911
 46
0.0530330085889911
 79
     0
 98
        1
 10
0.0
 20
0.0
  0
HATCH
  5
76
330
4B
100
AcDbEntity
  8
BLOCKS
 62
    16
100
AcDbHatch
 10
0.0
 20
0.0
 30
0.0
210
0.0
220
0.0
230
1.0
  2
ANSI32
 70
     0
 71
     0
 91
        1
 92
        0
 93
        5
 72
     1
 10
20.04081208140756
 20
26.8351846326727
 11
20.00284710159458
 21
26.77999525166031
 72
     1
 10
20.00284710159458
 20
26.77999525166031
 11
20.00284710159458
 21
26.58484538338648
 72
     1
 10
20.00284710159458
 20
26.58484538338648
 11
20.07973897339712
 21
26.58484538338648
 72
     1
 10
20.07973897339712
 20
26.58484538338648
 11
20.07973897339712
 21
26.77999525166031
 72
     1
 10
20.07973897339712
 20
26.77999525166031
 11
20.04081208140756
 21
26.8351846326727
 97
        0
 75
     0
 76
     1
 52
0.0
 41
0.2
 77
     0
 78
     2
 53
45.0
 43
0.0
 44
0.0
 45
-0.0530330085889911
 46
0.0530330085889911
 79
     0
 53
45.0
 43
0.035355339
 44
0.0
 45
-0.0530330085889911
 46
0.0530330085889911
 79
     0
 98
        1
 10
0.0
 20
0.0
  0
HATCH
  5
77
330
4B
100
AcDbEntity
  8
BLOCKS
 62
    16
100
AcDbHatch
 10
0.0
 20
0.0
 30
0.0
210
0.0
220
0.0
230
1.0
  2
ANSI32
 70
     0
 71
     0
 91
        1
 92
        0
 93
        4
 72
     1
 10
20.07973897339712
 20
26.4845031617958
 11
20.00284710159458
 21
26.48862134888004
 72
     1
 10
20.00284710159458
 20
26.48862134888004
 11
20.00284710159458
 21
26.43332048887584
 72
     1
 10
20.00284710159458
 20
26.43332048887584
 11
20.07973897339712
 21
26.42884530909641
 72
     1
 10
20.07973897339712
 20
26.42884530909641
 11
20.07973897339712
 21
26.4845031617958
 97
        0
 75
     0
 76
     1
 52
0.0
 41
0.2
 77
     0
 78
     2
 53
45.0
 43
0.0
 44
0.0
 45
-0.0530330085889911
 46
0.0530330085889911
 79
     0
 53
45.0
 43
0.035355339
 44
0.0
 45
-0.0530330085889911
 46
0.0530330085889911
 79
     0
 98
        1
 10
0.0
 20
0.0
  0
HATCH
  5
78
330
4B
100
AcDbEntity
  8
BLOCKS
 62
    16
100
AcDbHatch
 10
0.0
 20
0.0
 30
0.0
210
0.0
220
0.0
230
1.0
  2
ANSI32
 70
     0
 71
     0
 91
        1
 92
        0
 93
        4
 72
     1
 10
20.00284710159458
 20
26.43006701346352
 11
19.94007202325873
 21
26.43372058249019
 72
     1
 10
19.94007202325873
 20
26.43372058249019
 11
19.93820220952023
 21
26.40159372159039
 72
     1
 10
19.93820220952023
 20
26.40159372159039
 11
20.00284710159458
 21
26.39783132763285
 72
     1
 10
20.00284710159458
 20
26.39783132763285
 11
20.00284710159458
 21
26.43006701346352
 97
        0
 75
     0
 76
     1
 52
0.0
 41
0.2
 77
     0
 78
     2
 53
45.0
 43
0.0
 44
0.0
 45
-0.0530330085889911
 46
0.0530330085889911
 79
     0
 53
45.0
 43
0.035355339
 44
0.0
 45
-0.0530330085889911
 46
0.0530330085889911
 79
     0
 98
        1
 10
0.0
 20
0.0
  0
HATCH
  5
79
330
4B
100
AcDbEntity
  8
BLOCKS
 62
    16
100
AcDbHatch
 10
0.0
 20
0.0
 30
0.0
210
0.0
220
0.0
230
1.0
  2
ANSI32
 70
     0
 71
     0
 91
        1
 92
        0
 93
        4
 72
     1
 10
20.07973897339712
 20
26.42559183368408
 11
20.00284710159458
 21
26.43006701346352
 72
     1
 10
20.00284710159458
 20
26.43006701346352
 11
20.00284710159458
 21
26.39783132763285
 72
     1
 10
20.00284710159458
 20
26.39783132763285
 11
20.07973897339712
 21
26.39335614785342
 72
     1
 10
20.07973897339712
 20
26.39335614785342
 11
20.07973897339712
 21
26.42559183368408
 97
        0
 75
     0
 76
     1
 52
0.0
 41
0.2
 77
     0
 78
     2
 53
45.0
 43
0.0
 44
0.0
 45
-0.0530330085889911
 46
0.0530330085889911
 79
     0
 53
45.0
 43
0.035355339
 44
0.0
 45
-0.0530330085889911
 46
0.0530330085889911
 79
     0
 98
        1
 10
0.0
 20
0.0
  0
HATCH
  5
7A
330
4B
100
AcDbEntity
  8
BLOCKS
 62
    16
100
AcDbHatch
 10
0.0
 20
0.0
 30
0.0
210
0.0
220
0.0
230
1.0
  2
ANSI32
 70
     0
 71
     0
 91
        1
 92
        0
 93
        4
 72
     1
 10
20.07973897339712
 20
26.39335614785342
 11
20.15061820105523
 21
26.38923090965904
 72
     1
 10
20.15061820105523
 20
26.38923090965904
 11
20.15248801479373
 21
26.42135777055884
 72
     1
 10
20.15248801479373
 20
26.42135777055884
 11
20.07973897339712
 21
26.42559183368408
 72
     1
 10
20.07973897339712
 20
26.42559183368408
 11
20.07973897339712
 21
26.39335614785342
 97
        0
 75
     0
 76
     1
 52
0.0
 41
0.2
 77
     0
 78
     2
 53
45.0
 43
0.0
 44
0.0
 45
-0.0530330085889911
 46
0.0530330085889911
 79
     0
 53
45.0
 43
0.035355339
 44
0.0
 45
-0.0530330085889911
 46
0.0530330085889911
 79
     0
 98
        1
 10
0.0
 20
0.0
  0
HATCH
  5
7B
330
4B
100
AcDbEntity
  8
BLOCKS
 62
    16
100
AcDbHatch
 10
0.0
 20
0.0
 30
0.0
210
0.0
220
0.0
230
1.0
  2
ANSI32
 70
     0
 71
     0
 91
        1
 92
        0
 93
        4
 72
     1
 10
20.00284710159458
 20
26.38969551511265
 11
19.95807548170848
 21
26.38969551511265
 72
     2
 10
20.04035770827806
 20
26.42125149432493
 40
0.0881257319589163
 50
200.9822712637957
 51
339.0177287362059
 73
     1
 72
     1
 10
20.12263993484765
 20
26.38969551511265
 11
20.07973897339712
 21
26.38969551511265
 72
     1
 10
20.07973897339712
 20
26.38969551511265
 11
20.00284710159458
 21
26.38969551511265
 97
        0
 75
     0
 76
     1
 52
0.0
 41
0.2
 77
     0
 78
     2
 53
45.0
 43
0.0
 44
0.0
 45
-0.0530330085889911
 46
0.0530330085889911
 79
     0
 53
45.0
 43
0.035355339
 44
0.0
 45
-0.0530330085889911
 46
0.0530330085889911
 79
     0
 98
        1
 10
0.0
 20
0.0
  0
ENDBLK
  5
4D
330
4B
100
AcDbEntity
  8
0
100
AcDbBlockEnd
  0
BLOCK
  5
7D
330
7C
100
AcDbEntity
  8
0
100
AcDbBlockBegin
  2
REVEAL- .500
 70
     0
 10
0.0
 20
0.0
 30
0.0
  3
REVEAL- .500
  1

  0
ARC
  5
7F
330
7C
100
AcDbEntity
  8
BLOCKS
100
AcDbCircle
 10
20.1601934329
 20
28.8878838846
 30
0.0
 40
0.2338576391325233
100
AcDbArc
 50
0.0
 51
90.0
  0
ARC
  5
80
330
7C
100
AcDbEntity
  8
BLOCKS
100
AcDbCircle
 10
19.8280715192
 20
29.4726468145
 30
0.0
 40
0.0659795528056719
100
AcDbArc
 50
0.0
 51
90.0
  0
ARC
  5
81
330
7C
100
AcDbEntity
  8
BLOCKS
100
AcDbCircle
 10
19.0470381676
 20
28.990848696
 30
0.0
 40
0.0881257319589152
100
AcDbArc
 50
200.9822712638
 51
339.0177287362
  0
ARC
  5
82
330
7C
100
AcDbEntity
  8
BLOCKS
100
AcDbCircle
 10
20.1601934329
 20
28.8878838846
 30
0.0
 40
0.1878262552218324
100
AcDbArc
 50
0.0
 51
90.0
  0
LINE
  5
83
330
7C
100
AcDbEntity
  8
BLOCKS
100
AcDbLine
 10
19.8280715192
 20
29.5386263673
 30
0.0
 11
18.2509355515
 21
29.5386263673
 31
0.0
  0
LINE
  5
84
330
7C
100
AcDbEntity
  8
BLOCKS
100
AcDbLine
 10
18.2806192052
 20
29.1434426864
 30
0.0
 11
19.894051072
 21
29.1434426864
 31
0.0
  0
LINE
  5
85
330
7C
100
AcDbEntity
  8
BLOCKS
100
AcDbLine
 10
19.3470309437
 20
29.1217415238
 30
0.0
 11
20.1601934329
 21
29.1217415238
 31
0.0
  0
LINE
  5
86
330
7C
100
AcDbEntity
  8
BLOCKS
100
AcDbLine
 10
20.394051072
 20
28.8878838846
 30
0.0
 11
20.394051072
 21
28.4971795949
 31
0.0
  0
LINE
  5
87
330
7C
100
AcDbEntity
  8
BLOCKS
100
AcDbLine
 10
20.394051072
 20
28.4971795949
 30
0.0
 11
20.3480196881
 21
28.4971795949
 31
0.0
  0
LINE
  5
88
330
7C
100
AcDbEntity
  8
BLOCKS
100
AcDbLine
 10
20.3480196881
 20
28.4971795949
 30
0.0
 11
20.3480196881
 21
28.8878838846
 31
0.0
  0
LINE
  5
89
330
7C
100
AcDbEntity
  8
BLOCKS
100
AcDbLine
 10
20.1601934329
 20
29.0757101398
 30
0.0
 11
19.3470309437
 21
29.0757101398
 31
0.0
  0
LINE
  5
8A
330
7C
100
AcDbEntity
  8
BLOCKS
100
AcDbLine
 10
19.3470309437
 20
29.0757101398
 30
0.0
 11
19.3470309437
 21
29.1217415238
 31
0.0
  0
LINE
  5
8B
330
7C
100
AcDbEntity
  8
BLOCKS
100
AcDbLine
 10
19.679261078
 20
29.0223488565
 30
0.0
 11
19.7319208682
 21
29.073015856
 31
0.0
  0
LINE
  5
8C
330
7C
100
AcDbEntity
  8
BLOCKS
100
AcDbLine
 10
19.7319208682
 20
29.073015856
 30
0.0
 11
19.7745573648
 21
29.0287024176
 31
0.0
  0
LINE
  5
8D
330
7C
100
AcDbEntity
  8
BLOCKS
100
AcDbLine
 10
19.7745573648
 20
29.0287024176
 30
0.0
 11
19.705650009
 21
28.9624027047
 31
0.0
  0
LINE
  5
8E
330
7C
100
AcDbEntity
  8
BLOCKS
100
AcDbLine
 10
18.4381035755
 20
29.0888229672
 30
0.0
 11
18.385550816
 21
29.1434426864
 31
0.0
  0
LINE
  5
8F
330
7C
100
AcDbEntity
  8
BLOCKS
100
AcDbLine
 10
18.385550816
 20
29.1434426864
 30
0.0
 11
18.3431444562
 21
29.1026410993
 31
0.0
  0
LINE
  5
90
330
7C
100
AcDbEntity
  8
BLOCKS
100
AcDbLine
 10
18.3431444562
 20
29.1026410993
 30
0.0
 11
18.4052557657
 21
29.0380868815
 31
0.0
  0
LINE
  5
91
330
7C
100
AcDbEntity
  8
BLOCKS
100
AcDbLine
 10
18.4381035755
 20
29.0888229672
 30
0.0
 11
19.679261078
 21
29.0223488565
 31
0.0
  0
LINE
  5
92
330
7C
100
AcDbEntity
  8
BLOCKS
100
AcDbLine
 10
19.705650009
 20
28.9624027047
 30
0.0
 11
18.4052557657
 21
29.0380868815
 31
0.0
  0
LINE
  5
93
330
7C
100
AcDbEntity
  8
BLOCKS
100
AcDbLine
 10
19.1283677378
 20
29.0518536895
 30
0.0
 11
19.1283677378
 21
28.9960010797
 31
0.0
  0
LINE
  5
94
330
7C
100
AcDbEntity
  8
BLOCKS
100
AcDbLine
 10
18.9737480593
 20
29.0601348348
 30
0.0
 11
18.9737480593
 21
29.0050000915
 31
0.0
  0
LINE
  5
95
330
7C
100
AcDbEntity
  8
BLOCKS
100
AcDbLine
 10
18.964755941
 20
28.9592927168
 30
0.0
 11
19.1293203942
 21
28.9592927168
 31
0.0
  0
LINE
  5
96
330
7C
100
AcDbEntity
  8
BLOCKS
100
AcDbLine
 10
19.0095275609
 20
29.3495924534
 30
0.0
 11
19.0095275609
 21
28.9592927168
 31
0.0
  0
LINE
  5
97
330
7C
100
AcDbEntity
  8
BLOCKS
100
AcDbLine
 10
19.0864194327
 20
29.3495924534
 30
0.0
 11
19.0864194327
 21
28.9592927168
 31
0.0
  0
LINE
  5
98
330
7C
100
AcDbEntity
  8
BLOCKS
100
AcDbLine
 10
18.9467524826
 20
29.0033177842
 30
0.0
 11
19.1591684741
 21
28.9909549723
 31
0.0
  0
LINE
  5
99
330
7C
100
AcDbEntity
  8
BLOCKS
100
AcDbLine
 10
19.0095275609
 20
29.3495924534
 30
0.0
 11
19.0474925407
 21
29.4047818344
 31
0.0
  0
LINE
  5
9A
330
7C
100
AcDbEntity
  8
BLOCKS
100
AcDbLine
 10
19.0474925407
 20
29.4047818344
 30
0.0
 11
19.0864194327
 21
29.3495924534
 31
0.0
  0
LINE
  5
9B
330
7C
100
AcDbEntity
  8
BLOCKS
100
AcDbLine
 10
19.1572986604
 20
28.9588281114
 30
0.0
 11
18.9448826689
 21
28.9711909233
 31
0.0
  0
LINE
  5
9C
330
7C
100
AcDbEntity
  8
BLOCKS
100
AcDbLine
 10
19.1591684741
 20
28.9909549723
 30
0.0
 11
19.1572986604
 21
28.9588281114
 31
0.0
  0
LINE
  5
9D
330
7C
100
AcDbEntity
  8
BLOCKS
100
AcDbLine
 10
18.9467524826
 20
29.0033177842
 30
0.0
 11
18.9448826689
 21
28.9711909233
 31
0.0
  0
LINE
  5
9E
330
7C
100
AcDbEntity
  8
BLOCKS
100
AcDbLine
 10
19.1142839592
 20
29.1434426864
 30
0.0
 11
19.1142839592
 21
29.4238049236
 31
0.0
  0
LINE
  5
9F
330
7C
100
AcDbEntity
  8
BLOCKS
100
AcDbLine
 10
19.1142839592
 20
29.4238049236
 30
0.0
 11
18.9877469673
 21
29.4238049236
 31
0.0
  0
LINE
  5
A0
330
7C
100
AcDbEntity
  8
BLOCKS
100
AcDbLine
 10
18.9877469673
 20
29.4238049236
 30
0.0
 11
18.9877469673
 21
29.1434426864
 31
0.0
  0
LINE
  5
A1
330
7C
100
AcDbEntity
  8
BLOCKS
  6
Continuous
100
AcDbLine
 10
19.894051072
 20
29.1434426864
 30
0.0
 11
19.894051072
 21
29.4726468145
 31
0.0
  0
LINE
  5
A2
330
7C
100
AcDbEntity
  8
BLOCKS
100
AcDbLine
 10
19.3020232313
 20
29.1434426864
 30
0.0
 11
19.3470309437
 21
29.0987258318
 31
0.0
  0
LINE
  5
A3
330
7C
100
AcDbEntity
  8
BLOCKS
100
AcDbLine
 10
19.894051072
 20
29.1434426864
 30
0.0
 11
19.9068063572
 21
29.1217415238
 31
0.0
  0
SPLINE
  5
A4
330
7C
100
AcDbEntity
  8
BLOCKS
100
AcDbSpline
210
0.0
220
0.0
230
1.0
 70
     8
 71
     3
 72
     9
 73
     5
 74
     0
 42
0.00000001
 43
0.00000001
 12
1.0
 22
0.0
 32
0.0
 13
1.0
 23
0.0
 33
0.0
 40
0.0
 40
0.0
 40
0.0
 40
0.0
 40
0.5928291688347104
 40
1.0
 40
1.0
 40
1.0
 40
1.0
 10
18.28061920517429
 20
29.14344268635683
 30
0.0
 10
18.23604355296101
 20
29.22927712752978
 30
0.0
 10
18.31552651528452
 20
29.34850064146643
 30
0.0
 10
18.29741369383499
 20
29.50274888669875
 30
0.0
 10
18.25093555152442
 20
29.53862636728042
 30
0.0
  0
HATCH
  5
A5
330
7C
100
AcDbEntity
  8
BLOCKS
 62
    16
100
AcDbHatch
 10
0.0
 20
0.0
 30
0.0
210
0.0
220
0.0
230
1.0
  2
ANSI36
 70
     0
 71
     0
 91
        1
 92
        0
 93
       10
 72
     4
 94
        3
 73
     1
 74
     0
 95
        9
 96
        5
 40
0.0
 40
0.0
 40
0.0
 40
0.0
 40
0.4071708311652896
 40
1.0
 40
1.0
 40
1.0
 40
1.0
 10
18.25093555152442
 20
29.53862636728042
 42
1.0
 10
18.29741369383499
 20
29.50274888669875
 42
1.0
 10
18.31552651528452
 20
29.34850064146643
 42
1.0
 10
18.23604355296101
 20
29.22927712752978
 42
1.0
 10
18.28061920517429
 20
29.14344268635683
 42
1.0
 72
     1
 10
18.28061920517429
 20
29.14344268635683
 11
18.98774696730679
 21
29.14344268635683
 72
     1
 10
18.98774696730679
 20
29.14344268635683
 11
18.98774696730679
 21
29.42380492355081
 72
     1
 10
18.98774696730679
 20
29.42380492355081
 11
19.11428395924128
 21
29.42380492355081
 72
     1
 10
19.11428395924128
 20
29.42380492355081
 11
19.11428395924128
 21
29.14344268635683
 72
     1
 10
19.11428395924128
 20
29.14344268635683
 11
19.30202323130653
 21
29.14344268635683
 72
     1
 10
19.30202323130653
 20
29.14344268635683
 11
19.89405107202551
 21
29.14344268635683
 72
     1
 10
19.89405107202551
 20
29.14344268635683
 11
19.89405107202551
 21
29.47264681447475
 72
     2
 10
19.82807151921984
 20
29.47264681447475
 40
0.0659795528056717
 50
0.0
 51
90.0
 73
     1
 72
     1
 10
19.82807151921984
 20
29.53862636728042
 11
18.25093555152442
 21
29.53862636728042
 97
        0
 75
     0
 76
     1
 52
0.0
 41
0.5
 77
     0
 78
     1
 53
45.0
 43
0.0
 44
0.0
 45
0.0331456303681194
 46
0.1215339780164378
 79
     4
 49
0.15625
 49
-0.03125
 49
0.0
 49
-0.03125
 98
        1
 10
0.0
 20
0.0
  0
HATCH
  5
A6
330
7C
100
AcDbEntity
  8
BLOCKS
 62
    16
100
AcDbHatch
 10
0.0
 20
0.0
 30
0.0
210
0.0
220
0.0
230
1.0
  2
ANSI32
 70
     0
 71
     0
 91
        1
 92
        0
 93
        5
 72
     1
 10
19.08641943273533
 20
29.34959245337754
 11
19.04749254074577
 21
29.40478183438993
 72
     1
 10
19.04749254074577
 20
29.40478183438993
 11
19.00952756093279
 21
29.34959245337754
 72
     1
 10
19.00952756093279
 20
29.34959245337754
 11
19.00952756093279
 21
29.14344268635683
 72
     1
 10
19.00952756093279
 20
29.14344268635683
 11
19.08641943273533
 21
29.14344268635683
 72
     1
 10
19.08641943273533
 20
29.14344268635683
 11
19.08641943273533
 21
29.34959245337754
 97
        0
 75
     0
 76
     1
 52
0.0
 41
0.1666666667
 77
     0
 78
     2
 53
45.0
 43
0.0
 44
0.0
 45
-0.0441941738241592
 46
0.0441941738241592
 79
     0
 53
45.0
 43
0.0294627825
 44
0.0
 45
-0.0441941738241592
 46
0.0441941738241592
 79
     0
 98
        1
 10
0.0
 20
0.0
  0
HATCH
  5
A7
330
7C
100
AcDbEntity
  8
BLOCKS
 62
    16
100
AcDbHatch
 10
0.0
 20
0.0
 30
0.0
210
0.0
220
0.0
230
1.0
  2
ANSI32
 70
     0
 71
     0
 91
        1
 92
        0
 93
        4
 72
     1
 10
19.08641943273533
 20
29.05410036351303
 11
19.08641943273533
 21
29.14344268635683
 72
     1
 10
19.08641943273533
 20
29.14344268635683
 11
19.00952756093279
 21
29.14344268635683
 72
     1
 10
19.00952756093279
 20
29.14344268635683
 11
19.00952756093279
 21
29.05821855059726
 72
     1
 10
19.00952756093279
 20
29.05821855059726
 11
19.08641943273533
 21
29.05410036351303
 97
        0
 75
     0
 76
     1
 52
0.0
 41
0.1666666667
 77
     0
 78
     2
 53
45.0
 43
0.0
 44
0.0
 45
-0.0441941738241592
 46
0.0441941738241592
 79
     0
 53
45.0
 43
0.0294627825
 44
0.0
 45
-0.0441941738241592
 46
0.0441941738241592
 79
     0
 98
        1
 10
0.0
 20
0.0
  0
HATCH
  5
A8
330
7C
100
AcDbEntity
  8
BLOCKS
 62
    16
100
AcDbHatch
 10
0.0
 20
0.0
 30
0.0
210
0.0
220
0.0
230
1.0
  2
ANSI32
 70
     0
 71
     0
 91
        1
 92
        0
 93
        4
 72
     1
 10
19.08641943273533
 20
28.99844251081363
 11
19.08641943273533
 21
29.05410036351303
 72
     1
 10
19.08641943273533
 20
29.05410036351303
 11
19.00952756093279
 21
29.05821855059726
 72
     1
 10
19.00952756093279
 20
29.05821855059726
 11
19.00952756093279
 21
29.00291769059305
 72
     1
 10
19.00952756093279
 20
29.00291769059305
 11
19.08641943273533
 21
28.99844251081363
 97
        0
 75
     0
 76
     1
 52
0.0
 41
0.1666666667
 77
     0
 78
     2
 53
45.0
 43
0.0
 44
0.0
 45
-0.0441941738241592
 46
0.0441941738241592
 79
     0
 53
45.0
 43
0.0294627825
 44
0.0
 45
-0.0441941738241592
 46
0.0441941738241592
 79
     0
 98
        1
 10
0.0
 20
0.0
  0
HATCH
  5
A9
330
7C
100
AcDbEntity
  8
BLOCKS
 62
    16
100
AcDbHatch
 10
0.0
 20
0.0
 30
0.0
210
0.0
220
0.0
230
1.0
  2
ANSI32
 70
     0
 71
     0
 91
        1
 92
        0
 93
        4
 72
     1
 10
19.00952756093279
 20
28.96742852935006
 11
19.08641943273534
 21
28.96295334957064
 72
     1
 10
19.08641943273534
 20
28.96295334957064
 11
19.08641943273534
 21
28.99518903540131
 72
     1
 10
19.08641943273534
 20
28.99518903540131
 11
19.0095275609328
 21
28.99966421518074
 72
     1
 10
19.0095275609328
 20
28.99966421518074
 11
19.00952756093279
 21
28.96742852935006
 97
        0
 75
     0
 76
     1
 52
0.0
 41
0.1666666667
 77
     0
 78
     2
 53
45.0
 43
0.0
 44
0.0
 45
-0.0441941738241592
 46
0.0441941738241592
 79
     0
 53
45.0
 43
0.0294627825
 44
0.0
 45
-0.0441941738241592
 46
0.0441941738241592
 79
     0
 98
        1
 10
0.0
 20
0.0
  0
HATCH
  5
AA
330
7C
100
AcDbEntity
  8
BLOCKS
 62
    16
100
AcDbHatch
 10
0.0
 20
0.0
 30
0.0
210
0.0
220
0.0
230
1.0
  2
ANSI32
 70
     0
 71
     0
 91
        1
 92
        0
 93
        4
 72
     1
 10
19.0095275609328
 20
28.99966421518074
 11
18.94675248259694
 21
29.00331778420741
 72
     1
 10
18.94675248259694
 20
29.00331778420741
 11
18.94488266885844
 21
28.97119092330762
 72
     1
 10
18.94488266885844
 20
28.97119092330762
 11
19.00952756093279
 21
28.96742852935006
 72
     1
 10
19.00952756093279
 20
28.96742852935006
 11
19.0095275609328
 21
28.99966421518074
 97
        0
 75
     0
 76
     1
 52
0.0
 41
0.1666666667
 77
     0
 78
     2
 53
45.0
 43
0.0
 44
0.0
 45
-0.0441941738241592
 46
0.0441941738241592
 79
     0
 53
45.0
 43
0.0294627825
 44
0.0
 45
-0.0441941738241592
 46
0.0441941738241592
 79
     0
 98
        1
 10
0.0
 20
0.0
  0
HATCH
  5
AB
330
7C
100
AcDbEntity
  8
BLOCKS
 62
    16
100
AcDbHatch
 10
0.0
 20
0.0
 30
0.0
210
0.0
220
0.0
230
1.0
  2
ANSI32
 70
     0
 71
     0
 91
        1
 92
        0
 93
        4
 72
     1
 10
19.15729866039344
 20
28.95882811137627
 11
19.15916847413194
 21
28.99095497227606
 72
     1
 10
19.15916847413194
 20
28.99095497227606
 11
19.08641943273534
 21
28.99518903540131
 72
     1
 10
19.08641943273534
 20
28.99518903540131
 11
19.08641943273534
 21
28.96295334957064
 72
     1
 10
19.08641943273534
 20
28.96295334957064
 11
19.15729866039344
 21
28.95882811137627
 97
        0
 75
     0
 76
     1
 52
0.0
 41
0.1666666667
 77
     0
 78
     2
 53
45.0
 43
0.0
 44
0.0
 45
-0.0441941738241592
 46
0.0441941738241592
 79
     0
 53
45.0
 43
0.0294627825
 44
0.0
 45
-0.0441941738241592
 46
0.0441941738241592
 79
     0
 98
        1
 10
0.0
 20
0.0
  0
HATCH
  5
AC
330
7C
100
AcDbEntity
  8
BLOCKS
 62
    16
100
AcDbHatch
 10
0.0
 20
0.0
 30
0.0
210
0.0
220
0.0
230
1.0
  2
ANSI32
 70
     0
 71
     0
 91
        1
 92
        0
 93
        4
 72
     1
 10
19.00952756093279
 20
28.95929271682988
 11
18.96475594104669
 21
28.95929271682988
 72
     2
 10
19.04703816761627
 20
28.99084869604216
 40
0.0881257319589163
 50
200.9822712637957
 51
339.0177287362059
 73
     1
 72
     1
 10
19.12932039418586
 20
28.95929271682988
 11
19.08641943273533
 21
28.95929271682988
 72
     1
 10
19.08641943273533
 20
28.95929271682988
 11
19.00952756093279
 21
28.95929271682988
 97
        0
 75
     0
 76
     1
 52
0.0
 41
0.1666666667
 77
     0
 78
     2
 53
45.0
 43
0.0
 44
0.0
 45
-0.0441941738241592
 46
0.0441941738241592
 79
     0
 53
45.0
 43
0.0294627825
 44
0.0
 45
-0.0441941738241592
 46
0.0441941738241592
 79
     0
 98
        1
 10
0.0
 20
0.0
  0
HATCH
  5
AD
330
7C
100
AcDbEntity
  8
BLOCKS
 62
    16
100
AcDbHatch
 10
0.0
 20
0.0
 30
0.0
210
0.0
220
0.0
230
1.0
  2
SOLID
 70
     1
 71
     0
 91
        1
 92
        0
 93
        5
 72
     1
 10
19.90680635715495
 20
29.12174152375217
 11
19.89405107202551
 21
29.14344268635683
 72
     1
 10
19.89405107202551
 20
29.14344268635683
 11
19.30202323130653
 21
29.14344268635683
 72
     1
 10
19.30202323130653
 20
29.14344268635683
 11
19.34703094371573
 21
29.09872583179682
 72
     1
 10
19.34703094371573
 20
29.09872583179682
 11
19.34703094371572
 21
29.12174152375217
 72
     1
 10
19.34703094371572
 20
29.12174152375217
 11
19.90680635715495
 21
29.12174152375217
 97
        0
 75
     0
 76
     1
 98
        1
 10
0.0
 20
0.0
  0
INSERT
  5
C5
330
7C
100
AcDbEntity
  8
BLOCKS
100
AcDbBlockReference
  2
SW_BLOCK_DIMENSION_0
 10
19.9473259871
 20
29.6493704876
 30
0.0
  0
ENDBLK
  5
7E
330
7C
100
AcDbEntity
  8
0
100
AcDbBlockEnd
  0
BLOCK
  5
AF
330
AE
100
AcDbEntity
  8
0
100
AcDbBlockBegin
  2
SW_BLOCK_DIMENSION_0
 70
     0
 10
0.0
 20
0.0
 30
0.0
  3
SW_BLOCK_DIMENSION_0
  1

  0
SOLID
  5
B1
330
AE
100
AcDbEntity
  8
BLOCKS
 62
     0
100
AcDbTrace
 10
0.4467250849
 20
-0.0313006311
 30
0.0
 11
0.5478399938
 21
-0.0468567709
 31
0.0
 12
0.5478399938
 22
-0.0157444913
 32
0.0
 13
0.5478399938
 23
-0.0157444913
 33
0.0
  0
SOLID
  5
B2
330
AE
100
AcDbEntity
  8
BLOCKS
 62
     0
100
AcDbTrace
 10
-0.0532749151
 20
-0.0313006311
 30
0.0
 11
-0.1543898239
 21
-0.0157444913
 31
0.0
 12
-0.1543898239
 22
-0.0468567709
 32
0.0
 13
-0.1543898239
 23
-0.0468567709
 33
0.0
  0
LINE
  5
B3
330
AE
100
AcDbEntity
  8
BLOCKS
 62
     0
100
AcDbLine
 10
0.0608603444
 20
0.0798201425
 30
0.0
 11
0.1675347288
 21
0.0798201425
 31
0.0
  0
LINE
  5
B4
330
AE
100
AcDbEntity
  8
BLOCKS
 62
     0
100
AcDbLine
 10
0.079089508
 20
-0.0940224566
 30
0.0
 11
0.0559413594
 21
-0.0940224566
 31
0.0
  0
LINE
  5
B5
330
AE
100
AcDbEntity
  8
BLOCKS
 62
     0
100
AcDbLine
 10
0.0559413594
 20
-0.0940224566
 30
0.0
 11
0.0559413594
 21
-0.249307956
 31
0.0
  0
LINE
  5
B6
330
AE
100
AcDbEntity
  8
BLOCKS
 62
     0
100
AcDbLine
 10
0.0559413594
 20
-0.249307956
 30
0.0
 11
0.079089508
 21
-0.249307956
 31
0.0
  0
LINE
  5
B7
330
AE
100
AcDbEntity
  8
BLOCKS
 62
     0
100
AcDbLine
 10
0.2912808701
 20
-0.0940224566
 30
0.0
 11
0.3144290187
 21
-0.0940224566
 31
0.0
  0
LINE
  5
B8
330
AE
100
AcDbEntity
  8
BLOCKS
 62
     0
100
AcDbLine
 10
0.3144290187
 20
-0.0940224566
 30
0.0
 11
0.3144290187
 21
-0.249307956
 31
0.0
  0
LINE
  5
B9
330
AE
100
AcDbEntity
  8
BLOCKS
 62
     0
100
AcDbLine
 10
0.3144290187
 20
-0.249307956
 30
0.0
 11
0.2912808701
 21
-0.249307956
 31
0.0
  0
LINE
  5
BA
330
AE
100
AcDbEntity
  8
BLOCKS
 62
     0
100
AcDbLine
 10
0.4467250849
 20
-0.711486603
 30
0.0
 11
0.4467250849
 21
0.0936993689
 31
0.0
  0
LINE
  5
BB
330
AE
100
AcDbEntity
  8
BLOCKS
 62
     0
100
AcDbLine
 10
-0.0532749151
 20
-0.1267236731
 30
0.0
 11
-0.0532749151
 21
0.0936993689
 31
0.0
  0
LINE
  5
BC
330
AE
100
AcDbEntity
  8
BLOCKS
 62
     0
100
AcDbLine
 10
0.4467250849
 20
-0.0313006311
 30
0.0
 11
0.6411768327
 21
-0.0313006311
 31
0.0
  0
LINE
  5
BD
330
AE
100
AcDbEntity
  8
BLOCKS
 62
     0
100
AcDbLine
 10
-0.0532749151
 20
-0.0313006311
 30
0.0
 11
-0.2477266629
 21
-0.0313006311
 31
0.0
  0
MTEXT
  5
BF
330
AE
100
AcDbEntity
  8
BLOCKS
 62
     0
100
AcDbMText
 10
0.0
 20
0.1342778896
 30
0.0039370079
 40
0.1041666667
 41
0.0
 71
     1
 72
     1
  1
 
  7
SLDTEXTSTYLE0
 73
     1
 44
1.0
  0
MTEXT
  5
C0
330
AE
100
AcDbEntity
  8
BLOCKS
 62
     0
100
AcDbMText
 10
0.0756172881
 20
0.2052438631
 30
0.0039370079
 40
0.1041666667
 41
0.0
 71
     1
 72
     1
  1
1
  7
SLDTEXTSTYLE0
 73
     1
 44
1.0
  0
MTEXT
  5
C1
330
AE
100
AcDbEntity
  8
BLOCKS
 62
     0
100
AcDbMText
 10
0.0756172881
 20
0.0634035871
 30
0.0039370079
 40
0.1041666667
 41
0.0
 71
     1
 72
     1
  1
2
  7
SLDTEXTSTYLE0
 73
     1
 44
1.0
  0
MTEXT
  5
C2
330
AE
100
AcDbEntity
  8
BLOCKS
 62
     0
100
AcDbMText
 10
0.1822916725
 20
0.1342778896
 30
0.0039370079
 40
0.1041666667
 41
0.0
 71
     1
 72
     1
  1
"
  7
SLDTEXTSTYLE0
 73
     1
 44
1.0
  0
MTEXT
  5
C3
330
AE
100
AcDbEntity
  8
BLOCKS
 62
     0
100
AcDbMText
 10
0.1080246921
 20
-0.1150300596
 30
0.0039370079
 40
0.1041666667
 41
0.0
 71
     1
 72
     1
  1
13
  7
SLDTEXTSTYLE0
 73
     1
 44
1.0
  0
MTEXT
  5
C4
330
AE
100
AcDbEntity
  8
BLOCKS
 62
     0
100
AcDbMText
 10
0.3317901205
 20
0.1342778896
 30
0.0039370079
 40
0.1041666667
 41
0.0
 71
     1
 72
     1
  1
 
  7
SLDTEXTSTYLE0
 73
     1
 44
1.0
  0
ENDBLK
  5
B0
330
AE
100
AcDbEntity
  8
0
100
AcDbBlockEnd
  0
BLOCK
  5
EB
330
EA
100
AcDbEntity
  8
0
100
AcDbBlockBegin
  2
_D
 70
     0
 10
0.0
 20
0.0
 30
0.0
  3
_D
  1

  0
SOLID
  5
ED
330
EA
100
AcDbEntity
  8
DIMS
100
AcDbTrace
 10
5.752238819
 20
8.7898057282
 30
0.0
 11
6.1162524908
 21
8.7338036248
 31
0.0
 12
6.1162524908
 22
8.8458078316
 32
0.0
 13
6.1162524908
 23
8.8458078316
 33
0.0
  0
SOLID
  5
EE
330
EA
100
AcDbEntity
  8
DIMS
100
AcDbTrace
 10
37.0072388189
 20
8.7898057282
 30
0.0
 11
36.643225147
 21
8.8458078316
 31
0.0
 12
36.643225147
 22
8.7338036248
 32
0.0
 13
36.643225147
 23
8.7338036248
 33
0.0
  0
LINE
  5
EF
330
EA
100
AcDbEntity
  8
DIMS
100
AcDbLine
 10
23.7011572388
 20
9.1898404261
 30
0.0
 11
24.0851850225
 21
9.1898404261
 31
0.0
  0
LINE
  5
F0
330
EA
100
AcDbEntity
  8
DIMS
100
AcDbLine
 10
23.350115512
 20
8.56400712
 30
0.0
 11
23.2667821796
 21
8.56400712
 31
0.0
  0
LINE
  5
F1
330
EA
100
AcDbEntity
  8
DIMS
100
AcDbLine
 10
23.2667821796
 20
8.56400712
 30
0.0
 11
23.2667821796
 21
8.0049793512
 31
0.0
  0
LINE
  5
F2
330
EA
100
AcDbEntity
  8
DIMS
100
AcDbLine
 10
23.2667821796
 20
8.0049793512
 30
0.0
 11
23.350115512
 21
8.0049793512
 31
0.0
  0
LINE
  5
F3
330
EA
100
AcDbEntity
  8
DIMS
100
AcDbLine
 10
24.3917822027
 20
8.56400712
 30
0.0
 11
24.475115535
 21
8.56400712
 31
0.0
  0
LINE
  5
F4
330
EA
100
AcDbEntity
  8
DIMS
100
AcDbLine
 10
24.475115535
 20
8.56400712
 30
0.0
 11
24.475115535
 21
8.0049793512
 31
0.0
  0
LINE
  5
F5
330
EA
100
AcDbEntity
  8
DIMS
100
AcDbLine
 10
24.475115535
 20
8.0049793512
 30
0.0
 11
24.3917822027
 21
8.0049793512
 31
0.0
  0
LINE
  5
F6
330
EA
100
AcDbEntity
  8
DIMS
100
AcDbLine
 10
5.752238819
 20
8.7898057282
 30
0.0
 11
23.0091936128
 21
8.7898057282
 31
0.0
  0
LINE
  5
F7
330
EA
100
AcDbEntity
  8
DIMS
100
AcDbLine
 10
37.0072388189
 20
8.7898057282
 30
0.0
 11
24.7327040652
 21
8.7898057282
 31
0.0
  0
MTEXT
  5
F8
330
EA
100
AcDbEntity
  8
DIMS
100
AcDbMText
 10
23.0924766853
 20
9.3858883614
 30
0.0039370079
 40
0.375
 41
0.0
 71
     1
 72
     1
  1
31
  7
SLDTEXTSTYLE0
 73
     1
 44
1.0
  0
MTEXT
  5
F9
330
EA
100
AcDbEntity
  8
DIMS
100
AcDbMText
 10
23.7542822434
 20
9.6413658368
 30
0.0039370079
 40
0.375
 41
0.0
 71
     1
 72
     1
  1
1
  7
SLDTEXTSTYLE0
 73
     1
 44
1.0
  0
MTEXT
  5
FA
330
EA
100
AcDbEntity
  8
DIMS
100
AcDbMText
 10
23.7542822434
 20
9.1307408421
 30
0.0039370079
 40
0.375
 41
0.0
 71
     1
 72
     1
  1
4
  7
SLDTEXTSTYLE0
 73
     1
 44
1.0
  0
MTEXT
  5
FB
330
EA
100
AcDbEntity
  8
DIMS
100
AcDbMText
 10
24.1383099904
 20
9.3858883614
 30
0.0039370079
 40
0.375
 41
0.0
 71
     1
 72
     1
  1
"
  7
SLDTEXTSTYLE0
 73
     1
 44
1.0
  0
MTEXT
  5
FC
330
EA
100
AcDbEntity
  8
DIMS
100
AcDbMText
 10
23.4542821774
 20
8.4883797628
 30
0.0039370079
 40
0.375
 41
0.0
 71
     1
 72
     1
  1
794
  7
SLDTEXTSTYLE0
 73
     1
 44
1.0
  0
ENDBLK
  5
EC
330
EA
100
AcDbEntity
  8
0
100
AcDbBlockEnd
  0
BLOCK
  5
FF
330
FE
100
AcDbEntity
  8
0
100
AcDbBlockBegin
  2
_D_1
 70
     0
 10
0.0
 20
0.0
 30
0.0
  3
_D_1
  1

  0
SOLID
  5
101
330
FE
100
AcDbEntity
  8
DIMS
100
AcDbTrace
 10
36.3822388189
 20
9.7614962441
 30
0.0
 11
36.018225147
 21
9.8174983475
 31
0.0
 12
36.018225147
 22
9.7054941408
 32
0.0
 13
36.018225147
 23
9.7054941408
 33
0.0
  0
SOLID
  5
102
330
FE
100
AcDbEntity
  8
DIMS
100
AcDbTrace
 10
6.377238819
 20
9.7614962441
 30
0.0
 11
6.7412524908
 21
9.7054941408
 31
0.0
 12
6.7412524908
 22
9.8174983475
 32
0.0
 13
6.7412524908
 23
9.8174983475
 33
0.0
  0
LINE
  5
103
330
FE
100
AcDbEntity
  8
DIMS
100
AcDbLine
 10
12.029363596
 20
9.7910101498
 30
0.0
 11
11.9460302636
 21
9.7910101498
 31
0.0
  0
LINE
  5
104
330
FE
100
AcDbEntity
  8
DIMS
100
AcDbLine
 10
11.9460302636
 20
9.7910101498
 30
0.0
 11
11.9460302636
 21
9.2319823811
 31
0.0
  0
LINE
  5
105
330
FE
100
AcDbEntity
  8
DIMS
100
AcDbLine
 10
11.9460302636
 20
9.2319823811
 30
0.0
 11
12.029363596
 21
9.2319823811
 31
0.0
  0
LINE
  5
106
330
FE
100
AcDbEntity
  8
DIMS
100
AcDbLine
 10
13.0710302867
 20
9.7910101498
 30
0.0
 11
13.154363619
 21
9.7910101498
 31
0.0
  0
LINE
  5
107
330
FE
100
AcDbEntity
  8
DIMS
100
AcDbLine
 10
13.154363619
 20
9.7910101498
 30
0.0
 11
13.154363619
 21
9.2319823811
 31
0.0
  0
LINE
  5
108
330
FE
100
AcDbEntity
  8
DIMS
100
AcDbLine
 10
13.154363619
 20
9.2319823811
 30
0.0
 11
13.0710302867
 21
9.2319823811
 31
0.0
  0
LINE
  5
109
330
FE
100
AcDbEntity
  8
DIMS
100
AcDbLine
 10
36.3822388189
 20
9.7614962441
 30
0.0
 11
13.3001466542
 21
9.7614962441
 31
0.0
  0
LINE
  5
10A
330
FE
100
AcDbEntity
  8
DIMS
100
AcDbLine
 10
6.377238819
 20
9.7614962441
 30
0.0
 11
11.8002471919
 21
9.7614962441
 31
0.0
  0
MTEXT
  5
10B
330
FE
100
AcDbEntity
  8
DIMS
100
AcDbMText
 10
12.0168635741
 20
10.3577438754
 30
0.0039370079
 40
0.375
 41
0.0
 71
     1
 72
     1
  1
30"
  7
SLDTEXTSTYLE0
 73
     1
 44
1.0
  0
MTEXT
  5
10C
330
FE
100
AcDbEntity
  8
DIMS
100
AcDbMText
 10
12.1335302614
 20
9.7153827927
 30
0.0039370079
 40
0.375
 41
0.0
 71
     1
 72
     1
  1
762
  7
SLDTEXTSTYLE0
 73
     1
 44
1.0
  0
ENDBLK
  5
100
330
FE
100
AcDbEntity
  8
0
100
AcDbBlockEnd
  0
BLOCK
  5
110
330
10F
100
AcDbEntity
  8
0
100
AcDbBlockBegin
  2
_D_2
 70
     0
 10
0.0
 20
0.0
 30
0.0
  3
_D_2
  1

  0
ARC
  5
112
330
10F
100
AcDbEntity
  8
DIMS
100
AcDbCircle
 10
8.252238819
 20
7.4494113165
 30
0.0
 40
1.875000000000097
100
AcDbArc
 50
271.5275254422
 51
317.9822950205
  0
SOLID
  5
113
330
10F
100
AcDbEntity
  8
DIMS
100
AcDbTrace
 10
9.5586776045
 20
6.1044790879
 30
0.0
 11
9.3452149134
 21
6.4046055086
 31
0.0
 12
9.2648746108
 22
6.3265646341
 32
0.0
 13
9.2648746108
 23
6.3265646341
 33
0.0
  0
LINE
  5
114
330
10F
100
AcDbEntity
  8
DIMS
100
AcDbLine
 10
9.113871936
 20
7.8418457925
 30
0.0
 11
9.4978997196
 21
7.8418457925
 31
0.0
  0
LINE
  5
115
330
10F
100
AcDbEntity
  8
DIMS
100
AcDbLine
 10
8.8600525127
 20
7.2160124863
 30
0.0
 11
8.7767191804
 21
7.2160124863
 31
0.0
  0
LINE
  5
116
330
10F
100
AcDbEntity
  8
DIMS
100
AcDbLine
 10
8.7767191804
 20
7.2160124863
 30
0.0
 11
8.7767191804
 21
6.6569847176
 31
0.0
  0
LINE
  5
117
330
10F
100
AcDbEntity
  8
DIMS
100
AcDbLine
 10
8.7767191804
 20
6.6569847176
 30
0.0
 11
8.8600525127
 21
6.6569847176
 31
0.0
  0
LINE
  5
118
330
10F
100
AcDbEntity
  8
DIMS
100
AcDbLine
 10
9.6239413923
 20
7.2160124863
 30
0.0
 11
9.7072747247
 21
7.2160124863
 31
0.0
  0
LINE
  5
119
330
10F
100
AcDbEntity
  8
DIMS
100
AcDbLine
 10
9.7072747247
 20
7.2160124863
 30
0.0
 11
9.7072747247
 21
6.6569847176
 31
0.0
  0
LINE
  5
11A
330
10F
100
AcDbEntity
  8
DIMS
100
AcDbLine
 10
9.7072747247
 20
6.6569847176
 30
0.0
 11
9.6239413923
 21
6.6569847176
 31
0.0
  0
LINE
  5
11B
330
10F
100
AcDbEntity
  8
DIMS
100
AcDbLine
 10
9.5586776045
 20
6.1044790879
 30
0.0
 11
8.1718580318
 21
7.5321604758
 31
0.0
  0
LINE
  5
11C
330
10F
100
AcDbEntity
  8
DIMS
100
AcDbLine
 10
8.1718580318
 20
7.5321604758
 30
0.0
 11
8.4218580318
 21
7.5321604758
 31
0.0
  0
MTEXT
  5
11D
330
10F
100
AcDbEntity
  8
DIMS
100
AcDbMText
 10
8.4218580318
 20
8.0378937278
 30
0.0039370079
 40
0.375
 41
0.0
 71
     1
 72
     1
  1
R1
  7
SLDTEXTSTYLE0
 73
     1
 44
1.0
  0
MTEXT
  5
11E
330
10F
100
AcDbEntity
  8
DIMS
100
AcDbMText
 10
9.1669969406
 20
8.2933712031
 30
0.0039370079
 40
0.375
 41
0.0
 71
     1
 72
     1
  1
7
  7
SLDTEXTSTYLE0
 73
     1
 44
1.0
  0
MTEXT
  5
11F
330
10F
100
AcDbEntity
  8
DIMS
100
AcDbMText
 10
9.1669969406
 20
7.7827462085
 30
0.0039370079
 40
0.375
 41
0.0
 71
     1
 72
     1
  1
8
  7
SLDTEXTSTYLE0
 73
     1
 44
1.0
  0
MTEXT
  5
120
330
10F
100
AcDbEntity
  8
DIMS
100
AcDbMText
 10
9.5510247609
 20
8.0378937278
 30
0.0039370079
 40
0.375
 41
0.0
 71
     1
 72
     1
  1
"
  7
SLDTEXTSTYLE0
 73
     1
 44
1.0
  0
MTEXT
  5
121
330
10F
100
AcDbEntity
  8
DIMS
100
AcDbMText
 10
8.9642191781
 20
7.1403851292
 30
0.0039370079
 40
0.375
 41
0.0
 71
     1
 72
     1
  1
48
  7
SLDTEXTSTYLE0
 73
     1
 44
1.0
  0
ENDBLK
  5
111
330
10F
100
AcDbEntity
  8
0
100
AcDbBlockEnd
  0
BLOCK
  5
124
330
123
100
AcDbEntity
  8
0
100
AcDbBlockBegin
  2
_D_3
 70
     0
 10
0.0
 20
0.0
 30
0.0
  3
_D_3
  1

  0
SOLID
  5
126
330
123
100
AcDbEntity
  8
DIMS
100
AcDbTrace
 10
36.0083433216
 20
5.4502401703
 30
0.0
 11
35.8345574125
 21
5.774956426
 31
0.0
 12
35.7449911812
 22
5.7077044184
 32
0.0
 13
35.7449911812
 23
5.7077044184
 33
0.0
  0
LINE
  5
127
330
123
100
AcDbEntity
  8
DIMS
100
AcDbLine
 10
33.1342043637
 20
7.9918559799
 30
0.0
 11
33.5182321474
 21
7.9918559799
 31
0.0
  0
LINE
  5
128
330
123
100
AcDbEntity
  8
DIMS
100
AcDbLine
 10
32.8803849404
 20
7.3660226738
 30
0.0
 11
32.7970516081
 21
7.3660226738
 31
0.0
  0
LINE
  5
129
330
123
100
AcDbEntity
  8
DIMS
100
AcDbLine
 10
32.7970516081
 20
7.3660226738
 30
0.0
 11
32.7970516081
 21
6.8069949051
 31
0.0
  0
LINE
  5
12A
330
123
100
AcDbEntity
  8
DIMS
100
AcDbLine
 10
32.7970516081
 20
6.8069949051
 30
0.0
 11
32.8803849404
 21
6.8069949051
 31
0.0
  0
LINE
  5
12B
330
123
100
AcDbEntity
  8
DIMS
100
AcDbLine
 10
33.6442738201
 20
7.3660226738
 30
0.0
 11
33.7276071524
 21
7.3660226738
 31
0.0
  0
LINE
  5
12C
330
123
100
AcDbEntity
  8
DIMS
100
AcDbLine
 10
33.7276071524
 20
7.3660226738
 30
0.0
 11
33.7276071524
 21
6.8069949051
 31
0.0
  0
LINE
  5
12D
330
123
100
AcDbEntity
  8
DIMS
100
AcDbLine
 10
33.7276071524
 20
6.8069949051
 30
0.0
 11
33.6442738201
 21
6.8069949051
 31
0.0
  0
LINE
  5
12E
330
123
100
AcDbEntity
  8
DIMS
100
AcDbLine
 10
36.0083433216
 20
5.4502401703
 30
0.0
 11
34.3324683376
 21
7.6821706633
 31
0.0
  0
LINE
  5
12F
330
123
100
AcDbEntity
  8
DIMS
100
AcDbLine
 10
34.3324683376
 20
7.6821706633
 30
0.0
 11
34.0824683376
 21
7.6821706633
 31
0.0
  0
MTEXT
  5
130
330
123
100
AcDbEntity
  8
DIMS
100
AcDbMText
 10
32.4421904596
 20
8.1879039152
 30
0.0039370079
 40
0.375
 41
0.0
 71
     1
 72
     1
  1
R2
  7
SLDTEXTSTYLE0
 73
     1
 44
1.0
  0
MTEXT
  5
131
330
123
100
AcDbEntity
  8
DIMS
100
AcDbMText
 10
33.1873293683
 20
8.4433813906
 30
0.0039370079
 40
0.375
 41
0.0
 71
     1
 72
     1
  1
1
  7
SLDTEXTSTYLE0
 73
     1
 44
1.0
  0
MTEXT
  5
132
330
123
100
AcDbEntity
  8
DIMS
100
AcDbMText
 10
33.1873293683
 20
7.9327563959
 30
0.0039370079
 40
0.375
 41
0.0
 71
     1
 72
     1
  1
2
  7
SLDTEXTSTYLE0
 73
     1
 44
1.0
  0
MTEXT
  5
133
330
123
100
AcDbEntity
  8
DIMS
100
AcDbMText
 10
33.5713571887
 20
8.1879039152
 30
0.0039370079
 40
0.375
 41
0.0
 71
     1
 72
     1
  1
"
  7
SLDTEXTSTYLE0
 73
     1
 44
1.0
  0
MTEXT
  5
134
330
123
100
AcDbEntity
  8
DIMS
100
AcDbMText
 10
32.9845516058
 20
7.2903953166
 30
0.0039370079
 40
0.375
 41
0.0
 71
     1
 72
     1
  1
64
  7
SLDTEXTSTYLE0
 73
     1
 44
1.0
  0
ENDBLK
  5
125
330
123
100
AcDbEntity
  8
0
100
AcDbBlockEnd
  0
BLOCK
  5
138
330
137
100
AcDbEntity
  8
0
100
AcDbBlockBegin
  2
_D_4
 70
     0
 10
0.0
 20
0.0
 30
0.0
  3
_D_4
  1

  0
SOLID
  5
13A
330
137
100
AcDbEntity
  8
DIMS
100
AcDbTrace
 10
6.7158039598
 20
19.8680268503
 30
0.0
 11
7.0150275186
 21
19.6533003947
 31
0.0
 12
7.0657326471
 22
19.753169971
 32
0.0
 13
7.0657326471
 23
19.753169971
 33
0.0
  0
LINE
  5
13B
330
137
100
AcDbEntity
  8
DIMS
100
AcDbLine
 10
8.7966307201
 20
19.1465469826
 30
0.0
 11
9.1806585038
 21
19.1465469826
 31
0.0
  0
LINE
  5
13C
330
137
100
AcDbEntity
  8
DIMS
100
AcDbLine
 10
8.5428112969
 20
18.5207136764
 30
0.0
 11
8.4594779645
 21
18.5207136764
 31
0.0
  0
LINE
  5
13D
330
137
100
AcDbEntity
  8
DIMS
100
AcDbLine
 10
8.4594779645
 20
18.5207136764
 30
0.0
 11
8.4594779645
 21
17.9616859077
 31
0.0
  0
LINE
  5
13E
330
137
100
AcDbEntity
  8
DIMS
100
AcDbLine
 10
8.4594779645
 20
17.9616859077
 30
0.0
 11
8.5428112969
 21
17.9616859077
 31
0.0
  0
LINE
  5
13F
330
137
100
AcDbEntity
  8
DIMS
100
AcDbLine
 10
9.3067001765
 20
18.5207136764
 30
0.0
 11
9.3900335088
 21
18.5207136764
 31
0.0
  0
LINE
  5
140
330
137
100
AcDbEntity
  8
DIMS
100
AcDbLine
 10
9.3900335088
 20
18.5207136764
 30
0.0
 11
9.3900335088
 21
17.9616859077
 31
0.0
  0
LINE
  5
141
330
137
100
AcDbEntity
  8
DIMS
100
AcDbLine
 10
9.3900335088
 20
17.9616859077
 30
0.0
 11
9.3067001765
 21
17.9616859077
 31
0.0
  0
LINE
  5
142
330
137
100
AcDbEntity
  8
DIMS
100
AcDbLine
 10
6.7158039598
 20
19.8680268503
 30
0.0
 11
8.0213337435
 21
19.2051918027
 31
0.0
  0
MTEXT
  5
143
330
137
100
AcDbEntity
  8
DIMS
100
AcDbMText
 10
8.104616816
 20
19.3425949178
 30
0.0039370079
 40
0.375
 41
0.0
 71
     1
 72
     1
  1
R3
  7
SLDTEXTSTYLE0
 73
     1
 44
1.0
  0
MTEXT
  5
144
330
137
100
AcDbEntity
  8
DIMS
100
AcDbMText
 10
8.8497557248
 20
19.5980723932
 30
0.0039370079
 40
0.375
 41
0.0
 71
     1
 72
     1
  1
1
  7
SLDTEXTSTYLE0
 73
     1
 44
1.0
  0
MTEXT
  5
145
330
137
100
AcDbEntity
  8
DIMS
100
AcDbMText
 10
8.8497557248
 20
19.0874473986
 30
0.0039370079
 40
0.375
 41
0.0
 71
     1
 72
     1
  1
8
  7
SLDTEXTSTYLE0
 73
     1
 44
1.0
  0
MTEXT
  5
146
330
137
100
AcDbEntity
  8
DIMS
100
AcDbMText
 10
9.2337835451
 20
19.3425949178
 30
0.0039370079
 40
0.375
 41
0.0
 71
     1
 72
     1
  1
"
  7
SLDTEXTSTYLE0
 73
     1
 44
1.0
  0
MTEXT
  5
147
330
137
100
AcDbEntity
  8
DIMS
100
AcDbMText
 10
8.6469779623
 20
18.4450863193
 30
0.0039370079
 40
0.375
 41
0.0
 71
     1
 72
     1
  1
79
  7
SLDTEXTSTYLE0
 73
     1
 44
1.0
  0
ENDBLK
  5
139
330
137
100
AcDbEntity
  8
0
100
AcDbBlockEnd
  0
BLOCK
  5
14B
330
14A
100
AcDbEntity
  8
0
100
AcDbBlockBegin
  2
_D_5
 70
     0
 10
0.0
 20
0.0
 30
0.0
  3
_D_5
  1

  0
SOLID
  5
14D
330
14A
100
AcDbEntity
  8
DIMS
100
AcDbTrace
 10
36.3916498987
 20
20.5119487159
 30
0.0
 11
36.0566482378
 21
20.3589255931
 31
0.0
 12
36.1181350335
 22
20.2653076661
 32
0.0
 13
36.1181350335
 23
20.2653076661
 33
0.0
  0
LINE
  5
14E
330
14A
100
AcDbEntity
  8
DIMS
100
AcDbLine
 10
33.7826174227
 20
19.2825620634
 30
0.0
 11
34.1666452063
 21
19.2825620634
 31
0.0
  0
LINE
  5
14F
330
14A
100
AcDbEntity
  8
DIMS
100
AcDbLine
 10
33.5287979994
 20
18.6567287573
 30
0.0
 11
33.4454646671
 21
18.6567287573
 31
0.0
  0
LINE
  5
150
330
14A
100
AcDbEntity
  8
DIMS
100
AcDbLine
 10
33.4454646671
 20
18.6567287573
 30
0.0
 11
33.4454646671
 21
18.0977009885
 31
0.0
  0
LINE
  5
151
330
14A
100
AcDbEntity
  8
DIMS
100
AcDbLine
 10
33.4454646671
 20
18.0977009885
 30
0.0
 11
33.5287979994
 21
18.0977009885
 31
0.0
  0
LINE
  5
152
330
14A
100
AcDbEntity
  8
DIMS
100
AcDbLine
 10
34.292686879
 20
18.6567287573
 30
0.0
 11
34.3760202114
 21
18.6567287573
 31
0.0
  0
LINE
  5
153
330
14A
100
AcDbEntity
  8
DIMS
100
AcDbLine
 10
34.3760202114
 20
18.6567287573
 30
0.0
 11
34.3760202114
 21
18.0977009885
 31
0.0
  0
LINE
  5
154
330
14A
100
AcDbEntity
  8
DIMS
100
AcDbLine
 10
34.3760202114
 20
18.0977009885
 30
0.0
 11
34.292686879
 21
18.0977009885
 31
0.0
  0
LINE
  5
155
330
14A
100
AcDbEntity
  8
DIMS
100
AcDbLine
 10
36.3916498987
 20
20.5119487159
 30
0.0
 11
34.8141644691
 21
19.4758808658
 31
0.0
  0
MTEXT
  5
156
330
14A
100
AcDbEntity
  8
DIMS
100
AcDbMText
 10
33.0906035185
 20
19.4786099987
 30
0.0039370079
 40
0.375
 41
0.0
 71
     1
 72
     1
  1
R3
  7
SLDTEXTSTYLE0
 73
     1
 44
1.0
  0
MTEXT
  5
157
330
14A
100
AcDbEntity
  8
DIMS
100
AcDbMText
 10
33.8357424273
 20
19.7340874741
 30
0.0039370079
 40
0.375
 41
0.0
 71
     1
 72
     1
  1
3
  7
SLDTEXTSTYLE0
 73
     1
 44
1.0
  0
MTEXT
  5
158
330
14A
100
AcDbEntity
  8
DIMS
100
AcDbMText
 10
33.8357424273
 20
19.2234624794
 30
0.0039370079
 40
0.375
 41
0.0
 71
     1
 72
     1
  1
4
  7
SLDTEXTSTYLE0
 73
     1
 44
1.0
  0
MTEXT
  5
159
330
14A
100
AcDbEntity
  8
DIMS
100
AcDbMText
 10
34.2197702476
 20
19.4786099987
 30
0.0039370079
 40
0.375
 41
0.0
 71
     1
 72
     1
  1
"
  7
SLDTEXTSTYLE0
 73
     1
 44
1.0
  0
MTEXT
  5
15A
330
14A
100
AcDbEntity
  8
DIMS
100
AcDbMText
 10
33.6329646648
 20
18.5811014001
 30
0.0039370079
 40
0.375
 41
0.0
 71
     1
 72
     1
  1
95
  7
SLDTEXTSTYLE0
 73
     1
 44
1.0
  0
ENDBLK
  5
14C
330
14A
100
AcDbEntity
  8
0
100
AcDbBlockEnd
  0
BLOCK
  5
15D
330
15C
100
AcDbEntity
  8
0
100
AcDbBlockBegin
  2
_D_6
 70
     0
 10
0.0
 20
0.0
 30
0.0
  3
_D_6
  1

  0
SOLID
  5
15F
330
15C
100
AcDbEntity
  8
DIMS
100
AcDbTrace
 10
22.0472327637
 20
21.6033804535
 30
0.0
 11
22.1648229039
 21
21.254360758
 31
0.0
 12
22.2642928637
 22
21.3058454104
 32
0.0
 13
22.2642928637
 23
21.3058454104
 33
0.0
  0
LINE
  5
160
330
15C
100
AcDbEntity
  8
DIMS
100
AcDbLine
 10
23.8007211338
 20
20.3452717027
 30
0.0
 11
24.1847489175
 21
20.3452717027
 31
0.0
  0
LINE
  5
161
330
15C
100
AcDbEntity
  8
DIMS
100
AcDbLine
 10
23.5469017105
 20
19.7194383966
 30
0.0
 11
23.4635683782
 21
19.7194383966
 31
0.0
  0
LINE
  5
162
330
15C
100
AcDbEntity
  8
DIMS
100
AcDbLine
 10
23.4635683782
 20
19.7194383966
 30
0.0
 11
23.4635683782
 21
19.1604106278
 31
0.0
  0
LINE
  5
163
330
15C
100
AcDbEntity
  8
DIMS
100
AcDbLine
 10
23.4635683782
 20
19.1604106278
 30
0.0
 11
23.5469017105
 21
19.1604106278
 31
0.0
  0
LINE
  5
164
330
15C
100
AcDbEntity
  8
DIMS
100
AcDbLine
 10
24.3107905902
 20
19.7194383966
 30
0.0
 11
24.3941239225
 21
19.7194383966
 31
0.0
  0
LINE
  5
165
330
15C
100
AcDbEntity
  8
DIMS
100
AcDbLine
 10
24.3941239225
 20
19.7194383966
 30
0.0
 11
24.3941239225
 21
19.1604106278
 31
0.0
  0
LINE
  5
166
330
15C
100
AcDbEntity
  8
DIMS
100
AcDbLine
 10
24.3941239225
 20
19.1604106278
 30
0.0
 11
24.3107905902
 21
19.1604106278
 31
0.0
  0
LINE
  5
167
330
15C
100
AcDbEntity
  8
DIMS
100
AcDbLine
 10
22.0472327637
 20
21.6033804535
 30
0.0
 11
22.8587072297
 21
20.035586386
 31
0.0
  0
LINE
  5
168
330
15C
100
AcDbEntity
  8
DIMS
100
AcDbLine
 10
22.8587072297
 20
20.035586386
 30
0.0
 11
23.1087072297
 21
20.035586386
 31
0.0
  0
MTEXT
  5
169
330
15C
100
AcDbEntity
  8
DIMS
100
AcDbMText
 10
23.1087072297
 20
20.541319638
 30
0.0039370079
 40
0.375
 41
0.0
 71
     1
 72
     1
  1
R1
  7
SLDTEXTSTYLE0
 73
     1
 44
1.0
  0
MTEXT
  5
16A
330
15C
100
AcDbEntity
  8
DIMS
100
AcDbMText
 10
23.8538461384
 20
20.7967971133
 30
0.0039370079
 40
0.375
 41
0.0
 71
     1
 72
     1
  1
3
  7
SLDTEXTSTYLE0
 73
     1
 44
1.0
  0
MTEXT
  5
16B
330
15C
100
AcDbEntity
  8
DIMS
100
AcDbMText
 10
23.8538461384
 20
20.2861721187
 30
0.0039370079
 40
0.375
 41
0.0
 71
     1
 72
     1
  1
8
  7
SLDTEXTSTYLE0
 73
     1
 44
1.0
  0
MTEXT
  5
16C
330
15C
100
AcDbEntity
  8
DIMS
100
AcDbMText
 10
24.2378739588
 20
20.541319638
 30
0.0039370079
 40
0.375
 41
0.0
 71
     1
 72
     1
  1
"
  7
SLDTEXTSTYLE0
 73
     1
 44
1.0
  0
MTEXT
  5
16D
330
15C
100
AcDbEntity
  8
DIMS
100
AcDbMText
 10
23.6510683759
 20
19.6438110394
 30
0.0039370079
 40
0.375
 41
0.0
 71
     1
 72
     1
  1
35
  7
SLDTEXTSTYLE0
 73
     1
 44
1.0
  0
ENDBLK
  5
15E
330
15C
100
AcDbEntity
  8
0
100
AcDbBlockEnd
  0
BLOCK
  5
170
330
16F
100
AcDbEntity
  8
0
100
AcDbBlockBegin
  2
_D_7
 70
     0
 10
0.0
 20
0.0
 30
0.0
  3
_D_7
  1

  0
SOLID
  5
172
330
16F
100
AcDbEntity
  8
DIMS
100
AcDbTrace
 10
19.0463067705
 20
23.1986038644
 30
0.0
 11
18.8177585226
 21
22.9097996275
 31
0.0
 12
18.9151354376
 22
22.8544581535
 32
0.0
 13
18.9151354376
 23
22.8544581535
 33
0.0
  0
LINE
  5
173
330
16F
100
AcDbEntity
  8
DIMS
100
AcDbLine
 10
17.6437297322
 20
21.3561575519
 30
0.0
 11
18.0277575159
 21
21.3561575519
 31
0.0
  0
LINE
  5
174
330
16F
100
AcDbEntity
  8
DIMS
100
AcDbLine
 10
17.3899103089
 20
20.7303242457
 30
0.0
 11
17.3065769766
 21
20.7303242457
 31
0.0
  0
LINE
  5
175
330
16F
100
AcDbEntity
  8
DIMS
100
AcDbLine
 10
17.3065769766
 20
20.7303242457
 30
0.0
 11
17.3065769766
 21
20.171296477
 31
0.0
  0
LINE
  5
176
330
16F
100
AcDbEntity
  8
DIMS
100
AcDbLine
 10
17.3065769766
 20
20.171296477
 30
0.0
 11
17.3899103089
 21
20.171296477
 31
0.0
  0
LINE
  5
177
330
16F
100
AcDbEntity
  8
DIMS
100
AcDbLine
 10
18.1537991886
 20
20.7303242457
 30
0.0
 11
18.2371325209
 21
20.7303242457
 31
0.0
  0
LINE
  5
178
330
16F
100
AcDbEntity
  8
DIMS
100
AcDbLine
 10
18.2371325209
 20
20.7303242457
 30
0.0
 11
18.2371325209
 21
20.171296477
 31
0.0
  0
LINE
  5
179
330
16F
100
AcDbEntity
  8
DIMS
100
AcDbLine
 10
18.2371325209
 20
20.171296477
 30
0.0
 11
18.1537991886
 21
20.171296477
 31
0.0
  0
LINE
  5
17A
330
16F
100
AcDbEntity
  8
DIMS
100
AcDbLine
 10
19.0463067705
 20
23.1986038644
 30
0.0
 11
18.265249294
 21
21.8242825449
 31
0.0
  0
MTEXT
  5
17B
330
16F
100
AcDbEntity
  8
DIMS
100
AcDbMText
 10
16.951715828
 20
21.5522054871
 30
0.0039370079
 40
0.375
 41
0.0
 71
     1
 72
     1
  1
R3
  7
SLDTEXTSTYLE0
 73
     1
 44
1.0
  0
MTEXT
  5
17C
330
16F
100
AcDbEntity
  8
DIMS
100
AcDbMText
 10
17.6968547368
 20
21.8076829625
 30
0.0039370079
 40
0.375
 41
0.0
 71
     1
 72
     1
  1
1
  7
SLDTEXTSTYLE0
 73
     1
 44
1.0
  0
MTEXT
  5
17D
330
16F
100
AcDbEntity
  8
DIMS
100
AcDbMText
 10
17.6968547368
 20
21.2970579679
 30
0.0039370079
 40
0.375
 41
0.0
 71
     1
 72
     1
  1
8
  7
SLDTEXTSTYLE0
 73
     1
 44
1.0
  0
MTEXT
  5
17E
330
16F
100
AcDbEntity
  8
DIMS
100
AcDbMText
 10
18.0808825571
 20
21.5522054871
 30
0.0039370079
 40
0.375
 41
0.0
 71
     1
 72
     1
  1
"
  7
SLDTEXTSTYLE0
 73
     1
 44
1.0
  0
MTEXT
  5
17F
330
16F
100
AcDbEntity
  8
DIMS
100
AcDbMText
 10
17.4940769743
 20
20.6546968886
 30
0.0039370079
 40
0.375
 41
0.0
 71
     1
 72
     1
  1
79
  7
SLDTEXTSTYLE0
 73
     1
 44
1.0
  0
ENDBLK
  5
171
330
16F
100
AcDbEntity
  8
0
100
AcDbBlockEnd
  0
BLOCK
  5
182
330
181
100
AcDbEntity
  8
0
100
AcDbBlockBegin
  2
_D_8
 70
     0
 10
0.0
 20
0.0
 30
0.0
  3
_D_8
  1

  0
SOLID
  5
184
330
181
100
AcDbEntity
  8
DIMS
100
AcDbTrace
 10
24.0676955807
 20
24.0380466303
 30
0.0
 11
24.0053361109
 21
24.4010252598
 31
0.0
 12
23.8991163827
 22
24.365496234
 32
0.0
 13
23.8991163827
 23
24.365496234
 33
0.0
  0
LINE
  5
185
330
181
100
AcDbEntity
  8
DIMS
100
AcDbLine
 10
22.0440306203
 20
26.8154007453
 30
0.0
 11
22.4280584039
 21
26.8154007453
 31
0.0
  0
LINE
  5
186
330
181
100
AcDbEntity
  8
DIMS
100
AcDbLine
 10
21.790211197
 20
26.1895674391
 30
0.0
 11
21.7068778647
 21
26.1895674391
 31
0.0
  0
LINE
  5
187
330
181
100
AcDbEntity
  8
DIMS
100
AcDbLine
 10
21.7068778647
 20
26.1895674391
 30
0.0
 11
21.7068778647
 21
25.6305396704
 31
0.0
  0
LINE
  5
188
330
181
100
AcDbEntity
  8
DIMS
100
AcDbLine
 10
21.7068778647
 20
25.6305396704
 30
0.0
 11
21.790211197
 21
25.6305396704
 31
0.0
  0
LINE
  5
189
330
181
100
AcDbEntity
  8
DIMS
100
AcDbLine
 10
22.5541000766
 20
26.1895674391
 30
0.0
 11
22.637433409
 21
26.1895674391
 31
0.0
  0
LINE
  5
18A
330
181
100
AcDbEntity
  8
DIMS
100
AcDbLine
 10
22.637433409
 20
26.1895674391
 30
0.0
 11
22.637433409
 21
25.6305396704
 31
0.0
  0
LINE
  5
18B
330
181
100
AcDbEntity
  8
DIMS
100
AcDbLine
 10
22.637433409
 20
25.6305396704
 30
0.0
 11
22.5541000766
 21
25.6305396704
 31
0.0
  0
LINE
  5
18C
330
181
100
AcDbEntity
  8
DIMS
100
AcDbLine
 10
24.0676955807
 20
24.0380466303
 30
0.0
 11
23.2422945942
 21
26.5057154286
 31
0.0
  0
LINE
  5
18D
330
181
100
AcDbEntity
  8
DIMS
100
AcDbLine
 10
23.2422945942
 20
26.5057154286
 30
0.0
 11
22.9922945942
 21
26.5057154286
 31
0.0
  0
MTEXT
  5
18E
330
181
100
AcDbEntity
  8
DIMS
100
AcDbMText
 10
21.3520167161
 20
27.0114486805
 30
0.0039370079
 40
0.375
 41
0.0
 71
     1
 72
     1
  1
R3
  7
SLDTEXTSTYLE0
 73
     1
 44
1.0
  0
MTEXT
  5
18F
330
181
100
AcDbEntity
  8
DIMS
100
AcDbMText
 10
22.0971556249
 20
27.2669261559
 30
0.0039370079
 40
0.375
 41
0.0
 71
     1
 72
     1
  1
3
  7
SLDTEXTSTYLE0
 73
     1
 44
1.0
  0
MTEXT
  5
190
330
181
100
AcDbEntity
  8
DIMS
100
AcDbMText
 10
22.0971556249
 20
26.7563011613
 30
0.0039370079
 40
0.375
 41
0.0
 71
     1
 72
     1
  1
4
  7
SLDTEXTSTYLE0
 73
     1
 44
1.0
  0
MTEXT
  5
191
330
181
100
AcDbEntity
  8
DIMS
100
AcDbMText
 10
22.4811834452
 20
27.0114486805
 30
0.0039370079
 40
0.375
 41
0.0
 71
     1
 72
     1
  1
"
  7
SLDTEXTSTYLE0
 73
     1
 44
1.0
  0
MTEXT
  5
192
330
181
100
AcDbEntity
  8
DIMS
100
AcDbMText
 10
21.8943778624
 20
26.113940082
 30
0.0039370079
 40
0.375
 41
0.0
 71
     1
 72
     1
  1
95
  7
SLDTEXTSTYLE0
 73
     1
 44
1.0
  0
ENDBLK
  5
183
330
181
100
AcDbEntity
  8
0
100
AcDbBlockEnd
  0
BLOCK
  5
195
330
194
100
AcDbEntity
  8
0
100
AcDbBlockBegin
  2
_D_9
 70
     0
 10
0.0
 20
0.0
 30
0.0
  3
_D_9
  1

  0
SOLID
  5
197
330
194
100
AcDbEntity
  8
DIMS
100
AcDbTrace
 10
21.5573429754
 20
22.0881007396
 30
0.0
 11
21.5433360185
 21
22.4561306217
 31
0.0
 12
21.4333620404
 22
22.4349017152
 32
0.0
 13
21.4333620404
 23
22.4349017152
 33
0.0
  0
LINE
  5
198
330
194
100
AcDbEntity
  8
DIMS
100
AcDbLine
 10
19.8214620796
 20
25.1828510244
 30
0.0
 11
20.2054898633
 21
25.1828510244
 31
0.0
  0
LINE
  5
199
330
194
100
AcDbEntity
  8
DIMS
100
AcDbLine
 10
19.7065314885
 20
24.5570177182
 30
0.0
 11
19.6231981562
 21
24.5570177182
 31
0.0
  0
LINE
  5
19A
330
194
100
AcDbEntity
  8
DIMS
100
AcDbLine
 10
19.6231981562
 20
24.5570177182
 30
0.0
 11
19.6231981562
 21
23.9979899495
 31
0.0
  0
LINE
  5
19B
330
194
100
AcDbEntity
  8
DIMS
100
AcDbLine
 10
19.6231981562
 20
23.9979899495
 30
0.0
 11
19.7065314885
 21
23.9979899495
 31
0.0
  0
LINE
  5
19C
330
194
100
AcDbEntity
  8
DIMS
100
AcDbLine
 10
20.4704203682
 20
24.5570177182
 30
0.0
 11
20.5537537005
 21
24.5570177182
 31
0.0
  0
LINE
  5
19D
330
194
100
AcDbEntity
  8
DIMS
100
AcDbLine
 10
20.5537537005
 20
24.5570177182
 30
0.0
 11
20.5537537005
 21
23.9979899495
 31
0.0
  0
LINE
  5
19E
330
194
100
AcDbEntity
  8
DIMS
100
AcDbLine
 10
20.5537537005
 20
23.9979899495
 30
0.0
 11
20.4704203682
 21
23.9979899495
 31
0.0
  0
LINE
  5
19F
330
194
100
AcDbEntity
  8
DIMS
100
AcDbLine
 10
21.5573429754
 20
22.0881007396
 30
0.0
 11
21.0197259435
 21
24.8731657077
 31
0.0
  0
LINE
  5
1A0
330
194
100
AcDbEntity
  8
DIMS
100
AcDbLine
 10
21.0197259435
 20
24.8731657077
 30
0.0
 11
20.7697259435
 21
24.8731657077
 31
0.0
  0
MTEXT
  5
1A1
330
194
100
AcDbEntity
  8
DIMS
100
AcDbMText
 10
19.4072259499
 20
25.3788989596
 30
0.0039370079
 40
0.375
 41
0.0
 71
     1
 72
     1
  1
R
  7
SLDTEXTSTYLE0
 73
     1
 44
1.0
  0
MTEXT
  5
1A2
330
194
100
AcDbEntity
  8
DIMS
100
AcDbMText
 10
19.8745870842
 20
25.634376435
 30
0.0039370079
 40
0.375
 41
0.0
 71
     1
 72
     1
  1
3
  7
SLDTEXTSTYLE0
 73
     1
 44
1.0
  0
MTEXT
  5
1A3
330
194
100
AcDbEntity
  8
DIMS
100
AcDbMText
 10
19.8745870842
 20
25.1237514403
 30
0.0039370079
 40
0.375
 41
0.0
 71
     1
 72
     1
  1
4
  7
SLDTEXTSTYLE0
 73
     1
 44
1.0
  0
MTEXT
  5
1A4
330
194
100
AcDbEntity
  8
DIMS
100
AcDbMText
 10
20.2586148679
 20
25.3788989596
 30
0.0039370079
 40
0.375
 41
0.0
 71
     1
 72
     1
  1
"
  7
SLDTEXTSTYLE0
 73
     1
 44
1.0
  0
MTEXT
  5
1A5
330
194
100
AcDbEntity
  8
DIMS
100
AcDbMText
 10
19.8106981539
 20
24.481390361
 30
0.0039370079
 40
0.375
 41
0.0
 71
     1
 72
     1
  1
19
  7
SLDTEXTSTYLE0
 73
     1
 44
1.0
  0
ENDBLK
  5
196
330
194
100
AcDbEntity
  8
0
100
AcDbBlockEnd
  0
BLOCK
  5
1A8
330
1A7
100
AcDbEntity
  8
0
100
AcDbBlockBegin
  2
_D_10
 70
     0
 10
0.0
 20
0.0
 30
0.0
  3
_D_10
  1

  0
SOLID
  5
1AA
330
1A7
100
AcDbEntity
  8
DIMS
100
AcDbTrace
 10
3.104181137
 20
24.2317160938
 30
0.0
 11
3.0481790336
 21
23.8677024219
 31
0.0
 12
3.1601832403
 22
23.8677024219
 32
0.0
 13
3.1601832403
 23
23.8677024219
 33
0.0
  0
SOLID
  5
1AB
330
1A7
100
AcDbEntity
  8
DIMS
100
AcDbTrace
 10
3.104181137
 20
4.9494113165
 30
0.0
 11
3.1601832403
 21
5.3134249884
 31
0.0
 12
3.0481790336
 22
5.3134249884
 32
0.0
 13
3.0481790336
 23
5.3134249884
 33
0.0
  0
LINE
  5
1AC
330
1A7
100
AcDbEntity
  8
DIMS
100
AcDbLine
 10
2.7955005946
 20
13.9478890661
 30
0.0
 11
3.4573061527
 21
13.9478890661
 31
0.0
  0
LINE
  5
1AD
330
1A7
100
AcDbEntity
  8
DIMS
100
AcDbLine
 10
2.5833478099
 20
13.32205576
 30
0.0
 11
2.5000144776
 21
13.32205576
 31
0.0
  0
LINE
  5
1AE
330
1A7
100
AcDbEntity
  8
DIMS
100
AcDbLine
 10
2.5000144776
 20
13.32205576
 30
0.0
 11
2.5000144776
 21
12.7630279912
 31
0.0
  0
LINE
  5
1AF
330
1A7
100
AcDbEntity
  8
DIMS
100
AcDbLine
 10
2.5000144776
 20
12.7630279912
 30
0.0
 11
2.5833478099
 21
12.7630279912
 31
0.0
  0
LINE
  5
1B0
330
1A7
100
AcDbEntity
  8
DIMS
100
AcDbLine
 10
3.6250145007
 20
13.32205576
 30
0.0
 11
3.708347833
 21
13.32205576
 31
0.0
  0
LINE
  5
1B1
330
1A7
100
AcDbEntity
  8
DIMS
100
AcDbLine
 10
3.708347833
 20
13.32205576
 30
0.0
 11
3.708347833
 21
12.7630279912
 31
0.0
  0
LINE
  5
1B2
330
1A7
100
AcDbEntity
  8
DIMS
100
AcDbLine
 10
3.708347833
 20
12.7630279912
 30
0.0
 11
3.6250145007
 21
12.7630279912
 31
0.0
  0
LINE
  5
1B3
330
1A7
100
AcDbEntity
  8
DIMS
100
AcDbLine
 10
17.452238818
 20
24.2317160938
 30
0.0
 11
2.979181137
 21
24.2317160938
 31
0.0
  0
LINE
  5
1B4
330
1A7
100
AcDbEntity
  8
DIMS
100
AcDbLine
 10
8.202238819
 20
4.9494113165
 30
0.0
 11
2.979181137
 21
4.9494113165
 31
0.0
  0
LINE
  5
1B5
330
1A7
100
AcDbEntity
  8
DIMS
100
AcDbLine
 10
3.104181137
 20
24.2317160938
 30
0.0
 11
3.104181137
 21
14.4160140591
 31
0.0
  0
LINE
  5
1B6
330
1A7
100
AcDbEntity
  8
DIMS
100
AcDbLine
 10
3.104181137
 20
4.9494113165
 30
0.0
 11
3.104181137
 21
12.6796946773
 31
0.0
  0
MTEXT
  5
1B7
330
1A7
100
AcDbEntity
  8
DIMS
100
AcDbMText
 10
2.1868200411
 20
14.1439370014
 30
0.0039370079
 40
0.375
 41
0.0
 71
     1
 72
     1
  1
19
  7
SLDTEXTSTYLE0
 73
     1
 44
1.0
  0
MTEXT
  5
1B8
330
1A7
100
AcDbEntity
  8
DIMS
100
AcDbMText
 10
2.9875144864
 20
14.3994144768
 30
0.0039370079
 40
0.375
 41
0.0
 71
     1
 72
     1
  1
5
  7
SLDTEXTSTYLE0
 73
     1
 44
1.0
  0
MTEXT
  5
1B9
330
1A7
100
AcDbEntity
  8
DIMS
100
AcDbMText
 10
2.8486255992
 20
13.8887894821
 30
0.0039370079
 40
0.375
 41
0.0
 71
     1
 72
     1
  1
16
  7
SLDTEXTSTYLE0
 73
     1
 44
1.0
  0
MTEXT
  5
1BA
330
1A7
100
AcDbEntity
  8
DIMS
100
AcDbMText
 10
3.5104312306
 20
14.1439370014
 30
0.0039370079
 40
0.375
 41
0.0
 71
     1
 72
     1
  1
"
  7
SLDTEXTSTYLE0
 73
     1
 44
1.0
  0
MTEXT
  5
1BB
330
1A7
100
AcDbEntity
  8
DIMS
100
AcDbMText
 10
2.6875144754
 20
13.2464284028
 30
0.0039370079
 40
0.375
 41
0.0
 71
     1
 72
     1
  1
490
  7
SLDTEXTSTYLE0
 73
     1
 44
1.0
  0
ENDBLK
  5
1A9
330
1A7
100
AcDbEntity
  8
0
100
AcDbBlockEnd
  0
BLOCK
  5
1BE
330
1BD
100
AcDbEntity
  8
0
100
AcDbBlockBegin
  2
_D_11
 70
     0
 10
0.0
 20
0.0
 30
0.0
  3
_D_11
  1

  0
SOLID
  5
1C0
330
1BD
100
AcDbEntity
  8
DIMS
100
AcDbTrace
 10
4.5440189583
 20
23.6067160938
 30
0.0
 11
4.4880168549
 21
23.2427024219
 31
0.0
 12
4.6000210617
 22
23.2427024219
 32
0.0
 13
4.6000210617
 23
23.2427024219
 33
0.0
  0
SOLID
  5
1C1
330
1BD
100
AcDbEntity
  8
DIMS
100
AcDbTrace
 10
4.5440189583
 20
5.5744113165
 30
0.0
 11
4.6000210617
 21
5.9384249884
 31
0.0
 12
4.4880168549
 22
5.9384249884
 32
0.0
 13
4.4880168549
 23
5.9384249884
 33
0.0
  0
LINE
  5
1C2
330
1BD
100
AcDbEntity
  8
DIMS
100
AcDbLine
 10
4.2353384159
 20
18.4492287402
 30
0.0
 11
4.897143974
 21
18.4492287402
 31
0.0
  0
LINE
  5
1C3
330
1BD
100
AcDbEntity
  8
DIMS
100
AcDbLine
 10
4.0231856313
 20
17.823395434
 30
0.0
 11
3.9398522989
 21
17.823395434
 31
0.0
  0
LINE
  5
1C4
330
1BD
100
AcDbEntity
  8
DIMS
100
AcDbLine
 10
3.9398522989
 20
17.823395434
 30
0.0
 11
3.9398522989
 21
17.2643676653
 31
0.0
  0
LINE
  5
1C5
330
1BD
100
AcDbEntity
  8
DIMS
100
AcDbLine
 10
3.9398522989
 20
17.2643676653
 30
0.0
 11
4.0231856313
 21
17.2643676653
 31
0.0
  0
LINE
  5
1C6
330
1BD
100
AcDbEntity
  8
DIMS
100
AcDbLine
 10
5.064852322
 20
17.823395434
 30
0.0
 11
5.1481856543
 21
17.823395434
 31
0.0
  0
LINE
  5
1C7
330
1BD
100
AcDbEntity
  8
DIMS
100
AcDbLine
 10
5.1481856543
 20
17.823395434
 30
0.0
 11
5.1481856543
 21
17.2643676653
 31
0.0
  0
LINE
  5
1C8
330
1BD
100
AcDbEntity
  8
DIMS
100
AcDbLine
 10
5.1481856543
 20
17.2643676653
 30
0.0
 11
5.064852322
 21
17.2643676653
 31
0.0
  0
LINE
  5
1C9
330
1BD
100
AcDbEntity
  8
DIMS
100
AcDbLine
 10
17.452238818
 20
23.6067160938
 30
0.0
 11
4.4190189583
 21
23.6067160938
 31
0.0
  0
LINE
  5
1CA
330
1BD
100
AcDbEntity
  8
DIMS
100
AcDbLine
 10
8.202238819
 20
5.5744113165
 30
0.0
 11
4.4190189583
 21
5.5744113165
 31
0.0
  0
LINE
  5
1CB
330
1BD
100
AcDbEntity
  8
DIMS
100
AcDbLine
 10
4.5440189583
 20
23.6067160938
 30
0.0
 11
4.5440189583
 21
18.9173537332
 31
0.0
  0
LINE
  5
1CC
330
1BD
100
AcDbEntity
  8
DIMS
100
AcDbLine
 10
4.5440189583
 20
5.5744113165
 30
0.0
 11
4.5440189583
 21
17.1810343513
 31
0.0
  0
MTEXT
  5
1CD
330
1BD
100
AcDbEntity
  8
DIMS
100
AcDbMText
 10
3.6266578624
 20
18.6452766754
 30
0.0039370079
 40
0.375
 41
0.0
 71
     1
 72
     1
  1
18
  7
SLDTEXTSTYLE0
 73
     1
 44
1.0
  0
MTEXT
  5
1CE
330
1BD
100
AcDbEntity
  8
DIMS
100
AcDbMText
 10
4.4273523077
 20
18.9007541508
 30
0.0039370079
 40
0.375
 41
0.0
 71
     1
 72
     1
  1
1
  7
SLDTEXTSTYLE0
 73
     1
 44
1.0
  0
MTEXT
  5
1CF
330
1BD
100
AcDbEntity
  8
DIMS
100
AcDbMText
 10
4.2884634205
 20
18.3901291561
 30
0.0039370079
 40
0.375
 41
0.0
 71
     1
 72
     1
  1
16
  7
SLDTEXTSTYLE0
 73
     1
 44
1.0
  0
MTEXT
  5
1D0
330
1BD
100
AcDbEntity
  8
DIMS
100
AcDbMText
 10
4.9502690519
 20
18.6452766754
 30
0.0039370079
 40
0.375
 41
0.0
 71
     1
 72
     1
  1
"
  7
SLDTEXTSTYLE0
 73
     1
 44
1.0
  0
MTEXT
  5
1D1
330
1BD
100
AcDbEntity
  8
DIMS
100
AcDbMText
 10
4.1273522967
 20
17.7477680769
 30
0.0039370079
 40
0.375
 41
0.0
 71
     1
 72
     1
  1
458
  7
SLDTEXTSTYLE0
 73
     1
 44
1.0
  0
ENDBLK
  5
1BF
330
1BD
100
AcDbEntity
  8
0
100
AcDbBlockEnd
  0
BLOCK
  5
1D3
330
1D2
100
AcDbEntity
  8
0
100
AcDbBlockBegin
  2
SW_NOTE_0
 70
     0
 10
0.0
 20
0.0
 30
0.0
  3
SW_NOTE_0
  1

  0
MTEXT
  5
1D5
330
1D2
100
AcDbEntity
  8
NOTES
 62
     0
100
AcDbMText
 10
5.8675130208
 20
0.9399452269
 30
0.0
 40
0.7291666667
 41
0.0
 71
     2
 72
     1
  1
TEMPLATE#: 1000001526
  7
SLDTEXTSTYLE0
 73
     1
 44
1.0
  0
MTEXT
  5
1D6
330
1D2
100
AcDbEntity
  8
NOTES
 62
     0
100
AcDbMText
 10
5.877550555
 20
-0.0165995549
 30
0.0
 40
0.375
 41
0.0
 71
     2
 72
     1
  1
DUAL UNDERMOUNT TEMPLATE  32-3/4" x 21-11/16" W/ 2" RADIUS
  7
SLDTEXTSTYLE0
 73
     1
 44
1.0
  0
ENDBLK
  5
1D4
330
1D2
100
AcDbEntity
  8
0
100
AcDbBlockEnd
  0
BLOCK
  5
1D9
330
1D8
100
AcDbEntity
  8
0
100
AcDbBlockBegin
  2
SW_NOTE_1
 70
     0
 10
0.0
 20
0.0
 30
0.0
  3
SW_NOTE_1
  1

  0
MTEXT
  5
1DB
330
1D8
100
AcDbEntity
  8
NOTES
 62
     0
100
AcDbMText
 10
0.0
 20
0.2148446233
 30
0.0
 40
0.1666666667
 41
0.0
 71
     1
 72
     1
  1
NOTES:
  7
SLDTEXTSTYLE0
 73
     1
 44
1.0
  0
MTEXT
  5
1DC
330
1D8
100
AcDbEntity
  8
NOTES
 62
     0
100
AcDbMText
 10
0.3937007786
 20
-0.2295998158
 30
0.0
 40
0.1666666667
 41
0.0
 71
     1
 72
     1
  1
THOROUGHLY READ ALL  INSTALLATION INSTRUCTIONS
  7
SLDTEXTSTYLE0
 73
     1
 44
1.0
  0
MTEXT
  5
1DD
330
1D8
100
AcDbEntity
  8
NOTES
 62
     0
100
AcDbMText
 10
0.0
 20
-0.2295998158
 30
0.0
 40
0.1666666667
 41
0.0
 71
     1
 72
     1
  1
1.
  7
SLDTEXTSTYLE0
 73
     1
 44
1.0
  0
MTEXT
  5
1DE
330
1D8
100
AcDbEntity
  8
NOTES
 62
     0
100
AcDbMText
 10
0.0
 20
-0.4518220353
 30
0.0
 40
0.1666666667
 41
0.0
 71
     1
 72
     1
  1
BEFORE CUTTING COUNTERTOP.
  7
SLDTEXTSTYLE0
 73
     1
 44
1.0
  0
MTEXT
  5
1DF
330
1D8
100
AcDbEntity
  8
NOTES
 62
     0
100
AcDbMText
 10
0.0
 20
-0.8962664744
 30
0.0
 40
0.1666666667
 41
0.0
 71
     1
 72
     1
  1
2.  DIMENSIONS ARE IN INCHES [MM].
  7
SLDTEXTSTYLE0
 73
     1
 44
1.0
  0
MTEXT
  5
1E1
330
1D8
100
AcDbEntity
  8
NOTES
 62
     0
100
AcDbMText
 10
0.0
 20
-1.562933133
 30
0.0
 40
0.1666666667
 41
0.0
 71
     1
 72
     1
  1
PLEASE CHECK TEMPLATE AGAINST PHYSICAL SINK FOR MOST 
  7
SLDTEXTSTYLE1
 73
     1
 44
1.0
  0
MTEXT
  5
1E2
330
1D8
100
AcDbEntity
  8
NOTES
 62
     0
100
AcDbMText
 10
0.0
 20
-1.7851553525
 30
0.0
 40
0.1666666667
 41
0.0
 71
     1
 72
     1
  1
ACCURATE CUT.
  7
SLDTEXTSTYLE1
 73
     1
 44
1.0
  0
MTEXT
  5
1E3
330
1D8
100
AcDbEntity
  8
NOTES
 62
     0
100
AcDbMText
 10
0.0
 20
-2.6740442307
 30
0.0
 40
0.1666666667
 41
0.0
 71
     1
 72
     1
  1
NOTAS:
  7
SLDTEXTSTYLE0
 73
     1
 44
1.0
  0
MTEXT
  5
1E4
330
1D8
100
AcDbEntity
  8
NOTES
 62
     0
100
AcDbMText
 10
0.0
 20
-3.1184886698
 30
0.0
 40
0.1666666667
 41
0.0
 71
     1
 72
     1
  1
1.  LEA ATENTAMENTE LAS INSTRUCCIONES DE INSTALACIÓN ANTES 
  7
SLDTEXTSTYLE0
 73
     1
 44
1.0
  0
MTEXT
  5
1E5
330
1D8
100
AcDbEntity
  8
NOTES
 62
     0
100
AcDbMText
 10
0.0
 20
-3.3407108893
 30
0.0
 40
0.1666666667
 41
0.0
 71
     1
 72
     1
  1
DE CORTAR LA ENCIMERA.
  7
SLDTEXTSTYLE0
 73
     1
 44
1.0
  0
MTEXT
  5
1E6
330
1D8
100
AcDbEntity
  8
NOTES
 62
     0
100
AcDbMText
 10
0.0
 20
-3.7851553284
 30
0.0
 40
0.1666666667
 41
0.0
 71
     1
 72
     1
  1
2.  DIMENSIONES EN PULGADAS [MM].
  7
SLDTEXTSTYLE0
 73
     1
 44
1.0
  0
MTEXT
  5
1E7
330
1D8
100
AcDbEntity
  8
NOTES
 62
     0
100
AcDbMText
 10
0.0
 20
-4.451821987
 30
0.0
 40
0.1666666667
 41
0.0
 71
     1
 72
     1
  1
POR FAVOR COMPRUEBE PLANTILLA CONTRA FREGADERO FÍSICO 
  7
SLDTEXTSTYLE1
 73
     1
 44
1.0
  0
MTEXT
  5
1E8
330
1D8
100
AcDbEntity
  8
NOTES
 62
     0
100
AcDbMText
 10
0.0
 20
-4.6740442065
 30
0.0
 40
0.1666666667
 41
0.0
 71
     1
 72
     1
  1
PARA CORTE MÁS EXACTO.
  7
SLDTEXTSTYLE1
 73
     1
 44
1.0
  0
ENDBLK
  5
1DA
330
1D8
100
AcDbEntity
  8
0
100
AcDbBlockEnd
  0
BLOCK
  5
1EB
330
1EA
100
AcDbEntity
  8
0
100
AcDbBlockBegin
  2
SW_NOTE_2
 70
     0
 10
0.0
 20
0.0
 30
0.0
  3
SW_NOTE_2
  1

  0
MTEXT
  5
1ED
330
1EA
100
AcDbEntity
  8
NOTES
 62
     0
100
AcDbMText
 10
0.906388577
 20
0.6870811382
 30
0.0
 40
0.2083333333
 41
0.0
 71
     2
 72
     1
  1
TEMPLATE
  7
SLDTEXTSTYLE0
 73
     1
 44
1.0
  0
MTEXT
  5
1EE
330
1EA
100
AcDbEntity
  8
NOTES
 62
     0
100
AcDbMText
 10
0.9095232472
 20
0.4093033638
 30
0.0
 40
0.2083333333
 41
0.0
 71
     2
 72
     1
  1
CENTERLINE
  7
SLDTEXTSTYLE0
 73
     1
 44
1.0
  0
MTEXT
  5
1EF
330
1EA
100
AcDbEntity
  8
NOTES
 62
     0
100
AcDbMText
 10
0.9096437853
 20
-0.146252185
 30
0.0
 40
0.2083333333
 41
0.0
 71
     2
 72
     1
  1
PLANTILLA
  7
SLDTEXTSTYLE0
 73
     1
 44
1.0
  0
MTEXT
  5
1F0
330
1EA
100
AcDbEntity
  8
NOTES
 62
     0
100
AcDbMText
 10
0.9066297198
 20
-0.4240299595
 30
0.0
 40
0.2083333333
 41
0.0
 71
     2
 72
     1
  1
CENTRAL
  7
SLDTEXTSTYLE0
 73
     1
 44
1.0
  0
ENDBLK
  5
1EC
330
1EA
100
AcDbEntity
  8
0
100
AcDbBlockEnd
  0
BLOCK
  5
1F6
330
1F5
100
AcDbEntity
  8
0
100
AcDbBlockBegin
  2
SW_NOTE_3
 70
     0
 10
0.0
 20
0.0
 30
0.0
  3
SW_NOTE_3
  1

  0
MTEXT
  5
1F8
330
1F5
100
AcDbEntity
  8
BLOCKS
 62
     0
100
AcDbMText
 10
0.0038536031
 20
0.2703145539
 30
0.0
 40
0.2083333333
 41
0.0
 71
     3
 72
     1
  1
1/2" REVEAL
  7
SLDTEXTSTYLE0
 73
     1
 44
1.0
  0
MTEXT
  5
1F9
330
1F5
100
AcDbEntity
  8
BLOCKS
 62
     0
100
AcDbMText
 10
0.0088209376
 20
-0.0074632205
 30
0.0
 40
0.2083333333
 41
0.0
 71
     3
 72
     1
  1
[12.7 REVELADO]
  7
SLDTEXTSTYLE0
 73
     1
 44
1.0
  0
ENDBLK
  5
1F7
330
1F5
100
AcDbEntity
  8
0
100
AcDbBlockEnd
  0
BLOCK
  5
1FD
330
1FC
100
AcDbEntity
  8
0
100
AcDbBlockBegin
  2
SW_NOTE_4
 70
     0
 10
0.0
 20
0.0
 30
0.0
  3
SW_NOTE_4
  1

  0
MTEXT
  5
1FF
330
1FC
100
AcDbEntity
  8
BLOCKS
 62
     0
100
AcDbMText
 10
0.0221927
 20
0.2710496476
 30
0.0
 40
0.2083333333
 41
0.0
 71
     1
 72
     1
  1
1/8" OVERHANG
  7
SLDTEXTSTYLE0
 73
     1
 44
1.0
  0
MTEXT
  5
200
330
1FC
100
AcDbEntity
  8
BLOCKS
 62
     0
100
AcDbMText
 10
0.0221927
 20
-0.0067281268
 30
0.0
 40
0.2083333333
 41
0.0
 71
     1
 72
     1
  1
[3.2 SOBRESALIENTE]
  7
SLDTEXTSTYLE0
 73
     1
 44
1.0
  0
ENDBLK
  5
1FE
330
1FC
100
AcDbEntity
  8
0
100
AcDbBlockEnd
  0
ENDSEC
  0
SECTION
  2
ENTITIES
  0
LINE
  5
C6
330
1F
100
AcDbEntity
  8
OBJECTS
 62
     5
100
AcDbLine
 10
8.252238819
 20
4.9494113165
 30
0.0
 11
34.5072388189
 21
4.9494113165
 31
0.0
  0
LINE
  5
C7
330
1F
100
AcDbEntity
  8
OBJECTS
 62
     5
100
AcDbLine
 10
5.752238819
 20
18.4533163584
 30
0.0
 11
5.752238819
 21
7.4494113165
 31
0.0
  0
LINE
  5
C8
330
1F
100
AcDbEntity
  8
OBJECTS
 62
     5
100
AcDbLine
 10
21.4151904589
 20
22.0745059692
 30
0.0
 11
21.3442871779
 21
22.0745059692
 31
0.0
  0
LINE
  5
C9
330
1F
100
AcDbEntity
  8
OBJECTS
 62
     5
100
AcDbLine
 10
37.0072388189
 20
7.4494113165
 30
0.0
 11
37.0072388189
 21
18.4533163584
 31
0.0
  0
LINE
  5
CA
330
1F
100
AcDbEntity
  8
OBJECTS
  6
CENTERX2
100
AcDbLine
 10
8.252238819
 20
5.5744113165
 30
0.0
 11
34.5072388189
 21
5.5744113165
 31
0.0
  0
LINE
  5
CB
330
1F
100
AcDbEntity
  8
OBJECTS
  6
CENTERX2
100
AcDbLine
 10
36.3822388189
 20
7.4494113165
 30
0.0
 11
36.3822388189
 21
18.4533163584
 31
0.0
  0
LINE
  5
CC
330
1F
100
AcDbEntity
  8
OBJECTS
  6
CENTERX2
100
AcDbLine
 10
21.4151904589
 20
21.4495059692
 30
0.0
 11
21.3442871779
 21
21.4495059692
 31
0.0
  0
LINE
  5
CD
330
1F
100
AcDbEntity
  8
OBJECTS
  6
CENTERX2
100
AcDbLine
 10
6.377238819
 20
18.4533163584
 30
0.0
 11
6.377238819
 21
7.4494113165
 31
0.0
  0
LINE
  5
CE
330
1F
100
AcDbEntity
  8
OBJECTS
100
AcDbLine
 10
21.4151904589
 20
22.0745059692
 30
0.0
 11
21.4151904589
 21
19.5264290282
 31
0.0
  0
LINE
  5
CF
330
1F
100
AcDbEntity
  8
OBJECTS
100
AcDbLine
 10
21.3797388189
 20
4.9494113165
 30
0.0
 11
21.3797388189
 21
7.4974882575
 31
0.0
  0
LINE
  5
D0
330
1F
100
AcDbEntity
  8
OBJECTS
100
AcDbLine
 10
37.0072388189
 20
14.5882547032
 30
0.0
 11
34.4591619271
 21
14.5887547605
 31
0.0
  0
LINE
  5
D1
330
1F
100
AcDbEntity
  8
OBJECTS
100
AcDbLine
 10
5.752238819
 20
14.5882547032
 30
0.0
 11
8.300315742
 21
14.5885565872
 31
0.0
  0
ARC
  5
D2
330
1F
100
AcDbEntity
  8
OBJECTS
 62
     5
100
AcDbCircle
 10
21.4151904589
 20
22.8245059692
 30
0.0
 40
0.7500000000000036
100
AcDbArc
 50
270.0
 51
328.6261527952
  0
ARC
  5
D3
330
1F
100
AcDbEntity
  8
OBJECTS
 62
     5
100
AcDbCircle
 10
21.3442871779
 20
22.8245059692
 30
0.0
 40
0.7500000000000036
100
AcDbArc
 50
211.3738472064
 51
270.0
  0
ARC
  5
D4
330
1F
100
AcDbEntity
  8
OBJECTS
 62
     5
100
AcDbCircle
 10
9.502238819
 20
18.4533163584
 30
0.0
 40
3.75000000000002
100
AcDbArc
 50
112.6198649489
 51
180.0
  0
ARC
  5
D5
330
1F
100
AcDbEntity
  8
OBJECTS
 62
     5
100
AcDbCircle
 10
8.252238819
 20
7.4494113165
 30
0.0
 40
2.500000000000022
100
AcDbArc
 50
180.0
 51
270.0
  0
ARC
  5
D6
330
1F
100
AcDbEntity
  8
OBJECTS
 62
     5
100
AcDbCircle
 10
17.502238818
 20
20.4817160938
 30
0.0
 40
3.75000000000002
100
AcDbArc
 50
31.3738472064
 51
96.5780160076
  0
ARC
  5
D7
330
1F
100
AcDbEntity
  8
OBJECTS
 62
     5
100
AcDbCircle
 10
34.5072388189
 20
7.4494113165
 30
0.0
 40
2.500000000000017
100
AcDbArc
 50
270.0
 51
0.0
  0
ARC
  5
D8
330
1F
100
AcDbEntity
  8
OBJECTS
 62
     5
100
AcDbCircle
 10
33.2572388189
 20
18.4533163584
 30
0.0
 40
3.750000000000021
100
AcDbArc
 50
0.0
 51
67.380135052
  0
ARC
  5
D9
330
1F
100
AcDbEntity
  8
OBJECTS
 62
     5
100
AcDbCircle
 10
25.2572388189
 20
20.4817160939
 30
0.0
 40
3.750000000000017
100
AcDbArc
 50
83.4219839932
 51
148.6261527952
  0
ARC
  5
DA
330
1F
100
AcDbEntity
  8
OBJECTS
  6
CENTERX2
100
AcDbCircle
 10
34.5072388189
 20
7.4494113165
 30
0.0
 40
1.875000000000205
100
AcDbArc
 50
270.0
 51
0.0
  0
ARC
  5
DB
330
1F
100
AcDbEntity
  8
OBJECTS
  6
CENTERX2
100
AcDbCircle
 10
33.2572388189
 20
18.4533163584
 30
0.0
 40
3.125000000000078
100
AcDbArc
 50
0.0
 51
67.380135052
  0
ARC
  5
DC
330
1F
100
AcDbEntity
  8
OBJECTS
  6
CENTERX2
100
AcDbCircle
 10
25.2572388189
 20
20.4817160939
 30
0.0
 40
3.125000000000029
100
AcDbArc
 50
83.4219839932
 51
148.6261527952
  0
ARC
  5
DD
330
1F
100
AcDbEntity
  8
OBJECTS
  6
CENTERX2
100
AcDbCircle
 10
21.4151904589
 20
22.8245059692
 30
0.0
 40
1.374999999999996
100
AcDbArc
 50
270.0
 51
328.6261527952
  0
ARC
  5
DE
330
1F
100
AcDbEntity
  8
OBJECTS
  6
CENTERX2
100
AcDbCircle
 10
21.3442871779
 20
22.8245059692
 30
0.0
 40
1.374999999999996
100
AcDbArc
 50
211.3738472064
 51
270.0
  0
ARC
  5
DF
330
1F
100
AcDbEntity
  8
OBJECTS
  6
CENTERX2
100
AcDbCircle
 10
17.502238818
 20
20.4817160938
 30
0.0
 40
3.125000000000027
100
AcDbArc
 50
31.3738472064
 51
96.5780160076
  0
ARC
  5
E0
330
1F
100
AcDbEntity
  8
OBJECTS
  6
CENTERX2
100
AcDbCircle
 10
9.502238819
 20
18.4533163584
 30
0.0
 40
3.125000000000025
100
AcDbArc
 50
112.6198649489
 51
180.0
  0
ARC
  5
E1
330
1F
100
AcDbEntity
  8
OBJECTS
  6
CENTERX2
100
AcDbCircle
 10
8.252238819
 20
7.4494113165
 30
0.0
 40
1.875000000000098
100
AcDbArc
 50
180.0
 51
270.0
  0
SPLINE
  5
E2
330
1F
100
AcDbEntity
  8
OBJECTS
 62
     5
100
AcDbSpline
210
0.0
220
0.0
230
1.0
 70
     8
 71
     3
 72
    14
 73
    10
 74
     0
 42
0.00000001
 43
0.00000001
 12
1.0
 22
0.0
 32
0.0
 13
1.0
 23
0.0
 33
0.0
 40
0.0
 40
0.0
 40
0.0
 40
0.0
 40
0.2500000000000001
 40
0.2500000000000001
 40
0.5000000000000001
 40
0.5000000000000001
 40
0.75
 40
0.75
 40
1.0
 40
1.0
 40
1.0
 40
1.0
 10
17.07265384867592
 20
24.20702906777401
 30
0.0
 10
16.29951633839609
 20
24.11787461123729
 30
0.0
 10
15.529971785578
 20
24.00442791001868
 30
0.0
 10
13.99833540656209
 20
23.72714608508133
 30
0.0
 10
13.23787558135781
 20
23.56360848926218
 30
0.0
 10
11.72829824598953
 20
23.18408986147369
 30
0.0
 10
10.98188384169277
 20
22.9687682800656
 30
0.0
 10
9.507026277989103
 20
22.48386751003508
 30
0.0
 10
8.77855415758016
 20
22.21428108284727
 30
0.0
 10
8.059931126602214
 20
21.91485481992767
 30
0.0
  0
SPLINE
  5
E3
330
1F
100
AcDbEntity
  8
OBJECTS
 62
     5
100
AcDbSpline
210
0.0
220
0.0
230
1.0
 70
     8
 71
     3
 72
    14
 73
    10
 74
     0
 42
0.00000001
 43
0.00000001
 12
1.0
 22
0.0
 32
0.0
 13
1.0
 23
0.0
 33
0.0
 40
0.0
 40
0.0
 40
0.0
 40
0.0
 40
0.2500000000000004
 40
0.2500000000000004
 40
0.5000000000000009
 40
0.5000000000000009
 40
0.7500000000000004
 40
0.7500000000000004
 40
1.0
 40
1.0
 40
1.0
 40
1.0
 10
34.69954651122368
 20
21.91485481993008
 30
0.0
 10
33.98112892510726
 20
22.21419548081194
 30
0.0
 10
33.25180124465041
 20
22.48415078409699
 30
0.0
 10
31.77313519441516
 20
22.97016439920901
 30
0.0
 10
31.02580488906675
 20
23.18557153237867
 30
0.0
 10
29.51627960169132
 20
23.56481518259211
 30
0.0
 10
28.75666261938864
 20
23.72801922732486
 30
0.0
 10
27.22845519939868
 20
24.00455572115575
 30
0.0
 10
26.45983210336169
 20
24.11788950951115
 30
0.0
 10
25.68682378817095
 20
24.20702906788731
 30
0.0
  0
SPLINE
  5
E4
330
1F
100
AcDbEntity
  8
OBJECTS
  6
CENTERX2
100
AcDbSpline
210
0.0
220
0.0
230
1.0
 70
     8
 71
     3
 72
    13
 73
     9
 74
     0
 42
0.00000001
 43
0.00000001
 12
1.0
 22
0.0
 32
0.0
 13
1.0
 23
0.0
 33
0.0
 40
0.0
 40
0.0
 40
0.0
 40
0.0
 40
0.25
 40
0.5
 40
0.625
 40
0.75
 40
0.875
 40
1.0
 40
1.0
 40
1.0
 40
1.0
 10
34.45916189583904
 20
21.33793174300702
 30
0.0
 10
33.75614712355303
 20
21.63085456479289
 30
0.0
 10
32.32696676539049
 20
22.15988706325003
 30
0.0
 10
30.49221839852814
 20
22.68878008268497
 30
0.0
 10
29.00487474451807
 20
23.03531043140084
 30
0.0
 10
27.88242550463642
 20
23.25738659587042
 30
0.0
 10
26.75304046472707
 20
23.44279644195158
 30
0.0
 10
25.99479624217799
 20
23.54237341224924
 30
0.0
 10
25.61522629329523
 20
23.58614357222212
 30
0.0
  0
SPLINE
  5
E5
330
1F
100
AcDbEntity
  8
OBJECTS
  6
CENTERX2
100
AcDbSpline
210
0.0
220
0.0
230
1.0
 70
     8
 71
     3
 72
    10
 73
     6
 74
     0
 42
0.00000001
 43
0.00000001
 12
1.0
 22
0.0
 32
0.0
 13
1.0
 23
0.0
 33
0.0
 40
0.0
 40
0.0
 40
0.0
 40
0.0
 40
0.25
 40
0.5
 40
1.0
 40
1.0
 40
1.0
 40
1.0
 10
17.14425134356068
 20
23.58614357210984
 30
0.0
 10
16.38481343669557
 20
23.49856888719326
 30
0.0
 10
14.87077919722405
 20
23.27542873806294
 30
0.0
 10
11.88040919608961
 20
22.6319893476279
 30
0.0
 10
9.704885451771705
 20
21.92316912210535
 30
0.0
 10
8.30031574199514
 20
21.33793174300806
 30
0.0
  0
INSERT
  5
E6
330
1F
100
AcDbEntity
  8
BLOCKS
100
AcDbBlockReference
  2
REVEAL- .500
 10
8.199935966
 20
-22.5596500761
 30
0.0
  0
INSERT
  5
E7
330
1F
100
AcDbEntity
  8
BLOCKS
100
AcDbBlockReference
  2
OVERHANG - .125
 10
-4.8679100881
 20
-19.7797805563
 30
0.0
  0
DIMENSION
  5
E8
330
1F
100
AcDbEntity
  8
DIMS
100
AcDbDimension
  2
_D
 10
37.0072388189
 20
8.7898057282
 30
0.0
 11
23.870948839
 21
8.7898057282
 31
0.0
 70
   160
  1
<>
 71
     2
 42
-1.0
  3
SLDDIMSTYLE0
100
AcDbAlignedDimension
 13
5.752238819
 23
7.4494113165
 33
0.0
 14
37.0072388189
 24
7.4494113165
 34
0.0
 50
0.0
100
AcDbRotatedDimension
  0
DIMENSION
  5
FD
330
1F
100
AcDbEntity
  8
DIMS
100
AcDbDimension
  2
_D_1
 10
6.377238819
 20
9.7614962441
 30
0.0
 11
12.550196923
 21
9.7614962441
 31
0.0
 70
   160
  1
<>
 71
     2
 42
-1.0
  3
SLDDIMSTYLE0
100
AcDbAlignedDimension
 13
36.3822388189
 23
7.4494113165
 33
0.0
 14
6.377238819
 24
7.4494113165
 34
0.0
 50
0.0
100
AcDbRotatedDimension
  0
DIMENSION
  5
10D
330
1F
100
AcDbEntity
  8
DIMS
100
AcDbDimension
  2
_D_2
 10
8.252238819
 20
7.4494113165
 30
0.0
 11
9.2419969709
 21
7.4418110946
 31
0.0
 70
   164
  1
<>
 71
     1
 42
-1.0
  3
SLDDIMSTYLE1
100
AcDbRadialDimension
 15
9.5586776045
 25
6.1044790879
 35
0.0
 40
0.0
  0
DIMENSION
  5
122
330
1F
100
AcDbEntity
  8
DIMS
100
AcDbDimension
  2
_D_3
 10
34.5072388189
 20
7.4494113165
 30
0.0
 11
33.2623293986
 21
7.591821282
 31
0.0
 70
   164
  1
<>
 71
     1
 42
-1.0
  3
SLDDIMSTYLE1
100
AcDbRadialDimension
 15
36.0083433216
 25
5.4502401703
 35
0.0
 40
0.0
  0
DIMENSION
  5
135
330
1F
100
AcDbEntity
  8
DIMS
100
AcDbDimension
  2
_D_4
 10
9.502238819
 20
18.4533163584
 30
0.0
 11
8.9247561487
 21
18.7465126783
 31
0.0
 70
   164
  1
<>
 71
     1
 42
-1.0
  3
SLDDIMSTYLE2
100
AcDbRadialDimension
 15
6.7158039598
 25
19.8680268503
 35
0.0
 40
0.0
  0
DIMENSION
  5
148
330
1F
100
AcDbEntity
  8
DIMS
100
AcDbDimension
  2
_D_5
 10
33.2572388189
 20
18.4533163584
 30
0.0
 11
33.9107428512
 21
18.8825277592
 31
0.0
 70
   164
  1
<>
 71
     1
 42
-1.0
  3
SLDDIMSTYLE3
100
AcDbRadialDimension
 15
36.3916498987
 25
20.5119487159
 35
0.0
 40
0.0
  0
DIMENSION
  5
15B
330
1F
100
AcDbEntity
  8
DIMS
100
AcDbDimension
  2
_D_6
 10
21.4151904589
 20
22.8245059692
 30
0.0
 11
23.9288461687
 21
19.9452370048
 31
0.0
 70
   164
  1
<>
 71
     1
 42
-1.0
  3
SLDDIMSTYLE3
100
AcDbRadialDimension
 15
22.0472327637
 25
21.6033804535
 35
0.0
 40
0.0
  0
DIMENSION
  5
16E
330
1F
100
AcDbEntity
  8
DIMS
100
AcDbDimension
  2
_D_7
 10
17.502238818
 20
20.4817160938
 30
0.0
 11
17.7718551608
 21
20.9561232476
 31
0.0
 70
   164
  1
<>
 71
     1
 42
-1.0
  3
SLDDIMSTYLE3
100
AcDbRadialDimension
 15
19.0463067705
 25
23.1986038644
 35
0.0
 40
0.0
  0
DIMENSION
  5
180
330
1F
100
AcDbEntity
  8
DIMS
100
AcDbDimension
  2
_D_8
 10
25.2572388189
 20
20.4817160939
 30
0.0
 11
22.1721556551
 21
26.4153660473
 31
0.0
 70
   164
  1
<>
 71
     1
 42
-1.0
  3
SLDDIMSTYLE3
100
AcDbRadialDimension
 15
24.0676955807
 25
24.0380466303
 35
0.0
 40
0.0
  0
DIMENSION
  5
193
330
1F
100
AcDbEntity
  8
DIMS
100
AcDbDimension
  2
_D_9
 10
21.4151904589
 20
22.8245059692
 30
0.0
 11
20.0884759467
 21
24.7828163264
 31
0.0
 70
   164
  1
<>
 71
     1
 42
-1.0
  3
SLDDIMSTYLE1
100
AcDbRadialDimension
 15
21.5573429754
 25
22.0881007396
 35
0.0
 40
0.0
  0
DIMENSION
  5
1A6
330
1F
100
AcDbEntity
  8
DIMS
100
AcDbDimension
  2
_D_10
 10
3.104181137
 20
4.9494113165
 30
0.0
 11
3.104181137
 21
13.5478543682
 31
0.0
 70
   160
  1
<>
 71
     2
 42
-1.0
  3
SLDDIMSTYLE0
100
AcDbAlignedDimension
 13
17.502238818
 23
24.2317160938
 33
0.0
 14
8.252238819
 24
4.9494113165
 34
0.0
 50
90.0
100
AcDbRotatedDimension
  0
DIMENSION
  5
1BC
330
1F
100
AcDbEntity
  8
DIMS
100
AcDbDimension
  2
_D_11
 10
4.5440189583
 20
5.5744113165
 30
0.0
 11
4.5440189583
 21
18.0491940422
 31
0.0
 70
   160
  1
<>
 71
     2
 42
-1.0
  3
SLDDIMSTYLE0
100
AcDbAlignedDimension
 13
17.502238818
 23
23.6067160938
 33
0.0
 14
8.252238819
 24
5.5744113165
 34
0.0
 50
90.0
100
AcDbRotatedDimension
  0
INSERT
  5
1D7
330
1F
100
AcDbEntity
  8
NOTES
100
AcDbBlockReference
  2
SW_NOTE_0
 10
15.9948403121
 20
16.7008669805
 30
0.0
  0
INSERT
  5
1E9
330
1F
100
AcDbEntity
  8
NOTES
100
AcDbBlockReference
  2
SW_NOTE_1
 10
18.4005520784
 20
15.2784099038
 30
0.0
  0
INSERT
  5
1F1
102
{ACAD_REACTORS
330
1F3
330
1F4
102
}
330
1F
100
AcDbEntity
  8
NOTES
100
AcDbBlockReference
  2
SW_NOTE_2
 10
12.4829751011
 20
18.4417737257
 30
0.0
  0
LEADER
  5
1F3
330
1F
100
AcDbEntity
  8
NOTES
100
AcDbLeader
  3
SLDDIMSTYLE4
 73
     2
 76
     3
 10
7.4190235263
 20
14.5884521759
 30
0.0
 10
12.2329751011
 20
18.4417737257
 30
0.0
 10
12.4829751011
 20
18.4417737257
 30
0.0
340
1F1
  0
LEADER
  5
1F4
330
1F
100
AcDbEntity
  8
NOTES
100
AcDbLeader
  3
SLDDIMSTYLE4
 73
     2
 76
     3
 10
21.4151904589
 20
20.8096141283
 30
0.0
 10
14.5308380282
 20
18.4417737257
 30
0.0
 10
14.2808380282
 20
18.4417737257
 30
0.0
340
1F1
212
1.797862927162555
222
0.0
232
0.0
  0
INSERT
  5
1FA
102
{ACAD_REACTORS
330
1FB
102
}
330
1F
100
AcDbEntity
  8
BLOCKS
100
AcDbBlockReference
  2
SW_NOTE_3
 10
28.6959991488
 20
8.0112229926
 30
0.0
  0
LEADER
  5
1FB
330
1F
100
AcDbEntity
  8
BLOCKS
100
AcDbLeader
  3
SLDDIMSTYLE4
 73
     2
 76
     3
 10
30.9247019984
 20
4.9494113165
 30
0.0
 10
28.9459991488
 20
8.0112229926
 30
0.0
 10
28.6959991488
 20
8.0112229926
 30
0.0
340
1FA
  0
INSERT
  5
201
102
{ACAD_REACTORS
330
202
102
}
330
1F
100
AcDbEntity
  8
BLOCKS
100
AcDbBlockReference
  2
SW_NOTE_4
 10
14.4262777075
 20
7.5043962321
 30
0.0
  0
LEADER
  5
202
330
1F
100
AcDbEntity
  8
BLOCKS
100
AcDbLeader
  3
SLDDIMSTYLE4
 73
     2
 76
     3
 10
12.6951408989
 20
5.5744113165
 30
0.0
 10
14.1762777075
 20
7.5043962321
 30
0.0
 10
14.4262777075
 20
7.5043962321
 30
0.0
340
201
  0
ENDSEC
  0
SECTION
  2
OBJECTS
  0
DICTIONARY
  5
C
330
0
100
AcDbDictionary
281
     1
  3
ACAD_GROUP
350
D
  3
ACAD_LAYOUT
350
1A
  3
ACAD_MLINESTYLE
350
17
  3
ACAD_PLOTSETTINGS
350
19
  3
ACAD_PLOTSTYLENAME
350
E
  0
DICTIONARY
  5
D
102
{ACAD_REACTORS
330
C
102
}
330
C
100
AcDbDictionary
281
     1
  0
DICTIONARY
  5
1A
102
{ACAD_REACTORS
330
C
102
}
330
C
100
AcDbDictionary
281
     1
  3
Layout1
350
1E
  3
Layout2
350
26
  3
Model
350
22
  0
DICTIONARY
  5
17
102
{ACAD_REACTORS
330
C
102
}
330
C
100
AcDbDictionary
281
     1
  3
Standard
350
18
  0
DICTIONARY
  5
19
102
{ACAD_REACTORS
330
C
102
}
330
C
100
AcDbDictionary
281
     1
  0
ACDBDICTIONARYWDFLT
  5
E
102
{ACAD_REACTORS
330
C
102
}
330
C
100
AcDbDictionary
281
     1
  3
Normal
350
F
100
AcDbDictionaryWithDefault
340
F
  0
LAYOUT
  5
1E
102
{ACAD_REACTORS
330
1A
102
}
330
1A
100
AcDbPlotSettings
  1

  2
none_device
  4

  6

 40
0.0
 41
0.0
 42
0.0
 43
0.0
 44
0.0
 45
0.0
 46
0.0
 47
0.0
 48
0.0
 49
0.0
140
0.0
141
0.0
142
1.0
143
1.0
 70
   688
 72
     0
 73
     0
 74
     5
  7

 75
    16
147
1.0
148
0.0
149
0.0
100
AcDbLayout
  1
Layout1
 70
     1
 71
     1
 10
0.0
 20
0.0
 11
12.0
 21
9.0
 12
0.0
 22
0.0
 32
0.0
 14
1.0000000000E+20
 24
1.0000000000E+20
 34
1.0000000000E+20
 15
-1.0000000000E+20
 25
-1.0000000000E+20
 35
-1.0000000000E+20
146
0.0
 13
0.0
 23
0.0
 33
0.0
 16
1.0
 26
0.0
 36
0.0
 17
0.0
 27
1.0
 37
0.0
 76
     0
330
1B
  0
LAYOUT
  5
26
102
{ACAD_REACTORS
330
1A
102
}
330
1A
100
AcDbPlotSettings
  1

  2
none_device
  4

  6

 40
0.0
 41
0.0
 42
0.0
 43
0.0
 44
0.0
 45
0.0
 46
0.0
 47
0.0
 48
0.0
 49
0.0
140
0.0
141
0.0
142
1.0
143
1.0
 70
   688
 72
     0
 73
     0
 74
     5
  7

 75
    16
147
1.0
148
0.0
149
0.0
100
AcDbLayout
  1
Layout2
 70
     1
 71
     2
 10
0.0
 20
0.0
 11
0.0
 21
0.0
 12
0.0
 22
0.0
 32
0.0
 14
0.0
 24
0.0
 34
0.0
 15
0.0
 25
0.0
 35
0.0
146
0.0
 13
0.0
 23
0.0
 33
0.0
 16
1.0
 26
0.0
 36
0.0
 17
0.0
 27
1.0
 37
0.0
 76
     0
330
23
  0
LAYOUT
  5
22
102
{ACAD_REACTORS
330
1A
102
}
330
1A
100
AcDbPlotSettings
  1

  2
none_device
  4

  6

 40
0.0
 41
0.0
 42
0.0
 43
0.0
 44
0.0
 45
0.0
 46
0.0
 47
0.0
 48
0.0
 49
0.0
140
0.0
141
0.0
142
1.0
143
1.0
 70
  1712
 72
     0
 73
     0
 74
     0
  7

 75
     0
147
1.0
148
0.0
149
0.0
100
AcDbLayout
  1
Model
 70
     1
 71
     0
 10
0.0
 20
0.0
 11
40.0
 21
28.0
 12
0.0
 22
0.0
 32
0.0
 14
0.0
 24
0.0
 34
0.0
 15
40.0
 25
28.0
 35
0.0
146
0.0
 13
0.0
 23
0.0
 33
0.0
 16
1.0
 26
0.0
 36
0.0
 17
0.0
 27
1.0
 37
0.0
 76
     0
330
1F
331
29
  0
MLINESTYLE
  5
18
102
{ACAD_REACTORS
330
17
102
}
330
17
100
AcDbMlineStyle
  2
Standard
 70
     0
  3

 62
   256
 51
90.0
 52
90.0
 71
     2
 49
0.5
 62
   256
  6
BYLAYER
 49
-0.5
 62
   256
  6
BYLAYER
  0
ACDBPLACEHOLDER
  5
F
102
{ACAD_REACTORS
330
E
102
}
330
E
  0
ENDSEC
  0
EOF
