  0
SECTION
  2
HEADER
  9
$ACADVER
  1
AC1015
  9
$ACADMAINTVER
 70
     6
  9
$DWGCODEPAGE
  3
ANSI_1252
  9
$INSBASE
 10
0.0
 20
0.0
 30
0.0
  9
$EXTMIN
 10
0.0
 20
0.0
 30
0.0
  9
$EXTMAX
 10
36.0
 20
22.0
 30
0.0
  9
$LIMMIN
 10
0.0
 20
0.0
  9
$LIMMAX
 10
36.0
 20
22.0
  9
$ORTHOMODE
 70
     0
  9
$REGENMODE
 70
     1
  9
$FILLMODE
 70
     1
  9
$QTEXTMODE
 70
     0
  9
$MIRRTEXT
 70
     1
  9
$LTSCALE
 40
1.0
  9
$ATTMODE
 70
     1
  9
$TEXTSIZE
 40
0.1944444444
  9
$TRACEWID
 40
0.05
  9
$TEXTSTYLE
  7
Standard
  9
$CLAYER
  8
0
  9
$CELTYPE
  6
ByLayer
  9
$CECOLOR
 62
   256
  9
$CELTSCALE
 40
1.0
  9
$DISPSILH
 70
     0
  9
$DIMSCALE
 40
1.0
  9
$DIMASZ
 40
0.2022298177
  9
$DIMEXO
 40
0.05
  9
$DIMDLI
 40
0.38
  9
$DIMRND
 40
0.0
  9
$DIMDLE
 40
0.0
  9
$DIMEXE
 40
0.125
  9
$DIMTP
 40
0.0
  9
$DIMTM
 40
0.0
  9
$DIMTXT
 40
0.4166666667
  9
$DIMCEN
 40
0.09
  9
$DIMTSZ
 40
0.0
  9
$DIMTOL
 70
     0
  9
$DIMLIM
 70
     0
  9
$DIMTIH
 70
     1
  9
$DIMTOH
 70
     1
  9
$DIMSE1
 70
     0
  9
$DIMSE2
 70
     0
  9
$DIMTAD
 70
     0
  9
$DIMZIN
 70
     0
  9
$DIMBLK
  1

  9
$DIMASO
 70
     1
  9
$DIMSHO
 70
     1
  9
$DIMPOST
  1

  9
$DIMAPOST
  1

  9
$DIMALT
 70
     0
  9
$DIMALTD
 70
     2
  9
$DIMALTF
 40
25.4
  9
$DIMLFAC
 40
1.0
  9
$DIMTOFL
 70
     0
  9
$DIMTVP
 40
0.0
  9
$DIMTIX
 70
     0
  9
$DIMSOXD
 70
     0
  9
$DIMSAH
 70
     0
  9
$DIMBLK1
  1

  9
$DIMBLK2
  1

  9
$DIMSTYLE
  2
Standard
  9
$DIMCLRD
 70
     0
  9
$DIMCLRE
 70
     0
  9
$DIMCLRT
 70
     0
  9
$DIMTFAC
 40
1.0
  9
$DIMGAP
 40
0.06
  9
$DIMJUST
 70
     0
  9
$DIMSD1
 70
     0
  9
$DIMSD2
 70
     0
  9
$DIMTOLJ
 70
     1
  9
$DIMTZIN
 70
     0
  9
$DIMALTZ
 70
     0
  9
$DIMALTTZ
 70
     0
  9
$DIMUPT
 70
     0
  9
$DIMDEC
 70
     3
  9
$DIMTDEC
 70
     3
  9
$DIMALTU
 70
     2
  9
$DIMALTTD
 70
     2
  9
$DIMTXSTY
  7
Standard
  9
$DIMAUNIT
 70
     0
  9
$DIMADEC
 70
     1
  9
$DIMALTRND
 40
0.0
  9
$DIMAZIN
 70
     0
  9
$DIMDSEP
 70
    46
  9
$DIMATFIT
 70
     3
  9
$DIMFRAC
 70
     0
  9
$DIMLDRBLK
  1

  9
$DIMLUNIT
 70
     2
  9
$DIMLWD
 70
    -2
  9
$DIMLWE
 70
    -2
  9
$DIMTMOVE
 70
     0
  9
$LUNITS
 70
     2
  9
$LUPREC
 70
     3
  9
$SKETCHINC
 40
0.1
  9
$FILLETRAD
 40
0.5
  9
$AUNITS
 70
     0
  9
$AUPREC
 70
     1
  9
$MENU
  1
.
  9
$ELEVATION
 40
0.0
  9
$PELEVATION
 40
0.0
  9
$THICKNESS
 40
0.0
  9
$LIMCHECK
 70
     0
  9
$CHAMFERA
 40
0.5
  9
$CHAMFERB
 40
0.5
  9
$CHAMFERC
 40
1.0
  9
$CHAMFERD
 40
0.0
  9
$SKPOLY
 70
     0
  9
$TDCREATE
 40
2457343.39877669
  9
$TDUCREATE
 40
2457343.64877669
  9
$TDUPDATE
 40
2457343.398785382
  9
$TDUUPDATE
 40
2457343.648785382
  9
$TDINDWG
 40
0.0000000116
  9
$TDUSRTIMER
 40
0.0000000116
  9
$USRTIMER
 70
     1
  9
$ANGBASE
 50
0.0
  9
$ANGDIR
 70
     0
  9
$PDMODE
 70
     0
  9
$PDSIZE
 40
-1.0
  9
$PLINEWID
 40
0.0
  9
$SPLFRAME
 70
     0
  9
$SPLINETYPE
 70
     6
  9
$SPLINESEGS
 70
     8
  9
$HANDSEED
  5
25B
  9
$SURFTAB1
 70
     6
  9
$SURFTAB2
 70
     6
  9
$SURFTYPE
 70
     6
  9
$SURFU
 70
     6
  9
$SURFV
 70
     6
  9
$UCSBASE
  2

  9
$UCSNAME
  2

  9
$UCSORG
 10
0.0
 20
0.0
 30
0.0
  9
$UCSXDIR
 10
1.0
 20
0.0
 30
0.0
  9
$UCSYDIR
 10
0.0
 20
1.0
 30
0.0
  9
$UCSORTHOREF
  2

  9
$UCSORTHOVIEW
 70
     0
  9
$UCSORGTOP
 10
0.0
 20
0.0
 30
0.0
  9
$UCSORGBOTTOM
 10
0.0
 20
0.0
 30
0.0
  9
$UCSORGLEFT
 10
0.0
 20
0.0
 30
0.0
  9
$UCSORGRIGHT
 10
0.0
 20
0.0
 30
0.0
  9
$UCSORGFRONT
 10
0.0
 20
0.0
 30
0.0
  9
$UCSORGBACK
 10
0.0
 20
0.0
 30
0.0
  9
$PUCSBASE
  2

  9
$PUCSNAME
  2

  9
$PUCSORG
 10
0.0
 20
0.0
 30
0.0
  9
$PUCSXDIR
 10
1.0
 20
0.0
 30
0.0
  9
$PUCSYDIR
 10
0.0
 20
1.0
 30
0.0
  9
$PUCSORTHOREF
  2

  9
$PUCSORTHOVIEW
 70
     0
  9
$PUCSORGTOP
 10
0.0
 20
0.0
 30
0.0
  9
$PUCSORGBOTTOM
 10
0.0
 20
0.0
 30
0.0
  9
$PUCSORGLEFT
 10
0.0
 20
0.0
 30
0.0
  9
$PUCSORGRIGHT
 10
0.0
 20
0.0
 30
0.0
  9
$PUCSORGFRONT
 10
0.0
 20
0.0
 30
0.0
  9
$PUCSORGBACK
 10
0.0
 20
0.0
 30
0.0
  9
$USERI1
 70
     0
  9
$USERI2
 70
     0
  9
$USERI3
 70
     0
  9
$USERI4
 70
     0
  9
$USERI5
 70
     0
  9
$USERR1
 40
0.0
  9
$USERR2
 40
0.0
  9
$USERR3
 40
0.0
  9
$USERR4
 40
0.0
  9
$USERR5
 40
0.0
  9
$WORLDVIEW
 70
     1
  9
$SHADEDGE
 70
     3
  9
$SHADEDIF
 70
    70
  9
$TILEMODE
 70
     1
  9
$MAXACTVP
 70
    64
  9
$PINSBASE
 10
0.0
 20
0.0
 30
0.0
  9
$PLIMCHECK
 70
     0
  9
$PEXTMIN
 10
1.0000000000E+20
 20
1.0000000000E+20
 30
1.0000000000E+20
  9
$PEXTMAX
 10
-1.0000000000E+20
 20
-1.0000000000E+20
 30
-1.0000000000E+20
  9
$PLIMMIN
 10
0.0
 20
0.0
  9
$PLIMMAX
 10
12.0
 20
9.0
  9
$UNITMODE
 70
     0
  9
$VISRETAIN
 70
     1
  9
$PLINEGEN
 70
     0
  9
$PSLTSCALE
 70
     1
  9
$TREEDEPTH
 70
  3020
  9
$CMLSTYLE
  2
Standard
  9
$CMLJUST
 70
     0
  9
$CMLSCALE
 40
1.0
  9
$PROXYGRAPHICS
 70
     1
  9
$MEASUREMENT
 70
     0
  9
$CELWEIGHT
370
    -1
  9
$ENDCAPS
280
     0
  9
$JOINSTYLE
280
     0
  9
$LWDISPLAY
290
     1
  9
$INSUNITS
 70
     1
  9
$HYPERLINKBASE
  1

  9
$STYLESHEET
  1

  9
$XEDIT
290
     1
  9
$CEPSNTYPE
380
     0
  9
$PSTYLEMODE
290
     1
  9
$FINGERPRINTGUID
  2
{CB433E4E-9A4A-49AF-9DC9-C097E8EF1368}
  9
$VERSIONGUID
  2
{FAEB1C32-E019-11D5-929B-00C0DF256EC4}
  9
$EXTNAMES
290
     1
  9
$PSVPSCALE
 40
0.0
  9
$OLESTARTUP
290
     0
  0
ENDSEC
  0
SECTION
  2
CLASSES
  0
CLASS
  1
ACDBDICTIONARYWDFLT
  2
AcDbDictionaryWithDefault
  3
ObjectDBX Classes
 90
        0
280
     0
281
     0
  0
CLASS
  1
VISUALSTYLE
  2
AcDbVisualStyle
  3
ObjectDBX Classes
 90
     4095
280
     0
281
     0
  0
CLASS
  1
MATERIAL
  2
AcDbMaterial
  3
ObjectDBX Classes
 90
     1153
280
     0
281
     0
  0
CLASS
  1
LARGE_RADIAL_DIMENSION
  2
AcDbRadialDimensionLarge
  3
ObjectDBX Classes
 90
     1025
280
     0
281
     1
  0
CLASS
  1
ACDBPLACEHOLDER
  2
AcDbPlaceHolder
  3
ObjectDBX Classes
 90
        0
280
     0
281
     0
  0
CLASS
  1
LAYOUT
  2
AcDbLayout
  3
ObjectDBX Classes
 90
        0
280
     0
281
     0
  0
ENDSEC
  0
SECTION
  2
TABLES
  0
TABLE
  2
VPORT
  5
8
330
0
100
AcDbSymbolTable
 70
     1
  0
VPORT
  5
29
330
8
100
AcDbSymbolTableRecord
100
AcDbViewportTableRecord
  2
*Active
 70
     0
 10
0.0
 20
0.0
 11
1.0
 21
1.0
 12
18.0
 22
11.0
 13
0.0
 23
0.0
 14
0.5
 24
0.5
 15
0.5
 25
0.5
 16
0.0
 26
0.0
 36
1.0
 17
0.0
 27
0.0
 37
0.0
 40
22.0
 41
1.6363636364
 42
50.0
 43
0.0
 44
0.0
 50
0.0
 51
0.0
 71
     0
 72
  2000
 73
     1
 74
     3
 75
     0
 76
     0
 77
     0
 78
     0
281
     0
 65
     1
110
0.0
120
0.0
130
0.0
111
1.0
121
0.0
131
0.0
112
0.0
122
1.0
132
0.0
 79
     0
146
0.0
  0
ENDTAB
  0
TABLE
  2
LTYPE
  5
5
330
0
100
AcDbSymbolTable
 70
     6
  0
LTYPE
  5
14
330
5
100
AcDbSymbolTableRecord
100
AcDbLinetypeTableRecord
  2
ByBlock
 70
     0
  3

 72
    65
 73
     0
 40
0.0
  0
LTYPE
  5
15
330
5
100
AcDbSymbolTableRecord
100
AcDbLinetypeTableRecord
  2
ByLayer
 70
     0
  3

 72
    65
 73
     0
 40
0.0
  0
LTYPE
  5
16
330
5
100
AcDbSymbolTableRecord
100
AcDbLinetypeTableRecord
  2
Continuous
 70
     0
  3
Solid line
 72
    65
 73
     0
 40
0.0
  0
LTYPE
  5
3F
330
5
100
AcDbSymbolTableRecord
100
AcDbLinetypeTableRecord
  2
HIDDEN
 70
     0
  3
Hidden __ __ __ __ __ __ __ __ __ __ __ __ __ __
 72
    65
 73
     2
 40
0.075
 49
0.05
 74
     0
 49
-0.025
 74
     0
  0
LTYPE
  5
40
330
5
100
AcDbSymbolTableRecord
100
AcDbLinetypeTableRecord
  2
PHANTOM
 70
     0
  3
Phantom ______  __  __  ______  __  __  ______
 72
    65
 73
     6
 40
0.5
 49
0.25
 74
     0
 49
-0.05
 74
     0
 49
0.05
 74
     0
 49
-0.05
 74
     0
 49
0.05
 74
     0
 49
-0.05
 74
     0
  0
LTYPE
  5
41
330
5
100
AcDbSymbolTableRecord
100
AcDbLinetypeTableRecord
  2
CENTER
 70
     0
  3
Center ____ _ ____ _ ____ _ ____ _ ____ _ ____
 72
    65
 73
     4
 40
0.4
 49
0.25
 74
     0
 49
-0.05
 74
     0
 49
0.05
 74
     0
 49
-0.05
 74
     0
  0
LTYPE
  5
42
330
5
100
AcDbSymbolTableRecord
100
AcDbLinetypeTableRecord
  2
CENTERX2
 70
     0
  3
Center (2x) ________  __  ________  __  _____
 72
    65
 73
     4
 40
0.8
 49
0.5
 74
     0
 49
-0.1
 74
     0
 49
0.1
 74
     0
 49
-0.1
 74
     0
  0
LTYPE
  5
43
330
5
100
AcDbSymbolTableRecord
100
AcDbLinetypeTableRecord
  2
DOT2
 70
     0
  3
Dot (.5x) ........................................
 72
    65
 73
     2
 40
0.025
 49
0.0
 74
     0
 49
-0.025
 74
     0
  0
ENDTAB
  0
TABLE
  2
LAYER
  5
2
330
0
100
AcDbSymbolTable
 70
    10
  0
LAYER
  5
10
330
2
100
AcDbSymbolTableRecord
100
AcDbLayerTableRecord
  2
0
 70
     0
 62
     7
  6
Continuous
370
    -3
390
F
  0
LAYER
  5
44
330
2
100
AcDbSymbolTableRecord
100
AcDbLayerTableRecord
  2
SLD-0
 70
     0
 62
   179
  6
Continuous
370
    -3
390
F
  0
LAYER
  5
45
330
2
100
AcDbSymbolTableRecord
100
AcDbLayerTableRecord
  2
OBJECTS
 70
     0
 62
     5
  6
Continuous
370
    -3
390
F
  0
LAYER
  5
46
330
2
100
AcDbSymbolTableRecord
100
AcDbLayerTableRecord
  2
DIMS
 70
     0
 62
     1
  6
Continuous
370
    -3
390
F
  0
LAYER
  5
47
330
2
100
AcDbSymbolTableRecord
100
AcDbLayerTableRecord
  2
NOTES
 70
     0
 62
     7
  6
Continuous
370
    -3
390
F
  0
LAYER
  5
48
330
2
100
AcDbSymbolTableRecord
100
AcDbLayerTableRecord
  2
IMAGES
 70
     0
 62
     7
  6
Continuous
370
    -3
390
F
  0
LAYER
  5
49
330
2
100
AcDbSymbolTableRecord
100
AcDbLayerTableRecord
  2
CENTERLINES
 70
     0
 62
     7
  6
HIDDEN
370
    -3
390
F
  0
LAYER
  5
4A
330
2
100
AcDbSymbolTableRecord
100
AcDbLayerTableRecord
  2
BLOCKS
 70
     0
 62
    16
  6
Continuous
370
    -3
390
F
  0
LAYER
  5
4B
330
2
100
AcDbSymbolTableRecord
100
AcDbLayerTableRecord
  2
1
 70
     0
 62
   179
  6
Continuous
370
    -3
390
F
  0
LAYER
  5
4C
330
2
100
AcDbSymbolTableRecord
100
AcDbLayerTableRecord
  2
2
 70
     0
 62
   179
  6
Continuous
370
    -3
390
F
  0
ENDTAB
  0
TABLE
  2
STYLE
  5
3
330
0
100
AcDbSymbolTable
 70
     2
  0
STYLE
  5
11
330
3
100
AcDbSymbolTableRecord
100
AcDbTextStyleTableRecord
  2
Standard
 70
     0
 40
0.0
 41
1.0
 50
0.0
 71
     0
 42
0.1944444444
  3
txt
  4

  0
STYLE
  5
8F
330
3
100
AcDbSymbolTableRecord
100
AcDbTextStyleTableRecord
  2
SLDTEXTSTYLE0
 70
     0
 40
0.0
 41
0.605
 50
0.0
 71
     0
 42
0.2
  3
TXT
  4

  0
ENDTAB
  0
TABLE
  2
VIEW
  5
6
330
0
100
AcDbSymbolTable
 70
     0
  0
ENDTAB
  0
TABLE
  2
UCS
  5
7
330
0
100
AcDbSymbolTable
 70
     0
  0
ENDTAB
  0
TABLE
  2
APPID
  5
9
330
0
100
AcDbSymbolTable
 70
     1
  0
APPID
  5
12
330
9
100
AcDbSymbolTableRecord
100
AcDbRegAppTableRecord
  2
ACAD
 70
     0
  0
ENDTAB
  0
TABLE
  2
DIMSTYLE
  5
A
330
0
100
AcDbSymbolTable
 70
     5
100
AcDbDimStyleTable
  0
DIMSTYLE
105
27
330
A
100
AcDbSymbolTableRecord
100
AcDbDimStyleTableRecord
  2
Standard
 70
     0
178
     0
340
11
  0
DIMSTYLE
105
FE
102
{ACAD_REACTORS
330
FD
330
183
330
196
330
1F5
330
208
330
21B
102
}
330
A
100
AcDbSymbolTableRecord
100
AcDbDimStyleTableRecord
  2
SLDDIMSTYLE0
 70
     0
 41
0.2022298177
 44
0.0
 45
0.000000001
 78
    12
 79
     3
140
0.3033447266
141
0.0
147
0.0758361816
148
0.000000001
170
     1
171
     0
173
     1
178
     0
271
     3
272
     3
274
     0
276
     2
277
     5
284
    12
340
8F
  0
DIMSTYLE
105
112
102
{ACAD_REACTORS
330
111
330
128
330
1A9
330
1B9
330
1CD
330
1E1
102
}
330
A
100
AcDbSymbolTableRecord
100
AcDbDimStyleTableRecord
  2
SLDDIMSTYLE1
 70
     0
 41
0.2022298177
 44
0.0
 45
0.000000001
 78
    12
 79
     3
140
0.3033447266
147
0.0758361816
148
0.000000001
170
     1
171
     0
173
     1
178
     0
271
     3
272
     3
274
     0
276
     2
277
     5
284
    12
340
8F
  0
DIMSTYLE
105
13F
102
{ACAD_REACTORS
330
13E
330
155
330
16C
102
}
330
A
100
AcDbSymbolTableRecord
100
AcDbDimStyleTableRecord
  2
SLDDIMSTYLE2
 70
     0
 41
0.2022298177
 44
0.0
 45
0.000000001
 78
    12
 79
     3
140
0.3033447266
141
0.0
147
0.0758361816
148
0.000000001
170
     1
171
     0
173
     1
178
     0
271
     3
272
     3
274
     0
276
     2
277
     5
284
    12
340
8F
  0
DIMSTYLE
105
242
330
A
100
AcDbSymbolTableRecord
100
AcDbDimStyleTableRecord
  2
SLDDIMSTYLE3
 70
     0
 41
0.2022298177
 44
0.0
 45
0.000000001
140
0.0
146
0.2022298177
147
0.0
173
     1
178
     0
271
     0
272
     0
276
     2
277
     5
340
11
  0
ENDTAB
  0
TABLE
  2
BLOCK_RECORD
  5
1
330
0
100
AcDbSymbolTable
 70
    25
  0
BLOCK_RECORD
  5
1F
330
1
100
AcDbSymbolTableRecord
100
AcDbBlockTableRecord
  2
*Model_Space
340
22
  0
BLOCK_RECORD
  5
1B
330
1
100
AcDbSymbolTableRecord
100
AcDbBlockTableRecord
  2
*Paper_Space
340
1E
  0
BLOCK_RECORD
  5
23
330
1
100
AcDbSymbolTableRecord
100
AcDbBlockTableRecord
  2
*Paper_Space0
340
26
  0
BLOCK_RECORD
  5
4D
330
1
100
AcDbSymbolTableRecord
100
AcDbBlockTableRecord
  2
REVEAL- .500
340
0
102
{BLKREFS
331
FB
102
}
  0
BLOCK_RECORD
  5
7F
330
1
100
AcDbSymbolTableRecord
100
AcDbBlockTableRecord
  2
SW_BLOCK_DIMENSION_0
340
0
102
{BLKREFS
331
96
102
}
  0
BLOCK_RECORD
  5
97
330
1
100
AcDbSymbolTableRecord
100
AcDbBlockTableRecord
  2
OVERHANG - .125
340
0
102
{BLKREFS
331
FC
102
}
  0
BLOCK_RECORD
  5
C9
330
1
100
AcDbSymbolTableRecord
100
AcDbBlockTableRecord
  2
SW_BLOCK_DIMENSION_1
340
0
102
{BLKREFS
331
DE
102
}
  0
BLOCK_RECORD
  5
FF
330
1
100
AcDbSymbolTableRecord
100
AcDbBlockTableRecord
  2
_D
340
0
  0
BLOCK_RECORD
  5
113
330
1
100
AcDbSymbolTableRecord
100
AcDbBlockTableRecord
  2
_D_1
340
0
  0
BLOCK_RECORD
  5
129
330
1
100
AcDbSymbolTableRecord
100
AcDbBlockTableRecord
  2
_D_2
340
0
  0
BLOCK_RECORD
  5
140
330
1
100
AcDbSymbolTableRecord
100
AcDbBlockTableRecord
  2
_D_3
340
0
  0
BLOCK_RECORD
  5
156
330
1
100
AcDbSymbolTableRecord
100
AcDbBlockTableRecord
  2
_D_4
340
0
  0
BLOCK_RECORD
  5
16D
330
1
100
AcDbSymbolTableRecord
100
AcDbBlockTableRecord
  2
_D_5
340
0
  0
BLOCK_RECORD
  5
184
330
1
100
AcDbSymbolTableRecord
100
AcDbBlockTableRecord
  2
_D_6
340
0
  0
BLOCK_RECORD
  5
197
330
1
100
AcDbSymbolTableRecord
100
AcDbBlockTableRecord
  2
_D_7
340
0
  0
BLOCK_RECORD
  5
1AA
330
1
100
AcDbSymbolTableRecord
100
AcDbBlockTableRecord
  2
_D_8
340
0
  0
BLOCK_RECORD
  5
1BA
330
1
100
AcDbSymbolTableRecord
100
AcDbBlockTableRecord
  2
_D_9
340
0
  0
BLOCK_RECORD
  5
1CE
330
1
100
AcDbSymbolTableRecord
100
AcDbBlockTableRecord
  2
_D_10
340
0
  0
BLOCK_RECORD
  5
1E2
330
1
100
AcDbSymbolTableRecord
100
AcDbBlockTableRecord
  2
_D_11
340
0
  0
BLOCK_RECORD
  5
1F6
330
1
100
AcDbSymbolTableRecord
100
AcDbBlockTableRecord
  2
_D_12
340
0
  0
BLOCK_RECORD
  5
209
330
1
100
AcDbSymbolTableRecord
100
AcDbBlockTableRecord
  2
_D_13
340
0
  0
BLOCK_RECORD
  5
21C
330
1
100
AcDbSymbolTableRecord
100
AcDbBlockTableRecord
  2
_D_14
340
0
  0
BLOCK_RECORD
  5
22A
330
1
100
AcDbSymbolTableRecord
100
AcDbBlockTableRecord
  2
SW_NOTE_0
340
0
102
{BLKREFS
331
239
102
}
  0
BLOCK_RECORD
  5
23A
330
1
100
AcDbSymbolTableRecord
100
AcDbBlockTableRecord
  2
SW_NOTE_1
340
0
102
{BLKREFS
331
241
102
}
  0
BLOCK_RECORD
  5
245
330
1
100
AcDbSymbolTableRecord
100
AcDbBlockTableRecord
  2
SW_NOTE_2
340
0
102
{BLKREFS
331
24A
102
}
  0
BLOCK_RECORD
  5
24C
330
1
100
AcDbSymbolTableRecord
100
AcDbBlockTableRecord
  2
SW_NOTE_3
340
0
102
{BLKREFS
331
251
102
}
  0
BLOCK_RECORD
  5
254
330
1
100
AcDbSymbolTableRecord
100
AcDbBlockTableRecord
  2
SW_NOTE_4
340
0
102
{BLKREFS
331
25A
102
}
  0
ENDTAB
  0
ENDSEC
  0
SECTION
  2
BLOCKS
  0
BLOCK
  5
20
330
1F
100
AcDbEntity
  8
0
100
AcDbBlockBegin
  2
*Model_Space
 70
     0
 10
0.0
 20
0.0
 30
0.0
  3
*Model_Space
  1

  0
ENDBLK
  5
21
330
1F
100
AcDbEntity
  8
0
100
AcDbBlockEnd
  0
BLOCK
  5
1C
330
1B
100
AcDbEntity
 67
     1
  8
0
100
AcDbBlockBegin
  2
*Paper_Space
 70
     0
 10
0.0
 20
0.0
 30
0.0
  3
*Paper_Space
  1

  0
ENDBLK
  5
1D
330
1B
100
AcDbEntity
 67
     1
  8
0
100
AcDbBlockEnd
  0
BLOCK
  5
24
330
23
100
AcDbEntity
  8
0
100
AcDbBlockBegin
  2
*Paper_Space0
 70
     0
 10
0.0
 20
0.0
 30
0.0
  3
*Paper_Space0
  1

  0
ENDBLK
  5
25
330
23
100
AcDbEntity
  8
0
100
AcDbBlockEnd
  0
BLOCK
  5
4E
330
4D
100
AcDbEntity
  8
0
100
AcDbBlockBegin
  2
REVEAL- .500
 70
     0
 10
0.0
 20
0.0
 30
0.0
  3
REVEAL- .500
  1

  0
ARC
  5
50
330
4D
100
AcDbEntity
  8
BLOCKS
100
AcDbCircle
 10
20.1601934329
 20
28.8878838846
 30
0.0
 40
0.2338576391325233
100
AcDbArc
 50
0.0
 51
90.0
  0
ARC
  5
51
330
4D
100
AcDbEntity
  8
BLOCKS
100
AcDbCircle
 10
19.8280715192
 20
29.4726468145
 30
0.0
 40
0.0659795528056719
100
AcDbArc
 50
0.0
 51
90.0
  0
ARC
  5
52
330
4D
100
AcDbEntity
  8
BLOCKS
100
AcDbCircle
 10
19.0470381676
 20
28.990848696
 30
0.0
 40
0.0881257319589152
100
AcDbArc
 50
200.9822712638
 51
339.0177287362
  0
ARC
  5
53
330
4D
100
AcDbEntity
  8
BLOCKS
100
AcDbCircle
 10
20.1601934329
 20
28.8878838846
 30
0.0
 40
0.1878262552218324
100
AcDbArc
 50
0.0
 51
90.0
  0
LINE
  5
54
330
4D
100
AcDbEntity
  8
BLOCKS
100
AcDbLine
 10
19.8280715192
 20
29.5386263673
 30
0.0
 11
18.2509355515
 21
29.5386263673
 31
0.0
  0
LINE
  5
55
330
4D
100
AcDbEntity
  8
BLOCKS
100
AcDbLine
 10
18.2806192052
 20
29.1434426864
 30
0.0
 11
19.894051072
 21
29.1434426864
 31
0.0
  0
LINE
  5
56
330
4D
100
AcDbEntity
  8
BLOCKS
100
AcDbLine
 10
19.3470309437
 20
29.1217415238
 30
0.0
 11
20.1601934329
 21
29.1217415238
 31
0.0
  0
LINE
  5
57
330
4D
100
AcDbEntity
  8
BLOCKS
100
AcDbLine
 10
20.394051072
 20
28.8878838846
 30
0.0
 11
20.394051072
 21
28.4971795949
 31
0.0
  0
LINE
  5
58
330
4D
100
AcDbEntity
  8
BLOCKS
100
AcDbLine
 10
20.394051072
 20
28.4971795949
 30
0.0
 11
20.3480196881
 21
28.4971795949
 31
0.0
  0
LINE
  5
59
330
4D
100
AcDbEntity
  8
BLOCKS
100
AcDbLine
 10
20.3480196881
 20
28.4971795949
 30
0.0
 11
20.3480196881
 21
28.8878838846
 31
0.0
  0
LINE
  5
5A
330
4D
100
AcDbEntity
  8
BLOCKS
100
AcDbLine
 10
20.1601934329
 20
29.0757101398
 30
0.0
 11
19.3470309437
 21
29.0757101398
 31
0.0
  0
LINE
  5
5B
330
4D
100
AcDbEntity
  8
BLOCKS
100
AcDbLine
 10
19.3470309437
 20
29.0757101398
 30
0.0
 11
19.3470309437
 21
29.1217415238
 31
0.0
  0
LINE
  5
5C
330
4D
100
AcDbEntity
  8
BLOCKS
100
AcDbLine
 10
19.679261078
 20
29.0223488565
 30
0.0
 11
19.7319208682
 21
29.073015856
 31
0.0
  0
LINE
  5
5D
330
4D
100
AcDbEntity
  8
BLOCKS
100
AcDbLine
 10
19.7319208682
 20
29.073015856
 30
0.0
 11
19.7745573648
 21
29.0287024176
 31
0.0
  0
LINE
  5
5E
330
4D
100
AcDbEntity
  8
BLOCKS
100
AcDbLine
 10
19.7745573648
 20
29.0287024176
 30
0.0
 11
19.705650009
 21
28.9624027047
 31
0.0
  0
LINE
  5
5F
330
4D
100
AcDbEntity
  8
BLOCKS
100
AcDbLine
 10
18.4381035755
 20
29.0888229672
 30
0.0
 11
18.385550816
 21
29.1434426864
 31
0.0
  0
LINE
  5
60
330
4D
100
AcDbEntity
  8
BLOCKS
100
AcDbLine
 10
18.385550816
 20
29.1434426864
 30
0.0
 11
18.3431444562
 21
29.1026410993
 31
0.0
  0
LINE
  5
61
330
4D
100
AcDbEntity
  8
BLOCKS
100
AcDbLine
 10
18.3431444562
 20
29.1026410993
 30
0.0
 11
18.4052557657
 21
29.0380868815
 31
0.0
  0
LINE
  5
62
330
4D
100
AcDbEntity
  8
BLOCKS
100
AcDbLine
 10
18.4381035755
 20
29.0888229672
 30
0.0
 11
19.679261078
 21
29.0223488565
 31
0.0
  0
LINE
  5
63
330
4D
100
AcDbEntity
  8
BLOCKS
100
AcDbLine
 10
19.705650009
 20
28.9624027047
 30
0.0
 11
18.4052557657
 21
29.0380868815
 31
0.0
  0
LINE
  5
64
330
4D
100
AcDbEntity
  8
BLOCKS
100
AcDbLine
 10
19.1283677378
 20
29.0518536895
 30
0.0
 11
19.1283677378
 21
28.9960010797
 31
0.0
  0
LINE
  5
65
330
4D
100
AcDbEntity
  8
BLOCKS
100
AcDbLine
 10
18.9737480593
 20
29.0601348348
 30
0.0
 11
18.9737480593
 21
29.0050000915
 31
0.0
  0
LINE
  5
66
330
4D
100
AcDbEntity
  8
BLOCKS
100
AcDbLine
 10
18.964755941
 20
28.9592927168
 30
0.0
 11
19.1293203942
 21
28.9592927168
 31
0.0
  0
LINE
  5
67
330
4D
100
AcDbEntity
  8
BLOCKS
100
AcDbLine
 10
19.0095275609
 20
29.3495924534
 30
0.0
 11
19.0095275609
 21
28.9592927168
 31
0.0
  0
LINE
  5
68
330
4D
100
AcDbEntity
  8
BLOCKS
100
AcDbLine
 10
19.0864194327
 20
29.3495924534
 30
0.0
 11
19.0864194327
 21
28.9592927168
 31
0.0
  0
LINE
  5
69
330
4D
100
AcDbEntity
  8
BLOCKS
100
AcDbLine
 10
18.9467524826
 20
29.0033177842
 30
0.0
 11
19.1591684741
 21
28.9909549723
 31
0.0
  0
LINE
  5
6A
330
4D
100
AcDbEntity
  8
BLOCKS
100
AcDbLine
 10
19.0095275609
 20
29.3495924534
 30
0.0
 11
19.0474925407
 21
29.4047818344
 31
0.0
  0
LINE
  5
6B
330
4D
100
AcDbEntity
  8
BLOCKS
100
AcDbLine
 10
19.0474925407
 20
29.4047818344
 30
0.0
 11
19.0864194327
 21
29.3495924534
 31
0.0
  0
LINE
  5
6C
330
4D
100
AcDbEntity
  8
BLOCKS
100
AcDbLine
 10
19.1572986604
 20
28.9588281114
 30
0.0
 11
18.9448826689
 21
28.9711909233
 31
0.0
  0
LINE
  5
6D
330
4D
100
AcDbEntity
  8
BLOCKS
100
AcDbLine
 10
19.1591684741
 20
28.9909549723
 30
0.0
 11
19.1572986604
 21
28.9588281114
 31
0.0
  0
LINE
  5
6E
330
4D
100
AcDbEntity
  8
BLOCKS
100
AcDbLine
 10
18.9467524826
 20
29.0033177842
 30
0.0
 11
18.9448826689
 21
28.9711909233
 31
0.0
  0
LINE
  5
6F
330
4D
100
AcDbEntity
  8
BLOCKS
100
AcDbLine
 10
19.1142839592
 20
29.1434426864
 30
0.0
 11
19.1142839592
 21
29.4238049236
 31
0.0
  0
LINE
  5
70
330
4D
100
AcDbEntity
  8
BLOCKS
100
AcDbLine
 10
19.1142839592
 20
29.4238049236
 30
0.0
 11
18.9877469673
 21
29.4238049236
 31
0.0
  0
LINE
  5
71
330
4D
100
AcDbEntity
  8
BLOCKS
100
AcDbLine
 10
18.9877469673
 20
29.4238049236
 30
0.0
 11
18.9877469673
 21
29.1434426864
 31
0.0
  0
LINE
  5
72
330
4D
100
AcDbEntity
  8
BLOCKS
  6
Continuous
100
AcDbLine
 10
19.894051072
 20
29.1434426864
 30
0.0
 11
19.894051072
 21
29.4726468145
 31
0.0
  0
LINE
  5
73
330
4D
100
AcDbEntity
  8
BLOCKS
100
AcDbLine
 10
19.3020232313
 20
29.1434426864
 30
0.0
 11
19.3470309437
 21
29.0987258318
 31
0.0
  0
LINE
  5
74
330
4D
100
AcDbEntity
  8
BLOCKS
100
AcDbLine
 10
19.894051072
 20
29.1434426864
 30
0.0
 11
19.9068063572
 21
29.1217415238
 31
0.0
  0
SPLINE
  5
75
330
4D
100
AcDbEntity
  8
BLOCKS
100
AcDbSpline
210
0.0
220
0.0
230
1.0
 70
     8
 71
     3
 72
     9
 73
     5
 74
     0
 42
0.00000001
 43
0.00000001
 12
1.0
 22
0.0
 32
0.0
 13
1.0
 23
0.0
 33
0.0
 40
0.0
 40
0.0
 40
0.0
 40
0.0
 40
0.5928291688347104
 40
1.0
 40
1.0
 40
1.0
 40
1.0
 10
18.28061920517429
 20
29.14344268635683
 30
0.0
 10
18.23604355296101
 20
29.22927712752978
 30
0.0
 10
18.31552651528452
 20
29.34850064146643
 30
0.0
 10
18.29741369383499
 20
29.50274888669875
 30
0.0
 10
18.25093555152442
 20
29.53862636728042
 30
0.0
  0
HATCH
  5
76
330
4D
100
AcDbEntity
  8
BLOCKS
 62
    16
100
AcDbHatch
 10
0.0
 20
0.0
 30
0.0
210
0.0
220
0.0
230
1.0
  2
ANSI36
 70
     0
 71
     0
 91
        1
 92
        0
 93
       10
 72
     4
 94
        3
 73
     1
 74
     0
 95
        9
 96
        5
 40
0.0
 40
0.0
 40
0.0
 40
0.0
 40
0.4071708311652896
 40
1.0
 40
1.0
 40
1.0
 40
1.0
 10
18.25093555152442
 20
29.53862636728042
 42
1.0
 10
18.29741369383499
 20
29.50274888669875
 42
1.0
 10
18.31552651528452
 20
29.34850064146643
 42
1.0
 10
18.23604355296101
 20
29.22927712752978
 42
1.0
 10
18.28061920517429
 20
29.14344268635683
 42
1.0
 72
     1
 10
18.28061920517429
 20
29.14344268635683
 11
18.98774696730679
 21
29.14344268635683
 72
     1
 10
18.98774696730679
 20
29.14344268635683
 11
18.98774696730679
 21
29.42380492355081
 72
     1
 10
18.98774696730679
 20
29.42380492355081
 11
19.11428395924128
 21
29.42380492355081
 72
     1
 10
19.11428395924128
 20
29.42380492355081
 11
19.11428395924128
 21
29.14344268635683
 72
     1
 10
19.11428395924128
 20
29.14344268635683
 11
19.30202323130653
 21
29.14344268635683
 72
     1
 10
19.30202323130653
 20
29.14344268635683
 11
19.89405107202551
 21
29.14344268635683
 72
     1
 10
19.89405107202551
 20
29.14344268635683
 11
19.89405107202551
 21
29.47264681447475
 72
     2
 10
19.82807151921984
 20
29.47264681447475
 40
0.0659795528056717
 50
0.0
 51
90.0
 73
     1
 72
     1
 10
19.82807151921984
 20
29.53862636728042
 11
18.25093555152442
 21
29.53862636728042
 97
        0
 75
     0
 76
     1
 52
0.0
 41
0.5
 77
     0
 78
     1
 53
45.0
 43
0.0
 44
0.0
 45
0.0331456303681194
 46
0.1215339780164378
 79
     4
 49
0.15625
 49
-0.03125
 49
0.0
 49
-0.03125
 98
        1
 10
0.0
 20
0.0
  0
HATCH
  5
77
330
4D
100
AcDbEntity
  8
BLOCKS
 62
    16
100
AcDbHatch
 10
0.0
 20
0.0
 30
0.0
210
0.0
220
0.0
230
1.0
  2
ANSI32
 70
     0
 71
     0
 91
        1
 92
        0
 93
        5
 72
     1
 10
19.08641943273533
 20
29.34959245337754
 11
19.04749254074577
 21
29.40478183438993
 72
     1
 10
19.04749254074577
 20
29.40478183438993
 11
19.00952756093279
 21
29.34959245337754
 72
     1
 10
19.00952756093279
 20
29.34959245337754
 11
19.00952756093279
 21
29.14344268635683
 72
     1
 10
19.00952756093279
 20
29.14344268635683
 11
19.08641943273533
 21
29.14344268635683
 72
     1
 10
19.08641943273533
 20
29.14344268635683
 11
19.08641943273533
 21
29.34959245337754
 97
        0
 75
     0
 76
     1
 52
0.0
 41
0.1666666667
 77
     0
 78
     2
 53
45.0
 43
0.0
 44
0.0
 45
-0.0441941738241592
 46
0.0441941738241592
 79
     0
 53
45.0
 43
0.0294627825
 44
0.0
 45
-0.0441941738241592
 46
0.0441941738241592
 79
     0
 98
        1
 10
0.0
 20
0.0
  0
HATCH
  5
78
330
4D
100
AcDbEntity
  8
BLOCKS
 62
    16
100
AcDbHatch
 10
0.0
 20
0.0
 30
0.0
210
0.0
220
0.0
230
1.0
  2
ANSI32
 70
     0
 71
     0
 91
        1
 92
        0
 93
        4
 72
     1
 10
19.08641943273533
 20
29.05410036351303
 11
19.08641943273533
 21
29.14344268635683
 72
     1
 10
19.08641943273533
 20
29.14344268635683
 11
19.00952756093279
 21
29.14344268635683
 72
     1
 10
19.00952756093279
 20
29.14344268635683
 11
19.00952756093279
 21
29.05821855059726
 72
     1
 10
19.00952756093279
 20
29.05821855059726
 11
19.08641943273533
 21
29.05410036351303
 97
        0
 75
     0
 76
     1
 52
0.0
 41
0.1666666667
 77
     0
 78
     2
 53
45.0
 43
0.0
 44
0.0
 45
-0.0441941738241592
 46
0.0441941738241592
 79
     0
 53
45.0
 43
0.0294627825
 44
0.0
 45
-0.0441941738241592
 46
0.0441941738241592
 79
     0
 98
        1
 10
0.0
 20
0.0
  0
HATCH
  5
79
330
4D
100
AcDbEntity
  8
BLOCKS
 62
    16
100
AcDbHatch
 10
0.0
 20
0.0
 30
0.0
210
0.0
220
0.0
230
1.0
  2
ANSI32
 70
     0
 71
     0
 91
        1
 92
        0
 93
        4
 72
     1
 10
19.08641943273533
 20
28.99844251081363
 11
19.08641943273533
 21
29.05410036351303
 72
     1
 10
19.08641943273533
 20
29.05410036351303
 11
19.00952756093279
 21
29.05821855059726
 72
     1
 10
19.00952756093279
 20
29.05821855059726
 11
19.00952756093279
 21
29.00291769059305
 72
     1
 10
19.00952756093279
 20
29.00291769059305
 11
19.08641943273533
 21
28.99844251081363
 97
        0
 75
     0
 76
     1
 52
0.0
 41
0.1666666667
 77
     0
 78
     2
 53
45.0
 43
0.0
 44
0.0
 45
-0.0441941738241592
 46
0.0441941738241592
 79
     0
 53
45.0
 43
0.0294627825
 44
0.0
 45
-0.0441941738241592
 46
0.0441941738241592
 79
     0
 98
        1
 10
0.0
 20
0.0
  0
HATCH
  5
7A
330
4D
100
AcDbEntity
  8
BLOCKS
 62
    16
100
AcDbHatch
 10
0.0
 20
0.0
 30
0.0
210
0.0
220
0.0
230
1.0
  2
ANSI32
 70
     0
 71
     0
 91
        1
 92
        0
 93
        4
 72
     1
 10
19.00952756093279
 20
28.96742852935006
 11
19.08641943273534
 21
28.96295334957064
 72
     1
 10
19.08641943273534
 20
28.96295334957064
 11
19.08641943273534
 21
28.99518903540131
 72
     1
 10
19.08641943273534
 20
28.99518903540131
 11
19.0095275609328
 21
28.99966421518074
 72
     1
 10
19.0095275609328
 20
28.99966421518074
 11
19.00952756093279
 21
28.96742852935006
 97
        0
 75
     0
 76
     1
 52
0.0
 41
0.1666666667
 77
     0
 78
     2
 53
45.0
 43
0.0
 44
0.0
 45
-0.0441941738241592
 46
0.0441941738241592
 79
     0
 53
45.0
 43
0.0294627825
 44
0.0
 45
-0.0441941738241592
 46
0.0441941738241592
 79
     0
 98
        1
 10
0.0
 20
0.0
  0
HATCH
  5
7B
330
4D
100
AcDbEntity
  8
BLOCKS
 62
    16
100
AcDbHatch
 10
0.0
 20
0.0
 30
0.0
210
0.0
220
0.0
230
1.0
  2
ANSI32
 70
     0
 71
     0
 91
        1
 92
        0
 93
        4
 72
     1
 10
19.0095275609328
 20
28.99966421518074
 11
18.94675248259694
 21
29.00331778420741
 72
     1
 10
18.94675248259694
 20
29.00331778420741
 11
18.94488266885844
 21
28.97119092330762
 72
     1
 10
18.94488266885844
 20
28.97119092330762
 11
19.00952756093279
 21
28.96742852935006
 72
     1
 10
19.00952756093279
 20
28.96742852935006
 11
19.0095275609328
 21
28.99966421518074
 97
        0
 75
     0
 76
     1
 52
0.0
 41
0.1666666667
 77
     0
 78
     2
 53
45.0
 43
0.0
 44
0.0
 45
-0.0441941738241592
 46
0.0441941738241592
 79
     0
 53
45.0
 43
0.0294627825
 44
0.0
 45
-0.0441941738241592
 46
0.0441941738241592
 79
     0
 98
        1
 10
0.0
 20
0.0
  0
HATCH
  5
7C
330
4D
100
AcDbEntity
  8
BLOCKS
 62
    16
100
AcDbHatch
 10
0.0
 20
0.0
 30
0.0
210
0.0
220
0.0
230
1.0
  2
ANSI32
 70
     0
 71
     0
 91
        1
 92
        0
 93
        4
 72
     1
 10
19.15729866039344
 20
28.95882811137627
 11
19.15916847413194
 21
28.99095497227606
 72
     1
 10
19.15916847413194
 20
28.99095497227606
 11
19.08641943273534
 21
28.99518903540131
 72
     1
 10
19.08641943273534
 20
28.99518903540131
 11
19.08641943273534
 21
28.96295334957064
 72
     1
 10
19.08641943273534
 20
28.96295334957064
 11
19.15729866039344
 21
28.95882811137627
 97
        0
 75
     0
 76
     1
 52
0.0
 41
0.1666666667
 77
     0
 78
     2
 53
45.0
 43
0.0
 44
0.0
 45
-0.0441941738241592
 46
0.0441941738241592
 79
     0
 53
45.0
 43
0.0294627825
 44
0.0
 45
-0.0441941738241592
 46
0.0441941738241592
 79
     0
 98
        1
 10
0.0
 20
0.0
  0
HATCH
  5
7D
330
4D
100
AcDbEntity
  8
BLOCKS
 62
    16
100
AcDbHatch
 10
0.0
 20
0.0
 30
0.0
210
0.0
220
0.0
230
1.0
  2
ANSI32
 70
     0
 71
     0
 91
        1
 92
        0
 93
        4
 72
     1
 10
19.00952756093279
 20
28.95929271682988
 11
18.96475594104669
 21
28.95929271682988
 72
     2
 10
19.04703816761627
 20
28.99084869604216
 40
0.0881257319589163
 50
200.9822712637957
 51
339.0177287362059
 73
     1
 72
     1
 10
19.12932039418586
 20
28.95929271682988
 11
19.08641943273533
 21
28.95929271682988
 72
     1
 10
19.08641943273533
 20
28.95929271682988
 11
19.00952756093279
 21
28.95929271682988
 97
        0
 75
     0
 76
     1
 52
0.0
 41
0.1666666667
 77
     0
 78
     2
 53
45.0
 43
0.0
 44
0.0
 45
-0.0441941738241592
 46
0.0441941738241592
 79
     0
 53
45.0
 43
0.0294627825
 44
0.0
 45
-0.0441941738241592
 46
0.0441941738241592
 79
     0
 98
        1
 10
0.0
 20
0.0
  0
HATCH
  5
7E
330
4D
100
AcDbEntity
  8
BLOCKS
 62
    16
100
AcDbHatch
 10
0.0
 20
0.0
 30
0.0
210
0.0
220
0.0
230
1.0
  2
SOLID
 70
     1
 71
     0
 91
        1
 92
        0
 93
        5
 72
     1
 10
19.90680635715495
 20
29.12174152375217
 11
19.89405107202551
 21
29.14344268635683
 72
     1
 10
19.89405107202551
 20
29.14344268635683
 11
19.30202323130653
 21
29.14344268635683
 72
     1
 10
19.30202323130653
 20
29.14344268635683
 11
19.34703094371573
 21
29.09872583179682
 72
     1
 10
19.34703094371573
 20
29.09872583179682
 11
19.34703094371572
 21
29.12174152375217
 72
     1
 10
19.34703094371572
 20
29.12174152375217
 11
19.90680635715495
 21
29.12174152375217
 97
        0
 75
     0
 76
     1
 98
        1
 10
0.0
 20
0.0
  0
INSERT
  5
96
330
4D
100
AcDbEntity
  8
BLOCKS
100
AcDbBlockReference
  2
SW_BLOCK_DIMENSION_0
 10
19.8522205704
 20
29.6493704876
 30
0.0
  0
ENDBLK
  5
4F
330
4D
100
AcDbEntity
  8
0
100
AcDbBlockEnd
  0
BLOCK
  5
80
330
7F
100
AcDbEntity
  8
0
100
AcDbBlockBegin
  2
SW_BLOCK_DIMENSION_0
 70
     0
 10
0.0
 20
0.0
 30
0.0
  3
SW_BLOCK_DIMENSION_0
  1

  0
SOLID
  5
82
330
7F
100
AcDbEntity
  8
BLOCKS
 62
     0
100
AcDbTrace
 10
0.5418305016
 20
-0.0313006311
 30
0.0
 11
0.6429454105
 21
-0.0468567709
 31
0.0
 12
0.6429454105
 22
-0.0157444913
 32
0.0
 13
0.6429454105
 23
-0.0157444913
 33
0.0
  0
SOLID
  5
83
330
7F
100
AcDbEntity
  8
BLOCKS
 62
     0
100
AcDbTrace
 10
0.0418305016
 20
-0.0313006311
 30
0.0
 11
-0.0592844072
 21
-0.0157444913
 31
0.0
 12
-0.0592844072
 22
-0.0468567709
 32
0.0
 13
-0.0592844072
 23
-0.0468567709
 33
0.0
  0
LINE
  5
84
330
7F
100
AcDbEntity
  8
BLOCKS
 62
     0
100
AcDbLine
 10
0.0608603444
 20
0.0798201425
 30
0.0
 11
0.1675347288
 21
0.0798201425
 31
0.0
  0
LINE
  5
85
330
7F
100
AcDbEntity
  8
BLOCKS
 62
     0
100
AcDbLine
 10
0.079089508
 20
-0.0940224566
 30
0.0
 11
0.0559413594
 21
-0.0940224566
 31
0.0
  0
LINE
  5
86
330
7F
100
AcDbEntity
  8
BLOCKS
 62
     0
100
AcDbLine
 10
0.0559413594
 20
-0.0940224566
 30
0.0
 11
0.0559413594
 21
-0.249307956
 31
0.0
  0
LINE
  5
87
330
7F
100
AcDbEntity
  8
BLOCKS
 62
     0
100
AcDbLine
 10
0.0559413594
 20
-0.249307956
 30
0.0
 11
0.079089508
 21
-0.249307956
 31
0.0
  0
LINE
  5
88
330
7F
100
AcDbEntity
  8
BLOCKS
 62
     0
100
AcDbLine
 10
0.2912808701
 20
-0.0940224566
 30
0.0
 11
0.3144290187
 21
-0.0940224566
 31
0.0
  0
LINE
  5
89
330
7F
100
AcDbEntity
  8
BLOCKS
 62
     0
100
AcDbLine
 10
0.3144290187
 20
-0.0940224566
 30
0.0
 11
0.3144290187
 21
-0.249307956
 31
0.0
  0
LINE
  5
8A
330
7F
100
AcDbEntity
  8
BLOCKS
 62
     0
100
AcDbLine
 10
0.3144290187
 20
-0.249307956
 30
0.0
 11
0.2912808701
 21
-0.249307956
 31
0.0
  0
LINE
  5
8B
330
7F
100
AcDbEntity
  8
BLOCKS
 62
     0
100
AcDbLine
 10
0.5418305016
 20
-0.711486603
 30
0.0
 11
0.5418305016
 21
0.0936993689
 31
0.0
  0
LINE
  5
8C
330
7F
100
AcDbEntity
  8
BLOCKS
 62
     0
100
AcDbLine
 10
0.0418305016
 20
-0.1267236731
 30
0.0
 11
0.0418305016
 21
0.0936993689
 31
0.0
  0
LINE
  5
8D
330
7F
100
AcDbEntity
  8
BLOCKS
 62
     0
100
AcDbLine
 10
0.5418305016
 20
-0.0313006311
 30
0.0
 11
0.7362822494
 21
-0.0313006311
 31
0.0
  0
LINE
  5
8E
330
7F
100
AcDbEntity
  8
BLOCKS
 62
     0
100
AcDbLine
 10
0.0418305016
 20
-0.0313006311
 30
0.0
 11
-0.1526212462
 21
-0.0313006311
 31
0.0
  0
MTEXT
  5
90
330
7F
100
AcDbEntity
  8
BLOCKS
 62
     0
100
AcDbMText
 10
0.0390625
 20
0.1342778896
 30
0.0039370079
 40
0.1041666667
 41
0.0
 71
     1
 72
     1
  1

  7
SLDTEXTSTYLE0
 73
     1
 44
1.0
  0
MTEXT
  5
91
330
7F
100
AcDbEntity
  8
BLOCKS
 62
     0
100
AcDbMText
 10
0.0756172881
 20
0.2052438631
 30
0.0039370079
 40
0.1041666667
 41
0.0
 71
     1
 72
     1
  1
1
  7
SLDTEXTSTYLE0
 73
     1
 44
1.0
  0
MTEXT
  5
92
330
7F
100
AcDbEntity
  8
BLOCKS
 62
     0
100
AcDbMText
 10
0.0756172881
 20
0.0634035871
 30
0.0039370079
 40
0.1041666667
 41
0.0
 71
     1
 72
     1
  1
2
  7
SLDTEXTSTYLE0
 73
     1
 44
1.0
  0
MTEXT
  5
93
330
7F
100
AcDbEntity
  8
BLOCKS
 62
     0
100
AcDbMText
 10
0.1822916725
 20
0.1342778896
 30
0.0039370079
 40
0.1041666667
 41
0.0
 71
     1
 72
     1
  1
"
  7
SLDTEXTSTYLE0
 73
     1
 44
1.0
  0
MTEXT
  5
94
330
7F
100
AcDbEntity
  8
BLOCKS
 62
     0
100
AcDbMText
 10
0.1080246921
 20
-0.1150300596
 30
0.0039370079
 40
0.1041666667
 41
0.0
 71
     1
 72
     1
  1
13
  7
SLDTEXTSTYLE0
 73
     1
 44
1.0
  0
MTEXT
  5
95
330
7F
100
AcDbEntity
  8
BLOCKS
 62
     0
100
AcDbMText
 10
0.3708526205
 20
0.1342778896
 30
0.0039370079
 40
0.1041666667
 41
0.0
 71
     1
 72
     1
  1

  7
SLDTEXTSTYLE0
 73
     1
 44
1.0
  0
ENDBLK
  5
81
330
7F
100
AcDbEntity
  8
0
100
AcDbBlockEnd
  0
BLOCK
  5
98
330
97
100
AcDbEntity
  8
0
100
AcDbBlockBegin
  2
OVERHANG - .125
 70
     0
 10
0.0
 20
0.0
 30
0.0
  3
OVERHANG - .125
  1

  0
ARC
  5
9A
330
97
100
AcDbEntity
  8
0
  6
Continuous
 62
    16
370
     0
100
AcDbCircle
 10
21.0247390722
 20
26.9140495115
 30
0.0
 40
0.0659795528056719
100
AcDbArc
 50
0.0
 51
90.0
  0
ARC
  5
9B
330
97
100
AcDbEntity
  8
0
  6
Continuous
 62
    16
370
     0
100
AcDbCircle
 10
20.0403577083
 20
26.4212514943
 30
0.0
 40
0.0881257319589152
100
AcDbArc
 50
200.9822712638
 51
339.0177287362
  0
ARC
  5
9C
330
97
100
AcDbEntity
  8
0
  6
Continuous
 62
    16
370
     0
100
AcDbCircle
 10
20.731618625
 20
26.3139893982
 30
0.0
 40
0.1880000000000024
100
AcDbArc
 50
0.0
 51
90.0
  0
ARC
  5
9D
330
97
100
AcDbEntity
  8
0
  6
Continuous
 62
    16
370
     0
100
AcDbCircle
 10
20.731618625
 20
26.3139893982
 30
0.0
 40
0.2341000000000015
100
AcDbArc
 50
0.0
 51
90.0
  0
ARC
  5
9E
330
97
100
AcDbEntity
  8
BLOCKS
100
AcDbCircle
 10
21.3249668066
 20
26.3001927866
 30
0.0
 40
0.3686452378780193
100
AcDbArc
 50
129.4518716023
 51
170.6861521435
  0
LINE
  5
9F
330
97
100
AcDbEntity
  8
0
  6
Continuous
 62
    16
370
     0
100
AcDbLine
 10
19.4314231162
 20
26.5192257655
 30
0.0
 11
19.3788703567
 21
26.5738454846
 31
0.0
  0
LINE
  5
A0
330
97
100
AcDbEntity
  8
0
  6
Continuous
 62
    16
370
     0
100
AcDbLine
 10
20.0408120814
 20
26.8351846327
 30
0.0
 11
20.0797389734
 21
26.7799952517
 31
0.0
  0
LINE
  5
A1
330
97
100
AcDbEntity
  8
0
  6
Continuous
 62
    16
370
     0
100
AcDbLine
 10
19.3788703567
 20
26.5738454846
 30
0.0
 11
19.3364639969
 21
26.5330438976
 31
0.0
  0
LINE
  5
A2
330
97
100
AcDbEntity
  8
0
  6
Continuous
 62
    16
370
     0
100
AcDbLine
 10
20.6725806187
 20
26.4527516548
 30
0.0
 11
20.7252404088
 21
26.5034186543
 31
0.0
  0
LINE
  5
A3
330
97
100
AcDbEntity
  8
0
  6
Continuous
 62
    16
370
     0
100
AcDbLine
 10
20.0797389734
 20
26.7799952517
 30
0.0
 11
20.0797389734
 21
26.3896955151
 31
0.0
  0
LINE
  5
A4
330
97
100
AcDbEntity
  8
0
  6
Continuous
 62
    16
370
     0
100
AcDbLine
 10
19.9814774532
 20
26.8652076206
 30
0.0
 11
19.9814774532
 21
26.5848453834
 31
0.0
  0
LINE
  5
A5
330
97
100
AcDbEntity
  8
0
  6
Continuous
 62
    16
370
     0
100
AcDbLine
 10
20.7678769055
 20
26.4591052159
 30
0.0
 11
20.6989695496
 21
26.392805503
 31
0.0
  0
LINE
  5
A6
330
97
100
AcDbEntity
  8
0
  6
Continuous
 62
    16
370
     0
100
AcDbLine
 10
21.0247390722
 20
26.9800290643
 30
0.0
 11
19.2446660374
 21
26.9800290643
 31
0.0
  0
LINE
  5
A7
330
97
100
AcDbEntity
  8
0
  6
Continuous
 62
    16
370
     0
100
AcDbLine
 10
19.9670675999
 20
26.4905376331
 30
0.0
 11
19.9670675999
 21
26.4354028898
 31
0.0
  0
LINE
  5
A8
330
97
100
AcDbEntity
  8
0
  6
Continuous
 62
    16
370
     0
100
AcDbLine
 10
20.1524880148
 20
26.4213577706
 30
0.0
 11
20.1506182011
 21
26.3892309097
 31
0.0
  0
LINE
  5
A9
330
97
100
AcDbEntity
  8
0
  6
Continuous
 62
    16
370
     0
100
AcDbLine
 10
19.3364639969
 20
26.5330438976
 30
0.0
 11
19.3985753063
 21
26.4684896798
 31
0.0
  0
LINE
  5
AA
330
97
100
AcDbEntity
  8
0
  6
Continuous
 62
    16
370
     0
100
AcDbLine
 10
20.2906117643
 20
26.5019893982
 30
0.0
 11
20.2906117643
 21
26.5480893982
 31
0.0
  0
LINE
  5
AB
330
97
100
AcDbEntity
  8
0
  6
Continuous
 62
    16
370
     0
100
AcDbLine
 10
19.4314231162
 20
26.5192257655
 30
0.0
 11
20.6725806187
 21
26.4527516548
 31
0.0
  0
LINE
  5
AC
330
97
100
AcDbEntity
  8
0
  6
Continuous
 62
    16
370
     0
100
AcDbLine
 10
19.9400720233
 20
26.4337205825
 30
0.0
 11
20.1524880148
 21
26.4213577706
 31
0.0
  0
LINE
  5
AD
330
97
100
AcDbEntity
  8
0
  6
Continuous
 62
    16
370
     0
100
AcDbLine
 10
21.090718625
 20
26.5848453834
 30
0.0
 11
21.090718625
 21
26.9140495115
 31
0.0
  0
LINE
  5
AE
330
97
100
AcDbEntity
  8
0
  6
Continuous
 62
    16
370
     0
100
AcDbLine
 10
20.731618625
 20
26.5019893982
 30
0.0
 11
20.2906117643
 21
26.5019893982
 31
0.0
  0
LINE
  5
AF
330
97
100
AcDbEntity
  8
0
  6
Continuous
 62
    16
370
     0
100
AcDbLine
 10
20.919618625
 20
25.9230893982
 30
0.0
 11
20.919618625
 21
26.3139893982
 31
0.0
  0
LINE
  5
B0
330
97
100
AcDbEntity
  8
0
  6
Continuous
 62
    16
370
     0
100
AcDbLine
 10
19.9580754817
 20
26.3896955151
 30
0.0
 11
20.1226399348
 21
26.3896955151
 31
0.0
  0
LINE
  5
B1
330
97
100
AcDbEntity
  8
0
  6
Continuous
 62
    16
370
     0
100
AcDbLine
 10
20.1506182011
 20
26.3892309097
 30
0.0
 11
19.9382022095
 21
26.4015937216
 31
0.0
  0
LINE
  5
B2
330
97
100
AcDbEntity
  8
0
  6
Continuous
 62
    16
370
     0
100
AcDbLine
 10
20.965718625
 20
25.9230893982
 30
0.0
 11
20.919618625
 21
25.9230893982
 31
0.0
  0
LINE
  5
B3
330
97
100
AcDbEntity
  8
0
  6
Continuous
 62
    16
370
     0
100
AcDbLine
 10
20.965718625
 20
26.3139893982
 30
0.0
 11
20.965718625
 21
25.9230893982
 31
0.0
  0
LINE
  5
B4
330
97
100
AcDbEntity
  8
0
  6
Continuous
 62
    16
370
     0
100
AcDbLine
 10
20.6989695496
 20
26.392805503
 30
0.0
 11
19.3985753063
 21
26.4684896798
 31
0.0
  0
LINE
  5
B5
330
97
100
AcDbEntity
  8
0
  6
Continuous
 62
    16
370
     0
100
AcDbLine
 10
19.2743496911
 20
26.5848453834
 30
0.0
 11
21.090718625
 21
26.5848453834
 31
0.0
  0
LINE
  5
B6
330
97
100
AcDbEntity
  8
0
  6
Continuous
 62
    16
370
     0
100
AcDbLine
 10
20.0028471016
 20
26.7799952517
 30
0.0
 11
20.0408120814
 21
26.8351846327
 31
0.0
  0
LINE
  5
B7
330
97
100
AcDbEntity
  8
0
  6
Continuous
 62
    16
370
     0
100
AcDbLine
 10
20.2906117643
 20
26.5480893982
 30
0.0
 11
20.731618625
 21
26.5480893982
 31
0.0
  0
LINE
  5
B8
330
97
100
AcDbEntity
  8
0
  6
Continuous
 62
    16
370
     0
100
AcDbLine
 10
20.0028471016
 20
26.7799952517
 30
0.0
 11
20.0028471016
 21
26.3896955151
 31
0.0
  0
LINE
  5
B9
330
97
100
AcDbEntity
  8
0
  6
Continuous
 62
    16
370
     0
100
AcDbLine
 10
20.1080144451
 20
26.8652076206
 30
0.0
 11
19.9814774532
 21
26.8652076206
 31
0.0
  0
LINE
  5
BA
330
97
100
AcDbEntity
  8
0
  6
Continuous
 62
    16
370
     0
100
AcDbLine
 10
20.7252404088
 20
26.5034186543
 30
0.0
 11
20.7678769055
 21
26.4591052159
 31
0.0
  0
LINE
  5
BB
330
97
100
AcDbEntity
  8
0
  6
Continuous
 62
    16
370
     0
100
AcDbLine
 10
19.9400720233
 20
26.4337205825
 30
0.0
 11
19.9382022095
 21
26.4015937216
 31
0.0
  0
LINE
  5
BC
330
97
100
AcDbEntity
  8
0
  6
Continuous
 62
    16
370
     0
100
AcDbLine
 10
20.1080144451
 20
26.5848453834
 30
0.0
 11
20.1080144451
 21
26.8652076206
 31
0.0
  0
LINE
  5
BD
330
97
100
AcDbEntity
  8
0
  6
Continuous
 62
    16
370
     0
100
AcDbLine
 10
20.1216872784
 20
26.4822564878
 30
0.0
 11
20.1216872784
 21
26.426403878
 31
0.0
  0
LINE
  5
BE
330
97
100
AcDbEntity
  8
BLOCKS
100
AcDbLine
 10
20.2906117643
 20
26.5480893982
 30
0.0
 11
20.2368944426
 21
26.5848453834
 31
0.0
  0
SPLINE
  5
BF
330
97
100
AcDbEntity
  8
0
  6
Continuous
 62
    16
370
     0
100
AcDbSpline
210
0.0
220
0.0
230
1.0
 70
     8
 71
     3
 72
     9
 73
     5
 74
     0
 42
0.00000001
 43
0.00000001
 12
1.0
 22
0.0
 32
0.0
 13
1.0
 23
0.0
 33
0.0
 40
0.0
 40
0.0
 40
0.0
 40
0.0
 40
0.5928291688347104
 40
1.0
 40
1.0
 40
1.0
 40
1.0
 10
19.27434969107827
 20
26.58484538338648
 30
0.0
 10
19.22977403886498
 20
26.67067982455945
 30
0.0
 10
19.3092570011885
 20
26.78990333849607
 30
0.0
 10
19.29114417973896
 20
26.9441515837284
 30
0.0
 10
19.24466603742839
 20
26.98002906431008
 30
0.0
  0
HATCH
  5
C0
330
97
100
AcDbEntity
  8
BLOCKS
 62
    16
100
AcDbHatch
 10
0.0
 20
0.0
 30
0.0
210
0.0
220
0.0
230
1.0
  2
ANSI36
 70
     0
 71
     0
 91
        1
 92
        0
 93
       10
 72
     4
 94
        3
 73
     1
 74
     0
 95
        9
 96
        5
 40
0.0
 40
0.0
 40
0.0
 40
0.0
 40
0.4071708311652896
 40
1.0
 40
1.0
 40
1.0
 40
1.0
 10
19.24466603742839
 20
26.98002906431008
 42
1.0
 10
19.29114417973896
 20
26.9441515837284
 42
1.0
 10
19.3092570011885
 20
26.78990333849607
 42
1.0
 10
19.22977403886498
 20
26.67067982455945
 42
1.0
 10
19.27434969107827
 20
26.58484538338648
 42
1.0
 72
     1
 10
19.27434969107827
 20
26.58484538338648
 11
19.98147745321076
 21
26.58484538338648
 72
     1
 10
19.98147745321076
 20
26.58484538338648
 11
19.98147745321076
 21
26.86520762058046
 72
     1
 10
19.98147745321076
 20
26.86520762058046
 11
20.10801444514525
 21
26.86520762058046
 72
     1
 10
20.10801444514525
 20
26.86520762058046
 11
20.10801444514525
 21
26.58484538338648
 72
     1
 10
20.10801444514525
 20
26.58484538338648
 11
20.23689444261453
 21
26.58484538338649
 72
     1
 10
20.23689444261453
 20
26.58484538338649
 11
21.0907186249667
 21
26.58484538338648
 72
     1
 10
21.0907186249667
 20
26.58484538338648
 11
21.0907186249667
 21
26.9140495115044
 72
     2
 10
21.02473907216103
 20
26.9140495115044
 40
0.0659795528056717
 50
0.0
 51
90.0
 73
     1
 72
     1
 10
21.02473907216103
 20
26.98002906431007
 11
19.24466603742839
 21
26.98002906431008
 97
        0
 75
     0
 76
     1
 52
0.0
 41
0.5
 77
     0
 78
     1
 53
45.0
 43
0.0
 44
0.0
 45
0.0331456303681194
 46
0.1215339780164378
 79
     4
 49
0.15625
 49
-0.03125
 49
0.0
 49
-0.03125
 98
        1
 10
0.0
 20
0.0
  0
HATCH
  5
C1
330
97
100
AcDbEntity
  8
BLOCKS
 62
    16
100
AcDbHatch
 10
0.0
 20
0.0
 30
0.0
210
0.0
220
0.0
230
1.0
  2
ANSI32
 70
     0
 71
     0
 91
        1
 92
        0
 93
        4
 72
     1
 10
20.07973897339712
 20
26.58484538338648
 11
20.00284710159458
 21
26.58484538338648
 72
     1
 10
20.00284710159458
 20
26.58484538338648
 11
20.00284710159458
 21
26.48862134888004
 72
     1
 10
20.00284710159458
 20
26.48862134888004
 11
20.07973897339712
 21
26.4845031617958
 72
     1
 10
20.07973897339712
 20
26.4845031617958
 11
20.07973897339712
 21
26.58484538338648
 97
        0
 75
     0
 76
     1
 52
0.0
 41
0.2
 77
     0
 78
     2
 53
45.0
 43
0.0
 44
0.0
 45
-0.0530330085889911
 46
0.0530330085889911
 79
     0
 53
45.0
 43
0.035355339
 44
0.0
 45
-0.0530330085889911
 46
0.0530330085889911
 79
     0
 98
        1
 10
0.0
 20
0.0
  0
HATCH
  5
C2
330
97
100
AcDbEntity
  8
BLOCKS
 62
    16
100
AcDbHatch
 10
0.0
 20
0.0
 30
0.0
210
0.0
220
0.0
230
1.0
  2
ANSI32
 70
     0
 71
     0
 91
        1
 92
        0
 93
        5
 72
     1
 10
20.04081208140756
 20
26.8351846326727
 11
20.00284710159458
 21
26.77999525166031
 72
     1
 10
20.00284710159458
 20
26.77999525166031
 11
20.00284710159458
 21
26.58484538338648
 72
     1
 10
20.00284710159458
 20
26.58484538338648
 11
20.07973897339712
 21
26.58484538338648
 72
     1
 10
20.07973897339712
 20
26.58484538338648
 11
20.07973897339712
 21
26.77999525166031
 72
     1
 10
20.07973897339712
 20
26.77999525166031
 11
20.04081208140756
 21
26.8351846326727
 97
        0
 75
     0
 76
     1
 52
0.0
 41
0.2
 77
     0
 78
     2
 53
45.0
 43
0.0
 44
0.0
 45
-0.0530330085889911
 46
0.0530330085889911
 79
     0
 53
45.0
 43
0.035355339
 44
0.0
 45
-0.0530330085889911
 46
0.0530330085889911
 79
     0
 98
        1
 10
0.0
 20
0.0
  0
HATCH
  5
C3
330
97
100
AcDbEntity
  8
BLOCKS
 62
    16
100
AcDbHatch
 10
0.0
 20
0.0
 30
0.0
210
0.0
220
0.0
230
1.0
  2
ANSI32
 70
     0
 71
     0
 91
        1
 92
        0
 93
        4
 72
     1
 10
20.07973897339712
 20
26.4845031617958
 11
20.00284710159458
 21
26.48862134888004
 72
     1
 10
20.00284710159458
 20
26.48862134888004
 11
20.00284710159458
 21
26.43332048887584
 72
     1
 10
20.00284710159458
 20
26.43332048887584
 11
20.07973897339712
 21
26.42884530909641
 72
     1
 10
20.07973897339712
 20
26.42884530909641
 11
20.07973897339712
 21
26.4845031617958
 97
        0
 75
     0
 76
     1
 52
0.0
 41
0.2
 77
     0
 78
     2
 53
45.0
 43
0.0
 44
0.0
 45
-0.0530330085889911
 46
0.0530330085889911
 79
     0
 53
45.0
 43
0.035355339
 44
0.0
 45
-0.0530330085889911
 46
0.0530330085889911
 79
     0
 98
        1
 10
0.0
 20
0.0
  0
HATCH
  5
C4
330
97
100
AcDbEntity
  8
BLOCKS
 62
    16
100
AcDbHatch
 10
0.0
 20
0.0
 30
0.0
210
0.0
220
0.0
230
1.0
  2
ANSI32
 70
     0
 71
     0
 91
        1
 92
        0
 93
        4
 72
     1
 10
20.00284710159458
 20
26.43006701346352
 11
19.94007202325873
 21
26.43372058249019
 72
     1
 10
19.94007202325873
 20
26.43372058249019
 11
19.93820220952023
 21
26.40159372159039
 72
     1
 10
19.93820220952023
 20
26.40159372159039
 11
20.00284710159458
 21
26.39783132763285
 72
     1
 10
20.00284710159458
 20
26.39783132763285
 11
20.00284710159458
 21
26.43006701346352
 97
        0
 75
     0
 76
     1
 52
0.0
 41
0.2
 77
     0
 78
     2
 53
45.0
 43
0.0
 44
0.0
 45
-0.0530330085889911
 46
0.0530330085889911
 79
     0
 53
45.0
 43
0.035355339
 44
0.0
 45
-0.0530330085889911
 46
0.0530330085889911
 79
     0
 98
        1
 10
0.0
 20
0.0
  0
HATCH
  5
C5
330
97
100
AcDbEntity
  8
BLOCKS
 62
    16
100
AcDbHatch
 10
0.0
 20
0.0
 30
0.0
210
0.0
220
0.0
230
1.0
  2
ANSI32
 70
     0
 71
     0
 91
        1
 92
        0
 93
        4
 72
     1
 10
20.07973897339712
 20
26.42559183368408
 11
20.00284710159458
 21
26.43006701346352
 72
     1
 10
20.00284710159458
 20
26.43006701346352
 11
20.00284710159458
 21
26.39783132763285
 72
     1
 10
20.00284710159458
 20
26.39783132763285
 11
20.07973897339712
 21
26.39335614785342
 72
     1
 10
20.07973897339712
 20
26.39335614785342
 11
20.07973897339712
 21
26.42559183368408
 97
        0
 75
     0
 76
     1
 52
0.0
 41
0.2
 77
     0
 78
     2
 53
45.0
 43
0.0
 44
0.0
 45
-0.0530330085889911
 46
0.0530330085889911
 79
     0
 53
45.0
 43
0.035355339
 44
0.0
 45
-0.0530330085889911
 46
0.0530330085889911
 79
     0
 98
        1
 10
0.0
 20
0.0
  0
HATCH
  5
C6
330
97
100
AcDbEntity
  8
BLOCKS
 62
    16
100
AcDbHatch
 10
0.0
 20
0.0
 30
0.0
210
0.0
220
0.0
230
1.0
  2
ANSI32
 70
     0
 71
     0
 91
        1
 92
        0
 93
        4
 72
     1
 10
20.07973897339712
 20
26.39335614785342
 11
20.15061820105523
 21
26.38923090965904
 72
     1
 10
20.15061820105523
 20
26.38923090965904
 11
20.15248801479373
 21
26.42135777055884
 72
     1
 10
20.15248801479373
 20
26.42135777055884
 11
20.07973897339712
 21
26.42559183368408
 72
     1
 10
20.07973897339712
 20
26.42559183368408
 11
20.07973897339712
 21
26.39335614785342
 97
        0
 75
     0
 76
     1
 52
0.0
 41
0.2
 77
     0
 78
     2
 53
45.0
 43
0.0
 44
0.0
 45
-0.0530330085889911
 46
0.0530330085889911
 79
     0
 53
45.0
 43
0.035355339
 44
0.0
 45
-0.0530330085889911
 46
0.0530330085889911
 79
     0
 98
        1
 10
0.0
 20
0.0
  0
HATCH
  5
C7
330
97
100
AcDbEntity
  8
BLOCKS
 62
    16
100
AcDbHatch
 10
0.0
 20
0.0
 30
0.0
210
0.0
220
0.0
230
1.0
  2
ANSI32
 70
     0
 71
     0
 91
        1
 92
        0
 93
        4
 72
     1
 10
20.00284710159458
 20
26.38969551511265
 11
19.95807548170848
 21
26.38969551511265
 72
     2
 10
20.04035770827806
 20
26.42125149432493
 40
0.0881257319589163
 50
200.9822712637957
 51
339.0177287362059
 73
     1
 72
     1
 10
20.12263993484765
 20
26.38969551511265
 11
20.07973897339712
 21
26.38969551511265
 72
     1
 10
20.07973897339712
 20
26.38969551511265
 11
20.00284710159458
 21
26.38969551511265
 97
        0
 75
     0
 76
     1
 52
0.0
 41
0.2
 77
     0
 78
     2
 53
45.0
 43
0.0
 44
0.0
 45
-0.0530330085889911
 46
0.0530330085889911
 79
     0
 53
45.0
 43
0.035355339
 44
0.0
 45
-0.0530330085889911
 46
0.0530330085889911
 79
     0
 98
        1
 10
0.0
 20
0.0
  0
HATCH
  5
C8
330
97
100
AcDbEntity
  8
BLOCKS
100
AcDbHatch
 10
0.0
 20
0.0
 30
0.0
210
0.0
220
0.0
230
1.0
  2
SOLID
 70
     1
 71
     0
 91
        1
 92
        0
 93
        5
 72
     2
 10
21.32496680656287
 20
26.30019278664964
 40
0.3686452378780171
 50
189.3138478564999
 51
230.5481283977412
 73
     0
 72
     1
 10
21.0907186249667
 20
26.58484538338648
 11
20.23689444261453
 21
26.58484538338649
 72
     1
 10
20.23689444261453
 20
26.58484538338649
 11
20.29061176430621
 21
26.54808939823214
 72
     1
 10
20.29061176430621
 20
26.54808939823214
 11
20.7316186249667
 21
26.54808939823214
 72
     2
 10
20.7316186249667
 20
26.31398939823214
 40
0.2341000000000018
 50
270.0000000000008
 51
348.7012977589557
 73
     0
 97
        0
 75
     0
 76
     1
 98
        1
 10
0.0
 20
0.0
  0
INSERT
  5
DE
330
97
100
AcDbEntity
  8
BLOCKS
100
AcDbBlockReference
  2
SW_BLOCK_DIMENSION_1
 10
20.3147242742
 20
26.145611376
 30
0.0
  0
ENDBLK
  5
99
330
97
100
AcDbEntity
  8
0
100
AcDbBlockEnd
  0
BLOCK
  5
CA
330
C9
100
AcDbEntity
  8
0
100
AcDbBlockBegin
  2
SW_BLOCK_DIMENSION_1
 70
     0
 10
0.0
 20
0.0
 30
0.0
  3
SW_BLOCK_DIMENSION_1
  1

  0
SOLID
  5
CC
330
C9
100
AcDbEntity
  8
BLOCKS
 62
     0
100
AcDbTrace
 10
0.6509943508
 20
-0.0313006311
 30
0.0
 11
0.5498794419
 21
-0.0157444913
 31
0.0
 12
0.5498794419
 22
-0.0468567709
 32
0.0
 13
0.5498794419
 23
-0.0468567709
 33
0.0
  0
SOLID
  5
CD
330
C9
100
AcDbEntity
  8
BLOCKS
 62
     0
100
AcDbTrace
 10
0.7759943508
 20
-0.0313006311
 30
0.0
 11
0.8771092597
 21
-0.0468567709
 31
0.0
 12
0.8771092597
 22
-0.0157444913
 32
0.0
 13
0.8771092597
 23
-0.0157444913
 33
0.0
  0
LINE
  5
CE
330
C9
100
AcDbEntity
  8
BLOCKS
 62
     0
100
AcDbLine
 10
0.0533371922
 20
0.0798201425
 30
0.0
 11
0.1600115765
 21
0.0798201425
 31
0.0
  0
LINE
  5
CF
330
C9
100
AcDbEntity
  8
BLOCKS
 62
     0
100
AcDbLine
 10
0.1101466042
 20
-0.0940224566
 30
0.0
 11
0.0869984556
 21
-0.0940224566
 31
0.0
  0
LINE
  5
D0
330
C9
100
AcDbEntity
  8
BLOCKS
 62
     0
100
AcDbLine
 10
0.0869984556
 20
-0.0940224566
 30
0.0
 11
0.0869984556
 21
-0.249307956
 31
0.0
  0
LINE
  5
D1
330
C9
100
AcDbEntity
  8
BLOCKS
 62
     0
100
AcDbLine
 10
0.0869984556
 20
-0.249307956
 30
0.0
 11
0.1101466042
 21
-0.249307956
 31
0.0
  0
LINE
  5
D2
330
C9
100
AcDbEntity
  8
BLOCKS
 62
     0
100
AcDbLine
 10
0.2451774694
 20
-0.0940224566
 30
0.0
 11
0.268325618
 21
-0.0940224566
 31
0.0
  0
LINE
  5
D3
330
C9
100
AcDbEntity
  8
BLOCKS
 62
     0
100
AcDbLine
 10
0.268325618
 20
-0.0940224566
 30
0.0
 11
0.268325618
 21
-0.249307956
 31
0.0
  0
LINE
  5
D4
330
C9
100
AcDbEntity
  8
BLOCKS
 62
     0
100
AcDbLine
 10
0.268325618
 20
-0.249307956
 30
0.0
 11
0.2451774694
 21
-0.249307956
 31
0.0
  0
LINE
  5
D5
330
C9
100
AcDbEntity
  8
BLOCKS
 62
     0
100
AcDbLine
 10
0.7759943508
 20
0.3892340074
 30
0.0
 11
0.7759943508
 21
-0.1563006311
 31
0.0
  0
LINE
  5
D6
330
C9
100
AcDbEntity
  8
BLOCKS
 62
     0
100
AcDbLine
 10
0.6509943508
 20
-0.0313006311
 30
0.0
 11
0.3557739201
 21
-0.0313006311
 31
0.0
  0
LINE
  5
D7
330
C9
100
AcDbEntity
  8
BLOCKS
 62
     0
100
AcDbLine
 10
0.7759943508
 20
-0.0313006311
 30
0.0
 11
0.9704460986
 21
-0.0313006311
 31
0.0
  0
MTEXT
  5
D8
330
C9
100
AcDbEntity
  8
BLOCKS
 62
     0
100
AcDbMText
 10
0.0390625
 20
0.1342778896
 30
0.0039370079
 40
0.1041666667
 41
0.0
 71
     1
 72
     1
  1

  7
SLDTEXTSTYLE0
 73
     1
 44
1.0
  0
MTEXT
  5
D9
330
C9
100
AcDbEntity
  8
BLOCKS
 62
     0
100
AcDbMText
 10
0.0680941359
 20
0.2052438631
 30
0.0039370079
 40
0.1041666667
 41
0.0
 71
     1
 72
     1
  1
1
  7
SLDTEXTSTYLE0
 73
     1
 44
1.0
  0
MTEXT
  5
DA
330
C9
100
AcDbEntity
  8
BLOCKS
 62
     0
100
AcDbMText
 10
0.0680941359
 20
0.0634035871
 30
0.0039370079
 40
0.1041666667
 41
0.0
 71
     1
 72
     1
  1
8
  7
SLDTEXTSTYLE0
 73
     1
 44
1.0
  0
MTEXT
  5
DB
330
C9
100
AcDbEntity
  8
BLOCKS
 62
     0
100
AcDbMText
 10
0.1747685202
 20
0.1342778896
 30
0.0039370079
 40
0.1041666667
 41
0.0
 71
     1
 72
     1
  1
"
  7
SLDTEXTSTYLE0
 73
     1
 44
1.0
  0
MTEXT
  5
DC
330
C9
100
AcDbEntity
  8
BLOCKS
 62
     0
100
AcDbMText
 10
0.1390817883
 20
-0.1150300596
 30
0.0039370079
 40
0.1041666667
 41
0.0
 71
     1
 72
     1
  1
3
  7
SLDTEXTSTYLE0
 73
     1
 44
1.0
  0
MTEXT
  5
DD
330
C9
100
AcDbEntity
  8
BLOCKS
 62
     0
100
AcDbMText
 10
0.3558063343
 20
0.1342778896
 30
0.0039370079
 40
0.1041666667
 41
0.0
 71
     1
 72
     1
  1

  7
SLDTEXTSTYLE0
 73
     1
 44
1.0
  0
ENDBLK
  5
CB
330
C9
100
AcDbEntity
  8
0
100
AcDbBlockEnd
  0
BLOCK
  5
100
330
FF
100
AcDbEntity
  8
0
100
AcDbBlockBegin
  2
_D
 70
     0
 10
0.0
 20
0.0
 30
0.0
  3
_D
  1

  0
SOLID
  5
102
330
FF
100
AcDbEntity
  8
DIMS
100
AcDbTrace
 10
30.8446219072
 20
2.6477208275
 30
0.0
 11
30.7288474174
 21
2.816425127
 31
0.0
 12
30.6834923443
 22
2.7738245035
 32
0.0
 13
30.6834923443
 23
2.7738245035
 33
0.0
  0
LINE
  5
103
330
FF
100
AcDbEntity
  8
DIMS
100
AcDbLine
 10
29.5152151109
 20
4.2827716373
 30
0.0
 11
29.835238264
 21
4.2827716373
 31
0.0
  0
LINE
  5
104
330
FF
100
AcDbEntity
  8
DIMS
100
AcDbLine
 10
29.3036989119
 20
3.7612438562
 30
0.0
 11
29.2342544683
 21
3.7612438562
 31
0.0
  0
LINE
  5
105
330
FF
100
AcDbEntity
  8
DIMS
100
AcDbLine
 10
29.2342544683
 20
3.7612438562
 30
0.0
 11
29.2342544683
 21
3.2953873578
 31
0.0
  0
LINE
  5
106
330
FF
100
AcDbEntity
  8
DIMS
100
AcDbLine
 10
29.2342544683
 20
3.2953873578
 30
0.0
 11
29.3036989119
 21
3.2953873578
 31
0.0
  0
LINE
  5
107
330
FF
100
AcDbEntity
  8
DIMS
100
AcDbLine
 10
29.9402729798
 20
3.7612438562
 30
0.0
 11
30.0097174234
 21
3.7612438562
 31
0.0
  0
LINE
  5
108
330
FF
100
AcDbEntity
  8
DIMS
100
AcDbLine
 10
30.0097174234
 20
3.7612438562
 30
0.0
 11
30.0097174234
 21
3.2953873578
 31
0.0
  0
LINE
  5
109
330
FF
100
AcDbEntity
  8
DIMS
100
AcDbLine
 10
30.0097174234
 20
3.2953873578
 30
0.0
 11
29.9402729798
 21
3.2953873578
 31
0.0
  0
LINE
  5
10A
330
FF
100
AcDbEntity
  8
DIMS
100
AcDbLine
 10
28.448426838
 20
5.1988478707
 30
0.0
 11
28.9424561582
 21
4.6728758516
 31
0.0
  0
LINE
  5
10B
330
FF
100
AcDbEntity
  8
DIMS
100
AcDbLine
 10
30.8446219072
 20
2.6477208275
 30
0.0
 11
30.3015157335
 21
3.2259428867
 31
0.0
  0
MTEXT
  5
10C
330
FF
100
AcDbEntity
  8
DIMS
100
AcDbMText
 10
28.9385368544
 20
4.4461449014
 30
0.0039370079
 40
0.3125
 41
0.0
 71
     1
 72
     1
  1
R3
  7
SLDTEXTSTYLE0
 73
     1
 44
1.0
  0
MTEXT
  5
10D
330
FF
100
AcDbEntity
  8
DIMS
100
AcDbMText
 10
29.5594859512
 20
4.659042822
 30
0.0039370079
 40
0.3125
 41
0.0
 71
     1
 72
     1
  1
1
  7
SLDTEXTSTYLE0
 73
     1
 44
1.0
  0
MTEXT
  5
10E
330
FF
100
AcDbEntity
  8
DIMS
100
AcDbMText
 10
29.5594859512
 20
4.2335219736
 30
0.0039370079
 40
0.3125
 41
0.0
 71
     1
 72
     1
  1
2
  7
SLDTEXTSTYLE0
 73
     1
 44
1.0
  0
MTEXT
  5
10F
330
FF
100
AcDbEntity
  8
DIMS
100
AcDbMText
 10
29.8795091042
 20
4.4461449014
 30
0.0039370079
 40
0.3125
 41
0.0
 71
     1
 72
     1
  1
"
  7
SLDTEXTSTYLE0
 73
     1
 44
1.0
  0
MTEXT
  5
110
330
FF
100
AcDbEntity
  8
DIMS
100
AcDbMText
 10
29.3905044733
 20
3.6982210448
 30
0.0039370079
 40
0.3125
 41
0.0
 71
     1
 72
     1
  1
89
  7
SLDTEXTSTYLE0
 73
     1
 44
1.0
  0
ENDBLK
  5
101
330
FF
100
AcDbEntity
  8
0
100
AcDbBlockEnd
  0
BLOCK
  5
114
330
113
100
AcDbEntity
  8
0
100
AcDbBlockBegin
  2
_D_1
 70
     0
 10
0.0
 20
0.0
 30
0.0
  3
_D_1
  1

  0
SOLID
  5
116
330
113
100
AcDbEntity
  8
DIMS
100
AcDbTrace
 10
33.0921276254
 20
19.5738478707
 30
0.0
 11
33.0610153458
 21
19.371618053
 31
0.0
 12
33.1232399051
 22
19.371618053
 32
0.0
 13
33.1232399051
 23
19.371618053
 33
0.0
  0
SOLID
  5
117
330
113
100
AcDbEntity
  8
DIMS
100
AcDbTrace
 10
33.0921276254
 20
2.3238478707
 30
0.0
 11
33.1232399051
 21
2.5260776885
 31
0.0
 12
33.0610153458
 22
2.5260776885
 32
0.0
 13
33.0610153458
 23
2.5260776885
 33
0.0
  0
LINE
  5
118
330
113
100
AcDbEntity
  8
DIMS
100
AcDbLine
 10
32.9506345916
 20
13.1448815533
 30
0.0
 11
33.2706577447
 21
13.1448815533
 31
0.0
  0
LINE
  5
119
330
113
100
AcDbEntity
  8
DIMS
100
AcDbLine
 10
32.6580998552
 20
12.6233537722
 30
0.0
 11
32.5886554116
 21
12.6233537722
 31
0.0
  0
LINE
  5
11A
330
113
100
AcDbEntity
  8
DIMS
100
AcDbLine
 10
32.5886554116
 20
12.6233537722
 30
0.0
 11
32.5886554116
 21
12.1574972738
 31
0.0
  0
LINE
  5
11B
330
113
100
AcDbEntity
  8
DIMS
100
AcDbLine
 10
32.5886554116
 20
12.1574972738
 30
0.0
 11
32.6580998552
 21
12.1574972738
 31
0.0
  0
LINE
  5
11C
330
113
100
AcDbEntity
  8
DIMS
100
AcDbLine
 10
33.5261553957
 20
12.6233537722
 30
0.0
 11
33.5955998393
 21
12.6233537722
 31
0.0
  0
LINE
  5
11D
330
113
100
AcDbEntity
  8
DIMS
100
AcDbLine
 10
33.5955998393
 20
12.6233537722
 30
0.0
 11
33.5955998393
 21
12.1574972738
 31
0.0
  0
LINE
  5
11E
330
113
100
AcDbEntity
  8
DIMS
100
AcDbLine
 10
33.5955998393
 20
12.1574972738
 30
0.0
 11
33.5261553957
 21
12.1574972738
 31
0.0
  0
LINE
  5
11F
330
113
100
AcDbEntity
  8
DIMS
100
AcDbLine
 10
23.498426838
 20
19.5738478707
 30
0.0
 11
33.2171276254
 21
19.5738478707
 31
0.0
  0
LINE
  5
120
330
113
100
AcDbEntity
  8
DIMS
100
AcDbLine
 10
28.498426838
 20
2.3238478707
 30
0.0
 11
33.2171276254
 21
2.3238478707
 31
0.0
  0
LINE
  5
121
330
113
100
AcDbEntity
  8
DIMS
100
AcDbLine
 10
33.0921276254
 20
19.5738478707
 30
0.0
 11
33.0921276254
 21
13.5349857676
 31
0.0
  0
LINE
  5
122
330
113
100
AcDbEntity
  8
DIMS
100
AcDbLine
 10
33.0921276254
 20
2.3238478707
 30
0.0
 11
33.0921276254
 21
12.0880528027
 31
0.0
  0
MTEXT
  5
123
330
113
100
AcDbEntity
  8
DIMS
100
AcDbMText
 10
32.4434008063
 20
13.3082548174
 30
0.0039370079
 40
0.3125
 41
0.0
 71
     1
 72
     1
  1
17
  7
SLDTEXTSTYLE0
 73
     1
 44
1.0
  0
MTEXT
  5
124
330
113
100
AcDbEntity
  8
DIMS
100
AcDbMText
 10
32.9949054319
 20
13.521152738
 30
0.0039370079
 40
0.3125
 41
0.0
 71
     1
 72
     1
  1
1
  7
SLDTEXTSTYLE0
 73
     1
 44
1.0
  0
MTEXT
  5
125
330
113
100
AcDbEntity
  8
DIMS
100
AcDbMText
 10
32.9949054319
 20
13.0956318896
 30
0.0039370079
 40
0.3125
 41
0.0
 71
     1
 72
     1
  1
4
  7
SLDTEXTSTYLE0
 73
     1
 44
1.0
  0
MTEXT
  5
126
330
113
100
AcDbEntity
  8
DIMS
100
AcDbMText
 10
33.314928585
 20
13.3082548174
 30
0.0039370079
 40
0.3125
 41
0.0
 71
     1
 72
     1
  1
"
  7
SLDTEXTSTYLE0
 73
     1
 44
1.0
  0
MTEXT
  5
127
330
113
100
AcDbEntity
  8
DIMS
100
AcDbMText
 10
32.7449054166
 20
12.5603309608
 30
0.0039370079
 40
0.3125
 41
0.0
 71
     1
 72
     1
  1
438
  7
SLDTEXTSTYLE0
 73
     1
 44
1.0
  0
ENDBLK
  5
115
330
113
100
AcDbEntity
  8
0
100
AcDbBlockEnd
  0
BLOCK
  5
12A
330
129
100
AcDbEntity
  8
0
100
AcDbBlockBegin
  2
_D_2
 70
     0
 10
0.0
 20
0.0
 30
0.0
  3
_D_2
  1

  0
SOLID
  5
12C
330
129
100
AcDbEntity
  8
DIMS
100
AcDbTrace
 10
34.2732299876
 20
20.1988478707
 30
0.0
 11
34.242117708
 21
19.996618053
 31
0.0
 12
34.3043422673
 22
19.996618053
 32
0.0
 13
34.3043422673
 23
19.996618053
 33
0.0
  0
SOLID
  5
12D
330
129
100
AcDbEntity
  8
DIMS
100
AcDbTrace
 10
34.2732299876
 20
1.6988478707
 30
0.0
 11
34.3043422673
 21
1.9010776885
 31
0.0
 12
34.242117708
 22
1.9010776885
 32
0.0
 13
34.242117708
 23
1.9010776885
 33
0.0
  0
LINE
  5
12E
330
129
100
AcDbEntity
  8
DIMS
100
AcDbLine
 10
34.1317369538
 20
9.5678159004
 30
0.0
 11
34.4517601069
 21
9.5678159004
 31
0.0
  0
LINE
  5
12F
330
129
100
AcDbEntity
  8
DIMS
100
AcDbLine
 10
33.8392022174
 20
9.0462881193
 30
0.0
 11
33.7697577738
 21
9.0462881193
 31
0.0
  0
LINE
  5
130
330
129
100
AcDbEntity
  8
DIMS
100
AcDbLine
 10
33.7697577738
 20
9.0462881193
 30
0.0
 11
33.7697577738
 21
8.5804316209
 31
0.0
  0
LINE
  5
131
330
129
100
AcDbEntity
  8
DIMS
100
AcDbLine
 10
33.7697577738
 20
8.5804316209
 30
0.0
 11
33.8392022174
 21
8.5804316209
 31
0.0
  0
LINE
  5
132
330
129
100
AcDbEntity
  8
DIMS
100
AcDbLine
 10
34.7072577579
 20
9.0462881193
 30
0.0
 11
34.7767022015
 21
9.0462881193
 31
0.0
  0
LINE
  5
133
330
129
100
AcDbEntity
  8
DIMS
100
AcDbLine
 10
34.7767022015
 20
9.0462881193
 30
0.0
 11
34.7767022015
 21
8.5804316209
 31
0.0
  0
LINE
  5
134
330
129
100
AcDbEntity
  8
DIMS
100
AcDbLine
 10
34.7767022015
 20
8.5804316209
 30
0.0
 11
34.7072577579
 21
8.5804316209
 31
0.0
  0
LINE
  5
135
330
129
100
AcDbEntity
  8
DIMS
100
AcDbLine
 10
23.498426838
 20
20.1988478707
 30
0.0
 11
34.3982299876
 21
20.1988478707
 31
0.0
  0
LINE
  5
136
330
129
100
AcDbEntity
  8
DIMS
100
AcDbLine
 10
28.498426838
 20
1.6988478707
 30
0.0
 11
34.3982299876
 21
1.6988478707
 31
0.0
  0
LINE
  5
137
330
129
100
AcDbEntity
  8
DIMS
100
AcDbLine
 10
34.2732299876
 20
20.1988478707
 30
0.0
 11
34.2732299876
 21
9.9579201147
 31
0.0
  0
LINE
  5
138
330
129
100
AcDbEntity
  8
DIMS
100
AcDbLine
 10
34.2732299876
 20
1.6988478707
 30
0.0
 11
34.2732299876
 21
8.5109871498
 31
0.0
  0
MTEXT
  5
139
330
129
100
AcDbEntity
  8
DIMS
100
AcDbMText
 10
33.6245031685
 20
9.7311891645
 30
0.0039370079
 40
0.3125
 41
0.0
 71
     1
 72
     1
  1
18
  7
SLDTEXTSTYLE0
 73
     1
 44
1.0
  0
MTEXT
  5
13A
330
129
100
AcDbEntity
  8
DIMS
100
AcDbMText
 10
34.1760077941
 20
9.9440870851
 30
0.0039370079
 40
0.3125
 41
0.0
 71
     1
 72
     1
  1
1
  7
SLDTEXTSTYLE0
 73
     1
 44
1.0
  0
MTEXT
  5
13B
330
129
100
AcDbEntity
  8
DIMS
100
AcDbMText
 10
34.1760077941
 20
9.5185662367
 30
0.0039370079
 40
0.3125
 41
0.0
 71
     1
 72
     1
  1
2
  7
SLDTEXTSTYLE0
 73
     1
 44
1.0
  0
MTEXT
  5
13C
330
129
100
AcDbEntity
  8
DIMS
100
AcDbMText
 10
34.4960309472
 20
9.7311891645
 30
0.0039370079
 40
0.3125
 41
0.0
 71
     1
 72
     1
  1
"
  7
SLDTEXTSTYLE0
 73
     1
 44
1.0
  0
MTEXT
  5
13D
330
129
100
AcDbEntity
  8
DIMS
100
AcDbMText
 10
33.9260077788
 20
8.9832653079
 30
0.0039370079
 40
0.3125
 41
0.0
 71
     1
 72
     1
  1
470
  7
SLDTEXTSTYLE0
 73
     1
 44
1.0
  0
ENDBLK
  5
12B
330
129
100
AcDbEntity
  8
0
100
AcDbBlockEnd
  0
BLOCK
  5
141
330
140
100
AcDbEntity
  8
0
100
AcDbBlockBegin
  2
_D_3
 70
     0
 10
0.0
 20
0.0
 30
0.0
  3
_D_3
  1

  0
SOLID
  5
143
330
140
100
AcDbEntity
  8
DIMS
100
AcDbTrace
 10
29.9394444845
 20
17.7357422451
 30
0.0
 11
29.7701924145
 21
17.6207700315
 31
0.0
 12
29.8125772218
 22
17.5752132111
 32
0.0
 13
29.8125772218
 23
17.5752132111
 33
0.0
  0
LINE
  5
144
330
140
100
AcDbEntity
  8
DIMS
100
AcDbLine
 10
28.761431359
 20
17.0724502761
 30
0.0
 11
29.081454512
 21
17.0724502761
 31
0.0
  0
LINE
  5
145
330
140
100
AcDbEntity
  8
DIMS
100
AcDbLine
 10
28.4341744236
 20
16.550922495
 30
0.0
 11
28.36472998
 21
16.550922495
 31
0.0
  0
LINE
  5
146
330
140
100
AcDbEntity
  8
DIMS
100
AcDbLine
 10
28.36472998
 20
16.550922495
 30
0.0
 11
28.36472998
 21
16.0850659967
 31
0.0
  0
LINE
  5
147
330
140
100
AcDbEntity
  8
DIMS
100
AcDbLine
 10
28.36472998
 20
16.0850659967
 30
0.0
 11
28.4341744236
 21
16.0850659967
 31
0.0
  0
LINE
  5
148
330
140
100
AcDbEntity
  8
DIMS
100
AcDbLine
 10
29.3022299641
 20
16.550922495
 30
0.0
 11
29.3716744077
 21
16.550922495
 31
0.0
  0
LINE
  5
149
330
140
100
AcDbEntity
  8
DIMS
100
AcDbLine
 10
29.3716744077
 20
16.550922495
 30
0.0
 11
29.3716744077
 21
16.0850659967
 31
0.0
  0
LINE
  5
14A
330
140
100
AcDbEntity
  8
DIMS
100
AcDbLine
 10
29.3716744077
 20
16.0850659967
 30
0.0
 11
29.3022299641
 21
16.0850659967
 31
0.0
  0
LINE
  5
14B
330
140
100
AcDbEntity
  8
DIMS
100
AcDbLine
 10
29.9394444845
 20
17.7357422451
 30
0.0
 11
29.6211176083
 21
17.4395797124
 31
0.0
  0
LINE
  5
14C
330
140
100
AcDbEntity
  8
DIMS
100
AcDbLine
 10
28.1274086612
 20
16.0498741676
 30
0.0
 11
28.7633911886
 21
16.0269345774
 31
0.0
  0
LINE
  5
14D
330
140
100
AcDbEntity
  8
DIMS
100
AcDbLine
 10
28.7633911886
 20
16.0269345774
 30
0.0
 11
27.8848283652
 21
15.2095439944
 31
0.0
  0
LINE
  5
14E
330
140
100
AcDbEntity
  8
DIMS
100
AcDbLine
 10
27.8848283652
 20
16.0516223449
 30
0.0
 11
27.8848283652
 21
14.3674656439
 31
0.0
  0
LINE
  5
14F
330
140
100
AcDbEntity
  8
DIMS
100
AcDbLine
 10
27.0427500147
 20
15.2095439944
 30
0.0
 11
28.7269067157
 21
15.2095439944
 31
0.0
  0
MTEXT
  5
150
330
140
100
AcDbEntity
  8
DIMS
100
AcDbMText
 10
28.1847531025
 20
17.2358235403
 30
0.0039370079
 40
0.3125
 41
0.0
 71
     1
 72
     1
  1
R7
  7
SLDTEXTSTYLE0
 73
     1
 44
1.0
  0
MTEXT
  5
151
330
140
100
AcDbEntity
  8
DIMS
100
AcDbMText
 10
28.8057021992
 20
17.4487214608
 30
0.0039370079
 40
0.3125
 41
0.0
 71
     1
 72
     1
  1
1
  7
SLDTEXTSTYLE0
 73
     1
 44
1.0
  0
MTEXT
  5
152
330
140
100
AcDbEntity
  8
DIMS
100
AcDbMText
 10
28.8057021992
 20
17.0232006125
 30
0.0039370079
 40
0.3125
 41
0.0
 71
     1
 72
     1
  1
2
  7
SLDTEXTSTYLE0
 73
     1
 44
1.0
  0
MTEXT
  5
153
330
140
100
AcDbEntity
  8
DIMS
100
AcDbMText
 10
29.1257253523
 20
17.2358235403
 30
0.0039370079
 40
0.3125
 41
0.0
 71
     1
 72
     1
  1
"
  7
SLDTEXTSTYLE0
 73
     1
 44
1.0
  0
MTEXT
  5
154
330
140
100
AcDbEntity
  8
DIMS
100
AcDbMText
 10
28.520979985
 20
16.4878996837
 30
0.0039370079
 40
0.3125
 41
0.0
 71
     1
 72
     1
  1
191
  7
SLDTEXTSTYLE0
 73
     1
 44
1.0
  0
ENDBLK
  5
142
330
140
100
AcDbEntity
  8
0
100
AcDbBlockEnd
  0
BLOCK
  5
157
330
156
100
AcDbEntity
  8
0
100
AcDbBlockBegin
  2
_D_4
 70
     0
 10
0.0
 20
0.0
 30
0.0
  3
_D_4
  1

  0
SOLID
  5
159
330
156
100
AcDbEntity
  8
DIMS
100
AcDbTrace
 10
19.14883643
 20
19.3622350732
 30
0.0
 11
19.2098669153
 21
19.1669400324
 31
0.0
 12
19.2657460959
 22
19.1943154402
 32
0.0
 13
19.2657460959
 23
19.1943154402
 33
0.0
  0
LINE
  5
15A
330
156
100
AcDbEntity
  8
DIMS
100
AcDbLine
 10
19.6900112494
 20
18.3729988834
 30
0.0
 11
20.0100344024
 21
18.3729988834
 31
0.0
  0
LINE
  5
15B
330
156
100
AcDbEntity
  8
DIMS
100
AcDbLine
 10
19.362754314
 20
17.8514711023
 30
0.0
 11
19.2933098704
 21
17.8514711023
 31
0.0
  0
LINE
  5
15C
330
156
100
AcDbEntity
  8
DIMS
100
AcDbLine
 10
19.2933098704
 20
17.8514711023
 30
0.0
 11
19.2933098704
 21
17.3856146039
 31
0.0
  0
LINE
  5
15D
330
156
100
AcDbEntity
  8
DIMS
100
AcDbLine
 10
19.2933098704
 20
17.3856146039
 30
0.0
 11
19.362754314
 21
17.3856146039
 31
0.0
  0
LINE
  5
15E
330
156
100
AcDbEntity
  8
DIMS
100
AcDbLine
 10
20.2308098545
 20
17.8514711023
 30
0.0
 11
20.3002542981
 21
17.8514711023
 31
0.0
  0
LINE
  5
15F
330
156
100
AcDbEntity
  8
DIMS
100
AcDbLine
 10
20.3002542981
 20
17.8514711023
 30
0.0
 11
20.3002542981
 21
17.3856146039
 31
0.0
  0
LINE
  5
160
330
156
100
AcDbEntity
  8
DIMS
100
AcDbLine
 10
20.3002542981
 20
17.3856146039
 30
0.0
 11
20.2308098545
 21
17.3856146039
 31
0.0
  0
LINE
  5
161
330
156
100
AcDbEntity
  8
DIMS
100
AcDbLine
 10
20.2377012647
 20
17.1396243624
 30
0.0
 11
20.1512108684
 21
17.3161701328
 31
0.0
  0
LINE
  5
162
330
156
100
AcDbEntity
  8
DIMS
100
AcDbLine
 10
19.14883643
 20
19.3622350732
 30
0.0
 11
19.4423533002
 21
18.7631030977
 31
0.0
  0
LINE
  5
163
330
156
100
AcDbEntity
  8
DIMS
100
AcDbLine
 10
20.2377012647
 20
17.1396243624
 30
0.0
 11
20.4438368785
 21
17.7417108252
 31
0.0
  0
LINE
  5
164
330
156
100
AcDbEntity
  8
DIMS
100
AcDbLine
 10
20.4438368785
 20
17.7417108252
 30
0.0
 11
20.9717713438
 21
16.6640813897
 31
0.0
  0
LINE
  5
165
330
156
100
AcDbEntity
  8
DIMS
100
AcDbLine
 10
20.9717713438
 20
17.5061597402
 30
0.0
 11
20.9717713438
 21
15.8220030391
 31
0.0
  0
LINE
  5
166
330
156
100
AcDbEntity
  8
DIMS
100
AcDbLine
 10
20.1296929933
 20
16.6640813897
 30
0.0
 11
21.8138496943
 21
16.6640813897
 31
0.0
  0
MTEXT
  5
167
330
156
100
AcDbEntity
  8
DIMS
100
AcDbMText
 10
19.1133329929
 20
18.5363721475
 30
0.0039370079
 40
0.3125
 41
0.0
 71
     1
 72
     1
  1
R7
  7
SLDTEXTSTYLE0
 73
     1
 44
1.0
  0
MTEXT
  5
168
330
156
100
AcDbEntity
  8
DIMS
100
AcDbMText
 10
19.7342820896
 20
18.7492700681
 30
0.0039370079
 40
0.3125
 41
0.0
 71
     1
 72
     1
  1
1
  7
SLDTEXTSTYLE0
 73
     1
 44
1.0
  0
MTEXT
  5
169
330
156
100
AcDbEntity
  8
DIMS
100
AcDbMText
 10
19.7342820896
 20
18.3237492197
 30
0.0039370079
 40
0.3125
 41
0.0
 71
     1
 72
     1
  1
2
  7
SLDTEXTSTYLE0
 73
     1
 44
1.0
  0
MTEXT
  5
16A
330
156
100
AcDbEntity
  8
DIMS
100
AcDbMText
 10
20.0543052427
 20
18.5363721475
 30
0.0039370079
 40
0.3125
 41
0.0
 71
     1
 72
     1
  1
"
  7
SLDTEXTSTYLE0
 73
     1
 44
1.0
  0
MTEXT
  5
16B
330
156
100
AcDbEntity
  8
DIMS
100
AcDbMText
 10
19.4495598754
 20
17.7884482909
 30
0.0039370079
 40
0.3125
 41
0.0
 71
     1
 72
     1
  1
191
  7
SLDTEXTSTYLE0
 73
     1
 44
1.0
  0
ENDBLK
  5
158
330
156
100
AcDbEntity
  8
0
100
AcDbBlockEnd
  0
BLOCK
  5
16E
330
16D
100
AcDbEntity
  8
0
100
AcDbBlockBegin
  2
_D_5
 70
     0
 10
0.0
 20
0.0
 30
0.0
  3
_D_5
  1

  0
SOLID
  5
170
330
16D
100
AcDbEntity
  8
DIMS
100
AcDbTrace
 10
23.0632110445
 20
20.1937300294
 30
0.0
 11
23.0374823061
 21
19.9907450419
 31
0.0
 12
23.0996849029
 22
19.9923981373
 32
0.0
 13
23.0996849029
 23
19.9923981373
 33
0.0
  0
LINE
  5
171
330
16D
100
AcDbEntity
  8
DIMS
100
AcDbLine
 10
23.1407821858
 20
17.9457679999
 30
0.0
 11
23.4608053388
 21
17.9457679999
 31
0.0
  0
LINE
  5
172
330
16D
100
AcDbEntity
  8
DIMS
100
AcDbLine
 10
22.6977845141
 20
17.4242402188
 30
0.0
 11
22.6283400705
 21
17.4242402188
 31
0.0
  0
LINE
  5
173
330
16D
100
AcDbEntity
  8
DIMS
100
AcDbLine
 10
22.6283400705
 20
17.4242402188
 30
0.0
 11
22.6283400705
 21
16.9583837205
 31
0.0
  0
LINE
  5
174
330
16D
100
AcDbEntity
  8
DIMS
100
AcDbLine
 10
22.6283400705
 20
16.9583837205
 30
0.0
 11
22.6977845141
 21
16.9583837205
 31
0.0
  0
LINE
  5
175
330
16D
100
AcDbEntity
  8
DIMS
100
AcDbLine
 10
23.5658400546
 20
17.4242402188
 30
0.0
 11
23.6352844982
 21
17.4242402188
 31
0.0
  0
LINE
  5
176
330
16D
100
AcDbEntity
  8
DIMS
100
AcDbLine
 10
23.6352844982
 20
17.4242402188
 30
0.0
 11
23.6352844982
 21
16.9583837205
 31
0.0
  0
LINE
  5
177
330
16D
100
AcDbEntity
  8
DIMS
100
AcDbLine
 10
23.6352844982
 20
16.9583837205
 30
0.0
 11
23.5658400546
 21
16.9583837205
 31
0.0
  0
LINE
  5
178
330
16D
100
AcDbEntity
  8
DIMS
100
AcDbLine
 10
23.1903322564
 20
15.410418917
 30
0.0
 11
23.1510391199
 21
16.8889392494
 31
0.0
  0
LINE
  5
179
330
16D
100
AcDbEntity
  8
DIMS
100
AcDbLine
 10
23.0632110445
 20
20.1937300294
 30
0.0
 11
23.1125854489
 21
18.3358722143
 31
0.0
  0
LINE
  5
17A
330
16D
100
AcDbEntity
  8
DIMS
100
AcDbLine
 10
23.1903322564
 20
15.410418917
 30
0.0
 11
24.0369122383
 21
16.3032247942
 31
0.0
  0
LINE
  5
17B
330
16D
100
AcDbEntity
  8
DIMS
100
AcDbLine
 10
24.0369122383
 20
16.3032247942
 30
0.0
 11
24.0985467652
 21
13.9840436488
 31
0.0
  0
LINE
  5
17C
330
16D
100
AcDbEntity
  8
DIMS
100
AcDbLine
 10
24.0985467652
 20
14.8261219993
 30
0.0
 11
24.0985467652
 21
13.1419652983
 31
0.0
  0
LINE
  5
17D
330
16D
100
AcDbEntity
  8
DIMS
100
AcDbLine
 10
23.2564684147
 20
13.9840436488
 30
0.0
 11
24.9406251158
 21
13.9840436488
 31
0.0
  0
MTEXT
  5
17E
330
16D
100
AcDbEntity
  8
DIMS
100
AcDbMText
 10
22.3326224567
 20
18.1091412641
 30
0.0039370079
 40
0.3125
 41
0.0
 71
     1
 72
     1
  1
R14
  7
SLDTEXTSTYLE0
 73
     1
 44
1.0
  0
MTEXT
  5
17F
330
16D
100
AcDbEntity
  8
DIMS
100
AcDbMText
 10
23.185053026
 20
18.3220391846
 30
0.0039370079
 40
0.3125
 41
0.0
 71
     1
 72
     1
  1
1
  7
SLDTEXTSTYLE0
 73
     1
 44
1.0
  0
MTEXT
  5
180
330
16D
100
AcDbEntity
  8
DIMS
100
AcDbMText
 10
23.185053026
 20
17.8965183363
 30
0.0039370079
 40
0.3125
 41
0.0
 71
     1
 72
     1
  1
2
  7
SLDTEXTSTYLE0
 73
     1
 44
1.0
  0
MTEXT
  5
181
330
16D
100
AcDbEntity
  8
DIMS
100
AcDbMText
 10
23.5050761791
 20
18.1091412641
 30
0.0039370079
 40
0.3125
 41
0.0
 71
     1
 72
     1
  1
"
  7
SLDTEXTSTYLE0
 73
     1
 44
1.0
  0
MTEXT
  5
182
330
16D
100
AcDbEntity
  8
DIMS
100
AcDbMText
 10
22.7845900755
 20
17.3612174075
 30
0.0039370079
 40
0.3125
 41
0.0
 71
     1
 72
     1
  1
368
  7
SLDTEXTSTYLE0
 73
     1
 44
1.0
  0
ENDBLK
  5
16F
330
16D
100
AcDbEntity
  8
0
100
AcDbBlockEnd
  0
BLOCK
  5
185
330
184
100
AcDbEntity
  8
0
100
AcDbBlockBegin
  2
_D_6
 70
     0
 10
0.0
 20
0.0
 30
0.0
  3
_D_6
  1

  0
SOLID
  5
187
330
184
100
AcDbEntity
  8
DIMS
100
AcDbTrace
 10
2.8187828082
 20
14.6654393641
 30
0.0
 11
2.9838484598
 21
14.5445336
 31
0.0
 12
3.012556983
 22
14.5997397272
 32
0.0
 13
3.012556983
 23
14.5997397272
 33
0.0
  0
LINE
  5
188
330
184
100
AcDbEntity
  8
DIMS
100
AcDbLine
 10
4.9368540522
 20
13.8418298648
 30
0.0
 11
5.2568772053
 21
13.8418298648
 31
0.0
  0
LINE
  5
189
330
184
100
AcDbEntity
  8
DIMS
100
AcDbLine
 10
4.6095971169
 20
13.3203020837
 30
0.0
 11
4.5401526733
 21
13.3203020837
 31
0.0
  0
LINE
  5
18A
330
184
100
AcDbEntity
  8
DIMS
100
AcDbLine
 10
4.5401526733
 20
13.3203020837
 30
0.0
 11
4.5401526733
 21
12.8544455854
 31
0.0
  0
LINE
  5
18B
330
184
100
AcDbEntity
  8
DIMS
100
AcDbLine
 10
4.5401526733
 20
12.8544455854
 30
0.0
 11
4.6095971169
 21
12.8544455854
 31
0.0
  0
LINE
  5
18C
330
184
100
AcDbEntity
  8
DIMS
100
AcDbLine
 10
5.4776526574
 20
13.3203020837
 30
0.0
 11
5.547097101
 21
13.3203020837
 31
0.0
  0
LINE
  5
18D
330
184
100
AcDbEntity
  8
DIMS
100
AcDbLine
 10
5.547097101
 20
13.3203020837
 30
0.0
 11
5.547097101
 21
12.8544455854
 31
0.0
  0
LINE
  5
18E
330
184
100
AcDbEntity
  8
DIMS
100
AcDbLine
 10
5.547097101
 20
12.8544455854
 30
0.0
 11
5.4776526574
 21
12.8544455854
 31
0.0
  0
LINE
  5
18F
330
184
100
AcDbEntity
  8
DIMS
100
AcDbLine
 10
7.698426838
 20
12.1279062821
 30
0.0
 11
5.7965403015
 21
13.1169333454
 31
0.0
  0
LINE
  5
190
330
184
100
AcDbEntity
  8
DIMS
100
AcDbLine
 10
2.8187828082
 20
14.6654393641
 30
0.0
 11
4.2907094727
 21
13.900001848
 31
0.0
  0
MTEXT
  5
191
330
184
100
AcDbEntity
  8
DIMS
100
AcDbMText
 10
4.3601757957
 20
14.0052031289
 30
0.0039370079
 40
0.3125
 41
0.0
 71
     1
 72
     1
  1
R5
  7
SLDTEXTSTYLE0
 73
     1
 44
1.0
  0
MTEXT
  5
192
330
184
100
AcDbEntity
  8
DIMS
100
AcDbMText
 10
4.9811248925
 20
14.2181010495
 30
0.0039370079
 40
0.3125
 41
0.0
 71
     1
 72
     1
  1
1
  7
SLDTEXTSTYLE0
 73
     1
 44
1.0
  0
MTEXT
  5
193
330
184
100
AcDbEntity
  8
DIMS
100
AcDbMText
 10
4.9811248925
 20
13.7925802012
 30
0.0039370079
 40
0.3125
 41
0.0
 71
     1
 72
     1
  1
2
  7
SLDTEXTSTYLE0
 73
     1
 44
1.0
  0
MTEXT
  5
194
330
184
100
AcDbEntity
  8
DIMS
100
AcDbMText
 10
5.3011480455
 20
14.0052031289
 30
0.0039370079
 40
0.3125
 41
0.0
 71
     1
 72
     1
  1
"
  7
SLDTEXTSTYLE0
 73
     1
 44
1.0
  0
MTEXT
  5
195
330
184
100
AcDbEntity
  8
DIMS
100
AcDbMText
 10
4.6964026783
 20
13.2572792724
 30
0.0039370079
 40
0.3125
 41
0.0
 71
     1
 72
     1
  1
140
  7
SLDTEXTSTYLE0
 73
     1
 44
1.0
  0
ENDBLK
  5
186
330
184
100
AcDbEntity
  8
0
100
AcDbBlockEnd
  0
BLOCK
  5
198
330
197
100
AcDbEntity
  8
0
100
AcDbBlockBegin
  2
_D_7
 70
     0
 10
0.0
 20
0.0
 30
0.0
  3
_D_7
  1

  0
SOLID
  5
19A
330
197
100
AcDbEntity
  8
DIMS
100
AcDbTrace
 10
3.6666833958
 20
3.1647280157
 30
0.0
 11
3.8316104259
 21
3.2858228043
 31
0.0
 12
3.7875853089
 22
3.3297964879
 32
0.0
 13
3.7875853089
 23
3.3297964879
 33
0.0
  0
LINE
  5
19B
330
197
100
AcDbEntity
  8
DIMS
100
AcDbLine
 10
4.5526124671
 20
4.4919512937
 30
0.0
 11
4.8726356202
 21
4.4919512937
 31
0.0
  0
LINE
  5
19C
330
197
100
AcDbEntity
  8
DIMS
100
AcDbLine
 10
4.3410962681
 20
3.9704235126
 30
0.0
 11
4.2716518244
 21
3.9704235126
 31
0.0
  0
LINE
  5
19D
330
197
100
AcDbEntity
  8
DIMS
100
AcDbLine
 10
4.2716518244
 20
3.9704235126
 30
0.0
 11
4.2716518244
 21
3.5045670142
 31
0.0
  0
LINE
  5
19E
330
197
100
AcDbEntity
  8
DIMS
100
AcDbLine
 10
4.2716518244
 20
3.5045670142
 30
0.0
 11
4.3410962681
 21
3.5045670142
 31
0.0
  0
LINE
  5
19F
330
197
100
AcDbEntity
  8
DIMS
100
AcDbLine
 10
4.977670336
 20
3.9704235126
 30
0.0
 11
5.0471147796
 21
3.9704235126
 31
0.0
  0
LINE
  5
1A0
330
197
100
AcDbEntity
  8
DIMS
100
AcDbLine
 10
5.0471147796
 20
3.9704235126
 30
0.0
 11
5.0471147796
 21
3.5045670142
 31
0.0
  0
LINE
  5
1A1
330
197
100
AcDbEntity
  8
DIMS
100
AcDbLine
 10
5.0471147796
 20
3.5045670142
 30
0.0
 11
4.977670336
 21
3.5045670142
 31
0.0
  0
LINE
  5
1A2
330
197
100
AcDbEntity
  8
DIMS
100
AcDbLine
 10
5.698426838
 20
5.1988478707
 30
0.0
 11
5.3820045761
 21
4.882055508
 31
0.0
  0
LINE
  5
1A3
330
197
100
AcDbEntity
  8
DIMS
100
AcDbLine
 10
3.6666833958
 20
3.1647280157
 30
0.0
 11
3.9367620279
 21
3.4351225431
 31
0.0
  0
MTEXT
  5
1A4
330
197
100
AcDbEntity
  8
DIMS
100
AcDbMText
 10
3.9759342106
 20
4.6553245578
 30
0.0039370079
 40
0.3125
 41
0.0
 71
     1
 72
     1
  1
R2
  7
SLDTEXTSTYLE0
 73
     1
 44
1.0
  0
MTEXT
  5
1A5
330
197
100
AcDbEntity
  8
DIMS
100
AcDbMText
 10
4.5968833073
 20
4.8682224784
 30
0.0039370079
 40
0.3125
 41
0.0
 71
     1
 72
     1
  1
7
  7
SLDTEXTSTYLE0
 73
     1
 44
1.0
  0
MTEXT
  5
1A6
330
197
100
AcDbEntity
  8
DIMS
100
AcDbMText
 10
4.5968833073
 20
4.44270163
 30
0.0039370079
 40
0.3125
 41
0.0
 71
     1
 72
     1
  1
8
  7
SLDTEXTSTYLE0
 73
     1
 44
1.0
  0
MTEXT
  5
1A7
330
197
100
AcDbEntity
  8
DIMS
100
AcDbMText
 10
4.9169064604
 20
4.6553245578
 30
0.0039370079
 40
0.3125
 41
0.0
 71
     1
 72
     1
  1
"
  7
SLDTEXTSTYLE0
 73
     1
 44
1.0
  0
MTEXT
  5
1A8
330
197
100
AcDbEntity
  8
DIMS
100
AcDbMText
 10
4.4279018294
 20
3.9074007012
 30
0.0039370079
 40
0.3125
 41
0.0
 71
     1
 72
     1
  1
73
  7
SLDTEXTSTYLE0
 73
     1
 44
1.0
  0
ENDBLK
  5
199
330
197
100
AcDbEntity
  8
0
100
AcDbBlockEnd
  0
BLOCK
  5
1AB
330
1AA
100
AcDbEntity
  8
0
100
AcDbBlockBegin
  2
_D_8
 70
     0
 10
0.0
 20
0.0
 30
0.0
  3
_D_8
  1

  0
SOLID
  5
1AD
330
1AA
100
AcDbEntity
  8
DIMS
100
AcDbTrace
 10
9.2378129292
 20
17.6988478707
 30
0.0
 11
9.2067006496
 21
17.496618053
 31
0.0
 12
9.2689252089
 22
17.496618053
 32
0.0
 13
9.2689252089
 23
17.496618053
 33
0.0
  0
SOLID
  5
1AE
330
1AA
100
AcDbEntity
  8
DIMS
100
AcDbTrace
 10
9.2378129292
 20
1.6988478707
 30
0.0
 11
9.2689252089
 21
1.9010776885
 31
0.0
 12
9.2067006496
 22
1.9010776885
 32
0.0
 13
9.2067006496
 23
1.9010776885
 33
0.0
  0
LINE
  5
1AF
330
1AA
100
AcDbEntity
  8
DIMS
100
AcDbLine
 10
8.803785159
 20
7.5090485259
 30
0.0
 11
8.7343407154
 21
7.5090485259
 31
0.0
  0
LINE
  5
1B0
330
1AA
100
AcDbEntity
  8
DIMS
100
AcDbLine
 10
8.7343407154
 20
7.5090485259
 30
0.0
 11
8.7343407154
 21
7.0431920276
 31
0.0
  0
LINE
  5
1B1
330
1AA
100
AcDbEntity
  8
DIMS
100
AcDbLine
 10
8.7343407154
 20
7.0431920276
 30
0.0
 11
8.803785159
 21
7.0431920276
 31
0.0
  0
LINE
  5
1B2
330
1AA
100
AcDbEntity
  8
DIMS
100
AcDbLine
 10
9.6718406995
 20
7.5090485259
 30
0.0
 11
9.7412851431
 21
7.5090485259
 31
0.0
  0
LINE
  5
1B3
330
1AA
100
AcDbEntity
  8
DIMS
100
AcDbLine
 10
9.7412851431
 20
7.5090485259
 30
0.0
 11
9.7412851431
 21
7.0431920276
 31
0.0
  0
LINE
  5
1B4
330
1AA
100
AcDbEntity
  8
DIMS
100
AcDbLine
 10
9.7412851431
 20
7.0431920276
 30
0.0
 11
9.6718406995
 21
7.0431920276
 31
0.0
  0
LINE
  5
1B5
330
1AA
100
AcDbEntity
  8
DIMS
100
AcDbLine
 10
9.2378129292
 20
17.6988478707
 30
0.0
 11
9.2378129292
 21
7.995159677
 31
0.0
  0
LINE
  5
1B6
330
1AA
100
AcDbEntity
  8
DIMS
100
AcDbLine
 10
9.2378129292
 20
1.6988478707
 30
0.0
 11
9.2378129292
 21
6.9737476298
 31
0.0
  0
MTEXT
  5
1B7
330
1AA
100
AcDbEntity
  8
DIMS
100
AcDbMText
 10
8.7933684902
 20
7.9813266474
 30
0.0039370079
 40
0.3125
 41
0.0
 71
     1
 72
     1
  1
16"
  7
SLDTEXTSTYLE0
 73
     1
 44
1.0
  0
MTEXT
  5
1B8
330
1AA
100
AcDbEntity
  8
DIMS
100
AcDbMText
 10
8.8905907204
 20
7.4460257146
 30
0.0039370079
 40
0.3125
 41
0.0
 71
     1
 72
     1
  1
406
  7
SLDTEXTSTYLE0
 73
     1
 44
1.0
  0
ENDBLK
  5
1AC
330
1AA
100
AcDbEntity
  8
0
100
AcDbBlockEnd
  0
BLOCK
  5
1BB
330
1BA
100
AcDbEntity
  8
0
100
AcDbBlockBegin
  2
_D_9
 70
     0
 10
0.0
 20
0.0
 30
0.0
  3
_D_9
  1

  0
SOLID
  5
1BD
330
1BA
100
AcDbEntity
  8
DIMS
100
AcDbTrace
 10
10.5510876071
 20
17.0738478707
 30
0.0
 11
10.5199753275
 21
16.871618053
 31
0.0
 12
10.5821998867
 22
16.871618053
 32
0.0
 13
10.5821998867
 23
16.871618053
 33
0.0
  0
SOLID
  5
1BE
330
1BA
100
AcDbEntity
  8
DIMS
100
AcDbTrace
 10
10.5510876071
 20
2.3238478707
 30
0.0
 11
10.5821998867
 21
2.5260776885
 31
0.0
 12
10.5199753275
 22
2.5260776885
 32
0.0
 13
10.5199753275
 23
2.5260776885
 33
0.0
  0
LINE
  5
1BF
330
1BA
100
AcDbEntity
  8
DIMS
100
AcDbLine
 10
10.4095945733
 20
9.6471925607
 30
0.0
 11
10.7296177264
 21
9.6471925607
 31
0.0
  0
LINE
  5
1C0
330
1BA
100
AcDbEntity
  8
DIMS
100
AcDbLine
 10
10.1170598369
 20
9.1256647796
 30
0.0
 11
10.0476153933
 21
9.1256647796
 31
0.0
  0
LINE
  5
1C1
330
1BA
100
AcDbEntity
  8
DIMS
100
AcDbLine
 10
10.0476153933
 20
9.1256647796
 30
0.0
 11
10.0476153933
 21
8.6598082812
 31
0.0
  0
LINE
  5
1C2
330
1BA
100
AcDbEntity
  8
DIMS
100
AcDbLine
 10
10.0476153933
 20
8.6598082812
 30
0.0
 11
10.1170598369
 21
8.6598082812
 31
0.0
  0
LINE
  5
1C3
330
1BA
100
AcDbEntity
  8
DIMS
100
AcDbLine
 10
10.9851153773
 20
9.1256647796
 30
0.0
 11
11.0545598209
 21
9.1256647796
 31
0.0
  0
LINE
  5
1C4
330
1BA
100
AcDbEntity
  8
DIMS
100
AcDbLine
 10
11.0545598209
 20
9.1256647796
 30
0.0
 11
11.0545598209
 21
8.6598082812
 31
0.0
  0
LINE
  5
1C5
330
1BA
100
AcDbEntity
  8
DIMS
100
AcDbLine
 10
11.0545598209
 20
8.6598082812
 30
0.0
 11
10.9851153773
 21
8.6598082812
 31
0.0
  0
LINE
  5
1C6
330
1BA
100
AcDbEntity
  8
DIMS
100
AcDbLine
 10
10.5510876071
 20
17.0738478707
 30
0.0
 11
10.5510876071
 21
10.037296775
 31
0.0
  0
LINE
  5
1C7
330
1BA
100
AcDbEntity
  8
DIMS
100
AcDbLine
 10
10.5510876071
 20
2.3238478707
 30
0.0
 11
10.5510876071
 21
8.5903638101
 31
0.0
  0
MTEXT
  5
1C8
330
1BA
100
AcDbEntity
  8
DIMS
100
AcDbMText
 10
9.9023607879
 20
9.8105658248
 30
0.0039370079
 40
0.3125
 41
0.0
 71
     1
 72
     1
  1
14
  7
SLDTEXTSTYLE0
 73
     1
 44
1.0
  0
MTEXT
  5
1C9
330
1BA
100
AcDbEntity
  8
DIMS
100
AcDbMText
 10
10.4538654136
 20
10.0234637454
 30
0.0039370079
 40
0.3125
 41
0.0
 71
     1
 72
     1
  1
3
  7
SLDTEXTSTYLE0
 73
     1
 44
1.0
  0
MTEXT
  5
1CA
330
1BA
100
AcDbEntity
  8
DIMS
100
AcDbMText
 10
10.4538654136
 20
9.597942897
 30
0.0039370079
 40
0.3125
 41
0.0
 71
     1
 72
     1
  1
4
  7
SLDTEXTSTYLE0
 73
     1
 44
1.0
  0
MTEXT
  5
1CB
330
1BA
100
AcDbEntity
  8
DIMS
100
AcDbMText
 10
10.7738885666
 20
9.8105658248
 30
0.0039370079
 40
0.3125
 41
0.0
 71
     1
 72
     1
  1
"
  7
SLDTEXTSTYLE0
 73
     1
 44
1.0
  0
MTEXT
  5
1CC
330
1BA
100
AcDbEntity
  8
DIMS
100
AcDbMText
 10
10.2038653982
 20
9.0626419682
 30
0.0039370079
 40
0.3125
 41
0.0
 71
     1
 72
     1
  1
375
  7
SLDTEXTSTYLE0
 73
     1
 44
1.0
  0
ENDBLK
  5
1BC
330
1BA
100
AcDbEntity
  8
0
100
AcDbBlockEnd
  0
BLOCK
  5
1CF
330
1CE
100
AcDbEntity
  8
0
100
AcDbBlockBegin
  2
_D_10
 70
     0
 10
0.0
 20
0.0
 30
0.0
  3
_D_10
  1

  0
SOLID
  5
1D1
330
1CE
100
AcDbEntity
  8
DIMS
100
AcDbTrace
 10
2.823426838
 20
6.1747500883
 30
0.0
 11
3.0256566557
 21
6.1436378087
 31
0.0
 12
3.0256566557
 22
6.205862368
 32
0.0
 13
3.0256566557
 23
6.205862368
 33
0.0
  0
SOLID
  5
1D2
330
1CE
100
AcDbEntity
  8
DIMS
100
AcDbTrace
 10
31.323426838
 20
6.1747500883
 30
0.0
 11
31.1211970203
 21
6.205862368
 31
0.0
 12
31.1211970203
 22
6.1436378087
 32
0.0
 13
31.1211970203
 23
6.1436378087
 33
0.0
  0
LINE
  5
1D3
330
1CE
100
AcDbEntity
  8
DIMS
100
AcDbLine
 10
12.6964607295
 20
6.5081123565
 30
0.0
 11
13.0164838826
 21
6.5081123565
 31
0.0
  0
LINE
  5
1D4
330
1CE
100
AcDbEntity
  8
DIMS
100
AcDbLine
 10
12.4039259931
 20
5.9865845754
 30
0.0
 11
12.3344815495
 21
5.9865845754
 31
0.0
  0
LINE
  5
1D5
330
1CE
100
AcDbEntity
  8
DIMS
100
AcDbLine
 10
12.3344815495
 20
5.9865845754
 30
0.0
 11
12.3344815495
 21
5.520728077
 31
0.0
  0
LINE
  5
1D6
330
1CE
100
AcDbEntity
  8
DIMS
100
AcDbLine
 10
12.3344815495
 20
5.520728077
 30
0.0
 11
12.4039259931
 21
5.520728077
 31
0.0
  0
LINE
  5
1D7
330
1CE
100
AcDbEntity
  8
DIMS
100
AcDbLine
 10
13.2719815336
 20
5.9865845754
 30
0.0
 11
13.3414259772
 21
5.9865845754
 31
0.0
  0
LINE
  5
1D8
330
1CE
100
AcDbEntity
  8
DIMS
100
AcDbLine
 10
13.3414259772
 20
5.9865845754
 30
0.0
 11
13.3414259772
 21
5.520728077
 31
0.0
  0
LINE
  5
1D9
330
1CE
100
AcDbEntity
  8
DIMS
100
AcDbLine
 10
13.3414259772
 20
5.520728077
 30
0.0
 11
13.2719815336
 21
5.520728077
 31
0.0
  0
LINE
  5
1DA
330
1CE
100
AcDbEntity
  8
DIMS
100
AcDbLine
 10
2.823426838
 20
6.1747500883
 30
0.0
 11
12.1197606211
 21
6.1747500883
 31
0.0
  0
LINE
  5
1DB
330
1CE
100
AcDbEntity
  8
DIMS
100
AcDbLine
 10
31.323426838
 20
6.1747500883
 30
0.0
 11
13.5561469055
 21
6.1747500883
 31
0.0
  0
MTEXT
  5
1DC
330
1CE
100
AcDbEntity
  8
DIMS
100
AcDbMText
 10
12.1892269441
 20
6.6714856206
 30
0.0039370079
 40
0.3125
 41
0.0
 71
     1
 72
     1
  1
28
  7
SLDTEXTSTYLE0
 73
     1
 44
1.0
  0
MTEXT
  5
1DD
330
1CE
100
AcDbEntity
  8
DIMS
100
AcDbMText
 10
12.7407315698
 20
6.8843835412
 30
0.0039370079
 40
0.3125
 41
0.0
 71
     1
 72
     1
  1
1
  7
SLDTEXTSTYLE0
 73
     1
 44
1.0
  0
MTEXT
  5
1DE
330
1CE
100
AcDbEntity
  8
DIMS
100
AcDbMText
 10
12.7407315698
 20
6.4588626928
 30
0.0039370079
 40
0.3125
 41
0.0
 71
     1
 72
     1
  1
2
  7
SLDTEXTSTYLE0
 73
     1
 44
1.0
  0
MTEXT
  5
1DF
330
1CE
100
AcDbEntity
  8
DIMS
100
AcDbMText
 10
13.0607547228
 20
6.6714856206
 30
0.0039370079
 40
0.3125
 41
0.0
 71
     1
 72
     1
  1
"
  7
SLDTEXTSTYLE0
 73
     1
 44
1.0
  0
MTEXT
  5
1E0
330
1CE
100
AcDbEntity
  8
DIMS
100
AcDbMText
 10
12.4907315545
 20
5.923561764
 30
0.0039370079
 40
0.3125
 41
0.0
 71
     1
 72
     1
  1
724
  7
SLDTEXTSTYLE0
 73
     1
 44
1.0
  0
ENDBLK
  5
1D0
330
1CE
100
AcDbEntity
  8
0
100
AcDbBlockEnd
  0
BLOCK
  5
1E3
330
1E2
100
AcDbEntity
  8
0
100
AcDbBlockBegin
  2
_D_11
 70
     0
 10
0.0
 20
0.0
 30
0.0
  3
_D_11
  1

  0
SOLID
  5
1E5
330
1E2
100
AcDbEntity
  8
DIMS
100
AcDbTrace
 10
2.198426838
 20
5.2954877211
 30
0.0
 11
2.4006566557
 21
5.2643754414
 31
0.0
 12
2.4006566557
 22
5.3266000007
 32
0.0
 13
2.4006566557
 23
5.3266000007
 33
0.0
  0
SOLID
  5
1E6
330
1E2
100
AcDbEntity
  8
DIMS
100
AcDbTrace
 10
31.948426838
 20
5.2954877211
 30
0.0
 11
31.7461970203
 21
5.3266000007
 31
0.0
 12
31.7461970203
 22
5.2643754414
 32
0.0
 13
31.7461970203
 23
5.2643754414
 33
0.0
  0
LINE
  5
1E7
330
1E2
100
AcDbEntity
  8
DIMS
100
AcDbLine
 10
15.8929272656
 20
5.6288499892
 30
0.0
 11
16.2129504186
 21
5.6288499892
 31
0.0
  0
LINE
  5
1E8
330
1E2
100
AcDbEntity
  8
DIMS
100
AcDbLine
 10
15.6003925291
 20
5.1073222081
 30
0.0
 11
15.5309480855
 21
5.1073222081
 31
0.0
  0
LINE
  5
1E9
330
1E2
100
AcDbEntity
  8
DIMS
100
AcDbLine
 10
15.5309480855
 20
5.1073222081
 30
0.0
 11
15.5309480855
 21
4.6414657097
 31
0.0
  0
LINE
  5
1EA
330
1E2
100
AcDbEntity
  8
DIMS
100
AcDbLine
 10
15.5309480855
 20
4.6414657097
 30
0.0
 11
15.6003925291
 21
4.6414657097
 31
0.0
  0
LINE
  5
1EB
330
1E2
100
AcDbEntity
  8
DIMS
100
AcDbLine
 10
16.4684480696
 20
5.1073222081
 30
0.0
 11
16.5378925132
 21
5.1073222081
 31
0.0
  0
LINE
  5
1EC
330
1E2
100
AcDbEntity
  8
DIMS
100
AcDbLine
 10
16.5378925132
 20
5.1073222081
 30
0.0
 11
16.5378925132
 21
4.6414657097
 31
0.0
  0
LINE
  5
1ED
330
1E2
100
AcDbEntity
  8
DIMS
100
AcDbLine
 10
16.5378925132
 20
4.6414657097
 30
0.0
 11
16.4684480696
 21
4.6414657097
 31
0.0
  0
LINE
  5
1EE
330
1E2
100
AcDbEntity
  8
DIMS
100
AcDbLine
 10
2.198426838
 20
5.2954877211
 30
0.0
 11
15.3162271571
 21
5.2954877211
 31
0.0
  0
LINE
  5
1EF
330
1E2
100
AcDbEntity
  8
DIMS
100
AcDbLine
 10
31.948426838
 20
5.2954877211
 30
0.0
 11
16.7526134416
 21
5.2954877211
 31
0.0
  0
MTEXT
  5
1F0
330
1E2
100
AcDbEntity
  8
DIMS
100
AcDbMText
 10
15.3856934802
 20
5.7922232533
 30
0.0039370079
 40
0.3125
 41
0.0
 71
     1
 72
     1
  1
29
  7
SLDTEXTSTYLE0
 73
     1
 44
1.0
  0
MTEXT
  5
1F1
330
1E2
100
AcDbEntity
  8
DIMS
100
AcDbMText
 10
15.9371981058
 20
6.0051211739
 30
0.0039370079
 40
0.3125
 41
0.0
 71
     1
 72
     1
  1
3
  7
SLDTEXTSTYLE0
 73
     1
 44
1.0
  0
MTEXT
  5
1F2
330
1E2
100
AcDbEntity
  8
DIMS
100
AcDbMText
 10
15.9371981058
 20
5.5796003255
 30
0.0039370079
 40
0.3125
 41
0.0
 71
     1
 72
     1
  1
4
  7
SLDTEXTSTYLE0
 73
     1
 44
1.0
  0
MTEXT
  5
1F3
330
1E2
100
AcDbEntity
  8
DIMS
100
AcDbMText
 10
16.2572212589
 20
5.7922232533
 30
0.0039370079
 40
0.3125
 41
0.0
 71
     1
 72
     1
  1
"
  7
SLDTEXTSTYLE0
 73
     1
 44
1.0
  0
MTEXT
  5
1F4
330
1E2
100
AcDbEntity
  8
DIMS
100
AcDbMText
 10
15.6871980905
 20
5.0442993967
 30
0.0039370079
 40
0.3125
 41
0.0
 71
     1
 72
     1
  1
756
  7
SLDTEXTSTYLE0
 73
     1
 44
1.0
  0
ENDBLK
  5
1E4
330
1E2
100
AcDbEntity
  8
0
100
AcDbBlockEnd
  0
BLOCK
  5
1F7
330
1F6
100
AcDbEntity
  8
0
100
AcDbBlockBegin
  2
_D_12
 70
     0
 10
0.0
 20
0.0
 30
0.0
  3
_D_12
  1

  0
SOLID
  5
1F9
330
1F6
100
AcDbEntity
  8
DIMS
100
AcDbTrace
 10
5.5258048267
 20
16.4920028205
 30
0.0
 11
5.5880801008
 21
16.2971011444
 31
0.0
 12
5.6437834821
 22
16.3248325181
 32
0.0
 13
5.6437834821
 23
16.3248325181
 33
0.0
  0
LINE
  5
1FA
330
1F6
100
AcDbEntity
  8
DIMS
100
AcDbLine
 10
6.1200770151
 20
15.4171958741
 30
0.0
 11
6.4401001682
 21
15.4171958741
 31
0.0
  0
LINE
  5
1FB
330
1F6
100
AcDbEntity
  8
DIMS
100
AcDbLine
 10
5.7928200798
 20
14.895668093
 30
0.0
 11
5.7233756361
 21
14.895668093
 31
0.0
  0
LINE
  5
1FC
330
1F6
100
AcDbEntity
  8
DIMS
100
AcDbLine
 10
5.7233756361
 20
14.895668093
 30
0.0
 11
5.7233756361
 21
14.4298115946
 31
0.0
  0
LINE
  5
1FD
330
1F6
100
AcDbEntity
  8
DIMS
100
AcDbLine
 10
5.7233756361
 20
14.4298115946
 30
0.0
 11
5.7928200798
 21
14.4298115946
 31
0.0
  0
LINE
  5
1FE
330
1F6
100
AcDbEntity
  8
DIMS
100
AcDbLine
 10
6.6608756202
 20
14.895668093
 30
0.0
 11
6.7303200638
 21
14.895668093
 31
0.0
  0
LINE
  5
1FF
330
1F6
100
AcDbEntity
  8
DIMS
100
AcDbLine
 10
6.7303200638
 20
14.895668093
 30
0.0
 11
6.7303200638
 21
14.4298115946
 31
0.0
  0
LINE
  5
200
330
1F6
100
AcDbEntity
  8
DIMS
100
AcDbLine
 10
6.7303200638
 20
14.4298115946
 30
0.0
 11
6.6608756202
 21
14.4298115946
 31
0.0
  0
LINE
  5
201
330
1F6
100
AcDbEntity
  8
DIMS
100
AcDbLine
 10
7.698426838
 20
12.1279062821
 30
0.0
 11
6.5870184352
 21
14.3603671235
 31
0.0
  0
LINE
  5
202
330
1F6
100
AcDbEntity
  8
DIMS
100
AcDbLine
 10
5.5258048267
 20
16.4920028205
 30
0.0
 11
5.8666772648
 21
15.8073000884
 31
0.0
  0
MTEXT
  5
203
330
1F6
100
AcDbEntity
  8
DIMS
100
AcDbMText
 10
5.5433987586
 20
15.5805691382
 30
0.0039370079
 40
0.3125
 41
0.0
 71
     1
 72
     1
  1
R4
  7
SLDTEXTSTYLE0
 73
     1
 44
1.0
  0
MTEXT
  5
204
330
1F6
100
AcDbEntity
  8
DIMS
100
AcDbMText
 10
6.1643478553
 20
15.7934670588
 30
0.0039370079
 40
0.3125
 41
0.0
 71
     1
 72
     1
  1
7
  7
SLDTEXTSTYLE0
 73
     1
 44
1.0
  0
MTEXT
  5
205
330
1F6
100
AcDbEntity
  8
DIMS
100
AcDbMText
 10
6.1643478553
 20
15.3679462104
 30
0.0039370079
 40
0.3125
 41
0.0
 71
     1
 72
     1
  1
8
  7
SLDTEXTSTYLE0
 73
     1
 44
1.0
  0
MTEXT
  5
206
330
1F6
100
AcDbEntity
  8
DIMS
100
AcDbMText
 10
6.4843710084
 20
15.5805691382
 30
0.0039370079
 40
0.3125
 41
0.0
 71
     1
 72
     1
  1
"
  7
SLDTEXTSTYLE0
 73
     1
 44
1.0
  0
MTEXT
  5
207
330
1F6
100
AcDbEntity
  8
DIMS
100
AcDbMText
 10
5.8796256411
 20
14.8326452816
 30
0.0039370079
 40
0.3125
 41
0.0
 71
     1
 72
     1
  1
124
  7
SLDTEXTSTYLE0
 73
     1
 44
1.0
  0
ENDBLK
  5
1F8
330
1F6
100
AcDbEntity
  8
0
100
AcDbBlockEnd
  0
BLOCK
  5
20A
330
209
100
AcDbEntity
  8
0
100
AcDbBlockBegin
  2
_D_13
 70
     0
 10
0.0
 20
0.0
 30
0.0
  3
_D_13
  1

  0
SOLID
  5
20C
330
209
100
AcDbEntity
  8
DIMS
100
AcDbTrace
 10
16.1033140393
 20
17.092805723
 30
0.0
 11
16.0930198018
 21
16.8884557737
 31
0.0
 12
16.1549189421
 22
16.8948112607
 32
0.0
 13
16.1549189421
 23
16.8948112607
 33
0.0
  0
LINE
  5
20D
330
209
100
AcDbEntity
  8
DIMS
100
AcDbLine
 10
17.1255795899
 20
15.445958238
 30
0.0
 11
17.4456027429
 21
15.445958238
 31
0.0
  0
LINE
  5
20E
330
209
100
AcDbEntity
  8
DIMS
100
AcDbLine
 10
16.9140633908
 20
14.9244304569
 30
0.0
 11
16.8446189472
 21
14.9244304569
 31
0.0
  0
LINE
  5
20F
330
209
100
AcDbEntity
  8
DIMS
100
AcDbLine
 10
16.8446189472
 20
14.9244304569
 30
0.0
 11
16.8446189472
 21
14.4585739585
 31
0.0
  0
LINE
  5
210
330
209
100
AcDbEntity
  8
DIMS
100
AcDbLine
 10
16.8446189472
 20
14.4585739585
 30
0.0
 11
16.9140633908
 21
14.4585739585
 31
0.0
  0
LINE
  5
211
330
209
100
AcDbEntity
  8
DIMS
100
AcDbLine
 10
17.5506374587
 20
14.9244304569
 30
0.0
 11
17.6200819023
 21
14.9244304569
 31
0.0
  0
LINE
  5
212
330
209
100
AcDbEntity
  8
DIMS
100
AcDbLine
 10
17.6200819023
 20
14.9244304569
 30
0.0
 11
17.6200819023
 21
14.4585739585
 31
0.0
  0
LINE
  5
213
330
209
100
AcDbEntity
  8
DIMS
100
AcDbLine
 10
17.6200819023
 20
14.4585739585
 30
0.0
 11
17.5506374587
 21
14.4585739585
 31
0.0
  0
LINE
  5
214
330
209
100
AcDbEntity
  8
DIMS
100
AcDbLine
 10
16.1033140393
 20
17.092805723
 30
0.0
 11
16.2989013334
 21
15.1878871209
 31
0.0
  0
LINE
  5
215
330
209
100
AcDbEntity
  8
DIMS
100
AcDbLine
 10
16.2989013334
 20
15.1878871209
 30
0.0
 11
16.5489013334
 21
15.1878871209
 31
0.0
  0
MTEXT
  5
216
330
209
100
AcDbEntity
  8
DIMS
100
AcDbMText
 10
16.5489013334
 20
15.6093315021
 30
0.0039370079
 40
0.3125
 41
0.0
 71
     1
 72
     1
  1
R3
  7
SLDTEXTSTYLE0
 73
     1
 44
1.0
  0
MTEXT
  5
217
330
209
100
AcDbEntity
  8
DIMS
100
AcDbMText
 10
17.1698504301
 20
15.8222294227
 30
0.0039370079
 40
0.3125
 41
0.0
 71
     1
 72
     1
  1
5
  7
SLDTEXTSTYLE0
 73
     1
 44
1.0
  0
MTEXT
  5
218
330
209
100
AcDbEntity
  8
DIMS
100
AcDbMText
 10
17.1698504301
 20
15.3967085743
 30
0.0039370079
 40
0.3125
 41
0.0
 71
     1
 72
     1
  1
8
  7
SLDTEXTSTYLE0
 73
     1
 44
1.0
  0
MTEXT
  5
219
330
209
100
AcDbEntity
  8
DIMS
100
AcDbMText
 10
17.4898735832
 20
15.6093315021
 30
0.0039370079
 40
0.3125
 41
0.0
 71
     1
 72
     1
  1
"
  7
SLDTEXTSTYLE0
 73
     1
 44
1.0
  0
MTEXT
  5
21A
330
209
100
AcDbEntity
  8
DIMS
100
AcDbMText
 10
17.0008689522
 20
14.8614076455
 30
0.0039370079
 40
0.3125
 41
0.0
 71
     1
 72
     1
  1
92
  7
SLDTEXTSTYLE0
 73
     1
 44
1.0
  0
ENDBLK
  5
20B
330
209
100
AcDbEntity
  8
0
100
AcDbBlockEnd
  0
BLOCK
  5
21D
330
21C
100
AcDbEntity
  8
0
100
AcDbBlockBegin
  2
_D_14
 70
     0
 10
0.0
 20
0.0
 30
0.0
  3
_D_14
  1

  0
SOLID
  5
21F
330
21C
100
AcDbEntity
  8
DIMS
100
AcDbTrace
 10
17.2169494681
 20
18.0915342784
 30
0.0
 11
17.2899382684
 21
17.9003864085
 31
0.0
 12
17.3440179149
 22
17.9311644465
 32
0.0
 13
17.3440179149
 23
17.9311644465
 33
0.0
  0
LINE
  5
220
330
21C
100
AcDbEntity
  8
DIMS
100
AcDbLine
 10
18.8665325429
 20
15.9174857386
 30
0.0
 11
18.7970880993
 21
15.9174857386
 31
0.0
  0
LINE
  5
221
330
21C
100
AcDbEntity
  8
DIMS
100
AcDbLine
 10
18.7970880993
 20
15.9174857386
 30
0.0
 11
18.7970880993
 21
15.4516292402
 31
0.0
  0
LINE
  5
222
330
21C
100
AcDbEntity
  8
DIMS
100
AcDbLine
 10
18.7970880993
 20
15.4516292402
 30
0.0
 11
18.8665325429
 21
15.4516292402
 31
0.0
  0
LINE
  5
223
330
21C
100
AcDbEntity
  8
DIMS
100
AcDbLine
 10
19.5031066109
 20
15.9174857386
 30
0.0
 11
19.5725510545
 21
15.9174857386
 31
0.0
  0
LINE
  5
224
330
21C
100
AcDbEntity
  8
DIMS
100
AcDbLine
 10
19.5725510545
 20
15.9174857386
 30
0.0
 11
19.5725510545
 21
15.4516292402
 31
0.0
  0
LINE
  5
225
330
21C
100
AcDbEntity
  8
DIMS
100
AcDbLine
 10
19.5725510545
 20
15.4516292402
 30
0.0
 11
19.5031066109
 21
15.4516292402
 31
0.0
  0
LINE
  5
226
330
21C
100
AcDbEntity
  8
DIMS
100
AcDbLine
 10
17.2169494681
 20
18.0915342784
 30
0.0
 11
18.4556529389
 21
15.9150262862
 31
0.0
  0
LINE
  5
227
330
21C
100
AcDbEntity
  8
DIMS
100
AcDbLine
 10
18.4556529389
 20
15.9150262862
 30
0.0
 11
18.7056529389
 21
15.9150262862
 31
0.0
  0
MTEXT
  5
228
330
21C
100
AcDbEntity
  8
DIMS
100
AcDbMText
 10
18.7056529389
 20
16.3897638601
 30
0.0039370079
 40
0.3125
 41
0.0
 71
     1
 72
     1
  1
R3"
  7
SLDTEXTSTYLE0
 73
     1
 44
1.0
  0
MTEXT
  5
229
330
21C
100
AcDbEntity
  8
DIMS
100
AcDbMText
 10
18.9533381043
 20
15.8544629272
 30
0.0039370079
 40
0.3125
 41
0.0
 71
     1
 72
     1
  1
76
  7
SLDTEXTSTYLE0
 73
     1
 44
1.0
  0
ENDBLK
  5
21E
330
21C
100
AcDbEntity
  8
0
100
AcDbBlockEnd
  0
BLOCK
  5
22B
330
22A
100
AcDbEntity
  8
0
100
AcDbBlockBegin
  2
SW_NOTE_0
 70
     0
 10
0.0
 20
0.0
 30
0.0
  3
SW_NOTE_0
  1

  0
MTEXT
  5
22D
330
22A
100
AcDbEntity
  8
NOTES
 62
     0
100
AcDbMText
 10
0.0
 20
0.1879890454
 30
0.0
 40
0.1458333333
 41
0.0
 71
     1
 72
     1
  1
NOTES:
  7
SLDTEXTSTYLE0
 73
     1
 44
1.0
  0
MTEXT
  5
22E
330
22A
100
AcDbEntity
  8
NOTES
 62
     0
100
AcDbMText
 10
0.3937007786
 20
-0.2008998388
 30
0.0
 40
0.1458333333
 41
0.0
 71
     1
 72
     1
  1
THOROUGHLY READ ALL  INSTALLATION INSTRUCTIONS
  7
SLDTEXTSTYLE0
 73
     1
 44
1.0
  0
MTEXT
  5
22F
330
22A
100
AcDbEntity
  8
NOTES
 62
     0
100
AcDbMText
 10
0.0
 20
-0.2008998388
 30
0.0
 40
0.1458333333
 41
0.0
 71
     1
 72
     1
  1
1.
  7
SLDTEXTSTYLE0
 73
     1
 44
1.0
  0
MTEXT
  5
230
330
22A
100
AcDbEntity
  8
NOTES
 62
     0
100
AcDbMText
 10
0.0
 20
-0.3953442809
 30
0.0
 40
0.1458333333
 41
0.0
 71
     1
 72
     1
  1
BEFORE CUTTING COUNTERTOP.
  7
SLDTEXTSTYLE0
 73
     1
 44
1.0
  0
MTEXT
  5
231
330
22A
100
AcDbEntity
  8
NOTES
 62
     0
100
AcDbMText
 10
0.0
 20
-0.7842331651
 30
0.0
 40
0.1458333333
 41
0.0
 71
     1
 72
     1
  1
2.  DIMENSIONS ARE IN INCHES [MM].
  7
SLDTEXTSTYLE0
 73
     1
 44
1.0
  0
MTEXT
  5
232
330
22A
100
AcDbEntity
  8
NOTES
 62
     0
100
AcDbMText
 10
0.0
 20
-1.3675664914
 30
0.0
 40
0.1458333333
 41
0.0
 71
     1
 72
     1
  1
PLEASE CHECK TEMPLATE AGAINST PHYSICAL SINK FOR MOST ACCURATE CUT.
  7
SLDTEXTSTYLE0
 73
     1
 44
1.0
  0
MTEXT
  5
233
330
22A
100
AcDbEntity
  8
NOTES
 62
     0
100
AcDbMText
 10
0.0
 20
-2.1453442598
 30
0.0
 40
0.1458333333
 41
0.0
 71
     1
 72
     1
  1
NOTAS:
  7
SLDTEXTSTYLE0
 73
     1
 44
1.0
  0
MTEXT
  5
234
330
22A
100
AcDbEntity
  8
NOTES
 62
     0
100
AcDbMText
 10
0.0
 20
-2.5342331439
 30
0.0
 40
0.1458333333
 41
0.0
 71
     1
 72
     1
  1
1.  LEA ATENTAMENTE LAS INSTRUCCIONES DE INSTALACIÓN ANTES DE CORTAR LA
  7
SLDTEXTSTYLE0
 73
     1
 44
1.0
  0
MTEXT
  5
235
330
22A
100
AcDbEntity
  8
NOTES
 62
     0
100
AcDbMText
 10
0.0
 20
-2.728677586
 30
0.0
 40
0.1458333333
 41
0.0
 71
     1
 72
     1
  1
ENCIMERA.
  7
SLDTEXTSTYLE0
 73
     1
 44
1.0
  0
MTEXT
  5
236
330
22A
100
AcDbEntity
  8
NOTES
 62
     0
100
AcDbMText
 10
0.0
 20
-3.1175664702
 30
0.0
 40
0.1458333333
 41
0.0
 71
     1
 72
     1
  1
2.  DIMENSIONES EN PULGADAS [MM].
  7
SLDTEXTSTYLE0
 73
     1
 44
1.0
  0
MTEXT
  5
237
330
22A
100
AcDbEntity
  8
NOTES
 62
     0
100
AcDbMText
 10
0.0
 20
-3.7008997965
 30
0.0
 40
0.1458333333
 41
0.0
 71
     1
 72
     1
  1
POR FAVOR COMPRUEBE PLANTILLA CONTRA FREGADERO FÍSICO PARA CORTE MÁS
  7
SLDTEXTSTYLE0
 73
     1
 44
1.0
  0
MTEXT
  5
238
330
22A
100
AcDbEntity
  8
NOTES
 62
     0
100
AcDbMText
 10
0.0
 20
-3.8953442386
 30
0.0
 40
0.1458333333
 41
0.0
 71
     1
 72
     1
  1
EXACTO.
  7
SLDTEXTSTYLE0
 73
     1
 44
1.0
  0
ENDBLK
  5
22C
330
22A
100
AcDbEntity
  8
0
100
AcDbBlockEnd
  0
BLOCK
  5
23B
330
23A
100
AcDbEntity
  8
0
100
AcDbBlockBegin
  2
SW_NOTE_1
 70
     0
 10
0.0
 20
0.0
 30
0.0
  3
SW_NOTE_1
  1

  0
MTEXT
  5
23D
330
23A
100
AcDbEntity
  8
NOTES
 62
     0
100
AcDbMText
 10
1.0850481013
 20
0.8243548672
 30
0.0
 40
0.25
 41
0.0
 71
     2
 72
     1
  1
TEMPLATE
  7
SLDTEXTSTYLE0
 73
     1
 44
1.0
  0
MTEXT
  5
23E
330
23A
100
AcDbEntity
  8
NOTES
 62
     0
100
AcDbMText
 10
1.0888097203
 20
0.4910215379
 30
0.0
 40
0.25
 41
0.0
 71
     2
 72
     1
  1
CENTERLINE
  7
SLDTEXTSTYLE0
 73
     1
 44
1.0
  0
MTEXT
  5
23F
330
23A
100
AcDbEntity
  8
NOTES
 62
     0
100
AcDbMText
 10
1.0889543513
 20
-0.1756451207
 30
0.0
 40
0.25
 41
0.0
 71
     2
 72
     1
  1
PLANTILLA
  7
SLDTEXTSTYLE0
 73
     1
 44
1.0
  0
MTEXT
  5
240
330
23A
100
AcDbEntity
  8
NOTES
 62
     0
100
AcDbMText
 10
1.085337458
 20
-0.50897845
 30
0.0
 40
0.25
 41
0.0
 71
     2
 72
     1
  1
CENTRAL
  7
SLDTEXTSTYLE0
 73
     1
 44
1.0
  0
ENDBLK
  5
23C
330
23A
100
AcDbEntity
  8
0
100
AcDbBlockEnd
  0
BLOCK
  5
246
330
245
100
AcDbEntity
  8
0
100
AcDbBlockBegin
  2
SW_NOTE_2
 70
     0
 10
0.0
 20
0.0
 30
0.0
  3
SW_NOTE_2
  1

  0
MTEXT
  5
248
330
245
100
AcDbEntity
  8
NOTES
 62
     0
100
AcDbMText
 10
0.0241589389
 20
0.2689977951
 30
0.0
 40
0.2083333333
 41
0.0
 71
     1
 72
     1
  1
1/2" REVEAL
  7
SLDTEXTSTYLE0
 73
     1
 44
1.0
  0
MTEXT
  5
249
330
245
100
AcDbEntity
  8
NOTES
 62
     0
100
AcDbMText
 10
0.0241589389
 20
-0.0087799793
 30
0.0
 40
0.2083333333
 41
0.0
 71
     1
 72
     1
  1
[12.7 REVELADO]
  7
SLDTEXTSTYLE0
 73
     1
 44
1.0
  0
ENDBLK
  5
247
330
245
100
AcDbEntity
  8
0
100
AcDbBlockEnd
  0
BLOCK
  5
24D
330
24C
100
AcDbEntity
  8
0
100
AcDbBlockBegin
  2
SW_NOTE_3
 70
     0
 10
0.0
 20
0.0
 30
0.0
  3
SW_NOTE_3
  1

  0
MTEXT
  5
24F
330
24C
100
AcDbEntity
  8
NOTES
 62
     0
100
AcDbMText
 10
0.0198389711
 20
0.2710217885
 30
0.0
 40
0.2083333333
 41
0.0
 71
     1
 72
     1
  1
1/8" OVERHANG
  7
SLDTEXTSTYLE0
 73
     1
 44
1.0
  0
MTEXT
  5
250
330
24C
100
AcDbEntity
  8
NOTES
 62
     0
100
AcDbMText
 10
0.0198389711
 20
-0.0067559859
 30
0.0
 40
0.2083333333
 41
0.0
 71
     1
 72
     1
  1
[3.2 SOBRESALIENTE]
  7
SLDTEXTSTYLE0
 73
     1
 44
1.0
  0
ENDBLK
  5
24E
330
24C
100
AcDbEntity
  8
0
100
AcDbBlockEnd
  0
BLOCK
  5
255
330
254
100
AcDbEntity
  8
0
100
AcDbBlockBegin
  2
SW_NOTE_4
 70
     0
 10
0.0
 20
0.0
 30
0.0
  3
SW_NOTE_4
  1

  0
MTEXT
  5
257
330
254
100
AcDbEntity
  8
NOTES
 62
     0
100
AcDbMText
 10
6.8619791667
 20
1.0742231165
 30
0.0
 40
0.8333333333
 41
0.0
 71
     2
 72
     1
  1
TEMPLATE #: 1000001514
  7
SLDTEXTSTYLE0
 73
     1
 44
1.0
  0
MTEXT
  5
258
330
254
100
AcDbEntity
  8
NOTES
 62
     0
100
AcDbMText
 10
6.8513248959
 20
-0.0184439723
 30
0.0
 40
0.4166666667
 41
0.0
 71
     2
 72
     1
  1
DUAL LEFT UNDERMOUNT TEMPLATE 31" X 19" D-SHAPE
  7
SLDTEXTSTYLE0
 73
     1
 44
1.0
  0
MTEXT
  5
259
330
254
100
AcDbEntity
  8
NOTES
 62
     0
100
AcDbMText
 10
6.8231582892
 20
-0.5739995211
 30
0.0
 40
0.4166666667
 41
0.0
 71
     2
 72
     1
  1
*SMALL BOWL ON LEFT
  7
SLDTEXTSTYLE0
 73
     1
 44
1.0
  0
ENDBLK
  5
256
330
254
100
AcDbEntity
  8
0
100
AcDbBlockEnd
  0
ENDSEC
  0
SECTION
  2
ENTITIES
  0
LINE
  5
DF
330
1F
100
AcDbEntity
  8
OBJECTS
  6
CENTERX2
 62
     1
100
AcDbLine
 10
5.698426838
 20
2.3238478707
 30
0.0
 11
28.448426838
 21
2.3238478707
 31
0.0
  0
LINE
  5
E0
330
1F
100
AcDbEntity
  8
OBJECTS
  6
CENTERX2
 62
     1
100
AcDbLine
 10
31.323426838
 20
5.1988478707
 30
0.0
 11
31.323426838
 21
12.627051101
 31
0.0
  0
LINE
  5
E1
330
1F
100
AcDbEntity
  8
OBJECTS
  6
CENTERX2
 62
     1
100
AcDbLine
 10
8.448426838
 20
17.0738478707
 30
0.0
 11
15.7330640847
 21
17.0738478707
 31
0.0
  0
LINE
  5
E2
330
1F
100
AcDbEntity
  8
OBJECTS
  6
CENTERX2
 62
     1
100
AcDbLine
 10
2.823426838
 20
12.1279062821
 30
0.0
 11
2.823426838
 21
5.1988478707
 31
0.0
  0
LINE
  5
E3
330
1F
100
AcDbEntity
  8
OBJECTS
100
AcDbLine
 10
5.698426838
 20
1.6988478707
 30
0.0
 11
28.448426838
 21
1.6988478707
 31
0.0
  0
LINE
  5
E4
330
1F
100
AcDbEntity
  8
OBJECTS
100
AcDbLine
 10
31.948426838
 20
5.1988478707
 30
0.0
 11
31.948426838
 21
12.627051101
 31
0.0
  0
LINE
  5
E5
330
1F
100
AcDbEntity
  8
OBJECTS
100
AcDbLine
 10
8.448426838
 20
17.6988478707
 30
0.0
 11
15.7330640847
 21
17.6988478707
 31
0.0
  0
LINE
  5
E6
330
1F
100
AcDbEntity
  8
OBJECTS
100
AcDbLine
 10
2.198426838
 20
12.1279062821
 30
0.0
 11
2.198426838
 21
5.1988478707
 31
0.0
  0
LINE
  5
E7
330
1F
100
AcDbEntity
  8
OBJECTS
  6
CENTERX2
100
AcDbLine
 10
17.073426838
 20
1.6988478707
 30
0.0
 11
17.073426838
 21
3.8150651229
 31
0.0
  0
LINE
  5
E8
330
1F
100
AcDbEntity
  8
OBJECTS
  6
CENTERX2
100
AcDbLine
 10
17.073426838
 20
15.8987104093
 30
0.0
 11
17.073426838
 21
18.0149276615
 31
0.0
  0
LINE
  5
E9
330
1F
100
AcDbEntity
  8
OBJECTS
  6
CENTERX2
100
AcDbLine
 10
29.8322095859
 20
10.9488478707
 30
0.0
 11
31.948426838
 21
10.9488478707
 31
0.0
  0
LINE
  5
EA
330
1F
100
AcDbEntity
  8
OBJECTS
  6
CENTERX2
100
AcDbLine
 10
4.3146440902
 20
10.9488478707
 30
0.0
 11
2.198426838
 21
10.9488478707
 31
0.0
  0
ARC
  5
EB
330
1F
100
AcDbEntity
  8
OBJECTS
  6
CENTERX2
 62
     1
100
AcDbCircle
 10
28.448426838
 20
5.1988478707
 30
0.0
 40
2.875000000000004
100
AcDbArc
 50
270.0
 51
0.0
  0
ARC
  5
EC
330
1F
100
AcDbEntity
  8
OBJECTS
  6
CENTERX2
 62
     1
100
AcDbCircle
 10
24.448426838
 20
12.627051101
 30
0.0
 40
6.875000000000001
100
AcDbArc
 50
0.0
 51
81.7867892983
  0
ARC
  5
ED
330
1F
100
AcDbEntity
  8
OBJECTS
  6
CENTERX2
 62
     1
100
AcDbCircle
 10
23.448426838
 20
5.6988478707
 30
0.0
 40
13.875
100
AcDbArc
 50
81.7867892983
 51
98.2132107017
  0
ARC
  5
EE
330
1F
100
AcDbEntity
  8
OBJECTS
  6
CENTERX2
 62
     1
100
AcDbCircle
 10
22.448426838
 20
12.627051101
 30
0.0
 40
6.875000000000001
100
AcDbArc
 50
98.2132107017
 51
129.7588952061
  0
ARC
  5
EF
330
1F
100
AcDbEntity
  8
OBJECTS
  6
CENTERX2
 62
     1
100
AcDbCircle
 10
15.7330640847
 20
20.6988478707
 30
0.0
 40
3.625
100
AcDbArc
 50
270.0
 51
309.7588952061
  0
ARC
  5
F0
330
1F
100
AcDbEntity
  8
OBJECTS
  6
CENTERX2
 62
     1
100
AcDbCircle
 10
8.448426838
 20
8.1988478707
 30
0.0
 40
8.875
100
AcDbArc
 50
90.0
 51
100.8069228749
  0
ARC
  5
F1
330
1F
100
AcDbEntity
  8
OBJECTS
  6
CENTERX2
 62
     1
100
AcDbCircle
 10
7.698426838
 20
12.1279062821
 30
0.0
 40
4.875000000000001
100
AcDbArc
 50
100.8069228749
 51
180.0
  0
ARC
  5
F2
330
1F
100
AcDbEntity
  8
OBJECTS
  6
CENTERX2
 62
     1
100
AcDbCircle
 10
5.698426838
 20
5.1988478707
 30
0.0
 40
2.875
100
AcDbArc
 50
180.0
 51
270.0
  0
ARC
  5
F3
330
1F
100
AcDbEntity
  8
OBJECTS
100
AcDbCircle
 10
28.448426838
 20
5.1988478707
 30
0.0
 40
3.500000000000001
100
AcDbArc
 50
270.0
 51
0.0
  0
ARC
  5
F4
330
1F
100
AcDbEntity
  8
OBJECTS
100
AcDbCircle
 10
24.448426838
 20
12.627051101
 30
0.0
 40
7.5
100
AcDbArc
 50
0.0
 51
81.7867892983
  0
ARC
  5
F5
330
1F
100
AcDbEntity
  8
OBJECTS
100
AcDbCircle
 10
23.448426838
 20
5.6988478707
 30
0.0
 40
14.49999999999999
100
AcDbArc
 50
81.7867892983
 51
98.2132107017
  0
ARC
  5
F6
330
1F
100
AcDbEntity
  8
OBJECTS
100
AcDbCircle
 10
22.448426838
 20
12.627051101
 30
0.0
 40
7.499999999999997
100
AcDbArc
 50
98.2132107017
 51
129.7588952061
  0
ARC
  5
F7
330
1F
100
AcDbEntity
  8
OBJECTS
100
AcDbCircle
 10
15.7330640847
 20
20.6988478707
 30
0.0
 40
2.999999999999998
100
AcDbArc
 50
270.0
 51
309.7588952061
  0
ARC
  5
F8
330
1F
100
AcDbEntity
  8
OBJECTS
100
AcDbCircle
 10
8.448426838
 20
8.1988478707
 30
0.0
 40
9.500000000000002
100
AcDbArc
 50
90.0
 51
100.8069228749
  0
ARC
  5
F9
330
1F
100
AcDbEntity
  8
OBJECTS
100
AcDbCircle
 10
7.698426838
 20
12.1279062821
 30
0.0
 40
5.5
100
AcDbArc
 50
100.8069228749
 51
180.0
  0
ARC
  5
FA
330
1F
100
AcDbEntity
  8
OBJECTS
100
AcDbCircle
 10
5.698426838
 20
5.1988478707
 30
0.0
 40
3.5
100
AcDbArc
 50
180.0
 51
270.0
  0
INSERT
  5
FB
330
1F
100
AcDbEntity
  8
BLOCKS
100
AcDbBlockReference
  2
REVEAL- .500
 10
-16.2113735011
 20
-28.701789726
 30
0.0
 41
1.5
 42
1.5
 43
1.5
  0
INSERT
  5
FC
330
1F
100
AcDbEntity
  8
BLOCKS
100
AcDbBlockReference
  2
OVERHANG - .125
 10
-23.9980342584
 20
-30.4890042184
 30
0.0
 41
1.5
 42
1.5
 43
1.5
  0
DIMENSION
  5
FD
330
1F
100
AcDbEntity
  8
DIMS
100
AcDbDimension
  2
_D
 10
28.448426838
 20
5.1988478707
 30
0.0
 11
29.6219863395
 21
3.9494097629
 31
0.0
 70
   164
  1
<>
 71
     1
 42
-1.0
  3
SLDDIMSTYLE0
100
AcDbRadialDimension
 15
30.8446219072
 25
2.6477208275
 35
0.0
 40
0.0
  0
DIMENSION
  5
111
330
1F
100
AcDbEntity
  8
DIMS
100
AcDbDimension
  2
_D_1
 10
33.0921276254
 20
2.3238478707
 30
0.0
 11
33.0921276254
 21
12.8115192851
 31
0.0
 70
   160
  1
<>
 71
     2
 42
-1.0
  3
SLDDIMSTYLE1
100
AcDbAlignedDimension
 13
23.448426838
 23
19.5738478707
 33
0.0
 14
28.448426838
 24
2.3238478707
 34
0.0
 50
90.0
100
AcDbRotatedDimension
  0
DIMENSION
  5
128
330
1F
100
AcDbEntity
  8
DIMS
100
AcDbDimension
  2
_D_2
 10
34.2732299876
 20
1.6988478707
 30
0.0
 11
34.2732299876
 21
9.2344536322
 31
0.0
 70
   160
  1
<>
 71
     2
 42
-1.0
  3
SLDDIMSTYLE1
100
AcDbAlignedDimension
 13
23.448426838
 23
20.1988478707
 33
0.0
 14
28.448426838
 24
1.6988478707
 34
0.0
 50
90.0
100
AcDbRotatedDimension
  0
LARGE_RADIAL_DIMENSION
  5
13E
330
1F
100
AcDbEntity
  8
DIMS
 92
     1996
310
CC070000170000000C00000012000000000000000C0000001400000001000000A00000000900000004000000B07E096F7FF03D403B1A919A59BC3140000000000000000045F47F542BC53D40C29BE7C8EA9E314000000000000000008F4E910F05D03D40D4CD492C4193314000000000000000008F4E910F05D03D40D4CD49
310
2C419331400000000000000000050000000400000000000000010000000200000003000000200000000100000002000000030000000400000000000000000000000C00000012000000FF7F00000C0000001400000002000000540000002000000002000000DBE6602AEDC23C40069BEE198C12314000000000000000009D47
310
F133DA143D40069BEE198C123140000000000000000000000000000000000000000000000000000000000000F03F5400000020000000020000009141160E266F3C4077D3B241098D304000000000000000003815A8F15E5D3C4077D3B241098D30400000000000000000000000000000000000000000000000000000000000
310
00F03F5400000020000000020000003815A8F15E5D3C4077D3B241098D304000000000000000003815A8F15E5D3C4012A199E2C6153040000000000000000000000000000000000000000000000000000000000000F03F5400000020000000020000003815A8F15E5D3C4012A199E2C615304000000000000000009141160E
310
266F3C4012A199E2C6153040000000000000000000000000000000000000000000000000000000000000F03F54000000200000000200000087BC63F15E4D3D4077D3B241098D30400000000000000000DFE8D10D265F3D4077D3B241098D3040000000000000000000000000000000000000000000000000000000000000F0
310
3F540000002000000002000000DFE8D10D265F3D4077D3B241098D30400000000000000000DFE8D10D265F3D4012A199E2C6153040000000000000000000000000000000000000000000000000000000000000F03F540000002000000002000000DFE8D10D265F3D4012A199E2C6153040000000000000000087BC63F15E4D
310
3D4012A199E2C6153040000000000000000000000000000000000000000000000000000000000000F03F540000002000000002000000B07E096F7FF03D403B1A919A59BC31400000000000000000F69E4690019F3D40B7A4C84B88703140000000000000000000000000000000000000000000000000000000000000F03F54
310
0000002000000002000000E50BA1DA9D203C40F7A3AE8DC40C304000000000000000004436DD9A6DC33C403B30392FE5063040000000000000000000000000000000000000000000000000000000000000F03F5400000020000000020000004436DD9A6DC33C403B30392FE50630400000000000000000200E9B1C84E23B40
310
C0CEB559496B2E40000000000000000000000000000000000000000000000000000000000000F03F540000002000000002000000200E9B1C84E23B4090093B1F370D30400000000000000000200E9B1C84E23B40608AF57424BC2C40000000000000000000000000000000000000000000000000000000000000F03F540000
310
002000000002000000EFEB3AAAF10A3B40C0CEB559496B2E4000000000000000005030FB8E16BA3C40C0CEB559496B2E40000000000000000000000000000000000000000000000000000000000000F03F0C0000001200000000000000980000000B000000343FB113BF273C40E2EDCAA67DEB3040080402814020703F0000
310
0000000000000000000000000000000000000000F03F000000000000F03F00000000000000000000000000000000523700000200000001000000000000000000D43F5C8FC2F5285CE33F0000000000000000000000000000F03F00000000000000000000000000000000000000000000000000000000980000000B000000CF
310
79FC6C90C63C407B3A3121FE213140080402814020703F00000000000000000000000000000000000000000000F03F000000000000F03F00000000000000000000000000000000310000000100000001000000000000000000D43F5C8FC2F5285CE33F0000000000000000000000000000F03F000000000000000000000000
310
00000000000000000000000000000000980000000B000000303DD098B5C63C4090C401320FB53040080402814020703F00000000000000000000000000000000000000000000F03F000000000000F03F00000000000000000000000000000000320000000100000001000000000000000000D43F5C8FC2F5285CE33F000000
310
0000000000000000000000F03F00000000000000000000000000000000000000000000000000000000980000000B000000D15C6F3E96183D40F79B1288F8EB3040080402814020703F00000000000000000000000000000000000000000000F03F000000000000F03F00000000000000000000000000000000220000000100
310
000001000000000000000000D43F5C8FC2F5285CE33F0000000000000000000000000000F03F00000000000000000000000000000000000000000000000000000000980000000B000000F50CE6DEAC7D3C4002FEB2B6052C3040080402814020703F00000000000000000000000000000000000000000000F03F0000000000
310
00F03F00000000000000000000000000000000313931000300000001000000000000000000D43F5C8FC2F5285CE33F0000000000000000000000000000F03F00000000000000000000000000000000000000000000000000000000
100
AcDbDimension
  2
_D_3
 10
27.0
 20
11.28
 30
0.0
 11
28.8682021939
 21
16.739088008
 31
0.0
 70
   169
  1
<>
 71
     1
 42
-1.0
  3
SLDDIMSTYLE2
100
AcDbRadialDimensionLarge
 13
27.0
 23
11.28
 33
0.0
 14
27.07
 24
12.1
 34
0.0
 15
27.15
 25
13.0
 35
0.0
 40
0.0
  0
LARGE_RADIAL_DIMENSION
  5
155
330
1F
100
AcDbEntity
  8
DIMS
 92
     2080
310
20080000180000000C00000012000000000000000C0000001400000001000000A00000000900000004000000CB58EF241A263340A5ED1070BB5C334000000000000000006AA191D6B9353340C760FB94BC2A33400000000000000000D6CCA6EF0744334043E01CA8BE3133400000000000000000D6CCA6EF0744334043E01C
310
A8BE3133400000000000000000050000000400000000000000010000000200000003000000200000000100000002000000030000000400000000000000000000000C00000012000000FF7F00000C000000140000000200000054000000200000000200000016F2C593A4B03340CFAAD5DA7C5F32400000000000000000D752
310
569D91023440CFAAD5DA7C5F3240000000000000000000000000000000000000000000000000000000000000F03F540000002000000002000000CB4C7B77DD5C334040E39902FAD93140000000000000000073200D5B164B334040E39902FAD931400000000000000000000000000000000000000000000000000000000000
310
00F03F54000000200000000200000073200D5B164B334040E39902FAD93140000000000000000073200D5B164B3340DBB080A3B7623140000000000000000000000000000000000000000000000000000000000000F03F54000000200000000200000073200D5B164B3340DBB080A3B76231400000000000000000CB4C7B77
310
DD5C3340DBB080A3B7623140000000000000000000000000000000000000000000000000000000000000F03F540000002000000002000000C1C7C85A163B344040E39902FAD9314000000000000000001AF43677DD4C344040E39902FAD93140000000000000000000000000000000000000000000000000000000000000F0
310
3F5400000020000000020000001AF43677DD4C344040E39902FAD9314000000000000000001AF43677DD4C3440DBB080A3B7623140000000000000000000000000000000000000000000000000000000000000F03F5400000020000000020000001AF43677DD4C3440DBB080A3B76231400000000000000000C1C7C85A163B
310
3440DBB080A3B7623140000000000000000000000000000000000000000000000000000000000000F03F54000000200000000200000064ED75FDD93C34402B34166CBE2331400000000000000000888F66C1B52634404A689C86F0503140000000000000000000000000000000000000000000000000000000000000F03F54
310
0000002000000002000000CB58EF241A263340A5ED1070BB5C334000000000000000000585DD103E713340D92F80B95AC33240000000000000000000000000000000000000000000000000000000000000F03F54000000200000000200000064ED75FDD93C34402B34166CBE233140000000000000000018F42D4B9F713440
310
A259B9C2E0BD3140000000000000000000000000000000000000000000000000000000000000F03F54000000200000000200000018F42D4B9F713440A259B9C2E0BD31400000000000000000C7C7BC01C6F834401274EA3C01AA3040000000000000000000000000000000000000000000000000000000000000F03F540000
310
002000000002000000C7C7BC01C6F8344042964AAF938131400000000000000000C7C7BC01C6F83440C4A31495DDA42F40000000000000000000000000000000000000000000000000000000000000F03F54000000200000000200000097A55C8F332134401274EA3C01AA30400000000000000000F7E91C7458D035401274
310
EA3C01AA3040000000000000000000000000000000000000000000000000000000000000F03F0C0000001200000000000000980000000B0000006E4A167D76153340ABFDB1676E3832400A0402814020703F00000000000000000000000000000000000000000000F03F000000000000F03F00000000000000000000000000
310
000000523700000200000001000000000000000000D43F5C8FC2F5285CE33F0000000000000000000000000000F03F00000000000000000000000000000000000000000000000000000000980000000B000000098561D647B43340444A18E2EE6E32400A0402814020703F0000000000000000000000000000000000000000
310
0000F03F000000000000F03F00000000000000000000000000000000310000000100000001000000000000000000D43F5C8FC2F5285CE33F0000000000000000000000000000F03F00000000000000000000000000000000000000000000000000000000980000000B0000006A4835026DB4334058D4E8F2FF0132400A0402
310
814020703F00000000000000000000000000000000000000000000F03F000000000000F03F00000000000000000000000000000000320000000100000001000000000000000000D43F5C8FC2F5285CE33F0000000000000000000000000000F03F000000000000000000000000000000000000000000000000000000009800
310
00000B0000000C68D4A74D063440C0ABF948E93832400A0402814020703F00000000000000000000000000000000000000000000F03F000000000000F03F00000000000000000000000000000000220000000100000001000000000000000000D43F5C8FC2F5285CE33F0000000000000000000000000000F03F0000000000
310
0000000000000000000000000000000000000000000000980000000B0000002F184B48646B3340CB0D9A77F67831400A0402814020703F00000000000000000000000000000000000000000000F03F000000000000F03F00000000000000000000000000000000313931000300000001000000000000000000D43F5C8FC2F5
310
285CE33F0000000000000000000000000000F03F00000000000000000000000000000000000000000000000000000000
100
AcDbDimension
  2
_D_4
 10
27.0
 20
11.28
 30
0.0
 11
19.7967820843
 21
18.0396366153
 31
0.0
 70
   169
  1
<>
 71
     1
 42
-1.0
  3
SLDDIMSTYLE2
100
AcDbRadialDimensionLarge
 13
27.0
 23
11.28
 33
0.0
 14
27.07
 24
12.1
 34
0.0
 15
27.15
 25
13.0
 35
0.0
 40
0.0
  0
LARGE_RADIAL_DIMENSION
  5
16C
330
1F
100
AcDbEntity
  8
DIMS
 92
     2080
310
20080000180000000C00000012000000000000000C0000001400000001000000A00000000900000004000000A2F358992E103740BB6A8C4A983134400000000000000000B3C1BE709809374025B59177A1FD3340000000000000000027F625F384193740634BE8CD0DFE3340000000000000000027F625F384193740634BE8
310
CD0DFE33400000000000000000050000000400000000000000010000000200000003000000200000000100000002000000030000000400000000000000000000000C00000012000000FF7F00000C0000001400000002000000540000002000000002000000A7A8234D0A243740626205DA1DF2314000000000000000006909
310
B456F7753740626205DA1DF23140000000000000000000000000000000000000000000000000000000000000F03F54000000200000000200000008D98301A2B23640D39AC9019B6C31400000000000000000AFAC15E5DAA03640D39AC9019B6C31400000000000000000000000000000000000000000000000000000000000
310
00F03F540000002000000002000000AFAC15E5DAA03640D39AC9019B6C31400000000000000000AFAC15E5DAA036406E68B0A258F53040000000000000000000000000000000000000000000000000000000000000F03F540000002000000002000000AFAC15E5DAA036406E68B0A258F53040000000000000000008D98301
310
A2B236406E68B0A258F53040000000000000000000000000000000000000000000000000000000000000F03F540000002000000002000000FE53D1E4DA903740D39AC9019B6C3140000000000000000057803F01A2A23740D39AC9019B6C3140000000000000000000000000000000000000000000000000000000000000F0
310
3F54000000200000000200000057803F01A2A23740D39AC9019B6C3140000000000000000057803F01A2A237406E68B0A258F53040000000000000000000000000000000000000000000000000000000000000F03F54000000200000000200000057803F01A2A237406E68B0A258F530400000000000000000FE53D1E4DA90
310
37406E68B0A258F53040000000000000000000000000000000000000000000000000000000000000F03F540000002000000002000000C485609DB9303740CC97A46D22D22E4000000000000000004B58F07FAA263740DD1FCC8591E33040000000000000000000000000000000000000000000000000000000000000F03F54
310
0000002000000002000000A2F358992E103740BB6A8C4A983134400000000000000000B8D46466D21C37406DE7AFB8FB553240000000000000000000000000000000000000000000000000000000000000F03F540000002000000002000000C485609DB9303740CC97A46D22D22E4000000000000000004242981473093840
310
883DDE23A04D3040000000000000000000000000000000000000000000000000000000000000F03F5400000020000000020000004242981473093840883DDE23A04D3040000000000000000072DE5D5C3A193840BAAAB291D4F72B40000000000000000000000000000000000000000000000000000000000000F03F540000
310
00200000000200000072DE5D5C3A1938401AEF7276F9A62D40000000000000000072DE5D5C3A1938405A66F2ACAF482A40000000000000000000000000000000000000000000000000000000000000F03F54000000200000000200000042BCFDE9A7413740BAAAB291D4F72B400000000000000000A200BECECCF03840BAAA
310
B291D4F72B40000000000000000000000000000000000000000000000000000000000000F03F0C0000001200000000000000980000000B00000056ACC9D7994D3640488C85D74CC93140080402814020703F00000000000000000000000000000000000000000000F03F000000000000F03F00000000000000000000000000
310
000000523134000300000001000000000000000000D43F5C8FC2F5285CE33F0000000000000000000000000000F03F00000000000000000000000000000000000000000000000000000000980000000B0000009A3BBF8FAD273740D70148E18F013240080402814020703F0000000000000000000000000000000000000000
310
0000F03F000000000000F03F00000000000000000000000000000000310000000100000001000000000000000000D43F5C8FC2F5285CE33F0000000000000000000000000000F03F00000000000000000000000000000000000000000000000000000000980000000B000000FBFE92BBD2273740EB8B18F2A0943140080402
310
814020703F00000000000000000000000000000000000000000000F03F000000000000F03F00000000000000000000000000000000320000000100000001000000000000000000D43F5C8FC2F5285CE33F0000000000000000000000000000F03F000000000000000000000000000000000000000000000000000000009800
310
00000B0000009D1E3261B3793740536329488ACB3140080402814020703F00000000000000000000000000000000000000000000F03F000000000000F03F00000000000000000000000000000000220000000100000001000000000000000000D43F5C8FC2F5285CE33F0000000000000000000000000000F03F0000000000
310
0000000000000000000000000000000000000000000000980000000B0000006CA453D228C136405EC5C976970B3140080402814020703F00000000000000000000000000000000000000000000F03F000000000000F03F00000000000000000000000000000000333638000300000001000000000000000000D43F5C8FC2F5
310
285CE33F0000000000000000000000000000F03F00000000000000000000000000000000000000000000000000000000
100
AcDbDimension
  2
_D_5
 10
27.0
 20
11.28
 30
0.0
 11
23.1318122844
 21
17.6124057318
 31
0.0
 70
   169
  1
<>
 71
     1
 42
-1.0
  3
SLDDIMSTYLE2
100
AcDbRadialDimensionLarge
 13
27.0
 23
11.28
 33
0.0
 14
27.07
 24
12.1
 34
0.0
 15
27.15
 25
13.0
 35
0.0
 40
0.0
  0
DIMENSION
  5
183
330
1F
100
AcDbEntity
  8
DIMS
100
AcDbDimension
  2
_D_6
 10
7.698426838
 20
12.1279062821
 30
0.0
 11
5.0436252808
 21
13.5084679904
 31
0.0
 70
   164
  1
<>
 71
     1
 42
-1.0
  3
SLDDIMSTYLE0
100
AcDbRadialDimension
 15
2.8187828082
 25
14.6654393641
 35
0.0
 40
0.0
  0
DIMENSION
  5
196
330
1F
100
AcDbEntity
  8
DIMS
100
AcDbDimension
  2
_D_7
 10
5.698426838
 20
5.1988478707
 30
0.0
 11
4.6593836957
 21
4.1585894193
 31
0.0
 70
   164
  1
<>
 71
     1
 42
-1.0
  3
SLDDIMSTYLE0
100
AcDbRadialDimension
 15
3.6666833958
 25
3.1647280157
 35
0.0
 40
0.0
  0
DIMENSION
  5
1A9
330
1F
100
AcDbEntity
  8
DIMS
100
AcDbDimension
  2
_D_8
 10
9.2378129292
 20
1.6988478707
 30
0.0
 11
9.2378129292
 21
7.4844536534
 31
0.0
 70
   160
  1
<>
 71
     2
 42
-1.0
  3
SLDDIMSTYLE1
100
AcDbAlignedDimension
 13
8.448426838
 23
17.6988478707
 33
0.0
 14
5.698426838
 24
1.6988478707
 34
0.0
 50
90.0
100
AcDbRotatedDimension
  0
DIMENSION
  5
1B9
330
1F
100
AcDbEntity
  8
DIMS
100
AcDbDimension
  2
_D_9
 10
10.5510876071
 20
2.3238478707
 30
0.0
 11
10.5510876071
 21
9.3138302925
 31
0.0
 70
   160
  1
<>
 71
     2
 42
-1.0
  3
SLDDIMSTYLE1
100
AcDbAlignedDimension
 13
8.448426838
 23
17.0738478707
 33
0.0
 14
5.698426838
 24
2.3238478707
 34
0.0
 50
90.0
100
AcDbRotatedDimension
  0
DIMENSION
  5
1CD
330
1F
100
AcDbEntity
  8
DIMS
100
AcDbDimension
  2
_D_10
 10
31.323426838
 20
6.1747500883
 30
0.0
 11
12.8379537633
 21
6.1747500883
 31
0.0
 70
   160
  1
<>
 71
     2
 42
-1.0
  3
SLDDIMSTYLE1
100
AcDbAlignedDimension
 13
2.823426838
 23
5.1988478707
 33
0.0
 14
31.323426838
 24
5.1988478707
 34
0.0
 50
0.0
100
AcDbRotatedDimension
  0
DIMENSION
  5
1E1
330
1F
100
AcDbEntity
  8
DIMS
100
AcDbDimension
  2
_D_11
 10
31.948426838
 20
5.2954877211
 30
0.0
 11
16.0344202993
 21
5.2954877211
 31
0.0
 70
   160
  1
<>
 71
     2
 42
-1.0
  3
SLDDIMSTYLE1
100
AcDbAlignedDimension
 13
2.198426838
 23
5.1988478707
 33
0.0
 14
31.948426838
 24
5.1988478707
 34
0.0
 50
0.0
100
AcDbRotatedDimension
  0
DIMENSION
  5
1F5
330
1F
100
AcDbEntity
  8
DIMS
100
AcDbDimension
  2
_D_12
 10
7.698426838
 20
12.1279062821
 30
0.0
 11
6.2268482437
 21
15.0838339996
 31
0.0
 70
   164
  1
<>
 71
     1
 42
-1.0
  3
SLDDIMSTYLE0
100
AcDbRadialDimension
 15
5.5258048267
 25
16.4920028205
 35
0.0
 40
0.0
  0
DIMENSION
  5
208
330
1F
100
AcDbEntity
  8
DIMS
100
AcDbDimension
  2
_D_13
 10
15.7330640847
 20
20.6988478707
 30
0.0
 11
17.2323504248
 21
15.1125959698
 31
0.0
 70
   164
  1
<>
 71
     1
 42
-1.0
  3
SLDDIMSTYLE0
100
AcDbRadialDimension
 15
16.1033140393
 25
17.092805723
 35
0.0
 40
0.0
  0
DIMENSION
  5
21B
330
1F
100
AcDbEntity
  8
DIMS
100
AcDbDimension
  2
_D_14
 10
15.7330640847
 20
20.6988478707
 30
0.0
 11
19.1848195769
 21
15.8928908661
 31
0.0
 70
   164
  1
<>
 71
     1
 42
-1.0
  3
SLDDIMSTYLE0
100
AcDbRadialDimension
 15
17.2169494681
 25
18.0915342784
 35
0.0
 40
0.0
  0
INSERT
  5
239
330
1F
100
AcDbEntity
  8
NOTES
100
AcDbBlockReference
  2
SW_NOTE_0
 10
14.044944174
 20
10.7146982717
 30
0.0
  0
INSERT
  5
241
102
{ACAD_REACTORS
330
243
330
244
102
}
330
1F
100
AcDbEntity
  8
NOTES
100
AcDbBlockReference
  2
SW_NOTE_1
 10
24.7906801598
 20
7.8559767658
 30
0.0
  0
LEADER
  5
243
330
1F
100
AcDbEntity
  8
NOTES
100
AcDbLeader
  3
SLDDIMSTYLE3
 73
     2
 76
     3
 10
17.073426838
 20
3.1288616744
 30
0.0
 10
24.5406801598
 20
7.8559767658
 30
0.0
 10
24.7906801598
 20
7.8559767658
 30
0.0
340
241
  0
LEADER
  5
244
330
1F
100
AcDbEntity
  8
NOTES
100
AcDbLeader
  3
SLDDIMSTYLE3
 73
     2
 76
     3
 10
30.4343495016
 20
10.9488478707
 30
0.0
 10
27.1906111607
 20
7.8559767658
 30
0.0
 10
26.9406111607
 20
7.8559767658
 30
0.0
340
241
212
2.149931000892927
222
0.0
232
0.0
  0
INSERT
  5
24A
102
{ACAD_REACTORS
330
24B
102
}
330
1F
100
AcDbEntity
  8
NOTES
100
AcDbBlockReference
  2
SW_NOTE_2
 10
11.8296714199
 20
16.4402774395
 30
0.0
  0
LEADER
  5
24B
330
1F
100
AcDbEntity
  8
NOTES
100
AcDbLeader
  3
SLDDIMSTYLE3
 73
     2
 76
     3
 10
11.3546493558
 20
17.6988478707
 30
0.0
 10
11.5796714199
 20
16.4402774395
 30
0.0
 10
11.8296714199
 20
16.4402774395
 30
0.0
340
24A
  0
INSERT
  5
251
102
{ACAD_REACTORS
330
252
102
}
330
1F
100
AcDbEntity
  8
NOTES
100
AcDbBlockReference
  2
SW_NOTE_3
 10
5.236423411
 20
10.8391734538
 30
0.0
  0
LEADER
  5
252
330
1F
100
AcDbEntity
  8
NOTES
100
AcDbLeader
  3
SLDDIMSTYLE3
 73
     2
 76
     3
 10
2.823426838
 20
8.8390979132
 30
0.0
 10
4.986423411
 20
10.8391734538
 30
0.0
 10
5.236423411
 20
10.8391734538
 30
0.0
340
251
  0
MTEXT
  5
253
330
1F
100
AcDbEntity
  8
NOTES
100
AcDbMText
 10
25.761741573
 20
3.2384884523
 30
0.0
 40
0.2083333333
 41
0.0
 71
     1
 72
     1
  1
REV_D  7/15
  7
SLDTEXTSTYLE0
 73
     1
 44
1.0
  0
INSERT
  5
25A
330
1F
100
AcDbEntity
  8
NOTES
100
AcDbBlockReference
  2
SW_NOTE_4
 10
9.9684847092
 20
12.4429422463
 30
0.0
  0
ENDSEC
  0
SECTION
  2
OBJECTS
  0
DICTIONARY
  5
C
330
0
100
AcDbDictionary
281
     1
  3
ACAD_GROUP
350
D
  3
ACAD_LAYOUT
350
1A
  3
ACAD_MLINESTYLE
350
17
  3
ACAD_PLOTSETTINGS
350
19
  3
ACAD_PLOTSTYLENAME
350
E
  0
DICTIONARY
  5
D
102
{ACAD_REACTORS
330
C
102
}
330
C
100
AcDbDictionary
281
     1
  0
DICTIONARY
  5
1A
102
{ACAD_REACTORS
330
C
102
}
330
C
100
AcDbDictionary
281
     1
  3
Layout1
350
1E
  3
Layout2
350
26
  3
Model
350
22
  0
DICTIONARY
  5
17
102
{ACAD_REACTORS
330
C
102
}
330
C
100
AcDbDictionary
281
     1
  3
Standard
350
18
  0
DICTIONARY
  5
19
102
{ACAD_REACTORS
330
C
102
}
330
C
100
AcDbDictionary
281
     1
  0
ACDBDICTIONARYWDFLT
  5
E
102
{ACAD_REACTORS
330
C
102
}
330
C
100
AcDbDictionary
281
     1
  3
Normal
350
F
100
AcDbDictionaryWithDefault
340
F
  0
LAYOUT
  5
1E
102
{ACAD_REACTORS
330
1A
102
}
330
1A
100
AcDbPlotSettings
  1

  2
none_device
  4

  6

 40
0.0
 41
0.0
 42
0.0
 43
0.0
 44
0.0
 45
0.0
 46
0.0
 47
0.0
 48
0.0
 49
0.0
140
0.0
141
0.0
142
1.0
143
1.0
 70
   688
 72
     0
 73
     0
 74
     5
  7

 75
    16
147
1.0
148
0.0
149
0.0
100
AcDbLayout
  1
Layout1
 70
     1
 71
     1
 10
0.0
 20
0.0
 11
12.0
 21
9.0
 12
0.0
 22
0.0
 32
0.0
 14
1.0000000000E+20
 24
1.0000000000E+20
 34
1.0000000000E+20
 15
-1.0000000000E+20
 25
-1.0000000000E+20
 35
-1.0000000000E+20
146
0.0
 13
0.0
 23
0.0
 33
0.0
 16
1.0
 26
0.0
 36
0.0
 17
0.0
 27
1.0
 37
0.0
 76
     0
330
1B
  0
LAYOUT
  5
26
102
{ACAD_REACTORS
330
1A
102
}
330
1A
100
AcDbPlotSettings
  1

  2
none_device
  4

  6

 40
0.0
 41
0.0
 42
0.0
 43
0.0
 44
0.0
 45
0.0
 46
0.0
 47
0.0
 48
0.0
 49
0.0
140
0.0
141
0.0
142
1.0
143
1.0
 70
   688
 72
     0
 73
     0
 74
     5
  7

 75
    16
147
1.0
148
0.0
149
0.0
100
AcDbLayout
  1
Layout2
 70
     1
 71
     2
 10
0.0
 20
0.0
 11
0.0
 21
0.0
 12
0.0
 22
0.0
 32
0.0
 14
0.0
 24
0.0
 34
0.0
 15
0.0
 25
0.0
 35
0.0
146
0.0
 13
0.0
 23
0.0
 33
0.0
 16
1.0
 26
0.0
 36
0.0
 17
0.0
 27
1.0
 37
0.0
 76
     0
330
23
  0
LAYOUT
  5
22
102
{ACAD_REACTORS
330
1A
102
}
330
1A
100
AcDbPlotSettings
  1

  2
none_device
  4

  6

 40
0.0
 41
0.0
 42
0.0
 43
0.0
 44
0.0
 45
0.0
 46
0.0
 47
0.0
 48
0.0
 49
0.0
140
0.0
141
0.0
142
1.0
143
1.0
 70
  1712
 72
     0
 73
     0
 74
     0
  7

 75
     0
147
1.0
148
0.0
149
0.0
100
AcDbLayout
  1
Model
 70
     1
 71
     0
 10
0.0
 20
0.0
 11
36.0
 21
22.0
 12
0.0
 22
0.0
 32
0.0
 14
0.0
 24
0.0
 34
0.0
 15
36.0
 25
22.0
 35
0.0
146
0.0
 13
0.0
 23
0.0
 33
0.0
 16
1.0
 26
0.0
 36
0.0
 17
0.0
 27
1.0
 37
0.0
 76
     0
330
1F
331
29
  0
MLINESTYLE
  5
18
102
{ACAD_REACTORS
330
17
102
}
330
17
100
AcDbMlineStyle
  2
Standard
 70
     0
  3

 62
   256
 51
90.0
 52
90.0
 71
     2
 49
0.5
 62
   256
  6
BYLAYER
 49
-0.5
 62
   256
  6
BYLAYER
  0
ACDBPLACEHOLDER
  5
F
102
{ACAD_REACTORS
330
E
102
}
330
E
  0
ENDSEC
  0
EOF
