  0
SECTION
  2
HEADER
  9
$ACADVER
  1
AC1015
  9
$ACADMAINTVER
 70
     6
  9
$DWGCODEPAGE
  3
ANSI_1252
  9
$INSBASE
 10
0.0
 20
0.0
 30
0.0
  9
$EXTMIN
 10
0.0
 20
0.0
 30
0.0
  9
$EXTMAX
 10
18.0
 20
18.0
 30
0.0
  9
$LIMMIN
 10
0.0
 20
0.0
  9
$LIMMAX
 10
18.0
 20
18.0
  9
$ORTHOMODE
 70
     0
  9
$REGENMODE
 70
     1
  9
$FILLMODE
 70
     1
  9
$QTEXTMODE
 70
     0
  9
$MIRRTEXT
 70
     1
  9
$LTSCALE
 40
1.0
  9
$ATTMODE
 70
     1
  9
$TEXTSIZE
 40
0.2777777778
  9
$TRACEWID
 40
0.05
  9
$TEXTSTYLE
  7
Standard
  9
$CLAYER
  8
0
  9
$CELTYPE
  6
ByLayer
  9
$CECOLOR
 62
   256
  9
$CELTSCALE
 40
1.0
  9
$DISPSILH
 70
     0
  9
$DIMSCALE
 40
1.0
  9
$DIMASZ
 40
0.262898763
  9
$DIMEXO
 40
0.05
  9
$DIMDLI
 40
0.38
  9
$DIMRND
 40
0.0
  9
$DIMDLE
 40
0.0
  9
$DIMEXE
 40
0.125
  9
$DIMTP
 40
0.0
  9
$DIMTM
 40
0.0
  9
$DIMTXT
 40
0.3611111111
  9
$DIMCEN
 40
0.09
  9
$DIMTSZ
 40
0.0
  9
$DIMTOL
 70
     0
  9
$DIMLIM
 70
     0
  9
$DIMTIH
 70
     1
  9
$DIMTOH
 70
     1
  9
$DIMSE1
 70
     0
  9
$DIMSE2
 70
     0
  9
$DIMTAD
 70
     0
  9
$DIMZIN
 70
     0
  9
$DIMBLK
  1

  9
$DIMASO
 70
     1
  9
$DIMSHO
 70
     1
  9
$DIMPOST
  1

  9
$DIMAPOST
  1

  9
$DIMALT
 70
     0
  9
$DIMALTD
 70
     2
  9
$DIMALTF
 40
25.4
  9
$DIMLFAC
 40
1.0
  9
$DIMTOFL
 70
     0
  9
$DIMTVP
 40
0.0
  9
$DIMTIX
 70
     0
  9
$DIMSOXD
 70
     0
  9
$DIMSAH
 70
     0
  9
$DIMBLK1
  1

  9
$DIMBLK2
  1

  9
$DIMSTYLE
  2
Standard
  9
$DIMCLRD
 70
     0
  9
$DIMCLRE
 70
     0
  9
$DIMCLRT
 70
     0
  9
$DIMTFAC
 40
1.0
  9
$DIMGAP
 40
0.06
  9
$DIMJUST
 70
     0
  9
$DIMSD1
 70
     0
  9
$DIMSD2
 70
     0
  9
$DIMTOLJ
 70
     1
  9
$DIMTZIN
 70
     0
  9
$DIMALTZ
 70
     0
  9
$DIMALTTZ
 70
     0
  9
$DIMUPT
 70
     0
  9
$DIMDEC
 70
     3
  9
$DIMTDEC
 70
     3
  9
$DIMALTU
 70
     2
  9
$DIMALTTD
 70
     2
  9
$DIMTXSTY
  7
Standard
  9
$DIMAUNIT
 70
     0
  9
$DIMADEC
 70
     1
  9
$DIMALTRND
 40
0.0
  9
$DIMAZIN
 70
     0
  9
$DIMDSEP
 70
    46
  9
$DIMATFIT
 70
     3
  9
$DIMFRAC
 70
     0
  9
$DIMLDRBLK
  1

  9
$DIMLUNIT
 70
     2
  9
$DIMLWD
 70
    -2
  9
$DIMLWE
 70
    -2
  9
$DIMTMOVE
 70
     0
  9
$LUNITS
 70
     2
  9
$LUPREC
 70
     3
  9
$SKETCHINC
 40
0.1
  9
$FILLETRAD
 40
0.5
  9
$AUNITS
 70
     0
  9
$AUPREC
 70
     1
  9
$MENU
  1
.
  9
$ELEVATION
 40
0.0
  9
$PELEVATION
 40
0.0
  9
$THICKNESS
 40
0.0
  9
$LIMCHECK
 70
     0
  9
$CHAMFERA
 40
0.5
  9
$CHAMFERB
 40
0.5
  9
$CHAMFERC
 40
1.0
  9
$CHAMFERD
 40
0.0
  9
$SKPOLY
 70
     0
  9
$TDCREATE
 40
2457275.671056181
  9
$TDUCREATE
 40
2457275.879389514
  9
$TDUPDATE
 40
2457275.671057465
  9
$TDUUPDATE
 40
2457275.879390799
  9
$TDINDWG
 40
0.0000000116
  9
$TDUSRTIMER
 40
0.0000000116
  9
$USRTIMER
 70
     1
  9
$ANGBASE
 50
0.0
  9
$ANGDIR
 70
     0
  9
$PDMODE
 70
     0
  9
$PDSIZE
 40
-1.0
  9
$PLINEWID
 40
0.0
  9
$SPLFRAME
 70
     0
  9
$SPLINETYPE
 70
     6
  9
$SPLINESEGS
 70
     8
  9
$HANDSEED
  5
1F2
  9
$SURFTAB1
 70
     6
  9
$SURFTAB2
 70
     6
  9
$SURFTYPE
 70
     6
  9
$SURFU
 70
     6
  9
$SURFV
 70
     6
  9
$UCSBASE
  2

  9
$UCSNAME
  2

  9
$UCSORG
 10
0.0
 20
0.0
 30
0.0
  9
$UCSXDIR
 10
1.0
 20
0.0
 30
0.0
  9
$UCSYDIR
 10
0.0
 20
1.0
 30
0.0
  9
$UCSORTHOREF
  2

  9
$UCSORTHOVIEW
 70
     0
  9
$UCSORGTOP
 10
0.0
 20
0.0
 30
0.0
  9
$UCSORGBOTTOM
 10
0.0
 20
0.0
 30
0.0
  9
$UCSORGLEFT
 10
0.0
 20
0.0
 30
0.0
  9
$UCSORGRIGHT
 10
0.0
 20
0.0
 30
0.0
  9
$UCSORGFRONT
 10
0.0
 20
0.0
 30
0.0
  9
$UCSORGBACK
 10
0.0
 20
0.0
 30
0.0
  9
$PUCSBASE
  2

  9
$PUCSNAME
  2

  9
$PUCSORG
 10
0.0
 20
0.0
 30
0.0
  9
$PUCSXDIR
 10
1.0
 20
0.0
 30
0.0
  9
$PUCSYDIR
 10
0.0
 20
1.0
 30
0.0
  9
$PUCSORTHOREF
  2

  9
$PUCSORTHOVIEW
 70
     0
  9
$PUCSORGTOP
 10
0.0
 20
0.0
 30
0.0
  9
$PUCSORGBOTTOM
 10
0.0
 20
0.0
 30
0.0
  9
$PUCSORGLEFT
 10
0.0
 20
0.0
 30
0.0
  9
$PUCSORGRIGHT
 10
0.0
 20
0.0
 30
0.0
  9
$PUCSORGFRONT
 10
0.0
 20
0.0
 30
0.0
  9
$PUCSORGBACK
 10
0.0
 20
0.0
 30
0.0
  9
$USERI1
 70
     0
  9
$USERI2
 70
     0
  9
$USERI3
 70
     0
  9
$USERI4
 70
     0
  9
$USERI5
 70
     0
  9
$USERR1
 40
0.0
  9
$USERR2
 40
0.0
  9
$USERR3
 40
0.0
  9
$USERR4
 40
0.0
  9
$USERR5
 40
0.0
  9
$WORLDVIEW
 70
     1
  9
$SHADEDGE
 70
     3
  9
$SHADEDIF
 70
    70
  9
$TILEMODE
 70
     1
  9
$MAXACTVP
 70
    64
  9
$PINSBASE
 10
0.0
 20
0.0
 30
0.0
  9
$PLIMCHECK
 70
     0
  9
$PEXTMIN
 10
1.0000000000E+20
 20
1.0000000000E+20
 30
1.0000000000E+20
  9
$PEXTMAX
 10
-1.0000000000E+20
 20
-1.0000000000E+20
 30
-1.0000000000E+20
  9
$PLIMMIN
 10
0.0
 20
0.0
  9
$PLIMMAX
 10
12.0
 20
9.0
  9
$UNITMODE
 70
     0
  9
$VISRETAIN
 70
     1
  9
$PLINEGEN
 70
     0
  9
$PSLTSCALE
 70
     1
  9
$TREEDEPTH
 70
  3020
  9
$CMLSTYLE
  2
Standard
  9
$CMLJUST
 70
     0
  9
$CMLSCALE
 40
1.0
  9
$PROXYGRAPHICS
 70
     1
  9
$MEASUREMENT
 70
     0
  9
$CELWEIGHT
370
    -1
  9
$ENDCAPS
280
     0
  9
$JOINSTYLE
280
     0
  9
$LWDISPLAY
290
     1
  9
$INSUNITS
 70
     1
  9
$HYPERLINKBASE
  1

  9
$STYLESHEET
  1

  9
$XEDIT
290
     1
  9
$CEPSNTYPE
380
     0
  9
$PSTYLEMODE
290
     1
  9
$FINGERPRINTGUID
  2
{7A0D71C0-624B-458A-97D6-280DE02EE275}
  9
$VERSIONGUID
  2
{FAEB1C32-E019-11D5-929B-00C0DF256EC4}
  9
$EXTNAMES
290
     1
  9
$PSVPSCALE
 40
0.0
  9
$OLESTARTUP
290
     0
  0
ENDSEC
  0
SECTION
  2
CLASSES
  0
CLASS
  1
ACDBDICTIONARYWDFLT
  2
AcDbDictionaryWithDefault
  3
ObjectDBX Classes
 90
        0
280
     0
281
     0
  0
CLASS
  1
VISUALSTYLE
  2
AcDbVisualStyle
  3
ObjectDBX Classes
 90
     4095
280
     0
281
     0
  0
CLASS
  1
MATERIAL
  2
AcDbMaterial
  3
ObjectDBX Classes
 90
     1153
280
     0
281
     0
  0
CLASS
  1
LARGE_RADIAL_DIMENSION
  2
AcDbRadialDimensionLarge
  3
ObjectDBX Classes
 90
     1025
280
     0
281
     1
  0
CLASS
  1
ACDBPLACEHOLDER
  2
AcDbPlaceHolder
  3
ObjectDBX Classes
 90
        0
280
     0
281
     0
  0
CLASS
  1
LAYOUT
  2
AcDbLayout
  3
ObjectDBX Classes
 90
        0
280
     0
281
     0
  0
ENDSEC
  0
SECTION
  2
TABLES
  0
TABLE
  2
VPORT
  5
8
330
0
100
AcDbSymbolTable
 70
     1
  0
VPORT
  5
29
330
8
100
AcDbSymbolTableRecord
100
AcDbViewportTableRecord
  2
*Active
 70
     0
 10
0.0
 20
0.0
 11
1.0
 21
1.0
 12
9.0
 22
9.0
 13
0.0
 23
0.0
 14
0.5
 24
0.5
 15
0.5
 25
0.5
 16
0.0
 26
0.0
 36
1.0
 17
0.0
 27
0.0
 37
0.0
 40
18.0
 41
1.0
 42
50.0
 43
0.0
 44
0.0
 50
0.0
 51
0.0
 71
     0
 72
  2000
 73
     1
 74
     3
 75
     0
 76
     0
 77
     0
 78
     0
281
     0
 65
     1
110
0.0
120
0.0
130
0.0
111
1.0
121
0.0
131
0.0
112
0.0
122
1.0
132
0.0
 79
     0
146
0.0
  0
ENDTAB
  0
TABLE
  2
LTYPE
  5
5
330
0
100
AcDbSymbolTable
 70
     6
  0
LTYPE
  5
14
330
5
100
AcDbSymbolTableRecord
100
AcDbLinetypeTableRecord
  2
ByBlock
 70
     0
  3

 72
    65
 73
     0
 40
0.0
  0
LTYPE
  5
15
330
5
100
AcDbSymbolTableRecord
100
AcDbLinetypeTableRecord
  2
ByLayer
 70
     0
  3

 72
    65
 73
     0
 40
0.0
  0
LTYPE
  5
16
330
5
100
AcDbSymbolTableRecord
100
AcDbLinetypeTableRecord
  2
Continuous
 70
     0
  3
Solid line
 72
    65
 73
     0
 40
0.0
  0
LTYPE
  5
3F
330
5
100
AcDbSymbolTableRecord
100
AcDbLinetypeTableRecord
  2
HIDDEN
 70
     0
  3
Hidden __ __ __ __ __ __ __ __ __ __ __ __ __ __
 72
    65
 73
     2
 40
0.075
 49
0.05
 74
     0
 49
-0.025
 74
     0
  0
LTYPE
  5
40
330
5
100
AcDbSymbolTableRecord
100
AcDbLinetypeTableRecord
  2
PHANTOM
 70
     0
  3
Phantom ______  __  __  ______  __  __  ______
 72
    65
 73
     6
 40
0.5
 49
0.25
 74
     0
 49
-0.05
 74
     0
 49
0.05
 74
     0
 49
-0.05
 74
     0
 49
0.05
 74
     0
 49
-0.05
 74
     0
  0
LTYPE
  5
41
330
5
100
AcDbSymbolTableRecord
100
AcDbLinetypeTableRecord
  2
CENTER
 70
     0
  3
Center ____ _ ____ _ ____ _ ____ _ ____ _ ____
 72
    65
 73
     4
 40
0.4
 49
0.25
 74
     0
 49
-0.05
 74
     0
 49
0.05
 74
     0
 49
-0.05
 74
     0
  0
LTYPE
  5
42
330
5
100
AcDbSymbolTableRecord
100
AcDbLinetypeTableRecord
  2
CENTERX2
 70
     0
  3
Center (2x) ________  __  ________  __  _____
 72
    65
 73
     4
 40
0.8
 49
0.5
 74
     0
 49
-0.1
 74
     0
 49
0.1
 74
     0
 49
-0.1
 74
     0
  0
LTYPE
  5
43
330
5
100
AcDbSymbolTableRecord
100
AcDbLinetypeTableRecord
  2
DOT2
 70
     0
  3
Dot (.5x) ........................................
 72
    65
 73
     2
 40
0.025
 49
0.0
 74
     0
 49
-0.025
 74
     0
  0
ENDTAB
  0
TABLE
  2
LAYER
  5
2
330
0
100
AcDbSymbolTable
 70
     8
  0
LAYER
  5
10
330
2
100
AcDbSymbolTableRecord
100
AcDbLayerTableRecord
  2
0
 70
     0
 62
     7
  6
Continuous
370
    -3
390
F
  0
LAYER
  5
44
330
2
100
AcDbSymbolTableRecord
100
AcDbLayerTableRecord
  2
SLD-0
 70
     0
 62
   179
  6
Continuous
370
    -3
390
F
  0
LAYER
  5
45
330
2
100
AcDbSymbolTableRecord
100
AcDbLayerTableRecord
  2
OBJECTS
 70
     0
 62
     5
  6
Continuous
370
    -3
390
F
  0
LAYER
  5
46
330
2
100
AcDbSymbolTableRecord
100
AcDbLayerTableRecord
  2
DIMS
 70
     0
 62
     1
  6
Continuous
370
    -3
390
F
  0
LAYER
  5
47
330
2
100
AcDbSymbolTableRecord
100
AcDbLayerTableRecord
  2
NOTES
 70
     0
 62
     7
  6
Continuous
370
    -3
390
F
  0
LAYER
  5
48
330
2
100
AcDbSymbolTableRecord
100
AcDbLayerTableRecord
  2
IMAGES
 70
     0
 62
     7
  6
Continuous
370
    -3
390
F
  0
LAYER
  5
49
330
2
100
AcDbSymbolTableRecord
100
AcDbLayerTableRecord
  2
CENTERLINES
 70
     0
 62
     7
  6
HIDDEN
370
    -3
390
F
  0
LAYER
  5
4A
330
2
100
AcDbSymbolTableRecord
100
AcDbLayerTableRecord
  2
BLOCKS
 70
     0
 62
    16
  6
Continuous
370
    -3
390
F
  0
ENDTAB
  0
TABLE
  2
STYLE
  5
3
330
0
100
AcDbSymbolTable
 70
     2
  0
STYLE
  5
11
330
3
100
AcDbSymbolTableRecord
100
AcDbTextStyleTableRecord
  2
Standard
 70
     0
 40
0.0
 41
1.0
 50
0.0
 71
     0
 42
0.2777777778
  3
txt
  4

  0
STYLE
  5
8C
330
3
100
AcDbSymbolTableRecord
100
AcDbTextStyleTableRecord
  2
SLDTEXTSTYLE0
 70
     0
 40
0.0
 41
0.605
 50
0.0
 71
     0
 42
0.2
  3
TXT
  4

  0
ENDTAB
  0
TABLE
  2
VIEW
  5
6
330
0
100
AcDbSymbolTable
 70
     0
  0
ENDTAB
  0
TABLE
  2
UCS
  5
7
330
0
100
AcDbSymbolTable
 70
     0
  0
ENDTAB
  0
TABLE
  2
APPID
  5
9
330
0
100
AcDbSymbolTable
 70
     1
  0
APPID
  5
12
330
9
100
AcDbSymbolTableRecord
100
AcDbRegAppTableRecord
  2
ACAD
 70
     0
  0
ENDTAB
  0
TABLE
  2
DIMSTYLE
  5
A
330
0
100
AcDbSymbolTable
 70
     6
100
AcDbDimStyleTable
  0
DIMSTYLE
105
27
330
A
100
AcDbSymbolTableRecord
100
AcDbDimStyleTableRecord
  2
Standard
 70
     0
178
     0
340
11
  0
DIMSTYLE
105
F4
102
{ACAD_REACTORS
330
F3
102
}
330
A
100
AcDbSymbolTableRecord
100
AcDbDimStyleTableRecord
  2
SLDDIMSTYLE0
 70
     0
 41
0.262898763
 44
0.0
 45
0.000000001
 78
    12
 79
     3
140
0.262898763
141
0.0
147
0.0657246908
148
0.000000001
170
     1
171
     0
173
     1
178
     0
271
     3
272
     3
274
     0
276
     2
277
     5
284
    12
340
8C
  0
DIMSTYLE
105
10C
102
{ACAD_REACTORS
330
10B
330
11F
330
132
330
145
102
}
330
A
100
AcDbSymbolTableRecord
100
AcDbDimStyleTableRecord
  2
SLDDIMSTYLE1
 70
     0
 41
0.262898763
 44
0.0
 45
0.000000001
 78
    12
 79
     3
140
0.262898763
141
0.0
147
0.0657246908
148
0.000000001
170
     1
171
     0
173
     1
178
     0
271
     3
272
     3
274
     0
276
     2
277
     5
284
    12
340
8C
  0
DIMSTYLE
105
159
102
{ACAD_REACTORS
330
158
330
16D
330
181
330
193
102
}
330
A
100
AcDbSymbolTableRecord
100
AcDbDimStyleTableRecord
  2
SLDDIMSTYLE2
 70
     0
 41
0.262898763
 44
0.0
 45
0.000000001
 78
    12
 79
     3
140
0.262898763
147
0.0657246908
148
0.000000001
170
     1
171
     0
173
     1
178
     0
271
     3
272
     3
274
     0
276
     2
277
     5
284
    12
340
8C
  0
DIMSTYLE
105
1AA
102
{ACAD_REACTORS
330
1A9
102
}
330
A
100
AcDbSymbolTableRecord
100
AcDbDimStyleTableRecord
  2
SLDDIMSTYLE3
 70
     0
 41
0.262898763
 44
0.0
 45
0.000000001
 78
    12
 79
     3
140
0.262898763
141
0.0
147
0.0657246908
148
0.000000001
170
     1
171
     0
173
     1
178
     0
271
     3
272
     3
274
     0
276
     2
277
     5
284
    12
340
8C
  0
DIMSTYLE
105
1D9
330
A
100
AcDbSymbolTableRecord
100
AcDbDimStyleTableRecord
  2
SLDDIMSTYLE4
 70
     0
 41
0.262898763
 44
0.0
 45
0.000000001
140
0.0
146
0.262898763
147
0.0
173
     1
178
     0
271
     0
272
     0
276
     2
277
     5
340
11
  0
ENDTAB
  0
TABLE
  2
BLOCK_RECORD
  5
1
330
0
100
AcDbSymbolTable
 70
    20
  0
BLOCK_RECORD
  5
1F
330
1
100
AcDbSymbolTableRecord
100
AcDbBlockTableRecord
  2
*Model_Space
340
22
  0
BLOCK_RECORD
  5
1B
330
1
100
AcDbSymbolTableRecord
100
AcDbBlockTableRecord
  2
*Paper_Space
340
1E
  0
BLOCK_RECORD
  5
23
330
1
100
AcDbSymbolTableRecord
100
AcDbBlockTableRecord
  2
*Paper_Space0
340
26
  0
BLOCK_RECORD
  5
4B
330
1
100
AcDbSymbolTableRecord
100
AcDbBlockTableRecord
  2
OVERHANG - .125
340
0
102
{BLKREFS
331
F2
102
}
  0
BLOCK_RECORD
  5
7D
330
1
100
AcDbSymbolTableRecord
100
AcDbBlockTableRecord
  2
SW_BLOCK_DIMENSION_0
340
0
102
{BLKREFS
331
93
102
}
  0
BLOCK_RECORD
  5
94
330
1
100
AcDbSymbolTableRecord
100
AcDbBlockTableRecord
  2
REVEAL- .500
340
0
102
{BLKREFS
331
F1
102
}
  0
BLOCK_RECORD
  5
C6
330
1
100
AcDbSymbolTableRecord
100
AcDbBlockTableRecord
  2
SW_BLOCK_DIMENSION_1
340
0
102
{BLKREFS
331
DC
102
}
  0
BLOCK_RECORD
  5
F5
330
1
100
AcDbSymbolTableRecord
100
AcDbBlockTableRecord
  2
_D
340
0
  0
BLOCK_RECORD
  5
10D
330
1
100
AcDbSymbolTableRecord
100
AcDbBlockTableRecord
  2
_D_1
340
0
  0
BLOCK_RECORD
  5
120
330
1
100
AcDbSymbolTableRecord
100
AcDbBlockTableRecord
  2
_D_2
340
0
  0
BLOCK_RECORD
  5
133
330
1
100
AcDbSymbolTableRecord
100
AcDbBlockTableRecord
  2
_D_3
340
0
  0
BLOCK_RECORD
  5
146
330
1
100
AcDbSymbolTableRecord
100
AcDbBlockTableRecord
  2
_D_4
340
0
  0
BLOCK_RECORD
  5
15A
330
1
100
AcDbSymbolTableRecord
100
AcDbBlockTableRecord
  2
_D_5
340
0
  0
BLOCK_RECORD
  5
16E
330
1
100
AcDbSymbolTableRecord
100
AcDbBlockTableRecord
  2
_D_6
340
0
  0
BLOCK_RECORD
  5
182
330
1
100
AcDbSymbolTableRecord
100
AcDbBlockTableRecord
  2
_D_7
340
0
  0
BLOCK_RECORD
  5
194
330
1
100
AcDbSymbolTableRecord
100
AcDbBlockTableRecord
  2
_D_8
340
0
  0
BLOCK_RECORD
  5
1AB
330
1
100
AcDbSymbolTableRecord
100
AcDbBlockTableRecord
  2
_D_9
340
0
  0
BLOCK_RECORD
  5
1C1
330
1
100
AcDbSymbolTableRecord
100
AcDbBlockTableRecord
  2
SW_NOTE_0
340
0
102
{BLKREFS
331
1D2
102
}
  0
BLOCK_RECORD
  5
1D3
330
1
100
AcDbSymbolTableRecord
100
AcDbBlockTableRecord
  2
SW_NOTE_1
340
0
102
{BLKREFS
331
1D8
102
}
  0
BLOCK_RECORD
  5
1DB
330
1
100
AcDbSymbolTableRecord
100
AcDbBlockTableRecord
  2
SW_NOTE_2
340
0
102
{BLKREFS
331
1E0
102
}
  0
BLOCK_RECORD
  5
1E2
330
1
100
AcDbSymbolTableRecord
100
AcDbBlockTableRecord
  2
SW_NOTE_3
340
0
102
{BLKREFS
331
1E7
102
}
  0
BLOCK_RECORD
  5
1E8
330
1
100
AcDbSymbolTableRecord
100
AcDbBlockTableRecord
  2
SW_NOTE_4
340
0
102
{BLKREFS
331
1EF
102
}
  0
ENDTAB
  0
ENDSEC
  0
SECTION
  2
BLOCKS
  0
BLOCK
  5
20
330
1F
100
AcDbEntity
  8
0
100
AcDbBlockBegin
  2
*Model_Space
 70
     0
 10
0.0
 20
0.0
 30
0.0
  3
*Model_Space
  1

  0
ENDBLK
  5
21
330
1F
100
AcDbEntity
  8
0
100
AcDbBlockEnd
  0
BLOCK
  5
1C
330
1B
100
AcDbEntity
 67
     1
  8
0
100
AcDbBlockBegin
  2
*Paper_Space
 70
     0
 10
0.0
 20
0.0
 30
0.0
  3
*Paper_Space
  1

  0
ENDBLK
  5
1D
330
1B
100
AcDbEntity
 67
     1
  8
0
100
AcDbBlockEnd
  0
BLOCK
  5
24
330
23
100
AcDbEntity
  8
0
100
AcDbBlockBegin
  2
*Paper_Space0
 70
     0
 10
0.0
 20
0.0
 30
0.0
  3
*Paper_Space0
  1

  0
ENDBLK
  5
25
330
23
100
AcDbEntity
  8
0
100
AcDbBlockEnd
  0
BLOCK
  5
4C
330
4B
100
AcDbEntity
  8
0
100
AcDbBlockBegin
  2
OVERHANG - .125
 70
     0
 10
0.0
 20
0.0
 30
0.0
  3
OVERHANG - .125
  1

  0
ARC
  5
4E
330
4B
100
AcDbEntity
  8
0
  6
Continuous
 62
    16
370
     0
100
AcDbCircle
 10
21.0247390722
 20
26.9140495115
 30
0.0
 40
0.0659795528056719
100
AcDbArc
 50
0.0
 51
90.0
  0
ARC
  5
4F
330
4B
100
AcDbEntity
  8
0
  6
Continuous
 62
    16
370
     0
100
AcDbCircle
 10
20.0403577083
 20
26.4212514943
 30
0.0
 40
0.0881257319589152
100
AcDbArc
 50
200.9822712638
 51
339.0177287362
  0
ARC
  5
50
330
4B
100
AcDbEntity
  8
0
  6
Continuous
 62
    16
370
     0
100
AcDbCircle
 10
20.731618625
 20
26.3139893982
 30
0.0
 40
0.1880000000000024
100
AcDbArc
 50
0.0
 51
90.0
  0
ARC
  5
51
330
4B
100
AcDbEntity
  8
0
  6
Continuous
 62
    16
370
     0
100
AcDbCircle
 10
20.731618625
 20
26.3139893982
 30
0.0
 40
0.2341000000000015
100
AcDbArc
 50
0.0
 51
90.0
  0
ARC
  5
52
330
4B
100
AcDbEntity
  8
BLOCKS
100
AcDbCircle
 10
21.3249668066
 20
26.3001927866
 30
0.0
 40
0.3686452378780193
100
AcDbArc
 50
129.4518716023
 51
170.6861521435
  0
LINE
  5
53
330
4B
100
AcDbEntity
  8
0
  6
Continuous
 62
    16
370
     0
100
AcDbLine
 10
19.4314231162
 20
26.5192257655
 30
0.0
 11
19.3788703567
 21
26.5738454846
 31
0.0
  0
LINE
  5
54
330
4B
100
AcDbEntity
  8
0
  6
Continuous
 62
    16
370
     0
100
AcDbLine
 10
20.0408120814
 20
26.8351846327
 30
0.0
 11
20.0797389734
 21
26.7799952517
 31
0.0
  0
LINE
  5
55
330
4B
100
AcDbEntity
  8
0
  6
Continuous
 62
    16
370
     0
100
AcDbLine
 10
19.3788703567
 20
26.5738454846
 30
0.0
 11
19.3364639969
 21
26.5330438976
 31
0.0
  0
LINE
  5
56
330
4B
100
AcDbEntity
  8
0
  6
Continuous
 62
    16
370
     0
100
AcDbLine
 10
20.6725806187
 20
26.4527516548
 30
0.0
 11
20.7252404088
 21
26.5034186543
 31
0.0
  0
LINE
  5
57
330
4B
100
AcDbEntity
  8
0
  6
Continuous
 62
    16
370
     0
100
AcDbLine
 10
20.0797389734
 20
26.7799952517
 30
0.0
 11
20.0797389734
 21
26.3896955151
 31
0.0
  0
LINE
  5
58
330
4B
100
AcDbEntity
  8
0
  6
Continuous
 62
    16
370
     0
100
AcDbLine
 10
19.9814774532
 20
26.8652076206
 30
0.0
 11
19.9814774532
 21
26.5848453834
 31
0.0
  0
LINE
  5
59
330
4B
100
AcDbEntity
  8
0
  6
Continuous
 62
    16
370
     0
100
AcDbLine
 10
20.7678769055
 20
26.4591052159
 30
0.0
 11
20.6989695496
 21
26.392805503
 31
0.0
  0
LINE
  5
5A
330
4B
100
AcDbEntity
  8
0
  6
Continuous
 62
    16
370
     0
100
AcDbLine
 10
21.0247390722
 20
26.9800290643
 30
0.0
 11
19.2446660374
 21
26.9800290643
 31
0.0
  0
LINE
  5
5B
330
4B
100
AcDbEntity
  8
0
  6
Continuous
 62
    16
370
     0
100
AcDbLine
 10
19.9670675999
 20
26.4905376331
 30
0.0
 11
19.9670675999
 21
26.4354028898
 31
0.0
  0
LINE
  5
5C
330
4B
100
AcDbEntity
  8
0
  6
Continuous
 62
    16
370
     0
100
AcDbLine
 10
20.1524880148
 20
26.4213577706
 30
0.0
 11
20.1506182011
 21
26.3892309097
 31
0.0
  0
LINE
  5
5D
330
4B
100
AcDbEntity
  8
0
  6
Continuous
 62
    16
370
     0
100
AcDbLine
 10
19.3364639969
 20
26.5330438976
 30
0.0
 11
19.3985753063
 21
26.4684896798
 31
0.0
  0
LINE
  5
5E
330
4B
100
AcDbEntity
  8
0
  6
Continuous
 62
    16
370
     0
100
AcDbLine
 10
20.2906117643
 20
26.5019893982
 30
0.0
 11
20.2906117643
 21
26.5480893982
 31
0.0
  0
LINE
  5
5F
330
4B
100
AcDbEntity
  8
0
  6
Continuous
 62
    16
370
     0
100
AcDbLine
 10
19.4314231162
 20
26.5192257655
 30
0.0
 11
20.6725806187
 21
26.4527516548
 31
0.0
  0
LINE
  5
60
330
4B
100
AcDbEntity
  8
0
  6
Continuous
 62
    16
370
     0
100
AcDbLine
 10
19.9400720233
 20
26.4337205825
 30
0.0
 11
20.1524880148
 21
26.4213577706
 31
0.0
  0
LINE
  5
61
330
4B
100
AcDbEntity
  8
0
  6
Continuous
 62
    16
370
     0
100
AcDbLine
 10
21.090718625
 20
26.5848453834
 30
0.0
 11
21.090718625
 21
26.9140495115
 31
0.0
  0
LINE
  5
62
330
4B
100
AcDbEntity
  8
0
  6
Continuous
 62
    16
370
     0
100
AcDbLine
 10
20.731618625
 20
26.5019893982
 30
0.0
 11
20.2906117643
 21
26.5019893982
 31
0.0
  0
LINE
  5
63
330
4B
100
AcDbEntity
  8
0
  6
Continuous
 62
    16
370
     0
100
AcDbLine
 10
20.919618625
 20
25.9230893982
 30
0.0
 11
20.919618625
 21
26.3139893982
 31
0.0
  0
LINE
  5
64
330
4B
100
AcDbEntity
  8
0
  6
Continuous
 62
    16
370
     0
100
AcDbLine
 10
19.9580754817
 20
26.3896955151
 30
0.0
 11
20.1226399348
 21
26.3896955151
 31
0.0
  0
LINE
  5
65
330
4B
100
AcDbEntity
  8
0
  6
Continuous
 62
    16
370
     0
100
AcDbLine
 10
20.1506182011
 20
26.3892309097
 30
0.0
 11
19.9382022095
 21
26.4015937216
 31
0.0
  0
LINE
  5
66
330
4B
100
AcDbEntity
  8
0
  6
Continuous
 62
    16
370
     0
100
AcDbLine
 10
20.965718625
 20
25.9230893982
 30
0.0
 11
20.919618625
 21
25.9230893982
 31
0.0
  0
LINE
  5
67
330
4B
100
AcDbEntity
  8
0
  6
Continuous
 62
    16
370
     0
100
AcDbLine
 10
20.965718625
 20
26.3139893982
 30
0.0
 11
20.965718625
 21
25.9230893982
 31
0.0
  0
LINE
  5
68
330
4B
100
AcDbEntity
  8
0
  6
Continuous
 62
    16
370
     0
100
AcDbLine
 10
20.6989695496
 20
26.392805503
 30
0.0
 11
19.3985753063
 21
26.4684896798
 31
0.0
  0
LINE
  5
69
330
4B
100
AcDbEntity
  8
0
  6
Continuous
 62
    16
370
     0
100
AcDbLine
 10
19.2743496911
 20
26.5848453834
 30
0.0
 11
21.090718625
 21
26.5848453834
 31
0.0
  0
LINE
  5
6A
330
4B
100
AcDbEntity
  8
0
  6
Continuous
 62
    16
370
     0
100
AcDbLine
 10
20.0028471016
 20
26.7799952517
 30
0.0
 11
20.0408120814
 21
26.8351846327
 31
0.0
  0
LINE
  5
6B
330
4B
100
AcDbEntity
  8
0
  6
Continuous
 62
    16
370
     0
100
AcDbLine
 10
20.2906117643
 20
26.5480893982
 30
0.0
 11
20.731618625
 21
26.5480893982
 31
0.0
  0
LINE
  5
6C
330
4B
100
AcDbEntity
  8
0
  6
Continuous
 62
    16
370
     0
100
AcDbLine
 10
20.0028471016
 20
26.7799952517
 30
0.0
 11
20.0028471016
 21
26.3896955151
 31
0.0
  0
LINE
  5
6D
330
4B
100
AcDbEntity
  8
0
  6
Continuous
 62
    16
370
     0
100
AcDbLine
 10
20.1080144451
 20
26.8652076206
 30
0.0
 11
19.9814774532
 21
26.8652076206
 31
0.0
  0
LINE
  5
6E
330
4B
100
AcDbEntity
  8
0
  6
Continuous
 62
    16
370
     0
100
AcDbLine
 10
20.7252404088
 20
26.5034186543
 30
0.0
 11
20.7678769055
 21
26.4591052159
 31
0.0
  0
LINE
  5
6F
330
4B
100
AcDbEntity
  8
0
  6
Continuous
 62
    16
370
     0
100
AcDbLine
 10
19.9400720233
 20
26.4337205825
 30
0.0
 11
19.9382022095
 21
26.4015937216
 31
0.0
  0
LINE
  5
70
330
4B
100
AcDbEntity
  8
0
  6
Continuous
 62
    16
370
     0
100
AcDbLine
 10
20.1080144451
 20
26.5848453834
 30
0.0
 11
20.1080144451
 21
26.8652076206
 31
0.0
  0
LINE
  5
71
330
4B
100
AcDbEntity
  8
0
  6
Continuous
 62
    16
370
     0
100
AcDbLine
 10
20.1216872784
 20
26.4822564878
 30
0.0
 11
20.1216872784
 21
26.426403878
 31
0.0
  0
LINE
  5
72
330
4B
100
AcDbEntity
  8
BLOCKS
100
AcDbLine
 10
20.2906117643
 20
26.5480893982
 30
0.0
 11
20.2368944426
 21
26.5848453834
 31
0.0
  0
SPLINE
  5
73
330
4B
100
AcDbEntity
  8
0
  6
Continuous
 62
    16
370
     0
100
AcDbSpline
210
0.0
220
0.0
230
1.0
 70
     8
 71
     3
 72
     9
 73
     5
 74
     0
 42
0.00000001
 43
0.00000001
 12
1.0
 22
0.0
 32
0.0
 13
1.0
 23
0.0
 33
0.0
 40
0.0
 40
0.0
 40
0.0
 40
0.0
 40
0.5928291688347104
 40
1.0
 40
1.0
 40
1.0
 40
1.0
 10
19.27434969107827
 20
26.58484538338648
 30
0.0
 10
19.22977403886498
 20
26.67067982455945
 30
0.0
 10
19.3092570011885
 20
26.78990333849607
 30
0.0
 10
19.29114417973896
 20
26.9441515837284
 30
0.0
 10
19.24466603742839
 20
26.98002906431008
 30
0.0
  0
HATCH
  5
74
330
4B
100
AcDbEntity
  8
BLOCKS
 62
    16
100
AcDbHatch
 10
0.0
 20
0.0
 30
0.0
210
0.0
220
0.0
230
1.0
  2
ANSI36
 70
     0
 71
     0
 91
        1
 92
        0
 93
       10
 72
     4
 94
        3
 73
     1
 74
     0
 95
        9
 96
        5
 40
0.0
 40
0.0
 40
0.0
 40
0.0
 40
0.4071708311652896
 40
1.0
 40
1.0
 40
1.0
 40
1.0
 10
19.24466603742839
 20
26.98002906431008
 42
1.0
 10
19.29114417973896
 20
26.9441515837284
 42
1.0
 10
19.3092570011885
 20
26.78990333849607
 42
1.0
 10
19.22977403886498
 20
26.67067982455945
 42
1.0
 10
19.27434969107827
 20
26.58484538338648
 42
1.0
 72
     1
 10
19.27434969107827
 20
26.58484538338648
 11
19.98147745321076
 21
26.58484538338648
 72
     1
 10
19.98147745321076
 20
26.58484538338648
 11
19.98147745321076
 21
26.86520762058046
 72
     1
 10
19.98147745321076
 20
26.86520762058046
 11
20.10801444514525
 21
26.86520762058046
 72
     1
 10
20.10801444514525
 20
26.86520762058046
 11
20.10801444514525
 21
26.58484538338648
 72
     1
 10
20.10801444514525
 20
26.58484538338648
 11
20.23689444261453
 21
26.58484538338649
 72
     1
 10
20.23689444261453
 20
26.58484538338649
 11
21.0907186249667
 21
26.58484538338648
 72
     1
 10
21.0907186249667
 20
26.58484538338648
 11
21.0907186249667
 21
26.9140495115044
 72
     2
 10
21.02473907216103
 20
26.9140495115044
 40
0.0659795528056717
 50
0.0
 51
90.0
 73
     1
 72
     1
 10
21.02473907216103
 20
26.98002906431007
 11
19.24466603742839
 21
26.98002906431008
 97
        0
 75
     0
 76
     1
 52
0.0
 41
0.5
 77
     0
 78
     1
 53
45.0
 43
0.0
 44
0.0
 45
0.0331456303681194
 46
0.1215339780164378
 79
     4
 49
0.15625
 49
-0.03125
 49
0.0
 49
-0.03125
 98
        1
 10
0.0
 20
0.0
  0
HATCH
  5
75
330
4B
100
AcDbEntity
  8
BLOCKS
 62
    16
100
AcDbHatch
 10
0.0
 20
0.0
 30
0.0
210
0.0
220
0.0
230
1.0
  2
ANSI32
 70
     0
 71
     0
 91
        1
 92
        0
 93
        4
 72
     1
 10
20.07973897339712
 20
26.58484538338648
 11
20.00284710159458
 21
26.58484538338648
 72
     1
 10
20.00284710159458
 20
26.58484538338648
 11
20.00284710159458
 21
26.48862134888004
 72
     1
 10
20.00284710159458
 20
26.48862134888004
 11
20.07973897339712
 21
26.4845031617958
 72
     1
 10
20.07973897339712
 20
26.4845031617958
 11
20.07973897339712
 21
26.58484538338648
 97
        0
 75
     0
 76
     1
 52
0.0
 41
0.2
 77
     0
 78
     2
 53
45.0
 43
0.0
 44
0.0
 45
-0.0530330085889911
 46
0.0530330085889911
 79
     0
 53
45.0
 43
0.035355339
 44
0.0
 45
-0.0530330085889911
 46
0.0530330085889911
 79
     0
 98
        1
 10
0.0
 20
0.0
  0
HATCH
  5
76
330
4B
100
AcDbEntity
  8
BLOCKS
 62
    16
100
AcDbHatch
 10
0.0
 20
0.0
 30
0.0
210
0.0
220
0.0
230
1.0
  2
ANSI32
 70
     0
 71
     0
 91
        1
 92
        0
 93
        5
 72
     1
 10
20.04081208140756
 20
26.8351846326727
 11
20.00284710159458
 21
26.77999525166031
 72
     1
 10
20.00284710159458
 20
26.77999525166031
 11
20.00284710159458
 21
26.58484538338648
 72
     1
 10
20.00284710159458
 20
26.58484538338648
 11
20.07973897339712
 21
26.58484538338648
 72
     1
 10
20.07973897339712
 20
26.58484538338648
 11
20.07973897339712
 21
26.77999525166031
 72
     1
 10
20.07973897339712
 20
26.77999525166031
 11
20.04081208140756
 21
26.8351846326727
 97
        0
 75
     0
 76
     1
 52
0.0
 41
0.2
 77
     0
 78
     2
 53
45.0
 43
0.0
 44
0.0
 45
-0.0530330085889911
 46
0.0530330085889911
 79
     0
 53
45.0
 43
0.035355339
 44
0.0
 45
-0.0530330085889911
 46
0.0530330085889911
 79
     0
 98
        1
 10
0.0
 20
0.0
  0
HATCH
  5
77
330
4B
100
AcDbEntity
  8
BLOCKS
 62
    16
100
AcDbHatch
 10
0.0
 20
0.0
 30
0.0
210
0.0
220
0.0
230
1.0
  2
ANSI32
 70
     0
 71
     0
 91
        1
 92
        0
 93
        4
 72
     1
 10
20.07973897339712
 20
26.4845031617958
 11
20.00284710159458
 21
26.48862134888004
 72
     1
 10
20.00284710159458
 20
26.48862134888004
 11
20.00284710159458
 21
26.43332048887584
 72
     1
 10
20.00284710159458
 20
26.43332048887584
 11
20.07973897339712
 21
26.42884530909641
 72
     1
 10
20.07973897339712
 20
26.42884530909641
 11
20.07973897339712
 21
26.4845031617958
 97
        0
 75
     0
 76
     1
 52
0.0
 41
0.2
 77
     0
 78
     2
 53
45.0
 43
0.0
 44
0.0
 45
-0.0530330085889911
 46
0.0530330085889911
 79
     0
 53
45.0
 43
0.035355339
 44
0.0
 45
-0.0530330085889911
 46
0.0530330085889911
 79
     0
 98
        1
 10
0.0
 20
0.0
  0
HATCH
  5
78
330
4B
100
AcDbEntity
  8
BLOCKS
 62
    16
100
AcDbHatch
 10
0.0
 20
0.0
 30
0.0
210
0.0
220
0.0
230
1.0
  2
ANSI32
 70
     0
 71
     0
 91
        1
 92
        0
 93
        4
 72
     1
 10
20.00284710159458
 20
26.43006701346352
 11
19.94007202325873
 21
26.43372058249019
 72
     1
 10
19.94007202325873
 20
26.43372058249019
 11
19.93820220952023
 21
26.40159372159039
 72
     1
 10
19.93820220952023
 20
26.40159372159039
 11
20.00284710159458
 21
26.39783132763285
 72
     1
 10
20.00284710159458
 20
26.39783132763285
 11
20.00284710159458
 21
26.43006701346352
 97
        0
 75
     0
 76
     1
 52
0.0
 41
0.2
 77
     0
 78
     2
 53
45.0
 43
0.0
 44
0.0
 45
-0.0530330085889911
 46
0.0530330085889911
 79
     0
 53
45.0
 43
0.035355339
 44
0.0
 45
-0.0530330085889911
 46
0.0530330085889911
 79
     0
 98
        1
 10
0.0
 20
0.0
  0
HATCH
  5
79
330
4B
100
AcDbEntity
  8
BLOCKS
 62
    16
100
AcDbHatch
 10
0.0
 20
0.0
 30
0.0
210
0.0
220
0.0
230
1.0
  2
ANSI32
 70
     0
 71
     0
 91
        1
 92
        0
 93
        4
 72
     1
 10
20.07973897339712
 20
26.42559183368408
 11
20.00284710159458
 21
26.43006701346352
 72
     1
 10
20.00284710159458
 20
26.43006701346352
 11
20.00284710159458
 21
26.39783132763285
 72
     1
 10
20.00284710159458
 20
26.39783132763285
 11
20.07973897339712
 21
26.39335614785342
 72
     1
 10
20.07973897339712
 20
26.39335614785342
 11
20.07973897339712
 21
26.42559183368408
 97
        0
 75
     0
 76
     1
 52
0.0
 41
0.2
 77
     0
 78
     2
 53
45.0
 43
0.0
 44
0.0
 45
-0.0530330085889911
 46
0.0530330085889911
 79
     0
 53
45.0
 43
0.035355339
 44
0.0
 45
-0.0530330085889911
 46
0.0530330085889911
 79
     0
 98
        1
 10
0.0
 20
0.0
  0
HATCH
  5
7A
330
4B
100
AcDbEntity
  8
BLOCKS
 62
    16
100
AcDbHatch
 10
0.0
 20
0.0
 30
0.0
210
0.0
220
0.0
230
1.0
  2
ANSI32
 70
     0
 71
     0
 91
        1
 92
        0
 93
        4
 72
     1
 10
20.07973897339712
 20
26.39335614785342
 11
20.15061820105523
 21
26.38923090965904
 72
     1
 10
20.15061820105523
 20
26.38923090965904
 11
20.15248801479373
 21
26.42135777055884
 72
     1
 10
20.15248801479373
 20
26.42135777055884
 11
20.07973897339712
 21
26.42559183368408
 72
     1
 10
20.07973897339712
 20
26.42559183368408
 11
20.07973897339712
 21
26.39335614785342
 97
        0
 75
     0
 76
     1
 52
0.0
 41
0.2
 77
     0
 78
     2
 53
45.0
 43
0.0
 44
0.0
 45
-0.0530330085889911
 46
0.0530330085889911
 79
     0
 53
45.0
 43
0.035355339
 44
0.0
 45
-0.0530330085889911
 46
0.0530330085889911
 79
     0
 98
        1
 10
0.0
 20
0.0
  0
HATCH
  5
7B
330
4B
100
AcDbEntity
  8
BLOCKS
 62
    16
100
AcDbHatch
 10
0.0
 20
0.0
 30
0.0
210
0.0
220
0.0
230
1.0
  2
ANSI32
 70
     0
 71
     0
 91
        1
 92
        0
 93
        4
 72
     1
 10
20.00284710159458
 20
26.38969551511265
 11
19.95807548170848
 21
26.38969551511265
 72
     2
 10
20.04035770827806
 20
26.42125149432493
 40
0.0881257319589163
 50
200.9822712637957
 51
339.0177287362059
 73
     1
 72
     1
 10
20.12263993484765
 20
26.38969551511265
 11
20.07973897339712
 21
26.38969551511265
 72
     1
 10
20.07973897339712
 20
26.38969551511265
 11
20.00284710159458
 21
26.38969551511265
 97
        0
 75
     0
 76
     1
 52
0.0
 41
0.2
 77
     0
 78
     2
 53
45.0
 43
0.0
 44
0.0
 45
-0.0530330085889911
 46
0.0530330085889911
 79
     0
 53
45.0
 43
0.035355339
 44
0.0
 45
-0.0530330085889911
 46
0.0530330085889911
 79
     0
 98
        1
 10
0.0
 20
0.0
  0
HATCH
  5
7C
330
4B
100
AcDbEntity
  8
BLOCKS
100
AcDbHatch
 10
0.0
 20
0.0
 30
0.0
210
0.0
220
0.0
230
1.0
  2
SOLID
 70
     1
 71
     0
 91
        1
 92
        0
 93
        5
 72
     2
 10
21.32496680656287
 20
26.30019278664964
 40
0.3686452378780171
 50
189.3138478564999
 51
230.5481283977412
 73
     0
 72
     1
 10
21.0907186249667
 20
26.58484538338648
 11
20.23689444261453
 21
26.58484538338649
 72
     1
 10
20.23689444261453
 20
26.58484538338649
 11
20.29061176430621
 21
26.54808939823214
 72
     1
 10
20.29061176430621
 20
26.54808939823214
 11
20.7316186249667
 21
26.54808939823214
 72
     2
 10
20.7316186249667
 20
26.31398939823214
 40
0.2341000000000018
 50
270.0000000000008
 51
348.7012977589557
 73
     0
 97
        0
 75
     0
 76
     1
 98
        1
 10
0.0
 20
0.0
  0
INSERT
  5
93
330
4B
100
AcDbEntity
  8
BLOCKS
100
AcDbBlockReference
  2
SW_BLOCK_DIMENSION_0
 10
20.4725017091
 20
26.145611376
 30
0.0
  0
ENDBLK
  5
4D
330
4B
100
AcDbEntity
  8
0
100
AcDbBlockEnd
  0
BLOCK
  5
7E
330
7D
100
AcDbEntity
  8
0
100
AcDbBlockBegin
  2
SW_BLOCK_DIMENSION_0
 70
     0
 10
0.0
 20
0.0
 30
0.0
  3
SW_BLOCK_DIMENSION_0
  1

  0
SOLID
  5
80
330
7D
100
AcDbEntity
  8
BLOCKS
 62
     0
100
AcDbTrace
 10
0.4932169159
 20
-0.0313006311
 30
0.0
 11
0.392102007
 21
-0.0157444913
 31
0.0
 12
0.392102007
 22
-0.0468567709
 32
0.0
 13
0.392102007
 23
-0.0468567709
 33
0.0
  0
SOLID
  5
81
330
7D
100
AcDbEntity
  8
BLOCKS
 62
     0
100
AcDbTrace
 10
0.6182169159
 20
-0.0313006311
 30
0.0
 11
0.7193318247
 21
-0.0468567709
 31
0.0
 12
0.7193318247
 22
-0.0157444913
 32
0.0
 13
0.7193318247
 23
-0.0157444913
 33
0.0
  0
LINE
  5
82
330
7D
100
AcDbEntity
  8
BLOCKS
 62
     0
100
AcDbLine
 10
0.0533371922
 20
0.0798201425
 30
0.0
 11
0.1600115765
 21
0.0798201425
 31
0.0
  0
LINE
  5
83
330
7D
100
AcDbEntity
  8
BLOCKS
 62
     0
100
AcDbLine
 10
0.1101466042
 20
-0.0940224566
 30
0.0
 11
0.0869984556
 21
-0.0940224566
 31
0.0
  0
LINE
  5
84
330
7D
100
AcDbEntity
  8
BLOCKS
 62
     0
100
AcDbLine
 10
0.0869984556
 20
-0.0940224566
 30
0.0
 11
0.0869984556
 21
-0.249307956
 31
0.0
  0
LINE
  5
85
330
7D
100
AcDbEntity
  8
BLOCKS
 62
     0
100
AcDbLine
 10
0.0869984556
 20
-0.249307956
 30
0.0
 11
0.1101466042
 21
-0.249307956
 31
0.0
  0
LINE
  5
86
330
7D
100
AcDbEntity
  8
BLOCKS
 62
     0
100
AcDbLine
 10
0.2451774694
 20
-0.0940224566
 30
0.0
 11
0.268325618
 21
-0.0940224566
 31
0.0
  0
LINE
  5
87
330
7D
100
AcDbEntity
  8
BLOCKS
 62
     0
100
AcDbLine
 10
0.268325618
 20
-0.0940224566
 30
0.0
 11
0.268325618
 21
-0.249307956
 31
0.0
  0
LINE
  5
88
330
7D
100
AcDbEntity
  8
BLOCKS
 62
     0
100
AcDbLine
 10
0.268325618
 20
-0.249307956
 30
0.0
 11
0.2451774694
 21
-0.249307956
 31
0.0
  0
LINE
  5
89
330
7D
100
AcDbEntity
  8
BLOCKS
 62
     0
100
AcDbLine
 10
0.6182169159
 20
0.3892340074
 30
0.0
 11
0.6182169159
 21
-0.1563006311
 31
0.0
  0
LINE
  5
8A
330
7D
100
AcDbEntity
  8
BLOCKS
 62
     0
100
AcDbLine
 10
0.4932169159
 20
-0.0313006311
 30
0.0
 11
0.3556966315
 21
-0.0313006311
 31
0.0
  0
LINE
  5
8B
330
7D
100
AcDbEntity
  8
BLOCKS
 62
     0
100
AcDbLine
 10
0.6182169159
 20
-0.0313006311
 30
0.0
 11
0.8126686637
 21
-0.0313006311
 31
0.0
  0
MTEXT
  5
8D
330
7D
100
AcDbEntity
  8
BLOCKS
 62
     0
100
AcDbMText
 10
0.0390625
 20
0.1342778896
 30
0.0039370079
 40
0.1041666667
 41
0.0
 71
     1
 72
     1
  1

  7
SLDTEXTSTYLE0
 73
     1
 44
1.0
  0
MTEXT
  5
8E
330
7D
100
AcDbEntity
  8
BLOCKS
 62
     0
100
AcDbMText
 10
0.0680941359
 20
0.2052438631
 30
0.0039370079
 40
0.1041666667
 41
0.0
 71
     1
 72
     1
  1
1
  7
SLDTEXTSTYLE0
 73
     1
 44
1.0
  0
MTEXT
  5
8F
330
7D
100
AcDbEntity
  8
BLOCKS
 62
     0
100
AcDbMText
 10
0.0680941359
 20
0.0634035871
 30
0.0039370079
 40
0.1041666667
 41
0.0
 71
     1
 72
     1
  1
8
  7
SLDTEXTSTYLE0
 73
     1
 44
1.0
  0
MTEXT
  5
90
330
7D
100
AcDbEntity
  8
BLOCKS
 62
     0
100
AcDbMText
 10
0.1747685202
 20
0.1342778896
 30
0.0039370079
 40
0.1041666667
 41
0.0
 71
     1
 72
     1
  1
"
  7
SLDTEXTSTYLE0
 73
     1
 44
1.0
  0
MTEXT
  5
91
330
7D
100
AcDbEntity
  8
BLOCKS
 62
     0
100
AcDbMText
 10
0.1390817883
 20
-0.1150300596
 30
0.0039370079
 40
0.1041666667
 41
0.0
 71
     1
 72
     1
  1
3
  7
SLDTEXTSTYLE0
 73
     1
 44
1.0
  0
MTEXT
  5
92
330
7D
100
AcDbEntity
  8
BLOCKS
 62
     0
100
AcDbMText
 10
0.3558063343
 20
0.1342778896
 30
0.0039370079
 40
0.1041666667
 41
0.0
 71
     1
 72
     1
  1

  7
SLDTEXTSTYLE0
 73
     1
 44
1.0
  0
ENDBLK
  5
7F
330
7D
100
AcDbEntity
  8
0
100
AcDbBlockEnd
  0
BLOCK
  5
95
330
94
100
AcDbEntity
  8
0
100
AcDbBlockBegin
  2
REVEAL- .500
 70
     0
 10
0.0
 20
0.0
 30
0.0
  3
REVEAL- .500
  1

  0
ARC
  5
97
330
94
100
AcDbEntity
  8
BLOCKS
100
AcDbCircle
 10
20.1601934329
 20
28.8878838846
 30
0.0
 40
0.2338576391325233
100
AcDbArc
 50
0.0
 51
90.0
  0
ARC
  5
98
330
94
100
AcDbEntity
  8
BLOCKS
100
AcDbCircle
 10
19.8280715192
 20
29.4726468145
 30
0.0
 40
0.0659795528056719
100
AcDbArc
 50
0.0
 51
90.0
  0
ARC
  5
99
330
94
100
AcDbEntity
  8
BLOCKS
100
AcDbCircle
 10
19.0470381676
 20
28.990848696
 30
0.0
 40
0.0881257319589152
100
AcDbArc
 50
200.9822712638
 51
339.0177287362
  0
ARC
  5
9A
330
94
100
AcDbEntity
  8
BLOCKS
100
AcDbCircle
 10
20.1601934329
 20
28.8878838846
 30
0.0
 40
0.1878262552218324
100
AcDbArc
 50
0.0
 51
90.0
  0
LINE
  5
9B
330
94
100
AcDbEntity
  8
BLOCKS
100
AcDbLine
 10
19.8280715192
 20
29.5386263673
 30
0.0
 11
18.2509355515
 21
29.5386263673
 31
0.0
  0
LINE
  5
9C
330
94
100
AcDbEntity
  8
BLOCKS
100
AcDbLine
 10
18.2806192052
 20
29.1434426864
 30
0.0
 11
19.894051072
 21
29.1434426864
 31
0.0
  0
LINE
  5
9D
330
94
100
AcDbEntity
  8
BLOCKS
100
AcDbLine
 10
19.3470309437
 20
29.1217415238
 30
0.0
 11
20.1601934329
 21
29.1217415238
 31
0.0
  0
LINE
  5
9E
330
94
100
AcDbEntity
  8
BLOCKS
100
AcDbLine
 10
20.394051072
 20
28.8878838846
 30
0.0
 11
20.394051072
 21
28.4971795949
 31
0.0
  0
LINE
  5
9F
330
94
100
AcDbEntity
  8
BLOCKS
100
AcDbLine
 10
20.394051072
 20
28.4971795949
 30
0.0
 11
20.3480196881
 21
28.4971795949
 31
0.0
  0
LINE
  5
A0
330
94
100
AcDbEntity
  8
BLOCKS
100
AcDbLine
 10
20.3480196881
 20
28.4971795949
 30
0.0
 11
20.3480196881
 21
28.8878838846
 31
0.0
  0
LINE
  5
A1
330
94
100
AcDbEntity
  8
BLOCKS
100
AcDbLine
 10
20.1601934329
 20
29.0757101398
 30
0.0
 11
19.3470309437
 21
29.0757101398
 31
0.0
  0
LINE
  5
A2
330
94
100
AcDbEntity
  8
BLOCKS
100
AcDbLine
 10
19.3470309437
 20
29.0757101398
 30
0.0
 11
19.3470309437
 21
29.1217415238
 31
0.0
  0
LINE
  5
A3
330
94
100
AcDbEntity
  8
BLOCKS
100
AcDbLine
 10
19.679261078
 20
29.0223488565
 30
0.0
 11
19.7319208682
 21
29.073015856
 31
0.0
  0
LINE
  5
A4
330
94
100
AcDbEntity
  8
BLOCKS
100
AcDbLine
 10
19.7319208682
 20
29.073015856
 30
0.0
 11
19.7745573648
 21
29.0287024176
 31
0.0
  0
LINE
  5
A5
330
94
100
AcDbEntity
  8
BLOCKS
100
AcDbLine
 10
19.7745573648
 20
29.0287024176
 30
0.0
 11
19.705650009
 21
28.9624027047
 31
0.0
  0
LINE
  5
A6
330
94
100
AcDbEntity
  8
BLOCKS
100
AcDbLine
 10
18.4381035755
 20
29.0888229672
 30
0.0
 11
18.385550816
 21
29.1434426864
 31
0.0
  0
LINE
  5
A7
330
94
100
AcDbEntity
  8
BLOCKS
100
AcDbLine
 10
18.385550816
 20
29.1434426864
 30
0.0
 11
18.3431444562
 21
29.1026410993
 31
0.0
  0
LINE
  5
A8
330
94
100
AcDbEntity
  8
BLOCKS
100
AcDbLine
 10
18.3431444562
 20
29.1026410993
 30
0.0
 11
18.4052557657
 21
29.0380868815
 31
0.0
  0
LINE
  5
A9
330
94
100
AcDbEntity
  8
BLOCKS
100
AcDbLine
 10
18.4381035755
 20
29.0888229672
 30
0.0
 11
19.679261078
 21
29.0223488565
 31
0.0
  0
LINE
  5
AA
330
94
100
AcDbEntity
  8
BLOCKS
100
AcDbLine
 10
19.705650009
 20
28.9624027047
 30
0.0
 11
18.4052557657
 21
29.0380868815
 31
0.0
  0
LINE
  5
AB
330
94
100
AcDbEntity
  8
BLOCKS
100
AcDbLine
 10
19.1283677378
 20
29.0518536895
 30
0.0
 11
19.1283677378
 21
28.9960010797
 31
0.0
  0
LINE
  5
AC
330
94
100
AcDbEntity
  8
BLOCKS
100
AcDbLine
 10
18.9737480593
 20
29.0601348348
 30
0.0
 11
18.9737480593
 21
29.0050000915
 31
0.0
  0
LINE
  5
AD
330
94
100
AcDbEntity
  8
BLOCKS
100
AcDbLine
 10
18.964755941
 20
28.9592927168
 30
0.0
 11
19.1293203942
 21
28.9592927168
 31
0.0
  0
LINE
  5
AE
330
94
100
AcDbEntity
  8
BLOCKS
100
AcDbLine
 10
19.0095275609
 20
29.3495924534
 30
0.0
 11
19.0095275609
 21
28.9592927168
 31
0.0
  0
LINE
  5
AF
330
94
100
AcDbEntity
  8
BLOCKS
100
AcDbLine
 10
19.0864194327
 20
29.3495924534
 30
0.0
 11
19.0864194327
 21
28.9592927168
 31
0.0
  0
LINE
  5
B0
330
94
100
AcDbEntity
  8
BLOCKS
100
AcDbLine
 10
18.9467524826
 20
29.0033177842
 30
0.0
 11
19.1591684741
 21
28.9909549723
 31
0.0
  0
LINE
  5
B1
330
94
100
AcDbEntity
  8
BLOCKS
100
AcDbLine
 10
19.0095275609
 20
29.3495924534
 30
0.0
 11
19.0474925407
 21
29.4047818344
 31
0.0
  0
LINE
  5
B2
330
94
100
AcDbEntity
  8
BLOCKS
100
AcDbLine
 10
19.0474925407
 20
29.4047818344
 30
0.0
 11
19.0864194327
 21
29.3495924534
 31
0.0
  0
LINE
  5
B3
330
94
100
AcDbEntity
  8
BLOCKS
100
AcDbLine
 10
19.1572986604
 20
28.9588281114
 30
0.0
 11
18.9448826689
 21
28.9711909233
 31
0.0
  0
LINE
  5
B4
330
94
100
AcDbEntity
  8
BLOCKS
100
AcDbLine
 10
19.1591684741
 20
28.9909549723
 30
0.0
 11
19.1572986604
 21
28.9588281114
 31
0.0
  0
LINE
  5
B5
330
94
100
AcDbEntity
  8
BLOCKS
100
AcDbLine
 10
18.9467524826
 20
29.0033177842
 30
0.0
 11
18.9448826689
 21
28.9711909233
 31
0.0
  0
LINE
  5
B6
330
94
100
AcDbEntity
  8
BLOCKS
100
AcDbLine
 10
19.1142839592
 20
29.1434426864
 30
0.0
 11
19.1142839592
 21
29.4238049236
 31
0.0
  0
LINE
  5
B7
330
94
100
AcDbEntity
  8
BLOCKS
100
AcDbLine
 10
19.1142839592
 20
29.4238049236
 30
0.0
 11
18.9877469673
 21
29.4238049236
 31
0.0
  0
LINE
  5
B8
330
94
100
AcDbEntity
  8
BLOCKS
100
AcDbLine
 10
18.9877469673
 20
29.4238049236
 30
0.0
 11
18.9877469673
 21
29.1434426864
 31
0.0
  0
LINE
  5
B9
330
94
100
AcDbEntity
  8
BLOCKS
  6
Continuous
100
AcDbLine
 10
19.894051072
 20
29.1434426864
 30
0.0
 11
19.894051072
 21
29.4726468145
 31
0.0
  0
LINE
  5
BA
330
94
100
AcDbEntity
  8
BLOCKS
100
AcDbLine
 10
19.3020232313
 20
29.1434426864
 30
0.0
 11
19.3470309437
 21
29.0987258318
 31
0.0
  0
LINE
  5
BB
330
94
100
AcDbEntity
  8
BLOCKS
100
AcDbLine
 10
19.894051072
 20
29.1434426864
 30
0.0
 11
19.9068063572
 21
29.1217415238
 31
0.0
  0
SPLINE
  5
BC
330
94
100
AcDbEntity
  8
BLOCKS
100
AcDbSpline
210
0.0
220
0.0
230
1.0
 70
     8
 71
     3
 72
     9
 73
     5
 74
     0
 42
0.00000001
 43
0.00000001
 12
1.0
 22
0.0
 32
0.0
 13
1.0
 23
0.0
 33
0.0
 40
0.0
 40
0.0
 40
0.0
 40
0.0
 40
0.5928291688347104
 40
1.0
 40
1.0
 40
1.0
 40
1.0
 10
18.28061920517429
 20
29.14344268635683
 30
0.0
 10
18.23604355296101
 20
29.22927712752978
 30
0.0
 10
18.31552651528452
 20
29.34850064146643
 30
0.0
 10
18.29741369383499
 20
29.50274888669875
 30
0.0
 10
18.25093555152442
 20
29.53862636728042
 30
0.0
  0
HATCH
  5
BD
330
94
100
AcDbEntity
  8
BLOCKS
 62
    16
100
AcDbHatch
 10
0.0
 20
0.0
 30
0.0
210
0.0
220
0.0
230
1.0
  2
ANSI36
 70
     0
 71
     0
 91
        1
 92
        0
 93
       10
 72
     4
 94
        3
 73
     1
 74
     0
 95
        9
 96
        5
 40
0.0
 40
0.0
 40
0.0
 40
0.0
 40
0.4071708311652896
 40
1.0
 40
1.0
 40
1.0
 40
1.0
 10
18.25093555152442
 20
29.53862636728042
 42
1.0
 10
18.29741369383499
 20
29.50274888669875
 42
1.0
 10
18.31552651528452
 20
29.34850064146643
 42
1.0
 10
18.23604355296101
 20
29.22927712752978
 42
1.0
 10
18.28061920517429
 20
29.14344268635683
 42
1.0
 72
     1
 10
18.28061920517429
 20
29.14344268635683
 11
18.98774696730679
 21
29.14344268635683
 72
     1
 10
18.98774696730679
 20
29.14344268635683
 11
18.98774696730679
 21
29.42380492355081
 72
     1
 10
18.98774696730679
 20
29.42380492355081
 11
19.11428395924128
 21
29.42380492355081
 72
     1
 10
19.11428395924128
 20
29.42380492355081
 11
19.11428395924128
 21
29.14344268635683
 72
     1
 10
19.11428395924128
 20
29.14344268635683
 11
19.30202323130653
 21
29.14344268635683
 72
     1
 10
19.30202323130653
 20
29.14344268635683
 11
19.89405107202551
 21
29.14344268635683
 72
     1
 10
19.89405107202551
 20
29.14344268635683
 11
19.89405107202551
 21
29.47264681447475
 72
     2
 10
19.82807151921984
 20
29.47264681447475
 40
0.0659795528056717
 50
0.0
 51
90.0
 73
     1
 72
     1
 10
19.82807151921984
 20
29.53862636728042
 11
18.25093555152442
 21
29.53862636728042
 97
        0
 75
     0
 76
     1
 52
0.0
 41
0.5
 77
     0
 78
     1
 53
45.0
 43
0.0
 44
0.0
 45
0.0331456303681194
 46
0.1215339780164378
 79
     4
 49
0.15625
 49
-0.03125
 49
0.0
 49
-0.03125
 98
        1
 10
0.0
 20
0.0
  0
HATCH
  5
BE
330
94
100
AcDbEntity
  8
BLOCKS
 62
    16
100
AcDbHatch
 10
0.0
 20
0.0
 30
0.0
210
0.0
220
0.0
230
1.0
  2
ANSI32
 70
     0
 71
     0
 91
        1
 92
        0
 93
        5
 72
     1
 10
19.08641943273533
 20
29.34959245337754
 11
19.04749254074577
 21
29.40478183438993
 72
     1
 10
19.04749254074577
 20
29.40478183438993
 11
19.00952756093279
 21
29.34959245337754
 72
     1
 10
19.00952756093279
 20
29.34959245337754
 11
19.00952756093279
 21
29.14344268635683
 72
     1
 10
19.00952756093279
 20
29.14344268635683
 11
19.08641943273533
 21
29.14344268635683
 72
     1
 10
19.08641943273533
 20
29.14344268635683
 11
19.08641943273533
 21
29.34959245337754
 97
        0
 75
     0
 76
     1
 52
0.0
 41
0.1666666667
 77
     0
 78
     2
 53
45.0
 43
0.0
 44
0.0
 45
-0.0441941738241592
 46
0.0441941738241592
 79
     0
 53
45.0
 43
0.0294627825
 44
0.0
 45
-0.0441941738241592
 46
0.0441941738241592
 79
     0
 98
        1
 10
0.0
 20
0.0
  0
HATCH
  5
BF
330
94
100
AcDbEntity
  8
BLOCKS
 62
    16
100
AcDbHatch
 10
0.0
 20
0.0
 30
0.0
210
0.0
220
0.0
230
1.0
  2
ANSI32
 70
     0
 71
     0
 91
        1
 92
        0
 93
        4
 72
     1
 10
19.08641943273533
 20
29.05410036351303
 11
19.08641943273533
 21
29.14344268635683
 72
     1
 10
19.08641943273533
 20
29.14344268635683
 11
19.00952756093279
 21
29.14344268635683
 72
     1
 10
19.00952756093279
 20
29.14344268635683
 11
19.00952756093279
 21
29.05821855059726
 72
     1
 10
19.00952756093279
 20
29.05821855059726
 11
19.08641943273533
 21
29.05410036351303
 97
        0
 75
     0
 76
     1
 52
0.0
 41
0.1666666667
 77
     0
 78
     2
 53
45.0
 43
0.0
 44
0.0
 45
-0.0441941738241592
 46
0.0441941738241592
 79
     0
 53
45.0
 43
0.0294627825
 44
0.0
 45
-0.0441941738241592
 46
0.0441941738241592
 79
     0
 98
        1
 10
0.0
 20
0.0
  0
HATCH
  5
C0
330
94
100
AcDbEntity
  8
BLOCKS
 62
    16
100
AcDbHatch
 10
0.0
 20
0.0
 30
0.0
210
0.0
220
0.0
230
1.0
  2
ANSI32
 70
     0
 71
     0
 91
        1
 92
        0
 93
        4
 72
     1
 10
19.08641943273533
 20
28.99844251081363
 11
19.08641943273533
 21
29.05410036351303
 72
     1
 10
19.08641943273533
 20
29.05410036351303
 11
19.00952756093279
 21
29.05821855059726
 72
     1
 10
19.00952756093279
 20
29.05821855059726
 11
19.00952756093279
 21
29.00291769059305
 72
     1
 10
19.00952756093279
 20
29.00291769059305
 11
19.08641943273533
 21
28.99844251081363
 97
        0
 75
     0
 76
     1
 52
0.0
 41
0.1666666667
 77
     0
 78
     2
 53
45.0
 43
0.0
 44
0.0
 45
-0.0441941738241592
 46
0.0441941738241592
 79
     0
 53
45.0
 43
0.0294627825
 44
0.0
 45
-0.0441941738241592
 46
0.0441941738241592
 79
     0
 98
        1
 10
0.0
 20
0.0
  0
HATCH
  5
C1
330
94
100
AcDbEntity
  8
BLOCKS
 62
    16
100
AcDbHatch
 10
0.0
 20
0.0
 30
0.0
210
0.0
220
0.0
230
1.0
  2
ANSI32
 70
     0
 71
     0
 91
        1
 92
        0
 93
        4
 72
     1
 10
19.00952756093279
 20
28.96742852935006
 11
19.08641943273534
 21
28.96295334957064
 72
     1
 10
19.08641943273534
 20
28.96295334957064
 11
19.08641943273534
 21
28.99518903540131
 72
     1
 10
19.08641943273534
 20
28.99518903540131
 11
19.0095275609328
 21
28.99966421518074
 72
     1
 10
19.0095275609328
 20
28.99966421518074
 11
19.00952756093279
 21
28.96742852935006
 97
        0
 75
     0
 76
     1
 52
0.0
 41
0.1666666667
 77
     0
 78
     2
 53
45.0
 43
0.0
 44
0.0
 45
-0.0441941738241592
 46
0.0441941738241592
 79
     0
 53
45.0
 43
0.0294627825
 44
0.0
 45
-0.0441941738241592
 46
0.0441941738241592
 79
     0
 98
        1
 10
0.0
 20
0.0
  0
HATCH
  5
C2
330
94
100
AcDbEntity
  8
BLOCKS
 62
    16
100
AcDbHatch
 10
0.0
 20
0.0
 30
0.0
210
0.0
220
0.0
230
1.0
  2
ANSI32
 70
     0
 71
     0
 91
        1
 92
        0
 93
        4
 72
     1
 10
19.0095275609328
 20
28.99966421518074
 11
18.94675248259694
 21
29.00331778420741
 72
     1
 10
18.94675248259694
 20
29.00331778420741
 11
18.94488266885844
 21
28.97119092330762
 72
     1
 10
18.94488266885844
 20
28.97119092330762
 11
19.00952756093279
 21
28.96742852935006
 72
     1
 10
19.00952756093279
 20
28.96742852935006
 11
19.0095275609328
 21
28.99966421518074
 97
        0
 75
     0
 76
     1
 52
0.0
 41
0.1666666667
 77
     0
 78
     2
 53
45.0
 43
0.0
 44
0.0
 45
-0.0441941738241592
 46
0.0441941738241592
 79
     0
 53
45.0
 43
0.0294627825
 44
0.0
 45
-0.0441941738241592
 46
0.0441941738241592
 79
     0
 98
        1
 10
0.0
 20
0.0
  0
HATCH
  5
C3
330
94
100
AcDbEntity
  8
BLOCKS
 62
    16
100
AcDbHatch
 10
0.0
 20
0.0
 30
0.0
210
0.0
220
0.0
230
1.0
  2
ANSI32
 70
     0
 71
     0
 91
        1
 92
        0
 93
        4
 72
     1
 10
19.15729866039344
 20
28.95882811137627
 11
19.15916847413194
 21
28.99095497227606
 72
     1
 10
19.15916847413194
 20
28.99095497227606
 11
19.08641943273534
 21
28.99518903540131
 72
     1
 10
19.08641943273534
 20
28.99518903540131
 11
19.08641943273534
 21
28.96295334957064
 72
     1
 10
19.08641943273534
 20
28.96295334957064
 11
19.15729866039344
 21
28.95882811137627
 97
        0
 75
     0
 76
     1
 52
0.0
 41
0.1666666667
 77
     0
 78
     2
 53
45.0
 43
0.0
 44
0.0
 45
-0.0441941738241592
 46
0.0441941738241592
 79
     0
 53
45.0
 43
0.0294627825
 44
0.0
 45
-0.0441941738241592
 46
0.0441941738241592
 79
     0
 98
        1
 10
0.0
 20
0.0
  0
HATCH
  5
C4
330
94
100
AcDbEntity
  8
BLOCKS
 62
    16
100
AcDbHatch
 10
0.0
 20
0.0
 30
0.0
210
0.0
220
0.0
230
1.0
  2
ANSI32
 70
     0
 71
     0
 91
        1
 92
        0
 93
        4
 72
     1
 10
19.00952756093279
 20
28.95929271682988
 11
18.96475594104669
 21
28.95929271682988
 72
     2
 10
19.04703816761627
 20
28.99084869604216
 40
0.0881257319589163
 50
200.9822712637957
 51
339.0177287362059
 73
     1
 72
     1
 10
19.12932039418586
 20
28.95929271682988
 11
19.08641943273533
 21
28.95929271682988
 72
     1
 10
19.08641943273533
 20
28.95929271682988
 11
19.00952756093279
 21
28.95929271682988
 97
        0
 75
     0
 76
     1
 52
0.0
 41
0.1666666667
 77
     0
 78
     2
 53
45.0
 43
0.0
 44
0.0
 45
-0.0441941738241592
 46
0.0441941738241592
 79
     0
 53
45.0
 43
0.0294627825
 44
0.0
 45
-0.0441941738241592
 46
0.0441941738241592
 79
     0
 98
        1
 10
0.0
 20
0.0
  0
HATCH
  5
C5
330
94
100
AcDbEntity
  8
BLOCKS
 62
    16
100
AcDbHatch
 10
0.0
 20
0.0
 30
0.0
210
0.0
220
0.0
230
1.0
  2
SOLID
 70
     1
 71
     0
 91
        1
 92
        0
 93
        5
 72
     1
 10
19.90680635715495
 20
29.12174152375217
 11
19.89405107202551
 21
29.14344268635683
 72
     1
 10
19.89405107202551
 20
29.14344268635683
 11
19.30202323130653
 21
29.14344268635683
 72
     1
 10
19.30202323130653
 20
29.14344268635683
 11
19.34703094371573
 21
29.09872583179682
 72
     1
 10
19.34703094371573
 20
29.09872583179682
 11
19.34703094371572
 21
29.12174152375217
 72
     1
 10
19.34703094371572
 20
29.12174152375217
 11
19.90680635715495
 21
29.12174152375217
 97
        0
 75
     0
 76
     1
 98
        1
 10
0.0
 20
0.0
  0
INSERT
  5
DC
330
94
100
AcDbEntity
  8
BLOCKS
100
AcDbBlockReference
  2
SW_BLOCK_DIMENSION_1
 10
19.9473259871
 20
29.6493704876
 30
0.0
  0
ENDBLK
  5
96
330
94
100
AcDbEntity
  8
0
100
AcDbBlockEnd
  0
BLOCK
  5
C7
330
C6
100
AcDbEntity
  8
0
100
AcDbBlockBegin
  2
SW_BLOCK_DIMENSION_1
 70
     0
 10
0.0
 20
0.0
 30
0.0
  3
SW_BLOCK_DIMENSION_1
  1

  0
SOLID
  5
C9
330
C6
100
AcDbEntity
  8
BLOCKS
 62
     0
100
AcDbTrace
 10
0.4467250849
 20
-0.0313006311
 30
0.0
 11
0.5478399938
 21
-0.0468567709
 31
0.0
 12
0.5478399938
 22
-0.0157444913
 32
0.0
 13
0.5478399938
 23
-0.0157444913
 33
0.0
  0
SOLID
  5
CA
330
C6
100
AcDbEntity
  8
BLOCKS
 62
     0
100
AcDbTrace
 10
-0.0532749151
 20
-0.0313006311
 30
0.0
 11
-0.1543898239
 21
-0.0157444913
 31
0.0
 12
-0.1543898239
 22
-0.0468567709
 32
0.0
 13
-0.1543898239
 23
-0.0468567709
 33
0.0
  0
LINE
  5
CB
330
C6
100
AcDbEntity
  8
BLOCKS
 62
     0
100
AcDbLine
 10
0.0608603444
 20
0.0798201425
 30
0.0
 11
0.1675347288
 21
0.0798201425
 31
0.0
  0
LINE
  5
CC
330
C6
100
AcDbEntity
  8
BLOCKS
 62
     0
100
AcDbLine
 10
0.079089508
 20
-0.0940224566
 30
0.0
 11
0.0559413594
 21
-0.0940224566
 31
0.0
  0
LINE
  5
CD
330
C6
100
AcDbEntity
  8
BLOCKS
 62
     0
100
AcDbLine
 10
0.0559413594
 20
-0.0940224566
 30
0.0
 11
0.0559413594
 21
-0.249307956
 31
0.0
  0
LINE
  5
CE
330
C6
100
AcDbEntity
  8
BLOCKS
 62
     0
100
AcDbLine
 10
0.0559413594
 20
-0.249307956
 30
0.0
 11
0.079089508
 21
-0.249307956
 31
0.0
  0
LINE
  5
CF
330
C6
100
AcDbEntity
  8
BLOCKS
 62
     0
100
AcDbLine
 10
0.2912808701
 20
-0.0940224566
 30
0.0
 11
0.3144290187
 21
-0.0940224566
 31
0.0
  0
LINE
  5
D0
330
C6
100
AcDbEntity
  8
BLOCKS
 62
     0
100
AcDbLine
 10
0.3144290187
 20
-0.0940224566
 30
0.0
 11
0.3144290187
 21
-0.249307956
 31
0.0
  0
LINE
  5
D1
330
C6
100
AcDbEntity
  8
BLOCKS
 62
     0
100
AcDbLine
 10
0.3144290187
 20
-0.249307956
 30
0.0
 11
0.2912808701
 21
-0.249307956
 31
0.0
  0
LINE
  5
D2
330
C6
100
AcDbEntity
  8
BLOCKS
 62
     0
100
AcDbLine
 10
0.4467250849
 20
-0.711486603
 30
0.0
 11
0.4467250849
 21
0.0936993689
 31
0.0
  0
LINE
  5
D3
330
C6
100
AcDbEntity
  8
BLOCKS
 62
     0
100
AcDbLine
 10
-0.0532749151
 20
-0.1267236731
 30
0.0
 11
-0.0532749151
 21
0.0936993689
 31
0.0
  0
LINE
  5
D4
330
C6
100
AcDbEntity
  8
BLOCKS
 62
     0
100
AcDbLine
 10
0.4467250849
 20
-0.0313006311
 30
0.0
 11
0.6411768327
 21
-0.0313006311
 31
0.0
  0
LINE
  5
D5
330
C6
100
AcDbEntity
  8
BLOCKS
 62
     0
100
AcDbLine
 10
-0.0532749151
 20
-0.0313006311
 30
0.0
 11
-0.2477266629
 21
-0.0313006311
 31
0.0
  0
MTEXT
  5
D6
330
C6
100
AcDbEntity
  8
BLOCKS
 62
     0
100
AcDbMText
 10
0.0390625
 20
0.1342778896
 30
0.0039370079
 40
0.1041666667
 41
0.0
 71
     1
 72
     1
  1

  7
SLDTEXTSTYLE0
 73
     1
 44
1.0
  0
MTEXT
  5
D7
330
C6
100
AcDbEntity
  8
BLOCKS
 62
     0
100
AcDbMText
 10
0.0756172881
 20
0.2052438631
 30
0.0039370079
 40
0.1041666667
 41
0.0
 71
     1
 72
     1
  1
1
  7
SLDTEXTSTYLE0
 73
     1
 44
1.0
  0
MTEXT
  5
D8
330
C6
100
AcDbEntity
  8
BLOCKS
 62
     0
100
AcDbMText
 10
0.0756172881
 20
0.0634035871
 30
0.0039370079
 40
0.1041666667
 41
0.0
 71
     1
 72
     1
  1
2
  7
SLDTEXTSTYLE0
 73
     1
 44
1.0
  0
MTEXT
  5
D9
330
C6
100
AcDbEntity
  8
BLOCKS
 62
     0
100
AcDbMText
 10
0.1822916725
 20
0.1342778896
 30
0.0039370079
 40
0.1041666667
 41
0.0
 71
     1
 72
     1
  1
"
  7
SLDTEXTSTYLE0
 73
     1
 44
1.0
  0
MTEXT
  5
DA
330
C6
100
AcDbEntity
  8
BLOCKS
 62
     0
100
AcDbMText
 10
0.1080246921
 20
-0.1150300596
 30
0.0039370079
 40
0.1041666667
 41
0.0
 71
     1
 72
     1
  1
13
  7
SLDTEXTSTYLE0
 73
     1
 44
1.0
  0
MTEXT
  5
DB
330
C6
100
AcDbEntity
  8
BLOCKS
 62
     0
100
AcDbMText
 10
0.3708526205
 20
0.1342778896
 30
0.0039370079
 40
0.1041666667
 41
0.0
 71
     1
 72
     1
  1

  7
SLDTEXTSTYLE0
 73
     1
 44
1.0
  0
ENDBLK
  5
C8
330
C6
100
AcDbEntity
  8
0
100
AcDbBlockEnd
  0
BLOCK
  5
F6
330
F5
100
AcDbEntity
  8
0
100
AcDbBlockBegin
  2
_D
 70
     0
 10
0.0
 20
0.0
 30
0.0
  3
_D
  1

  0
SOLID
  5
F8
330
F5
100
AcDbEntity
  8
DIMS
100
AcDbTrace
 10
10.9785287516
 20
16.9115388492
 30
0.0
 11
10.9063975338
 21
16.6555140008
 31
0.0
 12
10.9866885272
 22
16.6456722405
 32
0.0
 13
10.9866885272
 23
16.6456722405
 33
0.0
  0
LINE
  5
F9
330
F5
100
AcDbEntity
  8
DIMS
100
AcDbLine
 10
10.6876234988
 20
15.5821073795
 30
0.0
 11
10.9649768798
 21
15.5821073795
 31
0.0
  0
LINE
  5
FA
330
F5
100
AcDbEntity
  8
DIMS
100
AcDbLine
 10
10.4040008411
 20
15.1301166518
 30
0.0
 11
10.3438156551
 21
15.1301166518
 31
0.0
  0
LINE
  5
FB
330
F5
100
AcDbEntity
  8
DIMS
100
AcDbLine
 10
10.3438156551
 20
15.1301166518
 30
0.0
 11
10.3438156551
 21
14.7263743825
 31
0.0
  0
LINE
  5
FC
330
F5
100
AcDbEntity
  8
DIMS
100
AcDbLine
 10
10.3438156551
 20
14.7263743825
 30
0.0
 11
10.4040008411
 21
14.7263743825
 31
0.0
  0
LINE
  5
FD
330
F5
100
AcDbEntity
  8
DIMS
100
AcDbLine
 10
11.1563156269
 20
15.1301166518
 30
0.0
 11
11.2165008129
 21
15.1301166518
 31
0.0
  0
LINE
  5
FE
330
F5
100
AcDbEntity
  8
DIMS
100
AcDbLine
 10
11.2165008129
 20
15.1301166518
 30
0.0
 11
11.2165008129
 21
14.7263743825
 31
0.0
  0
LINE
  5
FF
330
F5
100
AcDbEntity
  8
DIMS
100
AcDbLine
 10
11.2165008129
 20
14.7263743825
 30
0.0
 11
11.1563156269
 21
14.7263743825
 31
0.0
  0
LINE
  5
100
330
F5
100
AcDbEntity
  8
DIMS
100
AcDbLine
 10
10.6527431863
 20
14.2537169038
 30
0.0
 11
10.703302459
 21
14.6661892744
 31
0.0
  0
LINE
  5
101
330
F5
100
AcDbEntity
  8
DIMS
100
AcDbLine
 10
10.9785287516
 20
16.9115388492
 30
0.0
 11
10.8570139723
 21
15.920197668
 31
0.0
  0
LINE
  5
102
330
F5
100
AcDbEntity
  8
DIMS
100
AcDbLine
 10
10.6527431863
 20
14.2537169038
 30
0.0
 11
10.9340705521
 21
14.5457717024
 31
0.0
  0
LINE
  5
103
330
F5
100
AcDbEntity
  8
DIMS
100
AcDbLine
 10
10.9340705521
 20
14.5457717024
 30
0.0
 11
10.8134507158
 21
13.5617316397
 31
0.0
  0
LINE
  5
104
330
F5
100
AcDbEntity
  8
DIMS
100
AcDbLine
 10
10.8134507158
 20
14.2914833373
 30
0.0
 11
10.8134507158
 21
12.8319799421
 31
0.0
  0
LINE
  5
105
330
F5
100
AcDbEntity
  8
DIMS
100
AcDbLine
 10
10.0836990182
 20
13.5617316397
 30
0.0
 11
11.5432024134
 21
13.5617316397
 31
0.0
  0
MTEXT
  5
106
330
F5
100
AcDbEntity
  8
DIMS
100
AcDbMText
 10
10.1878357016
 20
15.7236975448
 30
0.0039370079
 40
0.2708333333
 41
0.0
 71
     1
 72
     1
  1
R9
  7
SLDTEXTSTYLE0
 73
     1
 44
1.0
  0
MTEXT
  5
107
330
F5
100
AcDbEntity
  8
DIMS
100
AcDbMText
 10
10.7259915506
 20
15.908209065
 30
0.0039370079
 40
0.2708333333
 41
0.0
 71
     1
 72
     1
  1
1
  7
SLDTEXTSTYLE0
 73
     1
 44
1.0
  0
MTEXT
  5
108
330
F5
100
AcDbEntity
  8
DIMS
100
AcDbMText
 10
10.7259915506
 20
15.5394243277
 30
0.0039370079
 40
0.2708333333
 41
0.0
 71
     1
 72
     1
  1
2
  7
SLDTEXTSTYLE0
 73
     1
 44
1.0
  0
MTEXT
  5
109
330
F5
100
AcDbEntity
  8
DIMS
100
AcDbMText
 10
11.0033449407
 20
15.7236975448
 30
0.0039370079
 40
0.2708333333
 41
0.0
 71
     1
 72
     1
  1
"
  7
SLDTEXTSTYLE0
 73
     1
 44
1.0
  0
MTEXT
  5
10A
330
F5
100
AcDbEntity
  8
DIMS
100
AcDbMText
 10
10.479232327
 20
15.0754968862
 30
0.0039370079
 40
0.2708333333
 41
0.0
 71
     1
 72
     1
  1
241
  7
SLDTEXTSTYLE0
 73
     1
 44
1.0
  0
ENDBLK
  5
F7
330
F5
100
AcDbEntity
  8
0
100
AcDbBlockEnd
  0
BLOCK
  5
10E
330
10D
100
AcDbEntity
  8
0
100
AcDbBlockBegin
  2
_D_1
 70
     0
 10
0.0
 20
0.0
 30
0.0
  3
_D_1
  1

  0
SOLID
  5
110
330
10D
100
AcDbEntity
  8
DIMS
100
AcDbTrace
 10
15.7695189672
 20
13.2120421431
 30
0.0
 11
15.5078692151
 21
13.1641773045
 31
0.0
 12
15.5343557447
 22
13.0877445392
 32
0.0
 13
15.5343557447
 23
13.0877445392
 33
0.0
  0
LINE
  5
111
330
10D
100
AcDbEntity
  8
DIMS
100
AcDbLine
 10
13.6529881544
 20
12.7995731782
 30
0.0
 11
13.9303415354
 21
12.7995731782
 31
0.0
  0
LINE
  5
112
330
10D
100
AcDbEntity
  8
DIMS
100
AcDbLine
 10
13.3693654967
 20
12.3475824505
 30
0.0
 11
13.3091803107
 21
12.3475824505
 31
0.0
  0
LINE
  5
113
330
10D
100
AcDbEntity
  8
DIMS
100
AcDbLine
 10
13.3091803107
 20
12.3475824505
 30
0.0
 11
13.3091803107
 21
11.9438401812
 31
0.0
  0
LINE
  5
114
330
10D
100
AcDbEntity
  8
DIMS
100
AcDbLine
 10
13.3091803107
 20
11.9438401812
 30
0.0
 11
13.3693654967
 21
11.9438401812
 31
0.0
  0
LINE
  5
115
330
10D
100
AcDbEntity
  8
DIMS
100
AcDbLine
 10
14.1216802826
 20
12.3475824505
 30
0.0
 11
14.1818654686
 21
12.3475824505
 31
0.0
  0
LINE
  5
116
330
10D
100
AcDbEntity
  8
DIMS
100
AcDbLine
 10
14.1818654686
 20
12.3475824505
 30
0.0
 11
14.1818654686
 21
11.9438401812
 31
0.0
  0
LINE
  5
117
330
10D
100
AcDbEntity
  8
DIMS
100
AcDbLine
 10
14.1818654686
 20
11.9438401812
 30
0.0
 11
14.1216802826
 21
11.9438401812
 31
0.0
  0
LINE
  5
118
330
10D
100
AcDbEntity
  8
DIMS
100
AcDbLine
 10
10.5727060779
 20
11.4111712999
 30
0.0
 11
13.0930086149
 21
12.2845410848
 31
0.0
  0
LINE
  5
119
330
10D
100
AcDbEntity
  8
DIMS
100
AcDbLine
 10
15.7695189672
 20
13.2120421431
 30
0.0
 11
14.3980371277
 21
12.7367774551
 31
0.0
  0
MTEXT
  5
11A
330
10D
100
AcDbEntity
  8
DIMS
100
AcDbMText
 10
13.1532003572
 20
12.9411633435
 30
0.0039370079
 40
0.2708333333
 41
0.0
 71
     1
 72
     1
  1
R5
  7
SLDTEXTSTYLE0
 73
     1
 44
1.0
  0
MTEXT
  5
11B
330
10D
100
AcDbEntity
  8
DIMS
100
AcDbMText
 10
13.6913562062
 20
13.1256748636
 30
0.0039370079
 40
0.2708333333
 41
0.0
 71
     1
 72
     1
  1
1
  7
SLDTEXTSTYLE0
 73
     1
 44
1.0
  0
MTEXT
  5
11C
330
10D
100
AcDbEntity
  8
DIMS
100
AcDbMText
 10
13.6913562062
 20
12.7568901264
 30
0.0039370079
 40
0.2708333333
 41
0.0
 71
     1
 72
     1
  1
2
  7
SLDTEXTSTYLE0
 73
     1
 44
1.0
  0
MTEXT
  5
11D
330
10D
100
AcDbEntity
  8
DIMS
100
AcDbMText
 10
13.9687095964
 20
12.9411633435
 30
0.0039370079
 40
0.2708333333
 41
0.0
 71
     1
 72
     1
  1
"
  7
SLDTEXTSTYLE0
 73
     1
 44
1.0
  0
MTEXT
  5
11E
330
10D
100
AcDbEntity
  8
DIMS
100
AcDbMText
 10
13.4445969826
 20
12.2929626849
 30
0.0039370079
 40
0.2708333333
 41
0.0
 71
     1
 72
     1
  1
140
  7
SLDTEXTSTYLE0
 73
     1
 44
1.0
  0
ENDBLK
  5
10F
330
10D
100
AcDbEntity
  8
0
100
AcDbBlockEnd
  0
BLOCK
  5
121
330
120
100
AcDbEntity
  8
0
100
AcDbBlockBegin
  2
_D_2
 70
     0
 10
0.0
 20
0.0
 30
0.0
  3
_D_2
  1

  0
SOLID
  5
123
330
120
100
AcDbEntity
  8
DIMS
100
AcDbTrace
 10
13.8297627272
 20
15.0384577489
 30
0.0
 11
13.6240221612
 21
14.8698681436
 31
0.0
 12
13.684210508
 22
14.8158230997
 32
0.0
 13
13.684210508
 23
14.8158230997
 33
0.0
  0
LINE
  5
124
330
120
100
AcDbEntity
  8
DIMS
100
AcDbLine
 10
12.9020766067
 20
14.3972885497
 30
0.0
 11
13.1794299876
 21
14.3972885497
 31
0.0
  0
LINE
  5
125
330
120
100
AcDbEntity
  8
DIMS
100
AcDbLine
 10
12.6184539489
 20
13.945297822
 30
0.0
 11
12.5582687629
 21
13.945297822
 31
0.0
  0
LINE
  5
126
330
120
100
AcDbEntity
  8
DIMS
100
AcDbLine
 10
12.5582687629
 20
13.945297822
 30
0.0
 11
12.5582687629
 21
13.5415555527
 31
0.0
  0
LINE
  5
127
330
120
100
AcDbEntity
  8
DIMS
100
AcDbLine
 10
12.5582687629
 20
13.5415555527
 30
0.0
 11
12.6184539489
 21
13.5415555527
 31
0.0
  0
LINE
  5
128
330
120
100
AcDbEntity
  8
DIMS
100
AcDbLine
 10
13.3707687348
 20
13.945297822
 30
0.0
 11
13.4309539208
 21
13.945297822
 31
0.0
  0
LINE
  5
129
330
120
100
AcDbEntity
  8
DIMS
100
AcDbLine
 10
13.4309539208
 20
13.945297822
 30
0.0
 11
13.4309539208
 21
13.5415555527
 31
0.0
  0
LINE
  5
12A
330
120
100
AcDbEntity
  8
DIMS
100
AcDbLine
 10
13.4309539208
 20
13.5415555527
 30
0.0
 11
13.3707687348
 21
13.5415555527
 31
0.0
  0
LINE
  5
12B
330
120
100
AcDbEntity
  8
DIMS
100
AcDbLine
 10
10.5727060779
 20
11.4111712999
 30
0.0
 11
12.4316041784
 21
13.4813704447
 31
0.0
  0
LINE
  5
12C
330
120
100
AcDbEntity
  8
DIMS
100
AcDbLine
 10
13.8297627272
 20
15.0384577489
 30
0.0
 11
13.5576184687
 21
14.7353788383
 31
0.0
  0
MTEXT
  5
12D
330
120
100
AcDbEntity
  8
DIMS
100
AcDbMText
 10
12.4022888094
 20
14.538878715
 30
0.0039370079
 40
0.2708333333
 41
0.0
 71
     1
 72
     1
  1
R4
  7
SLDTEXTSTYLE0
 73
     1
 44
1.0
  0
MTEXT
  5
12E
330
120
100
AcDbEntity
  8
DIMS
100
AcDbMText
 10
12.9404446584
 20
14.7233902352
 30
0.0039370079
 40
0.2708333333
 41
0.0
 71
     1
 72
     1
  1
7
  7
SLDTEXTSTYLE0
 73
     1
 44
1.0
  0
MTEXT
  5
12F
330
120
100
AcDbEntity
  8
DIMS
100
AcDbMText
 10
12.9404446584
 20
14.3546054979
 30
0.0039370079
 40
0.2708333333
 41
0.0
 71
     1
 72
     1
  1
8
  7
SLDTEXTSTYLE0
 73
     1
 44
1.0
  0
MTEXT
  5
130
330
120
100
AcDbEntity
  8
DIMS
100
AcDbMText
 10
13.2177980486
 20
14.538878715
 30
0.0039370079
 40
0.2708333333
 41
0.0
 71
     1
 72
     1
  1
"
  7
SLDTEXTSTYLE0
 73
     1
 44
1.0
  0
MTEXT
  5
131
330
120
100
AcDbEntity
  8
DIMS
100
AcDbMText
 10
12.6936854348
 20
13.8906780564
 30
0.0039370079
 40
0.2708333333
 41
0.0
 71
     1
 72
     1
  1
124
  7
SLDTEXTSTYLE0
 73
     1
 44
1.0
  0
ENDBLK
  5
122
330
120
100
AcDbEntity
  8
0
100
AcDbBlockEnd
  0
BLOCK
  5
134
330
133
100
AcDbEntity
  8
0
100
AcDbBlockBegin
  2
_D_3
 70
     0
 10
0.0
 20
0.0
 30
0.0
  3
_D_3
  1

  0
SOLID
  5
136
330
133
100
AcDbEntity
  8
DIMS
100
AcDbTrace
 10
5.09582039
 20
2.3946388223
 30
0.0
 11
5.3059597646
 21
2.557712667
 31
0.0
 12
5.2472259212
 22
2.6133349602
 32
0.0
 13
5.2472259212
 23
2.6133349602
 33
0.0
  0
LINE
  5
137
330
133
100
AcDbEntity
  8
DIMS
100
AcDbLine
 10
5.7375256135
 20
3.4588665705
 30
0.0
 11
6.0148789945
 21
3.4588665705
 31
0.0
  0
LINE
  5
138
330
133
100
AcDbEntity
  8
DIMS
100
AcDbLine
 10
5.554211567
 20
3.0068758428
 30
0.0
 11
5.494026381
 21
3.0068758428
 31
0.0
  0
LINE
  5
139
330
133
100
AcDbEntity
  8
DIMS
100
AcDbLine
 10
5.494026381
 20
3.0068758428
 30
0.0
 11
5.494026381
 21
2.6031335735
 31
0.0
  0
LINE
  5
13A
330
133
100
AcDbEntity
  8
DIMS
100
AcDbLine
 10
5.494026381
 20
2.6031335735
 30
0.0
 11
5.554211567
 21
2.6031335735
 31
0.0
  0
LINE
  5
13B
330
133
100
AcDbEntity
  8
DIMS
100
AcDbLine
 10
6.1059090937
 20
3.0068758428
 30
0.0
 11
6.1660942797
 21
3.0068758428
 31
0.0
  0
LINE
  5
13C
330
133
100
AcDbEntity
  8
DIMS
100
AcDbLine
 10
6.1660942797
 20
3.0068758428
 30
0.0
 11
6.1660942797
 21
2.6031335735
 31
0.0
  0
LINE
  5
13D
330
133
100
AcDbEntity
  8
DIMS
100
AcDbLine
 10
6.1660942797
 20
2.6031335735
 30
0.0
 11
6.1059090937
 21
2.6031335735
 31
0.0
  0
LINE
  5
13E
330
133
100
AcDbEntity
  8
DIMS
100
AcDbLine
 10
7.0727060779
 20
4.4821128885
 30
0.0
 11
6.4238476463
 21
3.7969568591
 31
0.0
  0
LINE
  5
13F
330
133
100
AcDbEntity
  8
DIMS
100
AcDbLine
 10
5.09582039
 20
2.3946388223
 30
0.0
 11
5.2362730144
 21
2.5429484655
 31
0.0
  0
MTEXT
  5
140
330
133
100
AcDbEntity
  8
DIMS
100
AcDbMText
 10
5.2377378162
 20
3.6004567358
 30
0.0039370079
 40
0.2708333333
 41
0.0
 71
     1
 72
     1
  1
R2
  7
SLDTEXTSTYLE0
 73
     1
 44
1.0
  0
MTEXT
  5
141
330
133
100
AcDbEntity
  8
DIMS
100
AcDbMText
 10
5.7758936653
 20
3.784968256
 30
0.0039370079
 40
0.2708333333
 41
0.0
 71
     1
 72
     1
  1
7
  7
SLDTEXTSTYLE0
 73
     1
 44
1.0
  0
MTEXT
  5
142
330
133
100
AcDbEntity
  8
DIMS
100
AcDbMText
 10
5.7758936653
 20
3.4161835187
 30
0.0039370079
 40
0.2708333333
 41
0.0
 71
     1
 72
     1
  1
8
  7
SLDTEXTSTYLE0
 73
     1
 44
1.0
  0
MTEXT
  5
143
330
133
100
AcDbEntity
  8
DIMS
100
AcDbMText
 10
6.0532470554
 20
3.6004567358
 30
0.0039370079
 40
0.2708333333
 41
0.0
 71
     1
 72
     1
  1
"
  7
SLDTEXTSTYLE0
 73
     1
 44
1.0
  0
MTEXT
  5
144
330
133
100
AcDbEntity
  8
DIMS
100
AcDbMText
 10
5.6294430529
 20
2.9522560772
 30
0.0039370079
 40
0.2708333333
 41
0.0
 71
     1
 72
     1
  1
73
  7
SLDTEXTSTYLE0
 73
     1
 44
1.0
  0
ENDBLK
  5
135
330
133
100
AcDbEntity
  8
0
100
AcDbBlockEnd
  0
BLOCK
  5
147
330
146
100
AcDbEntity
  8
0
100
AcDbBlockBegin
  2
_D_4
 70
     0
 10
0.0
 20
0.0
 30
0.0
  3
_D_4
  1

  0
SOLID
  5
149
330
146
100
AcDbEntity
  8
DIMS
100
AcDbTrace
 10
14.9051388219
 20
1.8725616829
 30
0.0
 11
14.7600965733
 21
2.095528904
 31
0.0
 12
14.6997846802
 22
2.041621767
 32
0.0
 13
14.6997846802
 23
2.041621767
 33
0.0
  0
LINE
  5
14A
330
146
100
AcDbEntity
  8
DIMS
100
AcDbLine
 10
13.6529881544
 20
3.4588665705
 30
0.0
 11
13.9303415354
 21
3.4588665705
 31
0.0
  0
LINE
  5
14B
330
146
100
AcDbEntity
  8
DIMS
100
AcDbLine
 10
13.4696741079
 20
3.0068758428
 30
0.0
 11
13.409488922
 21
3.0068758428
 31
0.0
  0
LINE
  5
14C
330
146
100
AcDbEntity
  8
DIMS
100
AcDbLine
 10
13.409488922
 20
3.0068758428
 30
0.0
 11
13.409488922
 21
2.6031335735
 31
0.0
  0
LINE
  5
14D
330
146
100
AcDbEntity
  8
DIMS
100
AcDbLine
 10
13.409488922
 20
2.6031335735
 30
0.0
 11
13.4696741079
 21
2.6031335735
 31
0.0
  0
LINE
  5
14E
330
146
100
AcDbEntity
  8
DIMS
100
AcDbLine
 10
14.0213716347
 20
3.0068758428
 30
0.0
 11
14.0815568207
 21
3.0068758428
 31
0.0
  0
LINE
  5
14F
330
146
100
AcDbEntity
  8
DIMS
100
AcDbLine
 10
14.0815568207
 20
3.0068758428
 30
0.0
 11
14.0815568207
 21
2.6031335735
 31
0.0
  0
LINE
  5
150
330
146
100
AcDbEntity
  8
DIMS
100
AcDbLine
 10
14.0815568207
 20
2.6031335735
 30
0.0
 11
14.0213716347
 21
2.6031335735
 31
0.0
  0
LINE
  5
151
330
146
100
AcDbEntity
  8
DIMS
100
AcDbLine
 10
12.5727060779
 20
4.4821128885
 30
0.0
 11
13.1851027055
 21
3.7969568591
 31
0.0
  0
LINE
  5
152
330
146
100
AcDbEntity
  8
DIMS
100
AcDbLine
 10
14.9051388219
 20
1.8725616829
 30
0.0
 11
14.3059430371
 21
2.5429484655
 31
0.0
  0
MTEXT
  5
153
330
146
100
AcDbEntity
  8
DIMS
100
AcDbMText
 10
13.1532003572
 20
3.6004567358
 30
0.0039370079
 40
0.2708333333
 41
0.0
 71
     1
 72
     1
  1
R3
  7
SLDTEXTSTYLE0
 73
     1
 44
1.0
  0
MTEXT
  5
154
330
146
100
AcDbEntity
  8
DIMS
100
AcDbMText
 10
13.6913562062
 20
3.784968256
 30
0.0039370079
 40
0.2708333333
 41
0.0
 71
     1
 72
     1
  1
1
  7
SLDTEXTSTYLE0
 73
     1
 44
1.0
  0
MTEXT
  5
155
330
146
100
AcDbEntity
  8
DIMS
100
AcDbMText
 10
13.6913562062
 20
3.4161835187
 30
0.0039370079
 40
0.2708333333
 41
0.0
 71
     1
 72
     1
  1
2
  7
SLDTEXTSTYLE0
 73
     1
 44
1.0
  0
MTEXT
  5
156
330
146
100
AcDbEntity
  8
DIMS
100
AcDbMText
 10
13.9687095964
 20
3.6004567358
 30
0.0039370079
 40
0.2708333333
 41
0.0
 71
     1
 72
     1
  1
"
  7
SLDTEXTSTYLE0
 73
     1
 44
1.0
  0
MTEXT
  5
157
330
146
100
AcDbEntity
  8
DIMS
100
AcDbMText
 10
13.5449055939
 20
2.9522560772
 30
0.0039370079
 40
0.2708333333
 41
0.0
 71
     1
 72
     1
  1
89
  7
SLDTEXTSTYLE0
 73
     1
 44
1.0
  0
ENDBLK
  5
148
330
146
100
AcDbEntity
  8
0
100
AcDbBlockEnd
  0
BLOCK
  5
15B
330
15A
100
AcDbEntity
  8
0
100
AcDbBlockBegin
  2
_D_5
 70
     0
 10
0.0
 20
0.0
 30
0.0
  3
_D_5
  1

  0
SOLID
  5
15D
330
15A
100
AcDbEntity
  8
DIMS
100
AcDbTrace
 10
4.1977060779
 20
5.3501740289
 30
0.0
 11
4.4606048409
 21
5.3097280653
 31
0.0
 12
4.4606048409
 22
5.3906199924
 32
0.0
 13
4.4606048409
 23
5.3906199924
 33
0.0
  0
SOLID
  5
15E
330
15A
100
AcDbEntity
  8
DIMS
100
AcDbTrace
 10
15.4477060779
 20
5.3501740289
 30
0.0
 11
15.1848073149
 21
5.3906199924
 31
0.0
 12
15.1848073149
 22
5.3097280653
 32
0.0
 13
15.1848073149
 23
5.3097280653
 33
0.0
  0
LINE
  5
15F
330
15A
100
AcDbEntity
  8
DIMS
100
AcDbLine
 10
9.0519300645
 20
5.6390879371
 30
0.0
 11
9.3292834455
 21
5.6390879371
 31
0.0
  0
LINE
  5
160
330
15A
100
AcDbEntity
  8
DIMS
100
AcDbLine
 10
8.7983999791
 20
5.1870972094
 30
0.0
 11
8.7382147931
 21
5.1870972094
 31
0.0
  0
LINE
  5
161
330
15A
100
AcDbEntity
  8
DIMS
100
AcDbLine
 10
8.7382147931
 20
5.1870972094
 30
0.0
 11
8.7382147931
 21
4.7833549401
 31
0.0
  0
LINE
  5
162
330
15A
100
AcDbEntity
  8
DIMS
100
AcDbLine
 10
8.7382147931
 20
4.7833549401
 30
0.0
 11
8.7983999791
 21
4.7833549401
 31
0.0
  0
LINE
  5
163
330
15A
100
AcDbEntity
  8
DIMS
100
AcDbLine
 10
9.550714765
 20
5.1870972094
 30
0.0
 11
9.610899951
 21
5.1870972094
 31
0.0
  0
LINE
  5
164
330
15A
100
AcDbEntity
  8
DIMS
100
AcDbLine
 10
9.610899951
 20
5.1870972094
 30
0.0
 11
9.610899951
 21
4.7833549401
 31
0.0
  0
LINE
  5
165
330
15A
100
AcDbEntity
  8
DIMS
100
AcDbLine
 10
9.610899951
 20
4.7833549401
 30
0.0
 11
9.550714765
 21
4.7833549401
 31
0.0
  0
LINE
  5
166
330
15A
100
AcDbEntity
  8
DIMS
100
AcDbLine
 10
4.1977060779
 20
5.3501740289
 30
0.0
 11
8.5521357064
 21
5.3501740289
 31
0.0
  0
LINE
  5
167
330
15A
100
AcDbEntity
  8
DIMS
100
AcDbLine
 10
15.4477060779
 20
5.3501740289
 30
0.0
 11
9.7969790011
 21
5.3501740289
 31
0.0
  0
MTEXT
  5
168
330
15A
100
AcDbEntity
  8
DIMS
100
AcDbMText
 10
8.6123274486
 20
5.7806781024
 30
0.0039370079
 40
0.2708333333
 41
0.0
 71
     1
 72
     1
  1
11
  7
SLDTEXTSTYLE0
 73
     1
 44
1.0
  0
MTEXT
  5
169
330
15A
100
AcDbEntity
  8
DIMS
100
AcDbMText
 10
9.0902981162
 20
5.9651896226
 30
0.0039370079
 40
0.2708333333
 41
0.0
 71
     1
 72
     1
  1
1
  7
SLDTEXTSTYLE0
 73
     1
 44
1.0
  0
MTEXT
  5
16A
330
15A
100
AcDbEntity
  8
DIMS
100
AcDbMText
 10
9.0902981162
 20
5.5964048853
 30
0.0039370079
 40
0.2708333333
 41
0.0
 71
     1
 72
     1
  1
4
  7
SLDTEXTSTYLE0
 73
     1
 44
1.0
  0
MTEXT
  5
16B
330
15A
100
AcDbEntity
  8
DIMS
100
AcDbMText
 10
9.3676514697
 20
5.7806781024
 30
0.0039370079
 40
0.2708333333
 41
0.0
 71
     1
 72
     1
  1
"
  7
SLDTEXTSTYLE0
 73
     1
 44
1.0
  0
MTEXT
  5
16C
330
15A
100
AcDbEntity
  8
DIMS
100
AcDbMText
 10
8.873631465
 20
5.1324774438
 30
0.0039370079
 40
0.2708333333
 41
0.0
 71
     1
 72
     1
  1
286
  7
SLDTEXTSTYLE0
 73
     1
 44
1.0
  0
ENDBLK
  5
15C
330
15A
100
AcDbEntity
  8
0
100
AcDbBlockEnd
  0
BLOCK
  5
16F
330
16E
100
AcDbEntity
  8
0
100
AcDbBlockBegin
  2
_D_6
 70
     0
 10
0.0
 20
0.0
 30
0.0
  3
_D_6
  1

  0
SOLID
  5
171
330
16E
100
AcDbEntity
  8
DIMS
100
AcDbTrace
 10
3.5727060779
 20
4.6386786192
 30
0.0
 11
3.8356048409
 21
4.5982326557
 31
0.0
 12
3.8356048409
 22
4.6791245828
 32
0.0
 13
3.8356048409
 23
4.6791245828
 33
0.0
  0
SOLID
  5
172
330
16E
100
AcDbEntity
  8
DIMS
100
AcDbTrace
 10
16.0727060779
 20
4.6386786192
 30
0.0
 11
15.8098073149
 21
4.6791245828
 31
0.0
 12
15.8098073149
 22
4.5982326557
 32
0.0
 13
15.8098073149
 23
4.5982326557
 33
0.0
  0
LINE
  5
173
330
16E
100
AcDbEntity
  8
DIMS
100
AcDbLine
 10
11.2106005522
 20
4.9275925275
 30
0.0
 11
11.4879539332
 21
4.9275925275
 31
0.0
  0
LINE
  5
174
330
16E
100
AcDbEntity
  8
DIMS
100
AcDbLine
 10
10.9570704668
 20
4.4756017998
 30
0.0
 11
10.8968852808
 21
4.4756017998
 31
0.0
  0
LINE
  5
175
330
16E
100
AcDbEntity
  8
DIMS
100
AcDbLine
 10
10.8968852808
 20
4.4756017998
 30
0.0
 11
10.8968852808
 21
4.0718595305
 31
0.0
  0
LINE
  5
176
330
16E
100
AcDbEntity
  8
DIMS
100
AcDbLine
 10
10.8968852808
 20
4.0718595305
 30
0.0
 11
10.9570704668
 21
4.0718595305
 31
0.0
  0
LINE
  5
177
330
16E
100
AcDbEntity
  8
DIMS
100
AcDbLine
 10
11.7093852527
 20
4.4756017998
 30
0.0
 11
11.7695704386
 21
4.4756017998
 31
0.0
  0
LINE
  5
178
330
16E
100
AcDbEntity
  8
DIMS
100
AcDbLine
 10
11.7695704386
 20
4.4756017998
 30
0.0
 11
11.7695704386
 21
4.0718595305
 31
0.0
  0
LINE
  5
179
330
16E
100
AcDbEntity
  8
DIMS
100
AcDbLine
 10
11.7695704386
 20
4.0718595305
 30
0.0
 11
11.7093852527
 21
4.0718595305
 31
0.0
  0
LINE
  5
17A
330
16E
100
AcDbEntity
  8
DIMS
100
AcDbLine
 10
3.5727060779
 20
4.6386786192
 30
0.0
 11
10.7108061941
 21
4.6386786192
 31
0.0
  0
LINE
  5
17B
330
16E
100
AcDbEntity
  8
DIMS
100
AcDbLine
 10
16.0727060779
 20
4.6386786192
 30
0.0
 11
11.9556494887
 21
4.6386786192
 31
0.0
  0
MTEXT
  5
17C
330
16E
100
AcDbEntity
  8
DIMS
100
AcDbMText
 10
10.7709979363
 20
5.0691826928
 30
0.0039370079
 40
0.2708333333
 41
0.0
 71
     1
 72
     1
  1
12
  7
SLDTEXTSTYLE0
 73
     1
 44
1.0
  0
MTEXT
  5
17D
330
16E
100
AcDbEntity
  8
DIMS
100
AcDbMText
 10
11.2489686039
 20
5.253694213
 30
0.0039370079
 40
0.2708333333
 41
0.0
 71
     1
 72
     1
  1
1
  7
SLDTEXTSTYLE0
 73
     1
 44
1.0
  0
MTEXT
  5
17E
330
16E
100
AcDbEntity
  8
DIMS
100
AcDbMText
 10
11.2489686039
 20
4.8849094757
 30
0.0039370079
 40
0.2708333333
 41
0.0
 71
     1
 72
     1
  1
2
  7
SLDTEXTSTYLE0
 73
     1
 44
1.0
  0
MTEXT
  5
17F
330
16E
100
AcDbEntity
  8
DIMS
100
AcDbMText
 10
11.5263219574
 20
5.0691826928
 30
0.0039370079
 40
0.2708333333
 41
0.0
 71
     1
 72
     1
  1
"
  7
SLDTEXTSTYLE0
 73
     1
 44
1.0
  0
MTEXT
  5
180
330
16E
100
AcDbEntity
  8
DIMS
100
AcDbMText
 10
11.0323019527
 20
4.4209820342
 30
0.0039370079
 40
0.2708333333
 41
0.0
 71
     1
 72
     1
  1
318
  7
SLDTEXTSTYLE0
 73
     1
 44
1.0
  0
ENDBLK
  5
170
330
16E
100
AcDbEntity
  8
0
100
AcDbBlockEnd
  0
BLOCK
  5
183
330
182
100
AcDbEntity
  8
0
100
AcDbBlockBegin
  2
_D_7
 70
     0
 10
0.0
 20
0.0
 30
0.0
  3
_D_7
  1

  0
SOLID
  5
185
330
182
100
AcDbEntity
  8
DIMS
100
AcDbTrace
 10
1.4841234008
 20
16.9821128885
 30
0.0
 11
1.4436774372
 21
16.7192141255
 31
0.0
 12
1.5245693643
 22
16.7192141255
 32
0.0
 13
1.5245693643
 23
16.7192141255
 33
0.0
  0
SOLID
  5
186
330
182
100
AcDbEntity
  8
DIMS
100
AcDbTrace
 10
1.4841234008
 20
0.9821128885
 30
0.0
 11
1.5245693643
 21
1.2450116516
 31
0.0
 12
1.4436774372
 22
1.2450116516
 32
0.0
 13
1.4436774372
 23
1.2450116516
 33
0.0
  0
LINE
  5
187
330
182
100
AcDbEntity
  8
DIMS
100
AcDbLine
 10
1.1079660262
 20
10.0102293328
 30
0.0
 11
1.0477808402
 21
10.0102293328
 31
0.0
  0
LINE
  5
188
330
182
100
AcDbEntity
  8
DIMS
100
AcDbLine
 10
1.0477808402
 20
10.0102293328
 30
0.0
 11
1.0477808402
 21
9.6064870636
 31
0.0
  0
LINE
  5
189
330
182
100
AcDbEntity
  8
DIMS
100
AcDbLine
 10
1.0477808402
 20
9.6064870636
 30
0.0
 11
1.1079660262
 21
9.6064870636
 31
0.0
  0
LINE
  5
18A
330
182
100
AcDbEntity
  8
DIMS
100
AcDbLine
 10
1.860280812
 20
10.0102293328
 30
0.0
 11
1.920465998
 21
10.0102293328
 31
0.0
  0
LINE
  5
18B
330
182
100
AcDbEntity
  8
DIMS
100
AcDbLine
 10
1.920465998
 20
10.0102293328
 30
0.0
 11
1.920465998
 21
9.6064870636
 31
0.0
  0
LINE
  5
18C
330
182
100
AcDbEntity
  8
DIMS
100
AcDbLine
 10
1.920465998
 20
9.6064870636
 30
0.0
 11
1.860280812
 21
9.6064870636
 31
0.0
  0
LINE
  5
18D
330
182
100
AcDbEntity
  8
DIMS
100
AcDbLine
 10
9.7727060779
 20
16.9821128885
 30
0.0
 11
1.3591234008
 21
16.9821128885
 31
0.0
  0
LINE
  5
18E
330
182
100
AcDbEntity
  8
DIMS
100
AcDbLine
 10
7.0227060779
 20
0.9821128885
 30
0.0
 11
1.3591234008
 21
0.9821128885
 31
0.0
  0
LINE
  5
18F
330
182
100
AcDbEntity
  8
DIMS
100
AcDbLine
 10
1.4841234008
 20
16.9821128885
 30
0.0
 11
1.4841234008
 21
10.431525621
 31
0.0
  0
LINE
  5
190
330
182
100
AcDbEntity
  8
DIMS
100
AcDbLine
 10
1.4841234008
 20
0.9821128885
 30
0.0
 11
1.4841234008
 21
9.5463019005
 31
0.0
  0
MTEXT
  5
191
330
182
100
AcDbEntity
  8
DIMS
100
AcDbMText
 10
1.0989382104
 20
10.4195370362
 30
0.0039370079
 40
0.2708333333
 41
0.0
 71
     1
 72
     1
  1
16"
  7
SLDTEXTSTYLE0
 73
     1
 44
1.0
  0
MTEXT
  5
192
330
182
100
AcDbEntity
  8
DIMS
100
AcDbMText
 10
1.1831975121
 20
9.9556095672
 30
0.0039370079
 40
0.2708333333
 41
0.0
 71
     1
 72
     1
  1
406
  7
SLDTEXTSTYLE0
 73
     1
 44
1.0
  0
ENDBLK
  5
184
330
182
100
AcDbEntity
  8
0
100
AcDbBlockEnd
  0
BLOCK
  5
195
330
194
100
AcDbEntity
  8
0
100
AcDbBlockBegin
  2
_D_8
 70
     0
 10
0.0
 20
0.0
 30
0.0
  3
_D_8
  1

  0
SOLID
  5
197
330
194
100
AcDbEntity
  8
DIMS
100
AcDbTrace
 10
2.7083833646
 20
16.3571128885
 30
0.0
 11
2.6679374011
 21
16.0942141255
 31
0.0
 12
2.7488293281
 22
16.0942141255
 32
0.0
 13
2.7488293281
 23
16.0942141255
 33
0.0
  0
SOLID
  5
198
330
194
100
AcDbEntity
  8
DIMS
100
AcDbTrace
 10
2.7083833646
 20
1.6071128885
 30
0.0
 11
2.7488293281
 21
1.8700116516
 31
0.0
 12
2.6679374011
 22
1.8700116516
 32
0.0
 13
2.6679374011
 23
1.8700116516
 33
0.0
  0
LINE
  5
199
330
194
100
AcDbEntity
  8
DIMS
100
AcDbLine
 10
2.5857560754
 20
8.2778276932
 30
0.0
 11
2.8631094564
 21
8.2778276932
 31
0.0
  0
LINE
  5
19A
330
194
100
AcDbEntity
  8
DIMS
100
AcDbLine
 10
2.33222599
 20
7.8258369654
 30
0.0
 11
2.272040804
 21
7.8258369654
 31
0.0
  0
LINE
  5
19B
330
194
100
AcDbEntity
  8
DIMS
100
AcDbLine
 10
2.272040804
 20
7.8258369654
 30
0.0
 11
2.272040804
 21
7.4220946962
 31
0.0
  0
LINE
  5
19C
330
194
100
AcDbEntity
  8
DIMS
100
AcDbLine
 10
2.272040804
 20
7.4220946962
 30
0.0
 11
2.33222599
 21
7.4220946962
 31
0.0
  0
LINE
  5
19D
330
194
100
AcDbEntity
  8
DIMS
100
AcDbLine
 10
3.0845407759
 20
7.8258369654
 30
0.0
 11
3.1447259618
 21
7.8258369654
 31
0.0
  0
LINE
  5
19E
330
194
100
AcDbEntity
  8
DIMS
100
AcDbLine
 10
3.1447259618
 20
7.8258369654
 30
0.0
 11
3.1447259618
 21
7.4220946962
 31
0.0
  0
LINE
  5
19F
330
194
100
AcDbEntity
  8
DIMS
100
AcDbLine
 10
3.1447259618
 20
7.4220946962
 30
0.0
 11
3.0845407759
 21
7.4220946962
 31
0.0
  0
LINE
  5
1A0
330
194
100
AcDbEntity
  8
DIMS
100
AcDbLine
 10
9.7727060779
 20
16.3571128885
 30
0.0
 11
2.5833833646
 21
16.3571128885
 31
0.0
  0
LINE
  5
1A1
330
194
100
AcDbEntity
  8
DIMS
100
AcDbLine
 10
7.0227060779
 20
1.6071128885
 30
0.0
 11
2.5833833646
 21
1.6071128885
 31
0.0
  0
LINE
  5
1A2
330
194
100
AcDbEntity
  8
DIMS
100
AcDbLine
 10
2.7083833646
 20
16.3571128885
 30
0.0
 11
2.7083833646
 21
8.6159179817
 31
0.0
  0
LINE
  5
1A3
330
194
100
AcDbEntity
  8
DIMS
100
AcDbLine
 10
2.7083833646
 20
1.6071128885
 30
0.0
 11
2.7083833646
 21
7.3619095881
 31
0.0
  0
MTEXT
  5
1A4
330
194
100
AcDbEntity
  8
DIMS
100
AcDbMText
 10
2.1461534595
 20
8.4194178585
 30
0.0039370079
 40
0.2708333333
 41
0.0
 71
     1
 72
     1
  1
14
  7
SLDTEXTSTYLE0
 73
     1
 44
1.0
  0
MTEXT
  5
1A5
330
194
100
AcDbEntity
  8
DIMS
100
AcDbMText
 10
2.6241241271
 20
8.6039293786
 30
0.0039370079
 40
0.2708333333
 41
0.0
 71
     1
 72
     1
  1
3
  7
SLDTEXTSTYLE0
 73
     1
 44
1.0
  0
MTEXT
  5
1A6
330
194
100
AcDbEntity
  8
DIMS
100
AcDbMText
 10
2.6241241271
 20
8.2351446414
 30
0.0039370079
 40
0.2708333333
 41
0.0
 71
     1
 72
     1
  1
4
  7
SLDTEXTSTYLE0
 73
     1
 44
1.0
  0
MTEXT
  5
1A7
330
194
100
AcDbEntity
  8
DIMS
100
AcDbMText
 10
2.9014774806
 20
8.4194178585
 30
0.0039370079
 40
0.2708333333
 41
0.0
 71
     1
 72
     1
  1
"
  7
SLDTEXTSTYLE0
 73
     1
 44
1.0
  0
MTEXT
  5
1A8
330
194
100
AcDbEntity
  8
DIMS
100
AcDbMText
 10
2.4074574759
 20
7.7712171999
 30
0.0039370079
 40
0.2708333333
 41
0.0
 71
     1
 72
     1
  1
375
  7
SLDTEXTSTYLE0
 73
     1
 44
1.0
  0
ENDBLK
  5
196
330
194
100
AcDbEntity
  8
0
100
AcDbBlockEnd
  0
BLOCK
  5
1AC
330
1AB
100
AcDbEntity
  8
0
100
AcDbBlockBegin
  2
_D_9
 70
     0
 10
0.0
 20
0.0
 30
0.0
  3
_D_9
  1

  0
SOLID
  5
1AE
330
1AB
100
AcDbEntity
  8
DIMS
100
AcDbTrace
 10
8.4085854756
 20
16.2437273472
 30
0.0
 11
8.4105458833
 21
15.9777427755
 31
0.0
 12
8.4904043484
 22
15.9906318956
 32
0.0
 13
8.4904043484
 23
15.9906318956
 33
0.0
  0
LINE
  5
1AF
330
1AB
100
AcDbEntity
  8
DIMS
100
AcDbLine
 10
8.5423100551
 20
15.1307829421
 30
0.0
 11
8.8196634361
 21
15.1307829421
 31
0.0
  0
LINE
  5
1B0
330
1AB
100
AcDbEntity
  8
DIMS
100
AcDbLine
 10
8.2586873974
 20
14.6787922144
 30
0.0
 11
8.1985022114
 21
14.6787922144
 31
0.0
  0
LINE
  5
1B1
330
1AB
100
AcDbEntity
  8
DIMS
100
AcDbLine
 10
8.1985022114
 20
14.6787922144
 30
0.0
 11
8.1985022114
 21
14.2750499451
 31
0.0
  0
LINE
  5
1B2
330
1AB
100
AcDbEntity
  8
DIMS
100
AcDbLine
 10
8.1985022114
 20
14.2750499451
 30
0.0
 11
8.2586873974
 21
14.2750499451
 31
0.0
  0
LINE
  5
1B3
330
1AB
100
AcDbEntity
  8
DIMS
100
AcDbLine
 10
9.0110021833
 20
14.6787922144
 30
0.0
 11
9.0711873692
 21
14.6787922144
 31
0.0
  0
LINE
  5
1B4
330
1AB
100
AcDbEntity
  8
DIMS
100
AcDbLine
 10
9.0711873692
 20
14.6787922144
 30
0.0
 11
9.0711873692
 21
14.2750499451
 31
0.0
  0
LINE
  5
1B5
330
1AB
100
AcDbEntity
  8
DIMS
100
AcDbLine
 10
9.0711873692
 20
14.2750499451
 30
0.0
 11
9.0110021833
 21
14.2750499451
 31
0.0
  0
LINE
  5
1B6
330
1AB
100
AcDbEntity
  8
DIMS
100
AcDbLine
 10
8.8752452744
 20
13.3523945758
 30
0.0
 11
8.7360429652
 21
14.214864837
 31
0.0
  0
LINE
  5
1B7
330
1AB
100
AcDbEntity
  8
DIMS
100
AcDbLine
 10
8.4085854756
 20
16.2437273472
 30
0.0
 11
8.5336465788
 21
15.4688732306
 31
0.0
  0
LINE
  5
1B8
330
1AB
100
AcDbEntity
  8
DIMS
100
AcDbLine
 10
8.8752452744
 20
13.3523945758
 30
0.0
 11
9.3160949058
 21
13.9629386795
 31
0.0
  0
LINE
  5
1B9
330
1AB
100
AcDbEntity
  8
DIMS
100
AcDbLine
 10
9.3160949058
 20
13.9629386795
 30
0.0
 11
9.5423542021
 21
12.5610803661
 31
0.0
  0
LINE
  5
1BA
330
1AB
100
AcDbEntity
  8
DIMS
100
AcDbLine
 10
9.5423542021
 20
13.2908320637
 30
0.0
 11
9.5423542021
 21
11.8313286685
 31
0.0
  0
LINE
  5
1BB
330
1AB
100
AcDbEntity
  8
DIMS
100
AcDbLine
 10
8.8126025045
 20
12.5610803661
 30
0.0
 11
10.2721058997
 21
12.5610803661
 31
0.0
  0
MTEXT
  5
1BC
330
1AB
100
AcDbEntity
  8
DIMS
100
AcDbMText
 10
8.0425222579
 20
15.2723731074
 30
0.0039370079
 40
0.2708333333
 41
0.0
 71
     1
 72
     1
  1
R8
  7
SLDTEXTSTYLE0
 73
     1
 44
1.0
  0
MTEXT
  5
1BD
330
1AB
100
AcDbEntity
  8
DIMS
100
AcDbMText
 10
8.5806781069
 20
15.4568846275
 30
0.0039370079
 40
0.2708333333
 41
0.0
 71
     1
 72
     1
  1
7
  7
SLDTEXTSTYLE0
 73
     1
 44
1.0
  0
MTEXT
  5
1BE
330
1AB
100
AcDbEntity
  8
DIMS
100
AcDbMText
 10
8.5806781069
 20
15.0880998903
 30
0.0039370079
 40
0.2708333333
 41
0.0
 71
     1
 72
     1
  1
8
  7
SLDTEXTSTYLE0
 73
     1
 44
1.0
  0
MTEXT
  5
1BF
330
1AB
100
AcDbEntity
  8
DIMS
100
AcDbMText
 10
8.8580314971
 20
15.2723731074
 30
0.0039370079
 40
0.2708333333
 41
0.0
 71
     1
 72
     1
  1
"
  7
SLDTEXTSTYLE0
 73
     1
 44
1.0
  0
MTEXT
  5
1C0
330
1AB
100
AcDbEntity
  8
DIMS
100
AcDbMText
 10
8.3339188833
 20
14.6241724488
 30
0.0039370079
 40
0.2708333333
 41
0.0
 71
     1
 72
     1
  1
225
  7
SLDTEXTSTYLE0
 73
     1
 44
1.0
  0
ENDBLK
  5
1AD
330
1AB
100
AcDbEntity
  8
0
100
AcDbBlockEnd
  0
BLOCK
  5
1C2
330
1C1
100
AcDbEntity
  8
0
100
AcDbBlockBegin
  2
SW_NOTE_0
 70
     0
 10
0.0
 20
0.0
 30
0.0
  3
SW_NOTE_0
  1

  0
MTEXT
  5
1C4
330
1C1
100
AcDbEntity
  8
NOTES
 62
     0
100
AcDbMText
 10
0.0
 20
0.1611334675
 30
0.0
 40
0.125
 41
0.0
 71
     1
 72
     1
  1
NOTES:
  7
SLDTEXTSTYLE0
 73
     1
 44
1.0
  0
MTEXT
  5
1C5
330
1C1
100
AcDbEntity
  8
NOTES
 62
     0
100
AcDbMText
 10
0.3937007786
 20
-0.1721998618
 30
0.0
 40
0.125
 41
0.0
 71
     1
 72
     1
  1
THOROUGHLY READ ALL  INSTALLATION
  7
SLDTEXTSTYLE0
 73
     1
 44
1.0
  0
MTEXT
  5
1C6
330
1C1
100
AcDbEntity
  8
NOTES
 62
     0
100
AcDbMText
 10
0.0
 20
-0.1721998618
 30
0.0
 40
0.125
 41
0.0
 71
     1
 72
     1
  1
1.
  7
SLDTEXTSTYLE0
 73
     1
 44
1.0
  0
MTEXT
  5
1C7
330
1C1
100
AcDbEntity
  8
NOTES
 62
     0
100
AcDbMText
 10
0.3937007786
 20
-0.3388665265
 30
0.0
 40
0.125
 41
0.0
 71
     1
 72
     1
  1
INSTRUCTIONS
  7
SLDTEXTSTYLE0
 73
     1
 44
1.0
  0
MTEXT
  5
1C8
330
1C1
100
AcDbEntity
  8
NOTES
 62
     0
100
AcDbMText
 10
0.0
 20
-0.5055331911
 30
0.0
 40
0.125
 41
0.0
 71
     1
 72
     1
  1
BEFORE CUTTING COUNTERTOP.
  7
SLDTEXTSTYLE0
 73
     1
 44
1.0
  0
MTEXT
  5
1C9
330
1C1
100
AcDbEntity
  8
NOTES
 62
     0
100
AcDbMText
 10
0.0
 20
-0.8388665204
 30
0.0
 40
0.125
 41
0.0
 71
     1
 72
     1
  1
2.  DIMENSIONS ARE IN INCHES [MM].
  7
SLDTEXTSTYLE0
 73
     1
 44
1.0
  0
MTEXT
  5
1CA
330
1C1
100
AcDbEntity
  8
NOTES
 62
     0
100
AcDbMText
 10
0.0
 20
-1.3388665144
 30
0.0
 40
0.125
 41
0.0
 71
     1
 72
     1
  1
PLEASE CHECK TEMPLATE AGAINST PHYSICAL SINK
  7
SLDTEXTSTYLE0
 73
     1
 44
1.0
  0
MTEXT
  5
1CB
330
1C1
100
AcDbEntity
  8
NOTES
 62
     0
100
AcDbMText
 10
0.0
 20
-1.5055331791
 30
0.0
 40
0.125
 41
0.0
 71
     1
 72
     1
  1
FOR MOST ACCURATE CUT.
  7
SLDTEXTSTYLE0
 73
     1
 44
1.0
  0
MTEXT
  5
1CC
330
1C1
100
AcDbEntity
  8
NOTES
 62
     0
100
AcDbMText
 10
0.0
 20
-2.1721998377
 30
0.0
 40
0.125
 41
0.0
 71
     1
 72
     1
  1
NOTAS:
  7
SLDTEXTSTYLE0
 73
     1
 44
1.0
  0
MTEXT
  5
1CD
330
1C1
100
AcDbEntity
  8
NOTES
 62
     0
100
AcDbMText
 10
0.0
 20
-2.505533167
 30
0.0
 40
0.125
 41
0.0
 71
     1
 72
     1
  1
1.  LEA ATENTAMENTE LAS INSTRUCCIONES DE
  7
SLDTEXTSTYLE0
 73
     1
 44
1.0
  0
MTEXT
  5
1CE
330
1C1
100
AcDbEntity
  8
NOTES
 62
     0
100
AcDbMText
 10
0.0
 20
-2.6721998316
 30
0.0
 40
0.125
 41
0.0
 71
     1
 72
     1
  1
INSTALACIÓN ANTES DE CORTAR LA ENCIMERA.
  7
SLDTEXTSTYLE0
 73
     1
 44
1.0
  0
MTEXT
  5
1CF
330
1C1
100
AcDbEntity
  8
NOTES
 62
     0
100
AcDbMText
 10
0.0
 20
-3.0055331609
 30
0.0
 40
0.125
 41
0.0
 71
     1
 72
     1
  1
2.  DIMENSIONES EN PULGADAS [MM].
  7
SLDTEXTSTYLE0
 73
     1
 44
1.0
  0
MTEXT
  5
1D0
330
1C1
100
AcDbEntity
  8
NOTES
 62
     0
100
AcDbMText
 10
0.0
 20
-3.5055331549
 30
0.0
 40
0.125
 41
0.0
 71
     1
 72
     1
  1
POR FAVOR COMPRUEBE PLANTILLA CONTRA
  7
SLDTEXTSTYLE0
 73
     1
 44
1.0
  0
MTEXT
  5
1D1
330
1C1
100
AcDbEntity
  8
NOTES
 62
     0
100
AcDbMText
 10
0.0
 20
-3.6721998195
 30
0.0
 40
0.125
 41
0.0
 71
     1
 72
     1
  1
FREGADERO FÍSICO PARA CORTE MÁS EXACTO.
  7
SLDTEXTSTYLE0
 73
     1
 44
1.0
  0
ENDBLK
  5
1C3
330
1C1
100
AcDbEntity
  8
0
100
AcDbBlockEnd
  0
BLOCK
  5
1D4
330
1D3
100
AcDbEntity
  8
0
100
AcDbBlockBegin
  2
SW_NOTE_1
 70
     0
 10
0.0
 20
0.0
 30
0.0
  3
SW_NOTE_1
  1

  0
MTEXT
  5
1D6
330
1D3
100
AcDbEntity
  8
NOTES
 62
     0
100
AcDbMText
 10
0.019826991
 20
0.2714916173
 30
0.0
 40
0.2083333333
 41
0.0
 71
     1
 72
     1
  1
1/8" OVERHANG
  7
SLDTEXTSTYLE0
 73
     1
 44
1.0
  0
MTEXT
  5
1D7
330
1D3
100
AcDbEntity
  8
NOTES
 62
     0
100
AcDbMText
 10
0.019826991
 20
-0.0062861572
 30
0.0
 40
0.2083333333
 41
0.0
 71
     1
 72
     1
  1
[3.2 SOBRESALIENTE]
  7
SLDTEXTSTYLE0
 73
     1
 44
1.0
  0
ENDBLK
  5
1D5
330
1D3
100
AcDbEntity
  8
0
100
AcDbBlockEnd
  0
BLOCK
  5
1DC
330
1DB
100
AcDbEntity
  8
0
100
AcDbBlockBegin
  2
SW_NOTE_2
 70
     0
 10
0.0
 20
0.0
 30
0.0
  3
SW_NOTE_2
  1

  0
MTEXT
  5
1DE
330
1DB
100
AcDbEntity
  8
NOTES
 62
     0
100
AcDbMText
 10
0.0051803357
 20
0.2696096749
 30
0.0
 40
0.2083333333
 41
0.0
 71
     3
 72
     1
  1
1/2" REVEAL
  7
SLDTEXTSTYLE0
 73
     1
 44
1.0
  0
MTEXT
  5
1DF
330
1DB
100
AcDbEntity
  8
NOTES
 62
     0
100
AcDbMText
 10
0.0101476703
 20
-0.0081680995
 30
0.0
 40
0.2083333333
 41
0.0
 71
     3
 72
     1
  1
[12.7 REVELADO]
  7
SLDTEXTSTYLE0
 73
     1
 44
1.0
  0
ENDBLK
  5
1DD
330
1DB
100
AcDbEntity
  8
0
100
AcDbBlockEnd
  0
BLOCK
  5
1E3
330
1E2
100
AcDbEntity
  8
0
100
AcDbBlockBegin
  2
SW_NOTE_3
 70
     0
 10
0.0
 20
0.0
 30
0.0
  3
SW_NOTE_3
  1

  0
MTEXT
  5
1E5
330
1E2
100
AcDbEntity
  8
NOTES
 62
     0
100
AcDbMText
 10
4.1171875
 20
0.6445338699
 30
0.0
 40
0.5
 41
0.0
 71
     2
 72
     1
  1
TEMPLATE #: 1000001475
  7
SLDTEXTSTYLE0
 73
     1
 44
1.0
  0
MTEXT
  5
1E6
330
1E2
100
AcDbEntity
  8
NOTES
 62
     0
100
AcDbMText
 10
4.1130314607
 20
-0.0129107934
 30
0.0
 40
0.2916666667
 41
0.0
 71
     2
 72
     1
  1
DUAL UNDERMOUNT TEMPLATE 13" X 17" D-SHAPE
  7
SLDTEXTSTYLE0
 73
     1
 44
1.0
  0
ENDBLK
  5
1E4
330
1E2
100
AcDbEntity
  8
0
100
AcDbBlockEnd
  0
BLOCK
  5
1E9
330
1E8
100
AcDbEntity
  8
0
100
AcDbBlockBegin
  2
SW_NOTE_4
 70
     0
 10
0.0
 20
0.0
 30
0.0
  3
SW_NOTE_4
  1

  0
MTEXT
  5
1EB
330
1E8
100
AcDbEntity
  8
NOTES
 62
     0
100
AcDbMText
 10
-0.8919753801
 20
0.6872942918
 30
0.0
 40
0.2083333333
 41
0.0
 71
     2
 72
     1
  1
TEMPLATE
  7
SLDTEXTSTYLE0
 73
     1
 44
1.0
  0
MTEXT
  5
1EC
330
1E8
100
AcDbEntity
  8
NOTES
 62
     0
100
AcDbMText
 10
-0.8888407098
 20
0.4095165173
 30
0.0
 40
0.2083333333
 41
0.0
 71
     2
 72
     1
  1
CENTERLINE
  7
SLDTEXTSTYLE0
 73
     1
 44
1.0
  0
MTEXT
  5
1ED
330
1E8
100
AcDbEntity
  8
NOTES
 62
     0
100
AcDbMText
 10
-0.8887201717
 20
-0.1460390315
 30
0.0
 40
0.2083333333
 41
0.0
 71
     2
 72
     1
  1
PLANTILLA
  7
SLDTEXTSTYLE0
 73
     1
 44
1.0
  0
MTEXT
  5
1EE
330
1E8
100
AcDbEntity
  8
NOTES
 62
     0
100
AcDbMText
 10
-0.8917342372
 20
-0.4238168059
 30
0.0
 40
0.2083333333
 41
0.0
 71
     2
 72
     1
  1
CENTRAL
  7
SLDTEXTSTYLE0
 73
     1
 44
1.0
  0
ENDBLK
  5
1EA
330
1E8
100
AcDbEntity
  8
0
100
AcDbBlockEnd
  0
ENDSEC
  0
SECTION
  2
ENTITIES
  0
LINE
  5
DD
330
1F
100
AcDbEntity
  8
OBJECTS
100
AcDbLine
 10
7.0727060779
 20
0.9821128885
 30
0.0
 11
12.5727060779
 21
0.9821128885
 31
0.0
  0
LINE
  5
DE
330
1F
100
AcDbEntity
  8
OBJECTS
100
AcDbLine
 10
16.0727060779
 20
4.4821128885
 30
0.0
 11
16.0727060779
 21
11.4111712999
 31
0.0
  0
LINE
  5
DF
330
1F
100
AcDbEntity
  8
OBJECTS
100
AcDbLine
 10
3.5727060779
 20
11.4111712999
 30
0.0
 11
3.5727060779
 21
4.4821128885
 31
0.0
  0
LINE
  5
E0
330
1F
100
AcDbEntity
  8
OBJECTS
  6
CENTERX2
 62
     1
100
AcDbLine
 10
15.4477060779
 20
4.4821128885
 30
0.0
 11
15.4477060779
 21
11.4111712999
 31
0.0
  0
LINE
  5
E1
330
1F
100
AcDbEntity
  8
OBJECTS
  6
CENTERX2
 62
     1
100
AcDbLine
 10
4.1977060779
 20
11.4111712999
 30
0.0
 11
4.1977060779
 21
4.4821128885
 31
0.0
  0
LINE
  5
E2
330
1F
100
AcDbEntity
  8
OBJECTS
  6
CENTERX2
 62
     1
100
AcDbLine
 10
7.0727060779
 20
1.6071128885
 30
0.0
 11
12.5727060779
 21
1.6071128885
 31
0.0
  0
LINE
  5
E3
330
1F
100
AcDbEntity
  8
OBJECTS
  6
CENTERX2
100
AcDbLine
 10
3.5727060779
 20
7.9466420942
 30
0.0
 11
5.236814709
 21
7.9466420942
 31
0.0
  0
LINE
  5
E4
330
1F
100
AcDbEntity
  8
OBJECTS
  6
CENTERX2
100
AcDbLine
 10
16.0727060779
 20
7.9466420942
 30
0.0
 11
14.4085974468
 21
7.9466420942
 31
0.0
  0
LINE
  5
E5
330
1F
100
AcDbEntity
  8
OBJECTS
  6
CENTERX2
100
AcDbLine
 10
9.8227060779
 20
0.9821128885
 30
0.0
 11
9.8227060779
 21
2.6462215196
 31
0.0
  0
LINE
  5
E6
330
1F
100
AcDbEntity
  8
OBJECTS
  6
CENTERX2
100
AcDbLine
 10
9.8227060779
 20
16.9821128885
 30
0.0
 11
9.8227060779
 21
15.3180042575
 31
0.0
  0
ARC
  5
E7
330
1F
100
AcDbEntity
  8
OBJECTS
100
AcDbCircle
 10
12.5727060779
 20
4.4821128885
 30
0.0
 40
3.5
100
AcDbArc
 50
270.0
 51
0.0
  0
ARC
  5
E8
330
1F
100
AcDbEntity
  8
OBJECTS
100
AcDbCircle
 10
10.5727060779
 20
11.4111712999
 30
0.0
 40
5.499999999999999
100
AcDbArc
 50
0.0
 51
79.1930771251
  0
ARC
  5
E9
330
1F
100
AcDbEntity
  8
OBJECTS
100
AcDbCircle
 10
9.8227060779
 20
7.4821128885
 30
0.0
 40
9.5
100
AcDbArc
 50
79.1930771251
 51
100.8069228749
  0
ARC
  5
EA
330
1F
100
AcDbEntity
  8
OBJECTS
100
AcDbCircle
 10
9.0727060779
 20
11.4111712999
 30
0.0
 40
5.499999999999999
100
AcDbArc
 50
100.8069228749
 51
180.0
  0
ARC
  5
EB
330
1F
100
AcDbEntity
  8
OBJECTS
100
AcDbCircle
 10
7.0727060779
 20
4.4821128885
 30
0.0
 40
3.500000000000001
100
AcDbArc
 50
180.0
 51
270.0
  0
ARC
  5
EC
330
1F
100
AcDbEntity
  8
OBJECTS
  6
CENTERX2
 62
     1
100
AcDbCircle
 10
10.5727060779
 20
11.4111712999
 30
0.0
 40
4.875
100
AcDbArc
 50
0.0
 51
79.1930771251
  0
ARC
  5
ED
330
1F
100
AcDbEntity
  8
OBJECTS
  6
CENTERX2
 62
     1
100
AcDbCircle
 10
9.8227060779
 20
7.4821128885
 30
0.0
 40
8.875000000000002
100
AcDbArc
 50
79.1930771251
 51
100.8069228749
  0
ARC
  5
EE
330
1F
100
AcDbEntity
  8
OBJECTS
  6
CENTERX2
 62
     1
100
AcDbCircle
 10
9.0727060779
 20
11.4111712999
 30
0.0
 40
4.875
100
AcDbArc
 50
100.8069228749
 51
180.0
  0
ARC
  5
EF
330
1F
100
AcDbEntity
  8
OBJECTS
  6
CENTERX2
 62
     1
100
AcDbCircle
 10
7.0727060779
 20
4.4821128885
 30
0.0
 40
2.875000000000001
100
AcDbArc
 50
180.0
 51
270.0
  0
ARC
  5
F0
330
1F
100
AcDbEntity
  8
OBJECTS
  6
CENTERX2
 62
     1
100
AcDbCircle
 10
12.5727060779
 20
4.4821128885
 30
0.0
 40
2.875000000000001
100
AcDbArc
 50
270.0
 51
0.0
  0
INSERT
  5
F1
330
1F
100
AcDbEntity
  8
BLOCKS
100
AcDbBlockReference
  2
REVEAL- .500
 10
-5.9247086779
 20
-19.365221833
 30
0.0
  0
INSERT
  5
F2
330
1F
100
AcDbEntity
  8
BLOCKS
100
AcDbBlockReference
  2
OVERHANG - .125
 10
-13.9558994665
 20
-13.8232894396
 30
0.0
  0
LARGE_RADIAL_DIMENSION
  5
F3
330
1F
100
AcDbEntity
  8
DIMS
 92
     2080
310
20080000180000000C00000012000000000000000C0000001400000001000000A0000000090000000400000088F074B801F52540C6332A9C5AE930400000000000000000E759695613D025408C93FBC3CFA7304000000000000000000FEF163D2FF925403CAFA4C64AA5304000000000000000000FEF163D2FF925403CAFA4
310
C64AA530400000000000000000050000000400000000000000010000000200000003000000200000000100000002000000030000000400000000000000000000000C00000012000000FF7F00000C0000001400000002000000540000002000000002000000B99CEE2F106025405F8B7BFA092A2F400000000000000000DF2F
310
187311EE25405F8B7BFA092A2F40000000000000000000000000000000000000000000000000000000000000F03F5400000020000000020000003EDFBF32D9CE2440912458A69E422E40000000000000000032D9049B08B02440912458A69E422E400000000000000000000000000000000000000000000000000000000000
310
00F03F54000000200000000200000032D9049B08B02440912458A69E422E40000000000000000032D9049B08B024407D1AD357E7732D40000000000000000000000000000000000000000000000000000000000000F03F54000000200000000200000032D9049B08B024407D1AD357E7732D4000000000000000003EDFBF32
310
D9CE24407D1AD357E7732D40000000000000000000000000000000000000000000000000000000000000F03F5400000020000000020000008A05139A08502640912458A69E422E400000000000000000960BCE31D96E2640912458A69E422E40000000000000000000000000000000000000000000000000000000000000F0
310
3F540000002000000002000000960BCE31D96E2640912458A69E422E400000000000000000960BCE31D96E26407D1AD357E7732D40000000000000000000000000000000000000000000000000000000000000F03F540000002000000002000000960BCE31D96E26407D1AD357E7732D4000000000000000008A05139A0850
310
26407D1AD357E7732D40000000000000000000000000000000000000000000000000000000000000F03F540000002000000002000000D3EBDB5A344E254032C7982EE7812C400000000000000000BD26894217682540065FB5C216552D40000000000000000000000000000000000000000000000000000000000000F03F54
310
000000200000000200000088F074B801F52540C6332A9C5AE93040000000000000000020C80E89CAB62540811C142624D72F40000000000000000000000000000000000000000000000000000000000000F03F540000002000000002000000D3EBDB5A344E254032C7982EE7812C400000000000000000D646D37E3EDE2540
310
B3BB79636F172D40000000000000000000000000000000000000000000000000000000000000F03F540000002000000002000000D646D37E3EDE2540B3BB79636F172D400000000000000000A36FBA9C7CA02540A6F21A4A9B1F2B40000000000000000000000000000000000000000000000000000000000000F03F540000
310
002000000002000000A36FBA9C7CA0254083AFD14D3D952C400000000000000000A36FBA9C7CA02540CA356446F9A92940000000000000000000000000000000000000000000000000000000000000F03F540000002000000002000000C6B20399DA2A2440A6F21A4A9B1F2B4000000000000000007F2C71A01E162740A6F2
310
1A4A9B1F2B40000000000000000000000000000000000000000000000000000000000000F03F0C0000001200000000000000980000000B0000005DD50CA3155324408EC0245557E62E400A0402814020703F00000000000000000000000000000000000000000000F03F000000000000F03F00000000000000000000000000
310
000000523900000200000001000000555555555555D13F5C8FC2F5285CE33F0000000000000000000000000000F03F00000000000000000000000000000000000000000000000000000000980000000B000000EC6ACA5E5E662540158466A0CF442F400A0402814020703F0000000000000000000000000000000000000000
310
0000F03F000000000000F03F00000000000000000000000000000000310000000100000001000000555555555555D13F5C8FC2F5285CE33F0000000000000000000000000000F03F00000000000000000000000000000000000000000000000000000000980000000B000000FA23E4CC9E662540C6DC0246FE872E400A0402
310
814020703F00000000000000000000000000000000000000000000F03F000000000000F03F00000000000000000000000000000000320000000100000001000000555555555555D13F5C8FC2F5285CE33F0000000000000000000000000000F03F000000000000000000000000000000000000000000000000000000009800
310
00000B00000097E153968AF42540D47618532CE72E400A0402814020703F00000000000000000000000000000000000000000000F03F000000000000F03F00000000000000000000000000000000220000000100000001000000555555555555D13F5C8FC2F5285CE33F0000000000000000000000000000F03F0000000000
310
0000000000000000000000000000000000000000000000980000000B000000E0964D9347E824408A4CBB6769972D400A0402814020703F00000000000000000000000000000000000000000000F03F000000000000F03F00000000000000000000000000000000323431000300000001000000555555555555D13F5C8FC2F5
310
285CE33F0000000000000000000000000000F03F00000000000000000000000000000000000000000000000000000000
100
AcDbDimension
  2
_D
 10
27.0
 20
11.28
 30
0.0
 11
10.7801582157
 21
15.2931934712
 31
0.0
 70
   169
  1
<>
 71
     1
 42
-1.0
  3
SLDDIMSTYLE0
100
AcDbRadialDimensionLarge
 13
27.0
 23
11.28
 33
0.0
 14
27.07
 24
12.1
 34
0.0
 15
27.15
 25
13.0
 35
0.0
 40
0.0
  0
DIMENSION
  5
10B
330
1F
100
AcDbEntity
  8
DIMS
100
AcDbDimension
  2
_D_1
 10
10.5727060779
 20
11.4111712999
 30
0.0
 11
13.745523265
 21
12.5106596636
 31
0.0
 70
   164
  1
<>
 71
     1
 42
-1.0
  3
SLDDIMSTYLE1
100
AcDbRadialDimension
 15
15.7695189672
 25
13.2120421431
 35
0.0
 40
0.0
  0
DIMENSION
  5
11F
330
1F
100
AcDbEntity
  8
DIMS
100
AcDbDimension
  2
_D_2
 10
10.5727060779
 20
11.4111712999
 30
0.0
 11
12.9946117172
 21
14.1083750352
 31
0.0
 70
   164
  1
<>
 71
     1
 42
-1.0
  3
SLDDIMSTYLE1
100
AcDbRadialDimension
 15
13.8297627272
 25
15.0384577489
 35
0.0
 40
0.0
  0
DIMENSION
  5
132
330
1F
100
AcDbEntity
  8
DIMS
100
AcDbDimension
  2
_D_3
 10
7.0727060779
 20
4.4821128885
 30
0.0
 11
5.8300607241
 21
3.169953056
 31
0.0
 70
   164
  1
<>
 71
     1
 42
-1.0
  3
SLDDIMSTYLE1
100
AcDbRadialDimension
 15
5.09582039
 25
2.3946388223
 35
0.0
 40
0.0
  0
DIMENSION
  5
145
330
1F
100
AcDbEntity
  8
DIMS
100
AcDbDimension
  2
_D_4
 10
12.5727060779
 20
4.4821128885
 30
0.0
 11
13.745523265
 21
3.169953056
 31
0.0
 70
   164
  1
<>
 71
     1
 42
-1.0
  3
SLDDIMSTYLE1
100
AcDbRadialDimension
 15
14.9051388219
 25
1.8725616829
 35
0.0
 40
0.0
  0
DIMENSION
  5
158
330
1F
100
AcDbEntity
  8
DIMS
100
AcDbDimension
  2
_D_5
 10
15.4477060779
 20
5.3501740289
 30
0.0
 11
9.1745573537
 21
5.3501740289
 31
0.0
 70
   160
  1
<>
 71
     2
 42
-1.0
  3
SLDDIMSTYLE2
100
AcDbAlignedDimension
 13
4.1977060779
 23
4.4821128885
 33
0.0
 14
15.4477060779
 24
4.4821128885
 34
0.0
100
AcDbRotatedDimension
  0
DIMENSION
  5
16D
330
1F
100
AcDbEntity
  8
DIMS
100
AcDbDimension
  2
_D_6
 10
16.0727060779
 20
4.6386786192
 30
0.0
 11
11.3332278414
 21
4.6386786192
 31
0.0
 70
   160
  1
<>
 71
     2
 42
-1.0
  3
SLDDIMSTYLE2
100
AcDbAlignedDimension
 13
3.5727060779
 23
4.4821128885
 33
0.0
 14
16.0727060779
 24
4.4821128885
 34
0.0
 50
0.0
100
AcDbRotatedDimension
  0
DIMENSION
  5
181
330
1F
100
AcDbEntity
  8
DIMS
100
AcDbDimension
  2
_D_7
 10
1.4841234008
 20
0.9821128885
 30
0.0
 11
1.4841234008
 21
9.9889137607
 31
0.0
 70
   160
  1
<>
 71
     2
 42
-1.0
  3
SLDDIMSTYLE2
100
AcDbAlignedDimension
 13
9.8227060779
 23
16.9821128885
 33
0.0
 14
7.0727060779
 24
0.9821128885
 34
0.0
 50
90.0
100
AcDbRotatedDimension
  0
DIMENSION
  5
193
330
1F
100
AcDbEntity
  8
DIMS
100
AcDbDimension
  2
_D_8
 10
2.7083833646
 20
1.6071128885
 30
0.0
 11
2.7083833646
 21
7.9889137849
 31
0.0
 70
   160
  1
<>
 71
     2
 42
-1.0
  3
SLDDIMSTYLE2
100
AcDbAlignedDimension
 13
9.8227060779
 23
16.3571128885
 33
0.0
 14
7.0727060779
 24
1.6071128885
 34
0.0
 50
90.0
100
AcDbRotatedDimension
  0
LARGE_RADIAL_DIMENSION
  5
1A9
330
1F
100
AcDbEntity
  8
DIMS
 92
     2080
310
20080000180000000C00000012000000000000000C0000001400000001000000A0000000090000000400000002D88E1D32D12040155B59EA643E304000000000000000000793EC1133D22040F69579B39AF42F400000000000000000238E5C4716FB204024F6931A34FB2F400000000000000000238E5C4716FB204024F693
310
1A34FB2F400000000000000000050000000400000000000000010000000200000003000000200000000100000002000000030000000400000000000000000000000C00000012000000FF7F00000C0000001400000002000000540000002000000002000000641EDEA9A9152140C44856FBF5422E4000000000000000008BB1
310
07EDAAA32140C44856FBF5422E40000000000000000000000000000000000000000000000000000000000000F03F540000002000000002000000E960AFAC72842040F6E132A78A5B2D400000000000000000DD5AF414A2652040F6E132A78A5B2D400000000000000000000000000000000000000000000000000000000000
310
00F03F540000002000000002000000DD5AF414A2652040F6E132A78A5B2D400000000000000000DD5AF414A2652040E2D7AD58D38C2C40000000000000000000000000000000000000000000000000000000000000F03F540000002000000002000000DD5AF414A2652040E2D7AD58D38C2C400000000000000000E960AFAC
310
72842040E2D7AD58D38C2C40000000000000000000000000000000000000000000000000000000000000F03F54000000200000000200000036870214A2052240F6E132A78A5B2D400000000000000000428DBDAB72242240F6E132A78A5B2D40000000000000000000000000000000000000000000000000000000000000F0
310
3F540000002000000002000000428DBDAB72242240F6E132A78A5B2D400000000000000000428DBDAB72242240E2D7AD58D38C2C40000000000000000000000000000000000000000000000000000000000000F03F540000002000000002000000428DBDAB72242240E2D7AD58D38C2C40000000000000000036870214A205
310
2240E2D7AD58D38C2C40000000000000000000000000000000000000000000000000000000000000F03F54000000200000000200000043E40A2620C02140770CD50F6DB42A400000000000000000F5939F9FDA782140691C90C3026E2C40000000000000000000000000000000000000000000000000000000000000F03F54
310
000000200000000200000002D88E1D32D12040155B59EA643E304000000000000000003E5ED71F3A112140E6D9EE2610F02E40000000000000000000000000000000000000000000000000000000000000F03F54000000200000000200000043E40A2620C02140770CD50F6DB42A400000000000000000FA5D0531D7A12240
310
00FF704C06ED2B40000000000000000000000000000000000000000000000000000000000000F03F540000002000000002000000FA5D0531D7A1224000FF704C06ED2B40000000000000000012FF3173AF152340FDC3FDEC451F2940000000000000000000000000000000000000000000000000000000000000F03F540000
310
00200000000200000012FF3173AF152340DA80B4F0E7942A40000000000000000012FF3173AF152340210747E9A3A92740000000000000000000000000000000000000000000000000000000000000F03F54000000200000000200000036427B6F0DA02140FDC3FDEC451F29400000000000000000EEBBE876518B2440FDC3
310
FDEC451F2940000000000000000000000000000000000000000000000000000000000000F03F0C0000001200000000000000980000000B0000000957FC1CAF082040F37DFF5543FF2D40080402814020703F00000000000000000000000000000000000000000000F03F000000000000F03F00000000000000000000000000
310
000000523800000200000001000000555555555555D13F5C8FC2F5285CE33F0000000000000000000000000000F03F00000000000000000000000000000000000000000000000000000000980000000B000000715475084C1B21407A4141A1BB5D2E40080402814020703F0000000000000000000000000000000000000000
310
0000F03F000000000000F03F00000000000000000000000000000000370000000100000001000000555555555555D13F5C8FC2F5285CE33F0000000000000000000000000000F03F00000000000000000000000000000000000000000000000000000000980000000B000000A6A5D346381C21402B9ADD46EAA02D40080402
310
814020703F00000000000000000000000000000000000000000000F03F000000000000F03F00000000000000000000000000000000380000000100000001000000555555555555D13F5C8FC2F5285CE33F0000000000000000000000000000F03F000000000000000000000000000000000000000000000000000000009800
310
00000B0000004363431024AA21403934F35318002E40080402814020703F00000000000000000000000000000000000000000000F03F000000000000F03F00000000000000000000000000000000220000000100000001000000555555555555D13F5C8FC2F5285CE33F0000000000000000000000000000F03F0000000000
310
0000000000000000000000000000000000000000000000980000000B0000008C183D0DE19D204044A6136162B32C40080402814020703F00000000000000000000000000000000000000000000F03F000000000000F03F00000000000000000000000000000000323235000300000001000000555555555555D13F5C8FC2F5
310
285CE33F0000000000000000000000000000F03F00000000000000000000000000000000000000000000000000000000
100
AcDbDimension
  2
_D_9
 10
27.0
 20
11.28
 30
0.0
 11
8.634844772
 21
14.8418690338
 31
0.0
 70
   169
  1
<>
 71
     1
 42
-1.0
  3
SLDDIMSTYLE3
100
AcDbRadialDimensionLarge
 13
27.0
 23
11.28
 33
0.0
 14
27.07
 24
12.1
 34
0.0
 15
27.15
 25
13.0
 35
0.0
 40
0.0
  0
INSERT
  5
1D2
330
1F
100
AcDbEntity
  8
NOTES
100
AcDbBlockReference
  2
SW_NOTE_0
 10
6.1075236646
 20
11.4534970759
 30
0.0
  0
INSERT
  5
1D8
102
{ACAD_REACTORS
330
1DA
102
}
330
1F
100
AcDbEntity
  8
NOTES
100
AcDbBlockReference
  2
SW_NOTE_1
 10
5.3536767956
 20
13.6532546834
 30
0.0
  0
LEADER
  5
1DA
330
1F
100
AcDbEntity
  8
NOTES
100
AcDbLeader
  3
SLDDIMSTYLE4
 73
     2
 76
     3
 10
4.4203139209
 20
12.8674927675
 30
0.0
 10
5.1036767956
 20
13.6532546834
 30
0.0
 10
5.3536767956
 20
13.6532546834
 30
0.0
340
1D8
  0
INSERT
  5
1E0
102
{ACAD_REACTORS
330
1E1
102
}
330
1F
100
AcDbEntity
  8
NOTES
100
AcDbBlockReference
  2
SW_NOTE_2
 10
14.3629307934
 20
10.929368365
 30
0.0
  0
LEADER
  5
1E1
330
1F
100
AcDbEntity
  8
NOTES
100
AcDbLeader
  3
SLDDIMSTYLE4
 73
     2
 76
     3
 10
16.0727060779
 20
9.8664794751
 30
0.0
 10
14.6129307934
 20
10.929368365
 30
0.0
 10
14.3629307934
 20
10.929368365
 30
0.0
340
1E0
  0
INSERT
  5
1E7
330
1F
100
AcDbEntity
  8
NOTES
100
AcDbBlockReference
  2
SW_NOTE_3
 10
5.6581894497
 20
6.4863042988
 30
0.0
  0
INSERT
  5
1EF
102
{ACAD_REACTORS
330
1F0
102
}
330
1F
100
AcDbEntity
  8
NOTES
100
AcDbBlockReference
  2
SW_NOTE_4
 10
9.0414310325
 20
3.4026030251
 30
0.0
  0
LEADER
  5
1F0
330
1F
100
AcDbEntity
  8
NOTES
100
AcDbLeader
  3
SLDDIMSTYLE4
 73
     2
 76
     3
 10
9.8227060779
 20
2.1712128648
 30
0.0
 10
9.2914310325
 20
3.4026030251
 30
0.0
 10
9.0414310325
 20
3.4026030251
 30
0.0
340
1EF
  0
MTEXT
  5
1F1
330
1F
100
AcDbEntity
  8
NOTES
100
AcDbMText
 10
11.1777151936
 20
2.2090551389
 30
0.0
 40
0.2083333333
 41
0.0
 71
     1
 72
     1
  1
REV_B  7/15
  7
SLDTEXTSTYLE0
 73
     1
 44
1.0
  0
ENDSEC
  0
SECTION
  2
OBJECTS
  0
DICTIONARY
  5
C
330
0
100
AcDbDictionary
281
     1
  3
ACAD_GROUP
350
D
  3
ACAD_LAYOUT
350
1A
  3
ACAD_MLINESTYLE
350
17
  3
ACAD_PLOTSETTINGS
350
19
  3
ACAD_PLOTSTYLENAME
350
E
  0
DICTIONARY
  5
D
102
{ACAD_REACTORS
330
C
102
}
330
C
100
AcDbDictionary
281
     1
  0
DICTIONARY
  5
1A
102
{ACAD_REACTORS
330
C
102
}
330
C
100
AcDbDictionary
281
     1
  3
Layout1
350
1E
  3
Layout2
350
26
  3
Model
350
22
  0
DICTIONARY
  5
17
102
{ACAD_REACTORS
330
C
102
}
330
C
100
AcDbDictionary
281
     1
  3
Standard
350
18
  0
DICTIONARY
  5
19
102
{ACAD_REACTORS
330
C
102
}
330
C
100
AcDbDictionary
281
     1
  0
ACDBDICTIONARYWDFLT
  5
E
102
{ACAD_REACTORS
330
C
102
}
330
C
100
AcDbDictionary
281
     1
  3
Normal
350
F
100
AcDbDictionaryWithDefault
340
F
  0
LAYOUT
  5
1E
102
{ACAD_REACTORS
330
1A
102
}
330
1A
100
AcDbPlotSettings
  1

  2
none_device
  4

  6

 40
0.0
 41
0.0
 42
0.0
 43
0.0
 44
0.0
 45
0.0
 46
0.0
 47
0.0
 48
0.0
 49
0.0
140
0.0
141
0.0
142
1.0
143
1.0
 70
   688
 72
     0
 73
     0
 74
     5
  7

 75
    16
147
1.0
148
0.0
149
0.0
100
AcDbLayout
  1
Layout1
 70
     1
 71
     1
 10
0.0
 20
0.0
 11
12.0
 21
9.0
 12
0.0
 22
0.0
 32
0.0
 14
1.0000000000E+20
 24
1.0000000000E+20
 34
1.0000000000E+20
 15
-1.0000000000E+20
 25
-1.0000000000E+20
 35
-1.0000000000E+20
146
0.0
 13
0.0
 23
0.0
 33
0.0
 16
1.0
 26
0.0
 36
0.0
 17
0.0
 27
1.0
 37
0.0
 76
     0
330
1B
  0
LAYOUT
  5
26
102
{ACAD_REACTORS
330
1A
102
}
330
1A
100
AcDbPlotSettings
  1

  2
none_device
  4

  6

 40
0.0
 41
0.0
 42
0.0
 43
0.0
 44
0.0
 45
0.0
 46
0.0
 47
0.0
 48
0.0
 49
0.0
140
0.0
141
0.0
142
1.0
143
1.0
 70
   688
 72
     0
 73
     0
 74
     5
  7

 75
    16
147
1.0
148
0.0
149
0.0
100
AcDbLayout
  1
Layout2
 70
     1
 71
     2
 10
0.0
 20
0.0
 11
0.0
 21
0.0
 12
0.0
 22
0.0
 32
0.0
 14
0.0
 24
0.0
 34
0.0
 15
0.0
 25
0.0
 35
0.0
146
0.0
 13
0.0
 23
0.0
 33
0.0
 16
1.0
 26
0.0
 36
0.0
 17
0.0
 27
1.0
 37
0.0
 76
     0
330
23
  0
LAYOUT
  5
22
102
{ACAD_REACTORS
330
1A
102
}
330
1A
100
AcDbPlotSettings
  1

  2
none_device
  4

  6

 40
0.0
 41
0.0
 42
0.0
 43
0.0
 44
0.0
 45
0.0
 46
0.0
 47
0.0
 48
0.0
 49
0.0
140
0.0
141
0.0
142
1.0
143
1.0
 70
  1712
 72
     0
 73
     0
 74
     0
  7

 75
     0
147
1.0
148
0.0
149
0.0
100
AcDbLayout
  1
Model
 70
     1
 71
     0
 10
0.0
 20
0.0
 11
18.0
 21
18.0
 12
0.0
 22
0.0
 32
0.0
 14
0.0
 24
0.0
 34
0.0
 15
18.0
 25
18.0
 35
0.0
146
0.0
 13
0.0
 23
0.0
 33
0.0
 16
1.0
 26
0.0
 36
0.0
 17
0.0
 27
1.0
 37
0.0
 76
     0
330
1F
331
29
  0
MLINESTYLE
  5
18
102
{ACAD_REACTORS
330
17
102
}
330
17
100
AcDbMlineStyle
  2
Standard
 70
     0
  3

 62
   256
 51
90.0
 52
90.0
 71
     2
 49
0.5
 62
   256
  6
BYLAYER
 49
-0.5
 62
   256
  6
BYLAYER
  0
ACDBPLACEHOLDER
  5
F
102
{ACAD_REACTORS
330
E
102
}
330
E
  0
ENDSEC
  0
EOF
