  0
SECTION
  2
HEADER
  9
$ACADVER
  1
AC1012
  9
$DWGCODEPAGE
  3
ansi_1252
  9
$INSBASE
 10
0.0
 20
0.0
 30
0.0
  9
$EXTMIN
 10
0.0
 20
0.0
 30
0.0
  9
$EXTMAX
 10
34.0
 20
22.0
 30
0.0
  9
$LIMMIN
 10
0.0
 20
0.0
  9
$LIMMAX
 10
34.0
 20
22.0
  9
$ORTHOMODE
 70
     0
  9
$REGENMODE
 70
     1
  9
$FILLMODE
 70
     1
  9
$QTEXTMODE
 70
     0
  9
$MIRRTEXT
 70
     1
  9
$DRAGMODE
 70
     2
  9
$LTSCALE
 40
1.0
  9
$OSMODE
 70
    37
  9
$ATTMODE
 70
     1
  9
$TEXTSIZE
 40
0.2777777778
  9
$TRACEWID
 40
0.05
  9
$TEXTSTYLE
  7
STANDARD
  9
$CLAYER
  8
0
  9
$CELTYPE
  6
BYLAYER
  9
$CECOLOR
 62
   256
  9
$CELTSCALE
 40
1.0
  9
$DELOBJ
 70
     1
  9
$DISPSILH
 70
     0
  9
$DIMSCALE
 40
1.0
  9
$DIMASZ
 40
0.262898763
  9
$DIMEXO
 40
0.05
  9
$DIMDLI
 40
0.38
  9
$DIMRND
 40
0.0
  9
$DIMDLE
 40
0.0
  9
$DIMEXE
 40
0.125
  9
$DIMTP
 40
0.0
  9
$DIMTM
 40
0.0
  9
$DIMTXT
 40
0.3611111111
  9
$DIMCEN
 40
0.09
  9
$DIMTSZ
 40
0.0
  9
$DIMTOL
 70
     0
  9
$DIMLIM
 70
     0
  9
$DIMTIH
 70
     1
  9
$DIMTOH
 70
     1
  9
$DIMSE1
 70
     0
  9
$DIMSE2
 70
     0
  9
$DIMTAD
 70
     0
  9
$DIMZIN
 70
     0
  9
$DIMBLK
  1

  9
$DIMASO
 70
     1
  9
$DIMSHO
 70
     1
  9
$DIMPOST
  1

  9
$DIMAPOST
  1

  9
$DIMALT
 70
     0
  9
$DIMALTD
 70
     2
  9
$DIMALTF
 40
25.4
  9
$DIMLFAC
 40
1.0
  9
$DIMTOFL
 70
     0
  9
$DIMTVP
 40
0.0
  9
$DIMTIX
 70
     0
  9
$DIMSOXD
 70
     0
  9
$DIMSAH
 70
     0
  9
$DIMBLK1
  1

  9
$DIMBLK2
  1

  9
$DIMSTYLE
  2
STANDARD
  9
$DIMCLRD
 70
     0
  9
$DIMCLRE
 70
     0
  9
$DIMCLRT
 70
     0
  9
$DIMTFAC
 40
1.0
  9
$DIMGAP
 40
0.06
  9
$DIMJUST
 70
     0
  9
$DIMSD1
 70
     0
  9
$DIMSD2
 70
     0
  9
$DIMTOLJ
 70
     1
  9
$DIMTZIN
 70
     0
  9
$DIMALTZ
 70
     0
  9
$DIMALTTZ
 70
     0
  9
$DIMFIT
 70
     3
  9
$DIMUPT
 70
     0
  9
$DIMUNIT
 70
     2
  9
$DIMDEC
 70
     3
  9
$DIMTDEC
 70
     3
  9
$DIMALTU
 70
     2
  9
$DIMALTTD
 70
     2
  9
$DIMTXSTY
  7
STANDARD
  9
$DIMAUNIT
 70
     0
  9
$LUNITS
 70
     2
  9
$LUPREC
 70
     3
  9
$SKETCHINC
 40
0.1
  9
$FILLETRAD
 40
0.5
  9
$AUNITS
 70
     0
  9
$AUPREC
 70
     1
  9
$MENU
  1
.
  9
$ELEVATION
 40
0.0
  9
$PELEVATION
 40
0.0
  9
$THICKNESS
 40
0.0
  9
$LIMCHECK
 70
     0
  9
$CHAMFERA
 40
0.5
  9
$CHAMFERB
 40
0.5
  9
$CHAMFERC
 40
1.0
  9
$CHAMFERD
 40
0.0
  9
$SKPOLY
 70
     0
  9
$TDCREATE
 40
2457232.495998588
  9
$TDUPDATE
 40
2457232.496000232
  9
$TDINDWG
 40
0.0000000116
  9
$TDUSRTIMER
 40
0.0000000116
  9
$USRTIMER
 70
     1
  9
$ANGBASE
 50
0.0
  9
$ANGDIR
 70
     0
  9
$PDMODE
 70
     0
  9
$PDSIZE
 40
-1.0
  9
$PLINEWID
 40
0.0
  9
$COORDS
 70
     1
  9
$SPLFRAME
 70
     0
  9
$SPLINETYPE
 70
     6
  9
$SPLINESEGS
 70
     8
  9
$ATTDIA
 70
     0
  9
$ATTREQ
 70
     1
  9
$HANDLING
 70
     1
  9
$HANDSEED
  5
23C
  9
$SURFTAB1
 70
     6
  9
$SURFTAB2
 70
     6
  9
$SURFTYPE
 70
     6
  9
$SURFU
 70
     6
  9
$SURFV
 70
     6
  9
$UCSNAME
  2

  9
$UCSORG
 10
0.0
 20
0.0
 30
0.0
  9
$UCSXDIR
 10
1.0
 20
0.0
 30
0.0
  9
$UCSYDIR
 10
0.0
 20
1.0
 30
0.0
  9
$PUCSNAME
  2

  9
$PUCSORG
 10
0.0
 20
0.0
 30
0.0
  9
$PUCSXDIR
 10
1.0
 20
0.0
 30
0.0
  9
$PUCSYDIR
 10
0.0
 20
1.0
 30
0.0
  9
$USERI1
 70
     0
  9
$USERI2
 70
     0
  9
$USERI3
 70
     0
  9
$USERI4
 70
     0
  9
$USERI5
 70
     0
  9
$USERR1
 40
0.0
  9
$USERR2
 40
0.0
  9
$USERR3
 40
0.0
  9
$USERR4
 40
0.0
  9
$USERR5
 40
0.0
  9
$WORLDVIEW
 70
     1
  9
$SHADEDGE
 70
     3
  9
$SHADEDIF
 70
    70
  9
$TILEMODE
 70
     1
  9
$MAXACTVP
 70
    64
  9
$PINSBASE
 10
0.0
 20
0.0
 30
0.0
  9
$PLIMCHECK
 70
     0
  9
$PEXTMIN
 10
1.0000000000E+20
 20
1.0000000000E+20
 30
1.0000000000E+20
  9
$PEXTMAX
 10
-1.0000000000E+20
 20
-1.0000000000E+20
 30
-1.0000000000E+20
  9
$PLIMMIN
 10
0.0
 20
0.0
  9
$PLIMMAX
 10
12.0
 20
9.0
  9
$UNITMODE
 70
     0
  9
$VISRETAIN
 70
     1
  9
$PLINEGEN
 70
     0
  9
$PSLTSCALE
 70
     1
  9
$TREEDEPTH
 70
  3020
  9
$PICKSTYLE
 70
     1
  9
$CMLSTYLE
  2
STANDARD
  9
$CMLJUST
 70
     0
  9
$CMLSCALE
 40
1.0
  9
$SAVEIMAGES
 70
     1
  0
ENDSEC
  0
SECTION
  2
CLASSES
  0
CLASS
  1
ACDBDICTIONARYWDFLT
  2
AcDbDictionaryWithDefault
  3
ObjectDBX Classes
 90
    32768
280
     0
281
     0
  0
CLASS
  1
VISUALSTYLE
  2
AcDbVisualStyle
  3
ObjectDBX Classes
 90
     4095
280
     0
281
     0
  0
CLASS
  1
MATERIAL
  2
AcDbMaterial
  3
ObjectDBX Classes
 90
     1153
280
     0
281
     0
  0
CLASS
  1
XRECORD
  2
AcDbXrecord
  3
AutoCAD 2000
 90
    32768
280
     0
281
     0
  0
ENDSEC
  0
SECTION
  2
TABLES
  0
TABLE
  2
VPORT
  5
8
330
0
100
AcDbSymbolTable
 70
     1
  0
VPORT
  5
29
330
8
100
AcDbSymbolTableRecord
100
AcDbViewportTableRecord
  2
*ACTIVE
 70
     0
 10
0.0
 20
0.0
 11
1.0
 21
1.0
 12
17.0
 22
11.0
 13
0.0
 23
0.0
 14
0.5
 24
0.5
 15
0.5
 25
0.5
 16
0.0
 26
0.0
 36
1.0
 17
0.0
 27
0.0
 37
0.0
 40
22.0
 41
1.5454545455
 42
50.0
 43
0.0
 44
0.0
 50
0.0
 51
0.0
 71
     0
 72
  2000
 73
     1
 74
     3
 75
     0
 76
     0
 77
     0
 78
     0
  0
ENDTAB
  0
TABLE
  2
LTYPE
  5
5
330
0
100
AcDbSymbolTable
 70
     6
  0
LTYPE
  5
14
330
5
100
AcDbSymbolTableRecord
100
AcDbLinetypeTableRecord
  2
BYBLOCK
 70
     0
  3

 72
    65
 73
     0
 40
0.0
  0
LTYPE
  5
15
330
5
100
AcDbSymbolTableRecord
100
AcDbLinetypeTableRecord
  2
BYLAYER
 70
     0
  3

 72
    65
 73
     0
 40
0.0
  0
LTYPE
  5
16
330
5
100
AcDbSymbolTableRecord
100
AcDbLinetypeTableRecord
  2
CONTINUOUS
 70
     0
  3
Solid line
 72
    65
 73
     0
 40
0.0
  0
LTYPE
  5
3F
330
5
100
AcDbSymbolTableRecord
100
AcDbLinetypeTableRecord
  2
HIDDEN
 70
     0
  3
Hidden __ __ __ __ __ __ __ __ __ __ __ __ __ __
 72
    65
 73
     2
 40
0.075
 49
0.05
 74
     0
 49
-0.025
 74
     0
  0
LTYPE
  5
40
330
5
100
AcDbSymbolTableRecord
100
AcDbLinetypeTableRecord
  2
PHANTOM
 70
     0
  3
Phantom ______  __  __  ______  __  __  ______
 72
    65
 73
     6
 40
0.5
 49
0.25
 74
     0
 49
-0.05
 74
     0
 49
0.05
 74
     0
 49
-0.05
 74
     0
 49
0.05
 74
     0
 49
-0.05
 74
     0
  0
LTYPE
  5
41
330
5
100
AcDbSymbolTableRecord
100
AcDbLinetypeTableRecord
  2
CENTER
 70
     0
  3
Center ____ _ ____ _ ____ _ ____ _ ____ _ ____
 72
    65
 73
     4
 40
0.4
 49
0.25
 74
     0
 49
-0.05
 74
     0
 49
0.05
 74
     0
 49
-0.05
 74
     0
  0
LTYPE
  5
42
330
5
100
AcDbSymbolTableRecord
100
AcDbLinetypeTableRecord
  2
CENTERX2
 70
     0
  3
Center (2x) ________  __  ________  __  _____
 72
    65
 73
     4
 40
0.8
 49
0.5
 74
     0
 49
-0.1
 74
     0
 49
0.1
 74
     0
 49
-0.1
 74
     0
  0
LTYPE
  5
43
330
5
100
AcDbSymbolTableRecord
100
AcDbLinetypeTableRecord
  2
DOT2
 70
     0
  3
Dot (.5x) ........................................
 72
    65
 73
     2
 40
0.025
 49
0.0
 74
     0
 49
-0.025
 74
     0
  0
ENDTAB
  0
TABLE
  2
LAYER
  5
2
330
0
100
AcDbSymbolTable
 70
     8
  0
LAYER
  5
10
330
2
100
AcDbSymbolTableRecord
100
AcDbLayerTableRecord
  2
0
 70
     0
 62
     7
  6
CONTINUOUS
  0
LAYER
  5
44
330
2
100
AcDbSymbolTableRecord
100
AcDbLayerTableRecord
  2
SLD-0
 70
     0
 62
   179
  6
CONTINUOUS
  0
LAYER
  5
45
330
2
100
AcDbSymbolTableRecord
100
AcDbLayerTableRecord
  2
OBJECTS
 70
     0
 62
     5
  6
CONTINUOUS
  0
LAYER
  5
46
330
2
100
AcDbSymbolTableRecord
100
AcDbLayerTableRecord
  2
DIMS
 70
     0
 62
     1
  6
CONTINUOUS
  0
LAYER
  5
47
330
2
100
AcDbSymbolTableRecord
100
AcDbLayerTableRecord
  2
NOTES
 70
     0
 62
     7
  6
CONTINUOUS
  0
LAYER
  5
48
330
2
100
AcDbSymbolTableRecord
100
AcDbLayerTableRecord
  2
IMAGES
 70
     0
 62
     7
  6
CONTINUOUS
  0
LAYER
  5
49
330
2
100
AcDbSymbolTableRecord
100
AcDbLayerTableRecord
  2
CENTERLINES
 70
     0
 62
     7
  6
HIDDEN
  0
LAYER
  5
4A
330
2
100
AcDbSymbolTableRecord
100
AcDbLayerTableRecord
  2
BLOCKS
 70
     0
 62
    17
  6
CONTINUOUS
  0
ENDTAB
  0
TABLE
  2
STYLE
  5
3
330
0
100
AcDbSymbolTable
 70
     3
  0
STYLE
  5
11
330
3
100
AcDbSymbolTableRecord
100
AcDbTextStyleTableRecord
  2
STANDARD
 70
     0
 40
0.0
 41
1.0
 50
0.0
 71
     0
 42
0.2777777778
  3
ARIAL.TTF
  4

1001
ACAD
1000
ARIAL
1071
       34
  0
STYLE
  5
DD
330
3
100
AcDbSymbolTableRecord
100
AcDbTextStyleTableRecord
  2
SLDTEXTSTYLE0
 70
     0
 40
0.0
 41
0.948
 50
0.0
 71
     0
 42
0.2
  3
ARIAL.TTF
  4

1001
ACAD
1000
Arial
1071
      290
  0
STYLE
  5
22B
330
3
100
AcDbSymbolTableRecord
100
AcDbTextStyleTableRecord
  2
SLDTEXTSTYLE1
 70
     0
 40
0.0
 41
0.948
 50
0.0
 71
     0
 42
0.2
  3
ARIALBD.TTF
  4

1001
ACAD
1000
Arial
1071
 33554722
  0
ENDTAB
  0
TABLE
  2
VIEW
  5
6
330
0
100
AcDbSymbolTable
 70
     0
  0
ENDTAB
  0
TABLE
  2
UCS
  5
7
330
0
100
AcDbSymbolTable
 70
     0
  0
ENDTAB
  0
TABLE
  2
APPID
  5
9
330
0
100
AcDbSymbolTable
 70
     1
  0
APPID
  5
12
330
9
100
AcDbSymbolTableRecord
100
AcDbRegAppTableRecord
  2
ACAD
 70
     0
  0
ENDTAB
  0
TABLE
  2
DIMSTYLE
  5
A
330
0
100
AcDbSymbolTable
 70
     5
  0
DIMSTYLE
105
27
330
A
100
AcDbSymbolTableRecord
100
AcDbDimStyleTableRecord
  2
STANDARD
 70
     0
  3

  4

  5

  6

  7

 40
1.0
 41
0.18
 42
0.0625
 43
0.38
 44
0.18
 45
0.0
 46
0.0
 47
0.0
 48
0.0
140
0.18
141
0.09
142
0.0
143
25.4
144
1.0
145
0.0
146
1.0
147
0.09
 71
     0
 72
     0
 73
     1
 74
     1
 75
     0
 76
     0
 77
     0
 78
     0
170
     0
171
     2
172
     0
173
     0
174
     0
175
     0
176
     0
177
     0
178
     0
270
     2
271
     4
272
     4
273
     2
274
     2
340
11
275
     0
280
     0
281
     0
282
     0
283
     1
284
     0
285
     0
286
     0
287
     3
288
     0
  0
DIMSTYLE
105
18B
330
A
100
AcDbSymbolTableRecord
100
AcDbDimStyleTableRecord
  2
SLDDIMSTYLE0
 70
     0
  3

  4

  5

  6

  7

 40
1.0
 41
0.262898763
 42
0.0625
 43
0.38
 44
0.0
 45
0.000000001
 46
0.0
 47
0.0
 48
0.0
140
0.0
141
0.09
142
0.0
143
25.4
144
1.0
145
0.0
146
0.262898763
147
0.0
 71
     0
 72
     0
 73
     1
 74
     1
 75
     0
 76
     0
 77
     0
 78
     0
170
     0
171
     2
172
     0
173
     1
174
     0
175
     0
176
     0
177
     0
178
     0
270
     5
271
     0
272
     0
273
     2
274
     2
340
11
275
     0
280
     0
281
     0
282
     0
283
     1
284
     0
285
     0
286
     0
287
     3
288
     0
  0
DIMSTYLE
105
1A1
102
{ACAD_REACTORS
330
1A0
330
1B5
330
1F0
102
}
330
A
100
AcDbSymbolTableRecord
100
AcDbDimStyleTableRecord
  2
SLDDIMSTYLE1
 70
     0
  3

  4

  5

  6

  7

 40
1.0
 41
0.262898763
 42
0.0625
 43
0.38
 44
0.0
 45
0.000000001
 46
0.0
 47
0.0
 48
0.0
140
0.262898763
141
0.09
142
0.0
143
25.4
144
1.0
145
0.0
146
1.0
147
0.0657246908
 71
     0
 72
     0
 73
     1
 74
     1
 75
     0
 76
     0
 77
     0
 78
    12
170
     1
171
     0
172
     0
173
     1
174
     0
175
     0
176
     0
177
     0
178
     0
270
     5
271
     6
272
     3
273
     2
274
     0
340
DD
275
     0
280
     0
281
     0
282
     0
283
     1
284
    12
285
     0
286
     0
287
     3
288
     0
  0
DIMSTYLE
105
1CA
102
{ACAD_REACTORS
330
1C9
330
1DD
102
}
330
A
100
AcDbSymbolTableRecord
100
AcDbDimStyleTableRecord
  2
SLDDIMSTYLE2
 70
     0
  3

  4

  5

  6

  7

 40
1.0
 41
0.262898763
 42
0.0625
 43
0.38
 44
0.0
 45
0.000000001
 46
0.0
 47
0.0
 48
0.0
140
0.262898763
141
0.0
142
0.0
143
25.4
144
1.0
145
0.0
146
1.0
147
0.0657246908
 71
     0
 72
     0
 73
     1
 74
     1
 75
     0
 76
     0
 77
     0
 78
    12
170
     1
171
     0
172
     0
173
     1
174
     0
175
     0
176
     0
177
     0
178
     0
270
     5
271
     3
272
     3
273
     2
274
     0
340
DD
275
     0
280
     0
281
     0
282
     0
283
     1
284
    12
285
     0
286
     0
287
     3
288
     0
  0
DIMSTYLE
105
205
102
{ACAD_REACTORS
330
204
102
}
330
A
100
AcDbSymbolTableRecord
100
AcDbDimStyleTableRecord
  2
SLDDIMSTYLE3
 70
     0
  3

  4

  5

  6

  7

 40
1.0
 41
0.262898763
 42
0.0625
 43
0.38
 44
0.0
 45
0.000000001
 46
0.0
 47
0.0
 48
0.0
140
0.262898763
141
0.09
142
0.0
143
25.4
144
1.0
145
0.0
146
1.0
147
0.0657246908
 71
     0
 72
     0
 73
     1
 74
     1
 75
     0
 76
     0
 77
     0
 78
    12
170
     1
171
     0
172
     0
173
     1
174
     0
175
     0
176
     0
177
     0
178
     0
270
     5
271
     3
272
     3
273
     2
274
     0
340
DD
275
     0
280
     0
281
     0
282
     0
283
     1
284
    12
285
     0
286
     0
287
     3
288
     0
  0
ENDTAB
  0
TABLE
  2
BLOCK_RECORD
  5
1
330
0
100
AcDbSymbolTable
 70
    16
  0
BLOCK_RECORD
  5
1F
330
1
100
AcDbSymbolTableRecord
100
AcDbBlockTableRecord
  2
*MODEL_SPACE
  0
BLOCK_RECORD
  5
1B
330
1
100
AcDbSymbolTableRecord
100
AcDbBlockTableRecord
  2
*PAPER_SPACE
  0
BLOCK_RECORD
  5
23
330
1
100
AcDbSymbolTableRecord
100
AcDbBlockTableRecord
  2
*PAPER_SPACE0
  0
BLOCK_RECORD
  5
4B
330
1
100
AcDbSymbolTableRecord
100
AcDbBlockTableRecord
  2
REVEAL-__500
  0
BLOCK_RECORD
  5
CD
330
1
100
AcDbSymbolTableRecord
100
AcDbBlockTableRecord
  2
SW_BLOCK_DIMENSION_0
  0
BLOCK_RECORD
  5
E5
330
1
100
AcDbSymbolTableRecord
100
AcDbBlockTableRecord
  2
OVERHANG_-__125
  0
BLOCK_RECORD
  5
169
330
1
100
AcDbSymbolTableRecord
100
AcDbBlockTableRecord
  2
SW_BLOCK_DIMENSION_1
  0
BLOCK_RECORD
  5
183
330
1
100
AcDbSymbolTableRecord
100
AcDbBlockTableRecord
  2
SW_NOTE_0
  0
BLOCK_RECORD
  5
1A2
330
1
100
AcDbSymbolTableRecord
100
AcDbBlockTableRecord
  2
_D
  0
BLOCK_RECORD
  5
1B6
330
1
100
AcDbSymbolTableRecord
100
AcDbBlockTableRecord
  2
_D_1
  0
BLOCK_RECORD
  5
1CB
330
1
100
AcDbSymbolTableRecord
100
AcDbBlockTableRecord
  2
_D_2
  0
BLOCK_RECORD
  5
1DE
330
1
100
AcDbSymbolTableRecord
100
AcDbBlockTableRecord
  2
_D_3
  0
BLOCK_RECORD
  5
1F1
330
1
100
AcDbSymbolTableRecord
100
AcDbBlockTableRecord
  2
_D_4
  0
BLOCK_RECORD
  5
206
330
1
100
AcDbSymbolTableRecord
100
AcDbBlockTableRecord
  2
_D_5
  0
BLOCK_RECORD
  5
215
330
1
100
AcDbSymbolTableRecord
100
AcDbBlockTableRecord
  2
SW_NOTE_1
  0
BLOCK_RECORD
  5
21C
330
1
100
AcDbSymbolTableRecord
100
AcDbBlockTableRecord
  2
SW_NOTE_2
  0
BLOCK_RECORD
  5
223
330
1
100
AcDbSymbolTableRecord
100
AcDbBlockTableRecord
  2
SW_NOTE_3
  0
BLOCK_RECORD
  5
235
330
1
100
AcDbSymbolTableRecord
100
AcDbBlockTableRecord
  2
SW_NOTE_4
  0
ENDTAB
  0
ENDSEC
  0
SECTION
  2
BLOCKS
  0
BLOCK
  5
20
330
1F
100
AcDbEntity
  8
0
100
AcDbBlockBegin
  2
*MODEL_SPACE
 70
     0
 10
0.0
 20
0.0
 30
0.0
  3
*MODEL_SPACE
  1

  0
ENDBLK
  5
21
330
1F
100
AcDbEntity
  8
0
100
AcDbBlockEnd
  0
BLOCK
  5
1C
330
1B
100
AcDbEntity
 67
     1
  8
0
100
AcDbBlockBegin
  2
*PAPER_SPACE
 70
     0
 10
0.0
 20
0.0
 30
0.0
  3
*PAPER_SPACE
  1

  0
ENDBLK
  5
1D
330
1B
100
AcDbEntity
 67
     1
  8
0
100
AcDbBlockEnd
  0
BLOCK
  5
24
330
23
100
AcDbEntity
  8
0
100
AcDbBlockBegin
  2
*PAPER_SPACE0
 70
     0
 10
0.0
 20
0.0
 30
0.0
  3
*PAPER_SPACE0
  1

  0
ENDBLK
  5
25
330
23
100
AcDbEntity
  8
0
100
AcDbBlockEnd
  0
BLOCK
  5
4C
330
4B
100
AcDbEntity
  8
0
100
AcDbBlockBegin
  2
REVEAL-__500
 70
     0
 10
0.0
 20
0.0
 30
0.0
  3
REVEAL-__500
  1

  0
ARC
  5
4E
330
4B
100
AcDbEntity
  8
BLOCKS
100
AcDbCircle
 10
20.1601934329
 20
28.8878838846
 30
0.0
 40
0.2338576391325233
100
AcDbArc
 50
0.0
 51
90.0
  0
ARC
  5
4F
330
4B
100
AcDbEntity
  8
BLOCKS
100
AcDbCircle
 10
19.8280715192
 20
29.4726468145
 30
0.0
 40
0.0659795528056719
100
AcDbArc
 50
0.0
 51
90.0
  0
ARC
  5
50
330
4B
100
AcDbEntity
  8
BLOCKS
100
AcDbCircle
 10
19.0470381676
 20
28.990848696
 30
0.0
 40
0.0881257319589152
100
AcDbArc
 50
200.9822712638
 51
339.0177287362
  0
ARC
  5
51
330
4B
100
AcDbEntity
  8
BLOCKS
100
AcDbCircle
 10
20.1601934329
 20
28.8878838846
 30
0.0
 40
0.1878262552218324
100
AcDbArc
 50
0.0
 51
90.0
  0
LINE
  5
52
330
4B
100
AcDbEntity
  8
BLOCKS
100
AcDbLine
 10
19.8280715192
 20
29.5386263673
 30
0.0
 11
18.2509355515
 21
29.5386263673
 31
0.0
  0
LINE
  5
53
330
4B
100
AcDbEntity
  8
BLOCKS
100
AcDbLine
 10
18.2806192052
 20
29.1434426864
 30
0.0
 11
19.894051072
 21
29.1434426864
 31
0.0
  0
LINE
  5
54
330
4B
100
AcDbEntity
  8
BLOCKS
100
AcDbLine
 10
19.3470309437
 20
29.1217415238
 30
0.0
 11
20.1601934329
 21
29.1217415238
 31
0.0
  0
LINE
  5
55
330
4B
100
AcDbEntity
  8
BLOCKS
100
AcDbLine
 10
20.394051072
 20
28.8878838846
 30
0.0
 11
20.394051072
 21
28.4971795949
 31
0.0
  0
LINE
  5
56
330
4B
100
AcDbEntity
  8
BLOCKS
100
AcDbLine
 10
20.394051072
 20
28.4971795949
 30
0.0
 11
20.3480196881
 21
28.4971795949
 31
0.0
  0
LINE
  5
57
330
4B
100
AcDbEntity
  8
BLOCKS
100
AcDbLine
 10
20.3480196881
 20
28.4971795949
 30
0.0
 11
20.3480196881
 21
28.8878838846
 31
0.0
  0
LINE
  5
58
330
4B
100
AcDbEntity
  8
BLOCKS
100
AcDbLine
 10
20.1601934329
 20
29.0757101398
 30
0.0
 11
19.3470309437
 21
29.0757101398
 31
0.0
  0
LINE
  5
59
330
4B
100
AcDbEntity
  8
BLOCKS
100
AcDbLine
 10
19.3470309437
 20
29.0757101398
 30
0.0
 11
19.3470309437
 21
29.1217415238
 31
0.0
  0
LINE
  5
5A
330
4B
100
AcDbEntity
  8
BLOCKS
100
AcDbLine
 10
19.679261078
 20
29.0223488565
 30
0.0
 11
19.7319208682
 21
29.073015856
 31
0.0
  0
LINE
  5
5B
330
4B
100
AcDbEntity
  8
BLOCKS
100
AcDbLine
 10
19.7319208682
 20
29.073015856
 30
0.0
 11
19.7745573648
 21
29.0287024176
 31
0.0
  0
LINE
  5
5C
330
4B
100
AcDbEntity
  8
BLOCKS
100
AcDbLine
 10
19.7745573648
 20
29.0287024176
 30
0.0
 11
19.705650009
 21
28.9624027047
 31
0.0
  0
LINE
  5
5D
330
4B
100
AcDbEntity
  8
BLOCKS
100
AcDbLine
 10
18.4381035755
 20
29.0888229672
 30
0.0
 11
18.385550816
 21
29.1434426864
 31
0.0
  0
LINE
  5
5E
330
4B
100
AcDbEntity
  8
BLOCKS
100
AcDbLine
 10
18.385550816
 20
29.1434426864
 30
0.0
 11
18.3431444562
 21
29.1026410993
 31
0.0
  0
LINE
  5
5F
330
4B
100
AcDbEntity
  8
BLOCKS
100
AcDbLine
 10
18.3431444562
 20
29.1026410993
 30
0.0
 11
18.4052557657
 21
29.0380868815
 31
0.0
  0
LINE
  5
60
330
4B
100
AcDbEntity
  8
BLOCKS
100
AcDbLine
 10
18.4381035755
 20
29.0888229672
 30
0.0
 11
19.679261078
 21
29.0223488565
 31
0.0
  0
LINE
  5
61
330
4B
100
AcDbEntity
  8
BLOCKS
100
AcDbLine
 10
19.705650009
 20
28.9624027047
 30
0.0
 11
18.4052557657
 21
29.0380868815
 31
0.0
  0
LINE
  5
62
330
4B
100
AcDbEntity
  8
BLOCKS
100
AcDbLine
 10
19.1283677378
 20
29.0518536895
 30
0.0
 11
19.1283677378
 21
28.9960010797
 31
0.0
  0
LINE
  5
63
330
4B
100
AcDbEntity
  8
BLOCKS
100
AcDbLine
 10
18.9737480593
 20
29.0601348348
 30
0.0
 11
18.9737480593
 21
29.0050000915
 31
0.0
  0
LINE
  5
64
330
4B
100
AcDbEntity
  8
BLOCKS
100
AcDbLine
 10
18.964755941
 20
28.9592927168
 30
0.0
 11
19.1293203942
 21
28.9592927168
 31
0.0
  0
LINE
  5
65
330
4B
100
AcDbEntity
  8
BLOCKS
100
AcDbLine
 10
19.0095275609
 20
29.3495924534
 30
0.0
 11
19.0095275609
 21
28.9592927168
 31
0.0
  0
LINE
  5
66
330
4B
100
AcDbEntity
  8
BLOCKS
100
AcDbLine
 10
19.0864194327
 20
29.3495924534
 30
0.0
 11
19.0864194327
 21
28.9592927168
 31
0.0
  0
LINE
  5
67
330
4B
100
AcDbEntity
  8
BLOCKS
100
AcDbLine
 10
18.9467524826
 20
29.0033177842
 30
0.0
 11
19.1591684741
 21
28.9909549723
 31
0.0
  0
LINE
  5
68
330
4B
100
AcDbEntity
  8
BLOCKS
100
AcDbLine
 10
19.0095275609
 20
29.3495924534
 30
0.0
 11
19.0474925407
 21
29.4047818344
 31
0.0
  0
LINE
  5
69
330
4B
100
AcDbEntity
  8
BLOCKS
100
AcDbLine
 10
19.0474925407
 20
29.4047818344
 30
0.0
 11
19.0864194327
 21
29.3495924534
 31
0.0
  0
LINE
  5
6A
330
4B
100
AcDbEntity
  8
BLOCKS
100
AcDbLine
 10
19.1572986604
 20
28.9588281114
 30
0.0
 11
18.9448826689
 21
28.9711909233
 31
0.0
  0
LINE
  5
6B
330
4B
100
AcDbEntity
  8
BLOCKS
100
AcDbLine
 10
19.1591684741
 20
28.9909549723
 30
0.0
 11
19.1572986604
 21
28.9588281114
 31
0.0
  0
LINE
  5
6C
330
4B
100
AcDbEntity
  8
BLOCKS
100
AcDbLine
 10
18.9467524826
 20
29.0033177842
 30
0.0
 11
18.9448826689
 21
28.9711909233
 31
0.0
  0
LINE
  5
6D
330
4B
100
AcDbEntity
  8
BLOCKS
100
AcDbLine
 10
19.1142839592
 20
29.1434426864
 30
0.0
 11
19.1142839592
 21
29.4238049236
 31
0.0
  0
LINE
  5
6E
330
4B
100
AcDbEntity
  8
BLOCKS
100
AcDbLine
 10
19.1142839592
 20
29.4238049236
 30
0.0
 11
18.9877469673
 21
29.4238049236
 31
0.0
  0
LINE
  5
6F
330
4B
100
AcDbEntity
  8
BLOCKS
100
AcDbLine
 10
18.9877469673
 20
29.4238049236
 30
0.0
 11
18.9877469673
 21
29.1434426864
 31
0.0
  0
LINE
  5
70
330
4B
100
AcDbEntity
  8
BLOCKS
  6
CONTINUOUS
100
AcDbLine
 10
19.894051072
 20
29.1434426864
 30
0.0
 11
19.894051072
 21
29.4726468145
 31
0.0
  0
LINE
  5
71
330
4B
100
AcDbEntity
  8
BLOCKS
100
AcDbLine
 10
19.3020232313
 20
29.1434426864
 30
0.0
 11
19.3470309437
 21
29.0987258318
 31
0.0
  0
LINE
  5
72
330
4B
100
AcDbEntity
  8
BLOCKS
100
AcDbLine
 10
19.894051072
 20
29.1434426864
 30
0.0
 11
19.9068063572
 21
29.1217415238
 31
0.0
  0
SPLINE
  5
73
330
4B
100
AcDbEntity
  8
BLOCKS
100
AcDbSpline
210
0.0
220
0.0
230
1.0
 70
     8
 71
     3
 72
     9
 73
     5
 74
     0
 42
0.00000001
 43
0.00000001
 12
1.0
 22
0.0
 32
0.0
 13
1.0
 23
0.0
 33
0.0
 40
0.0
 40
0.0
 40
0.0
 40
0.0
 40
0.5928291688347104
 40
1.0
 40
1.0
 40
1.0
 40
1.0
 10
18.28061920517429
 20
29.14344268635683
 30
0.0
 10
18.23604355296101
 20
29.22927712752978
 30
0.0
 10
18.31552651528452
 20
29.34850064146643
 30
0.0
 10
18.29741369383499
 20
29.50274888669875
 30
0.0
 10
18.25093555152442
 20
29.53862636728042
 30
0.0
  0
LINE
  5
74
330
4B
100
AcDbEntity
  8
BLOCKS
 62
    16
100
AcDbLine
 10
18.2853394197
 20
29.5106595711
 30
0.0
 11
18.3133062159
 21
29.5386263673
 31
0.0
  0
LINE
  5
75
330
4B
100
AcDbEntity
  8
BLOCKS
 62
    16
100
AcDbLine
 10
18.2988735511
 20
29.4358053548
 30
0.0
 11
18.3626792239
 21
29.4996110276
 31
0.0
  0
LINE
  5
76
330
4B
100
AcDbEntity
  8
BLOCKS
 62
    16
100
AcDbLine
 10
18.3737277674
 20
29.4222712234
 30
0.0
 11
18.484213202
 21
29.532756658
 31
0.0
  0
LINE
  5
77
330
4B
100
AcDbEntity
  8
BLOCKS
 62
    16
100
AcDbLine
 10
18.284928357
 20
29.3334718131
 30
0.0
 11
18.3295335936
 21
29.3780770496
 31
0.0
  0
LINE
  5
78
330
4B
100
AcDbEntity
  8
BLOCKS
 62
    16
100
AcDbLine
 10
18.4952617454
 20
29.4554168538
 30
0.0
 11
18.5784712589
 21
29.5386263673
 31
0.0
  0
LINE
  5
79
330
4B
100
AcDbEntity
  8
BLOCKS
 62
    16
100
AcDbLine
 10
18.340582137
 20
29.3007372454
 30
0.0
 11
18.4510675716
 21
29.41122268
 31
0.0
  0
LINE
  5
7A
330
4B
100
AcDbEntity
  8
BLOCKS
 62
    16
100
AcDbLine
 10
18.2618658043
 20
29.2220209127
 30
0.0
 11
18.2963879632
 21
29.2565430716
 31
0.0
  0
LINE
  5
7B
330
4B
100
AcDbEntity
  8
BLOCKS
 62
    16
100
AcDbLine
 10
18.6167957234
 20
29.4885624842
 30
0.0
 11
18.6668596065
 21
29.5386263673
 31
0.0
  0
LINE
  5
7C
330
4B
100
AcDbEntity
  8
BLOCKS
 62
    16
100
AcDbLine
 10
18.462116115
 20
29.3338828758
 30
0.0
 11
18.5726015496
 21
29.4443683103
 31
0.0
  0
LINE
  5
7D
330
4B
100
AcDbEntity
  8
BLOCKS
 62
    16
100
AcDbLine
 10
18.3074365067
 20
29.1792032674
 30
0.0
 11
18.4179219412
 21
29.289688702
 31
0.0
  0
LINE
  5
7E
330
4B
100
AcDbEntity
  8
BLOCKS
 62
    16
100
AcDbLine
 10
18.7383297014
 20
29.5217081145
 30
0.0
 11
18.7552479542
 21
29.5386263673
 31
0.0
  0
LINE
  5
7F
330
4B
100
AcDbEntity
  8
BLOCKS
 62
    16
100
AcDbLine
 10
18.5836500931
 20
29.3670285062
 30
0.0
 11
18.6941355276
 21
29.4775139407
 31
0.0
  0
LINE
  5
80
330
4B
100
AcDbEntity
  8
BLOCKS
 62
    16
100
AcDbLine
 10
18.4289704847
 20
29.2123488978
 30
0.0
 11
18.5394559192
 21
29.3228343323
 31
0.0
  0
LINE
  5
81
330
4B
100
AcDbEntity
  8
BLOCKS
 62
    16
100
AcDbLine
 10
18.3600642733
 20
29.1434426864
 30
0.0
 11
18.3847763109
 21
29.1681547239
 31
0.0
  0
LINE
  5
82
330
4B
100
AcDbEntity
  8
BLOCKS
 62
    16
100
AcDbLine
 10
18.7051840711
 20
29.4001741365
 30
0.0
 11
18.8156695056
 21
29.5106595711
 31
0.0
  0
LINE
  5
83
330
4B
100
AcDbEntity
  8
BLOCKS
 62
    16
100
AcDbLine
 10
18.5505044627
 20
29.2454945281
 30
0.0
 11
18.6609898973
 21
29.3559799627
 31
0.0
  0
LINE
  5
84
330
4B
100
AcDbEntity
  8
BLOCKS
 62
    16
100
AcDbLine
 10
18.4484526209
 20
29.1434426864
 30
0.0
 11
18.5063102889
 21
29.2013003543
 31
0.0
  0
LINE
  5
85
330
4B
100
AcDbEntity
  8
BLOCKS
 62
    16
100
AcDbLine
 10
18.8267180491
 20
29.4333197669
 30
0.0
 11
18.9320246495
 21
29.5386263673
 31
0.0
  0
LINE
  5
86
330
4B
100
AcDbEntity
  8
BLOCKS
 62
    16
100
AcDbLine
 10
18.6720384407
 20
29.2786401585
 30
0.0
 11
18.7825238753
 21
29.3891255931
 31
0.0
  0
LINE
  5
87
330
4B
100
AcDbEntity
  8
BLOCKS
 62
    16
100
AcDbLine
 10
18.5368409686
 20
29.1434426864
 30
0.0
 11
18.6278442669
 21
29.2344459847
 31
0.0
  0
LINE
  5
88
330
4B
100
AcDbEntity
  8
BLOCKS
 62
    16
100
AcDbLine
 10
18.9482520271
 20
29.4664653973
 30
0.0
 11
19.0204129971
 21
29.5386263673
 31
0.0
  0
LINE
  5
89
330
4B
100
AcDbEntity
  8
BLOCKS
 62
    16
100
AcDbLine
 10
18.7935724187
 20
29.3117857889
 30
0.0
 11
18.9040578533
 21
29.4222712234
 31
0.0
  0
LINE
  5
8A
330
4B
100
AcDbEntity
  8
BLOCKS
 62
    16
100
AcDbLine
 10
18.6388928103
 20
29.1571061805
 30
0.0
 11
18.7493782449
 21
29.267591615
 31
0.0
  0
LINE
  5
8B
330
4B
100
AcDbEntity
  8
BLOCKS
 62
    16
100
AcDbLine
 10
18.9151063967
 20
29.3449314192
 30
0.0
 11
18.9877469673
 21
29.4175719898
 31
0.0
  0
LINE
  5
8C
330
4B
100
AcDbEntity
  8
BLOCKS
 62
    16
100
AcDbLine
 10
18.7604267884
 20
29.1902518109
 30
0.0
 11
18.8709122229
 21
29.3007372454
 31
0.0
  0
LINE
  5
8D
330
4B
100
AcDbEntity
  8
BLOCKS
 62
    16
100
AcDbLine
 10
18.7136176639
 20
29.1434426864
 30
0.0
 11
18.7162326145
 21
29.146057637
 31
0.0
  0
LINE
  5
8E
330
4B
100
AcDbEntity
  8
BLOCKS
 62
    16
100
AcDbLine
 10
19.0697860051
 20
29.4996110276
 30
0.0
 11
19.1088013448
 21
29.5386263673
 31
0.0
  0
LINE
  5
8F
330
4B
100
AcDbEntity
  8
BLOCKS
 62
    16
100
AcDbLine
 10
18.993979901
 20
29.4238049236
 30
0.0
 11
19.0255918313
 21
29.4554168538
 31
0.0
  0
LINE
  5
90
330
4B
100
AcDbEntity
  8
BLOCKS
 62
    16
100
AcDbLine
 10
18.8819607664
 20
29.2233974412
 30
0.0
 11
18.9877469673
 21
29.3291836422
 31
0.0
  0
LINE
  5
91
330
4B
100
AcDbEntity
  8
BLOCKS
 62
    16
100
AcDbLine
 10
18.8020060115
 20
29.1434426864
 30
0.0
 11
18.8377665925
 21
29.1792032674
 31
0.0
  0
LINE
  5
92
330
4B
100
AcDbEntity
  8
BLOCKS
 62
    16
100
AcDbLine
 10
19.1913199831
 20
29.532756658
 30
0.0
 11
19.1971896924
 21
29.5386263673
 31
0.0
  0
LINE
  5
93
330
4B
100
AcDbEntity
  8
BLOCKS
 62
    16
100
AcDbLine
 10
19.0823682487
 20
29.4238049236
 30
0.0
 11
19.1471258093
 21
29.4885624842
 31
0.0
  0
LINE
  5
94
330
4B
100
AcDbEntity
  8
BLOCKS
 62
    16
100
AcDbLine
 10
18.8903943592
 20
29.1434426864
 30
0.0
 11
18.9593005706
 21
29.2123488978
 31
0.0
  0
LINE
  5
95
330
4B
100
AcDbEntity
  8
BLOCKS
 62
    16
100
AcDbLine
 10
19.1581743528
 20
29.41122268
 30
0.0
 11
19.2686597873
 21
29.5217081145
 31
0.0
  0
LINE
  5
96
330
4B
100
AcDbEntity
  8
BLOCKS
 62
    16
100
AcDbLine
 10
18.9787827068
 20
29.1434426864
 30
0.0
 11
18.9877469673
 21
29.1524069469
 31
0.0
  0
LINE
  5
97
330
4B
100
AcDbEntity
  8
BLOCKS
 62
    16
100
AcDbLine
 10
19.2797083308
 20
29.4443683103
 30
0.0
 11
19.3739663877
 21
29.5386263673
 31
0.0
  0
LINE
  5
98
330
4B
100
AcDbEntity
  8
BLOCKS
 62
    16
100
AcDbLine
 10
19.1250287224
 20
29.289688702
 30
0.0
 11
19.235514157
 21
29.4001741365
 31
0.0
  0
LINE
  5
99
330
4B
100
AcDbEntity
  8
BLOCKS
 62
    16
100
AcDbLine
 10
19.4012423088
 20
29.4775139407
 30
0.0
 11
19.4623547354
 21
29.5386263673
 31
0.0
  0
LINE
  5
9A
330
4B
100
AcDbEntity
  8
BLOCKS
 62
    16
100
AcDbLine
 10
19.2465627004
 20
29.3228343323
 30
0.0
 11
19.357048135
 21
29.4333197669
 31
0.0
  0
LINE
  5
9B
330
4B
100
AcDbEntity
  8
BLOCKS
 62
    16
100
AcDbLine
 10
19.1142839592
 20
29.1905555911
 30
0.0
 11
19.2023685266
 21
29.2786401585
 31
0.0
  0
LINE
  5
9C
330
4B
100
AcDbEntity
  8
BLOCKS
 62
    16
100
AcDbLine
 10
19.5227762868
 20
29.5106595711
 30
0.0
 11
19.550743083
 21
29.5386263673
 31
0.0
  0
LINE
  5
9D
330
4B
100
AcDbEntity
  8
BLOCKS
 62
    16
100
AcDbLine
 10
19.3680966784
 20
29.3559799627
 30
0.0
 11
19.478582113
 21
29.4664653973
 31
0.0
  0
LINE
  5
9E
330
4B
100
AcDbEntity
  8
BLOCKS
 62
    16
100
AcDbLine
 10
19.2134170701
 20
29.2013003543
 30
0.0
 11
19.3239025046
 21
29.3117857889
 31
0.0
  0
LINE
  5
9F
330
4B
100
AcDbEntity
  8
BLOCKS
 62
    16
100
AcDbLine
 10
19.1555594021
 20
29.1434426864
 30
0.0
 11
19.1692228962
 21
29.1571061805
 31
0.0
  0
LINE
  5
A0
330
4B
100
AcDbEntity
  8
BLOCKS
 62
    16
100
AcDbLine
 10
19.4896306565
 20
29.3891255931
 30
0.0
 11
19.600116091
 21
29.4996110276
 31
0.0
  0
LINE
  5
A1
330
4B
100
AcDbEntity
  8
BLOCKS
 62
    16
100
AcDbLine
 10
19.3349510481
 20
29.2344459847
 30
0.0
 11
19.4454364826
 21
29.3449314192
 31
0.0
  0
LINE
  5
A2
330
4B
100
AcDbEntity
  8
BLOCKS
 62
    16
100
AcDbLine
 10
19.2439477497
 20
29.1434426864
 30
0.0
 11
19.2907568742
 21
29.1902518109
 31
0.0
  0
LINE
  5
A3
330
4B
100
AcDbEntity
  8
BLOCKS
 62
    16
100
AcDbLine
 10
19.6111646345
 20
29.4222712234
 30
0.0
 11
19.721650069
 21
29.532756658
 31
0.0
  0
LINE
  5
A4
330
4B
100
AcDbEntity
  8
BLOCKS
 62
    16
100
AcDbLine
 10
19.4564850261
 20
29.267591615
 30
0.0
 11
19.5669704606
 21
29.3780770496
 31
0.0
  0
LINE
  5
A5
330
4B
100
AcDbEntity
  8
BLOCKS
 62
    16
100
AcDbLine
 10
19.3323360974
 20
29.1434426864
 30
0.0
 11
19.4122908523
 21
29.2233974412
 31
0.0
  0
LINE
  5
A6
330
4B
100
AcDbEntity
  8
BLOCKS
 62
    16
100
AcDbLine
 10
19.7326986125
 20
29.4554168538
 30
0.0
 11
19.815908126
 21
29.5386263673
 31
0.0
  0
LINE
  5
A7
330
4B
100
AcDbEntity
  8
BLOCKS
 62
    16
100
AcDbLine
 10
19.5780190041
 20
29.3007372454
 30
0.0
 11
19.6885044387
 21
29.41122268
 31
0.0
  0
LINE
  5
A8
330
4B
100
AcDbEntity
  8
BLOCKS
 62
    16
100
AcDbLine
 10
19.4233393957
 20
29.146057637
 30
0.0
 11
19.5338248303
 21
29.2565430716
 31
0.0
  0
LINE
  5
A9
330
4B
100
AcDbEntity
  8
BLOCKS
 62
    16
100
AcDbLine
 10
19.8542325905
 20
29.4885624842
 30
0.0
 11
19.8795667187
 21
29.5138966123
 31
0.0
  0
LINE
  5
AA
330
4B
100
AcDbEntity
  8
BLOCKS
 62
    16
100
AcDbLine
 10
19.6995529821
 20
29.3338828758
 30
0.0
 11
19.8100384167
 21
29.4443683103
 31
0.0
  0
LINE
  5
AB
330
4B
100
AcDbEntity
  8
BLOCKS
 62
    16
100
AcDbLine
 10
19.5448733737
 20
29.1792032674
 30
0.0
 11
19.6553588083
 21
29.289688702
 31
0.0
  0
LINE
  5
AC
330
4B
100
AcDbEntity
  8
BLOCKS
 62
    16
100
AcDbLine
 10
19.8210869601
 20
29.3670285062
 30
0.0
 11
19.894051072
 21
29.439992618
 31
0.0
  0
LINE
  5
AD
330
4B
100
AcDbEntity
  8
BLOCKS
 62
    16
100
AcDbLine
 10
19.6664073518
 20
29.2123488978
 30
0.0
 11
19.7768927863
 21
29.3228343323
 31
0.0
  0
LINE
  5
AE
330
4B
100
AcDbEntity
  8
BLOCKS
 62
    16
100
AcDbLine
 10
19.5975011403
 20
29.1434426864
 30
0.0
 11
19.6222131779
 21
29.1681547239
 31
0.0
  0
LINE
  5
AF
330
4B
100
AcDbEntity
  8
BLOCKS
 62
    16
100
AcDbLine
 10
19.7879413298
 20
29.2454945281
 30
0.0
 11
19.894051072
 21
29.3516042704
 31
0.0
  0
LINE
  5
B0
330
4B
100
AcDbEntity
  8
BLOCKS
 62
    16
100
AcDbLine
 10
19.685889488
 20
29.1434426864
 30
0.0
 11
19.7437471559
 21
29.2013003543
 31
0.0
  0
LINE
  5
B1
330
4B
100
AcDbEntity
  8
BLOCKS
 62
    16
100
AcDbLine
 10
19.7742778356
 20
29.1434426864
 30
0.0
 11
19.865281134
 21
29.2344459847
 31
0.0
  0
LINE
  5
B2
330
4B
100
AcDbEntity
  8
BLOCKS
 62
    16
100
AcDbLine
 10
19.8763296774
 20
29.1571061805
 30
0.0
 11
19.894051072
 21
29.1748275751
 31
0.0
  0
LINE
  5
B3
330
4B
100
AcDbEntity
  8
BLOCKS
 62
    16
100
AcDbLine
 10
19.0540492515
 20
29.3954859264
 30
0.0
 11
19.0125511605
 21
29.3539878353
 31
0.0
  0
LINE
  5
B4
330
4B
100
AcDbEntity
  8
BLOCKS
 62
    16
100
AcDbLine
 10
19.0864194327
 20
29.3394677599
 30
0.0
 11
19.0095275609
 21
29.2625758881
 31
0.0
  0
LINE
  5
B5
330
4B
100
AcDbEntity
  8
BLOCKS
 62
    16
100
AcDbLine
 10
19.0864194327
 20
29.2510794123
 30
0.0
 11
19.0095275609
 21
29.1741875405
 31
0.0
  0
LINE
  5
B6
330
4B
100
AcDbEntity
  8
BLOCKS
 62
    16
100
AcDbLine
 10
19.0864194327
 20
29.1626910646
 30
0.0
 11
19.0671710544
 21
29.1434426864
 31
0.0
  0
LINE
  5
B7
330
4B
100
AcDbEntity
  8
BLOCKS
 62
    16
100
AcDbLine
 10
19.066235184
 20
29.3782090764
 30
0.0
 11
19.0095275609
 21
29.3215014533
 31
0.0
  0
LINE
  5
B8
330
4B
100
AcDbEntity
  8
BLOCKS
 62
    16
100
AcDbLine
 10
19.0864194327
 20
29.3100049774
 30
0.0
 11
19.0095275609
 21
29.2331131056
 31
0.0
  0
LINE
  5
B9
330
4B
100
AcDbEntity
  8
BLOCKS
 62
    16
100
AcDbLine
 10
19.0864194327
 20
29.2216166298
 30
0.0
 11
19.0095275609
 21
29.144724758
 31
0.0
  0
LINE
  5
BA
330
4B
100
AcDbEntity
  8
BLOCKS
 62
    16
100
AcDbLine
 10
19.0671710544
 20
29.1434426864
 30
0.0
 11
19.0095275609
 21
29.0857991928
 31
0.0
  0
LINE
  5
BB
330
4B
100
AcDbEntity
  8
BLOCKS
 62
    16
100
AcDbLine
 10
19.0864194327
 20
29.074302717
 30
0.0
 11
19.0672440761
 21
29.0551273603
 31
0.0
  0
LINE
  5
BC
330
4B
100
AcDbEntity
  8
BLOCKS
 62
    16
100
AcDbLine
 10
19.0864194327
 20
29.1332282821
 30
0.0
 11
19.0113140216
 21
29.0581228711
 31
0.0
  0
LINE
  5
BD
330
4B
100
AcDbEntity
  8
BLOCKS
 62
    16
100
AcDbLine
 10
19.0672440761
 20
29.0551273603
 30
0.0
 11
19.0147315304
 21
29.0026148146
 31
0.0
  0
LINE
  5
BE
330
4B
100
AcDbEntity
  8
BLOCKS
 62
    16
100
AcDbLine
 10
19.0113140216
 20
29.0581228711
 30
0.0
 11
19.0095275609
 21
29.0563364103
 31
0.0
  0
LINE
  5
BF
330
4B
100
AcDbEntity
  8
BLOCKS
 62
    16
100
AcDbLine
 10
19.0864194327
 20
29.0448399345
 30
0.0
 11
19.0425738628
 21
29.0009943645
 31
0.0
  0
LINE
  5
C0
330
4B
100
AcDbEntity
  8
BLOCKS
 62
    16
100
AcDbLine
 10
19.0116569958
 20
28.9995402801
 30
0.0
 11
19.0095275609
 21
28.9974108452
 31
0.0
  0
LINE
  5
C1
330
4B
100
AcDbEntity
  8
BLOCKS
 62
    16
100
AcDbLine
 10
19.0864194327
 20
28.9859143693
 30
0.0
 11
19.0647212668
 21
28.9642162034
 31
0.0
  0
LINE
  5
C2
330
4B
100
AcDbEntity
  8
BLOCKS
 62
    16
100
AcDbLine
 10
19.0394993282
 20
28.9979198299
 30
0.0
 11
19.0095275609
 21
28.9679480627
 31
0.0
  0
LINE
  5
C3
330
4B
100
AcDbEntity
  8
BLOCKS
 62
    16
100
AcDbLine
 10
19.0095275609
 20
28.9974108452
 30
0.0
 11
18.9811942695
 21
28.9690775538
 31
0.0
  0
LINE
  5
C4
330
4B
100
AcDbEntity
  8
BLOCKS
 62
    16
100
AcDbLine
 10
18.9559723309
 20
29.0027811803
 30
0.0
 11
18.946149557
 21
28.9929584064
 31
0.0
  0
LINE
  5
C5
330
4B
100
AcDbEntity
  8
BLOCKS
 62
    16
100
AcDbLine
 10
19.0095275609
 20
28.9679480627
 30
0.0
 11
19.0090366019
 21
28.9674571036
 31
0.0
  0
LINE
  5
C6
330
4B
100
AcDbEntity
  8
BLOCKS
 62
    16
100
AcDbLine
 10
19.0951839931
 20
28.9946789297
 30
0.0
 11
19.0864194327
 21
28.9859143693
 31
0.0
  0
LINE
  5
C7
330
4B
100
AcDbEntity
  8
BLOCKS
 62
    16
100
AcDbLine
 10
19.1578905048
 20
28.9689970938
 30
0.0
 11
19.1482482641
 21
28.959354853
 31
0.0
  0
LINE
  5
C8
330
4B
100
AcDbEntity
  8
BLOCKS
 62
    16
100
AcDbLine
 10
19.1230263255
 20
28.9930584796
 30
0.0
 11
19.0925635992
 21
28.9625957533
 31
0.0
  0
LINE
  5
C9
330
4B
100
AcDbEntity
  8
BLOCKS
 62
    16
100
AcDbLine
 10
18.9714094326
 20
28.9592927168
 30
0.0
 11
18.9667139662
 21
28.9545972505
 31
0.0
  0
LINE
  5
CA
330
4B
100
AcDbEntity
  8
BLOCKS
 62
    16
100
AcDbLine
 10
19.0597977802
 20
28.9592927168
 30
0.0
 11
19.0109541882
 21
28.9104491248
 31
0.0
  0
LINE
  5
CB
330
4B
100
AcDbEntity
  8
BLOCKS
 62
    16
100
AcDbLine
 10
19.0008722151
 20
28.9592927168
 30
0.0
 11
18.9778485343
 21
28.9362690361
 31
0.0
  0
LINE
  5
CC
330
4B
100
AcDbEntity
  8
BLOCKS
 62
    16
100
AcDbLine
 10
19.0892605627
 20
28.9592927168
 30
0.0
 11
19.0337052462
 21
28.9037374003
 31
0.0
  0
INSERT
  5
E4
330
4B
100
AcDbEntity
  8
BLOCKS
100
AcDbBlockReference
  2
SW_BLOCK_DIMENSION_0
 10
19.9711023413
 20
29.6493704876
 30
0.0
  0
ENDBLK
  5
4D
330
4B
100
AcDbEntity
  8
0
100
AcDbBlockEnd
  0
BLOCK
  5
CE
330
CD
100
AcDbEntity
  8
0
100
AcDbBlockBegin
  2
SW_BLOCK_DIMENSION_0
 70
     0
 10
0.0
 20
0.0
 30
0.0
  3
SW_BLOCK_DIMENSION_0
  1

  0
SOLID
  5
D0
330
CD
100
AcDbEntity
  8
BLOCKS
 62
     0
100
AcDbTrace
 10
0.4229487308
 20
-0.0313006311
 30
0.0
 11
0.5240636396
 21
-0.0468567709
 31
0.0
 12
0.5240636396
 22
-0.0157444913
 32
0.0
 13
0.5240636396
 23
-0.0157444913
 33
0.0
  0
SOLID
  5
D1
330
CD
100
AcDbEntity
  8
BLOCKS
 62
     0
100
AcDbTrace
 10
-0.0770512692
 20
-0.0313006311
 30
0.0
 11
-0.1781661781
 21
-0.0157444913
 31
0.0
 12
-0.1781661781
 22
-0.0468567709
 32
0.0
 13
-0.1781661781
 23
-0.0468567709
 33
0.0
  0
LINE
  5
D2
330
CD
100
AcDbEntity
  8
BLOCKS
 62
     0
100
AcDbLine
 10
0.1071566371
 20
0.0798201425
 30
0.0
 11
0.2138310215
 21
0.0798201425
 31
0.0
  0
LINE
  5
D3
330
CD
100
AcDbEntity
  8
BLOCKS
 62
     0
100
AcDbLine
 10
0.079089508
 20
-0.0940224566
 30
0.0
 11
0.0559413594
 21
-0.0940224566
 31
0.0
  0
LINE
  5
D4
330
CD
100
AcDbEntity
  8
BLOCKS
 62
     0
100
AcDbLine
 10
0.0559413594
 20
-0.0940224566
 30
0.0
 11
0.0559413594
 21
-0.249307956
 31
0.0
  0
LINE
  5
D5
330
CD
100
AcDbEntity
  8
BLOCKS
 62
     0
100
AcDbLine
 10
0.0559413594
 20
-0.249307956
 30
0.0
 11
0.079089508
 21
-0.249307956
 31
0.0
  0
LINE
  5
D6
330
CD
100
AcDbEntity
  8
BLOCKS
 62
     0
100
AcDbLine
 10
0.2912808701
 20
-0.0940224566
 30
0.0
 11
0.3144290187
 21
-0.0940224566
 31
0.0
  0
LINE
  5
D7
330
CD
100
AcDbEntity
  8
BLOCKS
 62
     0
100
AcDbLine
 10
0.3144290187
 20
-0.0940224566
 30
0.0
 11
0.3144290187
 21
-0.249307956
 31
0.0
  0
LINE
  5
D8
330
CD
100
AcDbEntity
  8
BLOCKS
 62
     0
100
AcDbLine
 10
0.3144290187
 20
-0.249307956
 30
0.0
 11
0.2912808701
 21
-0.249307956
 31
0.0
  0
LINE
  5
D9
330
CD
100
AcDbEntity
  8
BLOCKS
 62
     0
100
AcDbLine
 10
0.4229487308
 20
-0.711486603
 30
0.0
 11
0.4229487308
 21
0.0936993689
 31
0.0
  0
LINE
  5
DA
330
CD
100
AcDbEntity
  8
BLOCKS
 62
     0
100
AcDbLine
 10
-0.0770512692
 20
-0.1267236731
 30
0.0
 11
-0.0770512692
 21
0.0936993689
 31
0.0
  0
LINE
  5
DB
330
CD
100
AcDbEntity
  8
BLOCKS
 62
     0
100
AcDbLine
 10
0.4229487308
 20
-0.0313006311
 30
0.0
 11
0.6174004786
 21
-0.0313006311
 31
0.0
  0
LINE
  5
DC
330
CD
100
AcDbEntity
  8
BLOCKS
 62
     0
100
AcDbLine
 10
-0.0770512692
 20
-0.0313006311
 30
0.0
 11
-0.271503017
 21
-0.0313006311
 31
0.0
  0
MTEXT
  5
DE
330
CD
100
AcDbEntity
  8
BLOCKS
 62
     0
100
AcDbMText
 10
0.0
 20
0.1342778896
 30
0.0039370079
 40
0.1041666667
 41
0.0
 71
     1
 72
     1
  1
 
  7
SLDTEXTSTYLE0
  0
MTEXT
  5
DF
330
CD
100
AcDbEntity
  8
BLOCKS
 62
     0
100
AcDbMText
 10
0.1219135808
 20
0.2052438631
 30
0.0039370079
 40
0.1041666667
 41
0.0
 71
     1
 72
     1
  1
1
  7
SLDTEXTSTYLE0
  0
MTEXT
  5
E0
330
CD
100
AcDbEntity
  8
BLOCKS
 62
     0
100
AcDbMText
 10
0.1219135808
 20
0.0634035871
 30
0.0039370079
 40
0.1041666667
 41
0.0
 71
     1
 72
     1
  1
2
  7
SLDTEXTSTYLE0
  0
MTEXT
  5
E1
330
CD
100
AcDbEntity
  8
BLOCKS
 62
     0
100
AcDbMText
 10
0.2285879652
 20
0.1342778896
 30
0.0039370079
 40
0.1041666667
 41
0.0
 71
     1
 72
     1
  1
"
  7
SLDTEXTSTYLE0
  0
MTEXT
  5
E2
330
CD
100
AcDbEntity
  8
BLOCKS
 62
     0
100
AcDbMText
 10
0.1080246921
 20
-0.1150300596
 30
0.0039370079
 40
0.1041666667
 41
0.0
 71
     1
 72
     1
  1
13
  7
SLDTEXTSTYLE0
  0
MTEXT
  5
E3
330
CD
100
AcDbEntity
  8
BLOCKS
 62
     0
100
AcDbMText
 10
0.3317901205
 20
0.1342778896
 30
0.0039370079
 40
0.1041666667
 41
0.0
 71
     1
 72
     1
  1
 
  7
SLDTEXTSTYLE0
  0
ENDBLK
  5
CF
330
CD
100
AcDbEntity
  8
0
100
AcDbBlockEnd
  0
BLOCK
  5
E6
330
E5
100
AcDbEntity
  8
0
100
AcDbBlockBegin
  2
OVERHANG_-__125
 70
     0
 10
0.0
 20
0.0
 30
0.0
  3
OVERHANG_-__125
  1

  0
ARC
  5
E8
330
E5
100
AcDbEntity
  8
0
  6
CONTINUOUS
 62
    16
100
AcDbCircle
 10
21.0247390722
 20
26.9140495115
 30
0.0
 40
0.0659795528056719
100
AcDbArc
 50
0.0
 51
90.0
  0
ARC
  5
E9
330
E5
100
AcDbEntity
  8
0
  6
CONTINUOUS
 62
    16
100
AcDbCircle
 10
20.0403577083
 20
26.4212514943
 30
0.0
 40
0.0881257319589152
100
AcDbArc
 50
200.9822712638
 51
339.0177287362
  0
ARC
  5
EA
330
E5
100
AcDbEntity
  8
0
  6
CONTINUOUS
 62
    16
100
AcDbCircle
 10
20.731618625
 20
26.3139893982
 30
0.0
 40
0.1880000000000024
100
AcDbArc
 50
0.0
 51
90.0
  0
ARC
  5
EB
330
E5
100
AcDbEntity
  8
0
  6
CONTINUOUS
 62
    16
100
AcDbCircle
 10
20.731618625
 20
26.3139893982
 30
0.0
 40
0.2341000000000015
100
AcDbArc
 50
0.0
 51
90.0
  0
ARC
  5
EC
330
E5
100
AcDbEntity
  8
BLOCKS
100
AcDbCircle
 10
21.3249668066
 20
26.3001927866
 30
0.0
 40
0.3686452378780193
100
AcDbArc
 50
129.4518716023
 51
170.6861521435
  0
LINE
  5
ED
330
E5
100
AcDbEntity
  8
0
  6
CONTINUOUS
 62
    16
100
AcDbLine
 10
19.4314231162
 20
26.5192257655
 30
0.0
 11
19.3788703567
 21
26.5738454846
 31
0.0
  0
LINE
  5
EE
330
E5
100
AcDbEntity
  8
0
  6
CONTINUOUS
 62
    16
100
AcDbLine
 10
20.0408120814
 20
26.8351846327
 30
0.0
 11
20.0797389734
 21
26.7799952517
 31
0.0
  0
LINE
  5
EF
330
E5
100
AcDbEntity
  8
0
  6
CONTINUOUS
 62
    16
100
AcDbLine
 10
19.3788703567
 20
26.5738454846
 30
0.0
 11
19.3364639969
 21
26.5330438976
 31
0.0
  0
LINE
  5
F0
330
E5
100
AcDbEntity
  8
0
  6
CONTINUOUS
 62
    16
100
AcDbLine
 10
20.6725806187
 20
26.4527516548
 30
0.0
 11
20.7252404088
 21
26.5034186543
 31
0.0
  0
LINE
  5
F1
330
E5
100
AcDbEntity
  8
0
  6
CONTINUOUS
 62
    16
100
AcDbLine
 10
20.0797389734
 20
26.7799952517
 30
0.0
 11
20.0797389734
 21
26.3896955151
 31
0.0
  0
LINE
  5
F2
330
E5
100
AcDbEntity
  8
0
  6
CONTINUOUS
 62
    16
100
AcDbLine
 10
19.9814774532
 20
26.8652076206
 30
0.0
 11
19.9814774532
 21
26.5848453834
 31
0.0
  0
LINE
  5
F3
330
E5
100
AcDbEntity
  8
0
  6
CONTINUOUS
 62
    16
100
AcDbLine
 10
20.7678769055
 20
26.4591052159
 30
0.0
 11
20.6989695496
 21
26.392805503
 31
0.0
  0
LINE
  5
F4
330
E5
100
AcDbEntity
  8
0
  6
CONTINUOUS
 62
    16
100
AcDbLine
 10
21.0247390722
 20
26.9800290643
 30
0.0
 11
19.2446660374
 21
26.9800290643
 31
0.0
  0
LINE
  5
F5
330
E5
100
AcDbEntity
  8
0
  6
CONTINUOUS
 62
    16
100
AcDbLine
 10
19.9670675999
 20
26.4905376331
 30
0.0
 11
19.9670675999
 21
26.4354028898
 31
0.0
  0
LINE
  5
F6
330
E5
100
AcDbEntity
  8
0
  6
CONTINUOUS
 62
    16
100
AcDbLine
 10
20.1524880148
 20
26.4213577706
 30
0.0
 11
20.1506182011
 21
26.3892309097
 31
0.0
  0
LINE
  5
F7
330
E5
100
AcDbEntity
  8
0
  6
CONTINUOUS
 62
    16
100
AcDbLine
 10
19.3364639969
 20
26.5330438976
 30
0.0
 11
19.3985753063
 21
26.4684896798
 31
0.0
  0
LINE
  5
F8
330
E5
100
AcDbEntity
  8
0
  6
CONTINUOUS
 62
    16
100
AcDbLine
 10
20.2906117643
 20
26.5019893982
 30
0.0
 11
20.2906117643
 21
26.5480893982
 31
0.0
  0
LINE
  5
F9
330
E5
100
AcDbEntity
  8
0
  6
CONTINUOUS
 62
    16
100
AcDbLine
 10
19.4314231162
 20
26.5192257655
 30
0.0
 11
20.6725806187
 21
26.4527516548
 31
0.0
  0
LINE
  5
FA
330
E5
100
AcDbEntity
  8
0
  6
CONTINUOUS
 62
    16
100
AcDbLine
 10
19.9400720233
 20
26.4337205825
 30
0.0
 11
20.1524880148
 21
26.4213577706
 31
0.0
  0
LINE
  5
FB
330
E5
100
AcDbEntity
  8
0
  6
CONTINUOUS
 62
    16
100
AcDbLine
 10
21.090718625
 20
26.5848453834
 30
0.0
 11
21.090718625
 21
26.9140495115
 31
0.0
  0
LINE
  5
FC
330
E5
100
AcDbEntity
  8
0
  6
CONTINUOUS
 62
    16
100
AcDbLine
 10
20.731618625
 20
26.5019893982
 30
0.0
 11
20.2906117643
 21
26.5019893982
 31
0.0
  0
LINE
  5
FD
330
E5
100
AcDbEntity
  8
0
  6
CONTINUOUS
 62
    16
100
AcDbLine
 10
20.919618625
 20
25.9230893982
 30
0.0
 11
20.919618625
 21
26.3139893982
 31
0.0
  0
LINE
  5
FE
330
E5
100
AcDbEntity
  8
0
  6
CONTINUOUS
 62
    16
100
AcDbLine
 10
19.9580754817
 20
26.3896955151
 30
0.0
 11
20.1226399348
 21
26.3896955151
 31
0.0
  0
LINE
  5
FF
330
E5
100
AcDbEntity
  8
0
  6
CONTINUOUS
 62
    16
100
AcDbLine
 10
20.1506182011
 20
26.3892309097
 30
0.0
 11
19.9382022095
 21
26.4015937216
 31
0.0
  0
LINE
  5
100
330
E5
100
AcDbEntity
  8
0
  6
CONTINUOUS
 62
    16
100
AcDbLine
 10
20.965718625
 20
25.9230893982
 30
0.0
 11
20.919618625
 21
25.9230893982
 31
0.0
  0
LINE
  5
101
330
E5
100
AcDbEntity
  8
0
  6
CONTINUOUS
 62
    16
100
AcDbLine
 10
20.965718625
 20
26.3139893982
 30
0.0
 11
20.965718625
 21
25.9230893982
 31
0.0
  0
LINE
  5
102
330
E5
100
AcDbEntity
  8
0
  6
CONTINUOUS
 62
    16
100
AcDbLine
 10
20.6989695496
 20
26.392805503
 30
0.0
 11
19.3985753063
 21
26.4684896798
 31
0.0
  0
LINE
  5
103
330
E5
100
AcDbEntity
  8
0
  6
CONTINUOUS
 62
    16
100
AcDbLine
 10
19.2743496911
 20
26.5848453834
 30
0.0
 11
21.090718625
 21
26.5848453834
 31
0.0
  0
LINE
  5
104
330
E5
100
AcDbEntity
  8
0
  6
CONTINUOUS
 62
    16
100
AcDbLine
 10
20.0028471016
 20
26.7799952517
 30
0.0
 11
20.0408120814
 21
26.8351846327
 31
0.0
  0
LINE
  5
105
330
E5
100
AcDbEntity
  8
0
  6
CONTINUOUS
 62
    16
100
AcDbLine
 10
20.2906117643
 20
26.5480893982
 30
0.0
 11
20.731618625
 21
26.5480893982
 31
0.0
  0
LINE
  5
106
330
E5
100
AcDbEntity
  8
0
  6
CONTINUOUS
 62
    16
100
AcDbLine
 10
20.0028471016
 20
26.7799952517
 30
0.0
 11
20.0028471016
 21
26.3896955151
 31
0.0
  0
LINE
  5
107
330
E5
100
AcDbEntity
  8
0
  6
CONTINUOUS
 62
    16
100
AcDbLine
 10
20.1080144451
 20
26.8652076206
 30
0.0
 11
19.9814774532
 21
26.8652076206
 31
0.0
  0
LINE
  5
108
330
E5
100
AcDbEntity
  8
0
  6
CONTINUOUS
 62
    16
100
AcDbLine
 10
20.7252404088
 20
26.5034186543
 30
0.0
 11
20.7678769055
 21
26.4591052159
 31
0.0
  0
LINE
  5
109
330
E5
100
AcDbEntity
  8
0
  6
CONTINUOUS
 62
    16
100
AcDbLine
 10
19.9400720233
 20
26.4337205825
 30
0.0
 11
19.9382022095
 21
26.4015937216
 31
0.0
  0
LINE
  5
10A
330
E5
100
AcDbEntity
  8
0
  6
CONTINUOUS
 62
    16
100
AcDbLine
 10
20.1080144451
 20
26.5848453834
 30
0.0
 11
20.1080144451
 21
26.8652076206
 31
0.0
  0
LINE
  5
10B
330
E5
100
AcDbEntity
  8
0
  6
CONTINUOUS
 62
    16
100
AcDbLine
 10
20.1216872784
 20
26.4822564878
 30
0.0
 11
20.1216872784
 21
26.426403878
 31
0.0
  0
LINE
  5
10C
330
E5
100
AcDbEntity
  8
BLOCKS
100
AcDbLine
 10
20.2906117643
 20
26.5480893982
 30
0.0
 11
20.2368944426
 21
26.5848453834
 31
0.0
  0
SPLINE
  5
10D
330
E5
100
AcDbEntity
  8
0
  6
CONTINUOUS
 62
    16
100
AcDbSpline
210
0.0
220
0.0
230
1.0
 70
     8
 71
     3
 72
     9
 73
     5
 74
     0
 42
0.00000001
 43
0.00000001
 12
1.0
 22
0.0
 32
0.0
 13
1.0
 23
0.0
 33
0.0
 40
0.0
 40
0.0
 40
0.0
 40
0.0
 40
0.5928291688347104
 40
1.0
 40
1.0
 40
1.0
 40
1.0
 10
19.27434969107827
 20
26.58484538338648
 30
0.0
 10
19.22977403886498
 20
26.67067982455945
 30
0.0
 10
19.3092570011885
 20
26.78990333849607
 30
0.0
 10
19.29114417973896
 20
26.9441515837284
 30
0.0
 10
19.24466603742839
 20
26.98002906431008
 30
0.0
  0
LINE
  5
10E
330
E5
100
AcDbEntity
  8
BLOCKS
 62
    16
100
AcDbLine
 10
19.2797083308
 20
26.9694945762
 30
0.0
 11
19.2902428189
 21
26.9800290643
 31
0.0
  0
LINE
  5
10F
330
E5
100
AcDbEntity
  8
BLOCKS
 62
    16
100
AcDbLine
 10
19.2911656048
 20
26.8925635026
 30
0.0
 11
19.357048135
 21
26.9584460327
 31
0.0
  0
LINE
  5
110
330
E5
100
AcDbEntity
  8
BLOCKS
 62
    16
100
AcDbLine
 10
19.3680966784
 20
26.8811062285
 30
0.0
 11
19.4670195142
 21
26.9800290643
 31
0.0
  0
LINE
  5
111
330
E5
100
AcDbEntity
  8
BLOCKS
 62
    16
100
AcDbLine
 10
19.2844193657
 20
26.7974289158
 30
0.0
 11
19.3239025046
 21
26.8369120547
 31
0.0
  0
LINE
  5
112
330
E5
100
AcDbEntity
  8
BLOCKS
 62
    16
100
AcDbLine
 10
19.4896306565
 20
26.9142518589
 30
0.0
 11
19.5554078619
 21
26.9800290643
 31
0.0
  0
LINE
  5
113
330
E5
100
AcDbEntity
  8
BLOCKS
 62
    16
100
AcDbLine
 10
19.3349510481
 20
26.7595722505
 30
0.0
 11
19.4454364826
 21
26.8700576851
 31
0.0
  0
LINE
  5
114
330
E5
100
AcDbEntity
  8
BLOCKS
 62
    16
100
AcDbLine
 10
19.2567000322
 20
26.6813212347
 30
0.0
 11
19.2907568742
 21
26.7153780767
 31
0.0
  0
LINE
  5
115
330
E5
100
AcDbEntity
  8
BLOCKS
 62
    16
100
AcDbLine
 10
19.6111646345
 20
26.9473974893
 30
0.0
 11
19.6437962095
 21
26.9800290643
 31
0.0
  0
LINE
  5
116
330
E5
100
AcDbEntity
  8
BLOCKS
 62
    16
100
AcDbLine
 10
19.4564850261
 20
26.7927178809
 30
0.0
 11
19.5669704606
 21
26.9032033155
 31
0.0
  0
LINE
  5
117
330
E5
100
AcDbEntity
  8
BLOCKS
 62
    16
100
AcDbLine
 10
19.3018054177
 20
26.6380382725
 30
0.0
 11
19.4122908523
 21
26.7485237071
 31
0.0
  0
LINE
  5
118
330
E5
100
AcDbEntity
  8
BLOCKS
 62
    16
100
AcDbLine
 10
19.5780190041
 20
26.8258635113
 30
0.0
 11
19.6885044387
 21
26.9363489458
 31
0.0
  0
LINE
  5
119
330
E5
100
AcDbEntity
  8
BLOCKS
 62
    16
100
AcDbLine
 10
19.4233393957
 20
26.6711839029
 30
0.0
 11
19.5338248303
 21
26.7816693374
 31
0.0
  0
LINE
  5
11A
330
E5
100
AcDbEntity
  8
BLOCKS
 62
    16
100
AcDbLine
 10
19.3370008762
 20
26.5848453834
 30
0.0
 11
19.3791452219
 21
26.6269897291
 31
0.0
  0
LINE
  5
11B
330
E5
100
AcDbEntity
  8
BLOCKS
 62
    16
100
AcDbLine
 10
19.6995529821
 20
26.8590091416
 30
0.0
 11
19.8100384167
 21
26.9694945762
 31
0.0
  0
LINE
  5
11C
330
E5
100
AcDbEntity
  8
BLOCKS
 62
    16
100
AcDbLine
 10
19.5448733737
 20
26.7043295332
 30
0.0
 11
19.6553588083
 21
26.8148149678
 31
0.0
  0
LINE
  5
11D
330
E5
100
AcDbEntity
  8
BLOCKS
 62
    16
100
AcDbLine
 10
19.4253892239
 20
26.5848453834
 30
0.0
 11
19.5006791999
 21
26.6601353594
 31
0.0
  0
LINE
  5
11E
330
E5
100
AcDbEntity
  8
BLOCKS
 62
    16
100
AcDbLine
 10
19.8210869601
 20
26.892154772
 30
0.0
 11
19.9089612524
 21
26.9800290643
 31
0.0
  0
LINE
  5
11F
330
E5
100
AcDbEntity
  8
BLOCKS
 62
    16
100
AcDbLine
 10
19.6664073518
 20
26.7374751636
 30
0.0
 11
19.7768927863
 21
26.8479605982
 31
0.0
  0
LINE
  5
120
330
E5
100
AcDbEntity
  8
BLOCKS
 62
    16
100
AcDbLine
 10
19.5137775715
 20
26.5848453834
 30
0.0
 11
19.6222131779
 21
26.6932809898
 31
0.0
  0
LINE
  5
121
330
E5
100
AcDbEntity
  8
BLOCKS
 62
    16
100
AcDbLine
 10
19.9426209382
 20
26.9253004024
 30
0.0
 11
19.9973496001
 21
26.9800290643
 31
0.0
  0
LINE
  5
122
330
E5
100
AcDbEntity
  8
BLOCKS
 62
    16
100
AcDbLine
 10
19.7879413298
 20
26.770620794
 30
0.0
 11
19.8984267643
 21
26.8811062285
 31
0.0
  0
LINE
  5
123
330
E5
100
AcDbEntity
  8
BLOCKS
 62
    16
100
AcDbLine
 10
19.6332617214
 20
26.6159411856
 30
0.0
 11
19.7437471559
 21
26.7264266202
 31
0.0
  0
LINE
  5
124
330
E5
100
AcDbEntity
  8
BLOCKS
 62
    16
100
AcDbLine
 10
20.0641549162
 20
26.9584460327
 30
0.0
 11
20.0857379477
 21
26.9800290643
 31
0.0
  0
LINE
  5
125
330
E5
100
AcDbEntity
  8
BLOCKS
 62
    16
100
AcDbLine
 10
19.9094753078
 20
26.8037664244
 30
0.0
 11
20.0199607423
 21
26.9142518589
 31
0.0
  0
LINE
  5
126
330
E5
100
AcDbEntity
  8
BLOCKS
 62
    16
100
AcDbLine
 10
19.7547956994
 20
26.649086816
 30
0.0
 11
19.865281134
 21
26.7595722505
 31
0.0
  0
LINE
  5
127
330
E5
100
AcDbEntity
  8
BLOCKS
 62
    16
100
AcDbLine
 10
19.6905542668
 20
26.5848453834
 30
0.0
 11
19.7106015256
 21
26.6048926421
 31
0.0
  0
LINE
  5
128
330
E5
100
AcDbEntity
  8
BLOCKS
 62
    16
100
AcDbLine
 10
19.8763296774
 20
26.6822324463
 30
0.0
 11
19.9814774532
 21
26.7873802221
 31
0.0
  0
LINE
  5
129
330
E5
100
AcDbEntity
  8
BLOCKS
 62
    16
100
AcDbLine
 10
19.7789426145
 20
26.5848453834
 30
0.0
 11
19.8321355036
 21
26.6380382725
 31
0.0
  0
LINE
  5
12A
330
E5
100
AcDbEntity
  8
BLOCKS
 62
    16
100
AcDbLine
 10
20.0593048517
 20
26.8652076206
 30
0.0
 11
20.1414947204
 21
26.9473974893
 31
0.0
  0
LINE
  5
12B
330
E5
100
AcDbEntity
  8
BLOCKS
 62
    16
100
AcDbLine
 10
19.8673309621
 20
26.5848453834
 30
0.0
 11
19.9536694816
 21
26.6711839029
 31
0.0
  0
LINE
  5
12C
330
E5
100
AcDbEntity
  8
BLOCKS
 62
    16
100
AcDbLine
 10
20.1525432638
 20
26.8700576851
 30
0.0
 11
20.262514643
 21
26.9800290643
 31
0.0
  0
LINE
  5
12D
330
E5
100
AcDbEntity
  8
BLOCKS
 62
    16
100
AcDbLine
 10
20.1080144451
 20
26.8255288664
 30
0.0
 11
20.10834909
 21
26.8258635113
 31
0.0
  0
LINE
  5
12E
330
E5
100
AcDbEntity
  8
BLOCKS
 62
    16
100
AcDbLine
 10
19.9647180251
 20
26.5938440987
 30
0.0
 11
19.9814774532
 21
26.6106035268
 31
0.0
  0
LINE
  5
12F
330
E5
100
AcDbEntity
  8
BLOCKS
 62
    16
100
AcDbLine
 10
20.2740772418
 20
26.9032033155
 30
0.0
 11
20.3509029907
 21
26.9800290643
 31
0.0
  0
LINE
  5
130
330
E5
100
AcDbEntity
  8
BLOCKS
 62
    16
100
AcDbLine
 10
20.1193976334
 20
26.7485237071
 30
0.0
 11
20.229883068
 21
26.8590091416
 31
0.0
  0
LINE
  5
131
330
E5
100
AcDbEntity
  8
BLOCKS
 62
    16
100
AcDbLine
 10
20.3956112198
 20
26.9363489458
 30
0.0
 11
20.4392913383
 21
26.9800290643
 31
0.0
  0
LINE
  5
132
330
E5
100
AcDbEntity
  8
BLOCKS
 62
    16
100
AcDbLine
 10
20.2409316115
 20
26.7816693374
 30
0.0
 11
20.351417046
 21
26.892154772
 31
0.0
  0
LINE
  5
133
330
E5
100
AcDbEntity
  8
BLOCKS
 62
    16
100
AcDbLine
 10
20.1080144451
 20
26.6487521711
 30
0.0
 11
20.1967374376
 21
26.7374751636
 31
0.0
  0
LINE
  5
134
330
E5
100
AcDbEntity
  8
BLOCKS
 62
    16
100
AcDbLine
 10
20.5171451979
 20
26.9694945762
 30
0.0
 11
20.527679686
 21
26.9800290643
 31
0.0
  0
LINE
  5
135
330
E5
100
AcDbEntity
  8
BLOCKS
 62
    16
100
AcDbLine
 10
20.3624655895
 20
26.8148149678
 30
0.0
 11
20.472951024
 21
26.9253004024
 31
0.0
  0
LINE
  5
136
330
E5
100
AcDbEntity
  8
BLOCKS
 62
    16
100
AcDbLine
 10
20.2077859811
 20
26.6601353594
 30
0.0
 11
20.3182714157
 21
26.770620794
 31
0.0
  0
LINE
  5
137
330
E5
100
AcDbEntity
  8
BLOCKS
 62
    16
100
AcDbLine
 10
20.1324960051
 20
26.5848453834
 30
0.0
 11
20.1635918073
 21
26.6159411856
 31
0.0
  0
LINE
  5
138
330
E5
100
AcDbEntity
  8
BLOCKS
 62
    16
100
AcDbLine
 10
20.4839995675
 20
26.8479605982
 30
0.0
 11
20.5944850021
 21
26.9584460327
 31
0.0
  0
LINE
  5
139
330
E5
100
AcDbEntity
  8
BLOCKS
 62
    16
100
AcDbLine
 10
20.3293199591
 20
26.6932809898
 30
0.0
 11
20.4398053937
 21
26.8037664244
 31
0.0
  0
LINE
  5
13A
330
E5
100
AcDbEntity
  8
BLOCKS
 62
    16
100
AcDbLine
 10
20.2208843527
 20
26.5848453834
 30
0.0
 11
20.2851257853
 21
26.649086816
 31
0.0
  0
LINE
  5
13B
330
E5
100
AcDbEntity
  8
BLOCKS
 62
    16
100
AcDbLine
 10
20.6055335455
 20
26.8811062285
 30
0.0
 11
20.7044563813
 21
26.9800290643
 31
0.0
  0
LINE
  5
13C
330
E5
100
AcDbEntity
  8
BLOCKS
 62
    16
100
AcDbLine
 10
20.4508539371
 20
26.7264266202
 30
0.0
 11
20.5613393717
 21
26.8369120547
 31
0.0
  0
LINE
  5
13D
330
E5
100
AcDbEntity
  8
BLOCKS
 62
    16
100
AcDbLine
 10
20.3092727004
 20
26.5848453834
 30
0.0
 11
20.4066597633
 21
26.6822324463
 31
0.0
  0
LINE
  5
13E
330
E5
100
AcDbEntity
  8
BLOCKS
 62
    16
100
AcDbLine
 10
20.7270675235
 20
26.9142518589
 30
0.0
 11
20.7928447289
 21
26.9800290643
 31
0.0
  0
LINE
  5
13F
330
E5
100
AcDbEntity
  8
BLOCKS
 62
    16
100
AcDbLine
 10
20.5723879151
 20
26.7595722505
 30
0.0
 11
20.6828733497
 21
26.8700576851
 31
0.0
  0
LINE
  5
140
330
E5
100
AcDbEntity
  8
BLOCKS
 62
    16
100
AcDbLine
 10
20.4177083068
 20
26.6048926421
 30
0.0
 11
20.5281937413
 21
26.7153780767
 31
0.0
  0
LINE
  5
141
330
E5
100
AcDbEntity
  8
BLOCKS
 62
    16
100
AcDbLine
 10
20.8486015015
 20
26.9473974893
 30
0.0
 11
20.8812330766
 21
26.9800290643
 31
0.0
  0
LINE
  5
142
330
E5
100
AcDbEntity
  8
BLOCKS
 62
    16
100
AcDbLine
 10
20.6939218932
 20
26.7927178809
 30
0.0
 11
20.8044073277
 21
26.9032033155
 31
0.0
  0
LINE
  5
143
330
E5
100
AcDbEntity
  8
BLOCKS
 62
    16
100
AcDbLine
 10
20.5392422848
 20
26.6380382725
 30
0.0
 11
20.6497277193
 21
26.7485237071
 31
0.0
  0
LINE
  5
144
330
E5
100
AcDbEntity
  8
BLOCKS
 62
    16
100
AcDbLine
 10
20.4860493957
 20
26.5848453834
 30
0.0
 11
20.495048111
 21
26.5938440987
 31
0.0
  0
LINE
  5
145
330
E5
100
AcDbEntity
  8
BLOCKS
 62
    16
100
AcDbLine
 10
20.8154558712
 20
26.8258635113
 30
0.0
 11
20.9259413057
 21
26.9363489458
 31
0.0
  0
LINE
  5
146
330
E5
100
AcDbEntity
  8
BLOCKS
 62
    16
100
AcDbLine
 10
20.6607762628
 20
26.6711839029
 30
0.0
 11
20.7712616974
 21
26.7816693374
 31
0.0
  0
LINE
  5
147
330
E5
100
AcDbEntity
  8
BLOCKS
 62
    16
100
AcDbLine
 10
20.5744377433
 20
26.5848453834
 30
0.0
 11
20.616582089
 21
26.6269897291
 31
0.0
  0
LINE
  5
148
330
E5
100
AcDbEntity
  8
BLOCKS
 62
    16
100
AcDbLine
 10
20.9369898492
 20
26.8590091416
 30
0.0
 11
21.0474752838
 21
26.9694945762
 31
0.0
  0
LINE
  5
149
330
E5
100
AcDbEntity
  8
BLOCKS
 62
    16
100
AcDbLine
 10
20.7823102408
 20
26.7043295332
 30
0.0
 11
20.8927956754
 21
26.8148149678
 31
0.0
  0
LINE
  5
14A
330
E5
100
AcDbEntity
  8
BLOCKS
 62
    16
100
AcDbLine
 10
20.6628260909
 20
26.5848453834
 30
0.0
 11
20.738116067
 21
26.6601353594
 31
0.0
  0
LINE
  5
14B
330
E5
100
AcDbEntity
  8
BLOCKS
 62
    16
100
AcDbLine
 10
21.0585238272
 20
26.892154772
 30
0.0
 11
21.090016757
 21
26.9236477017
 31
0.0
  0
LINE
  5
14C
330
E5
100
AcDbEntity
  8
BLOCKS
 62
    16
100
AcDbLine
 10
20.9038442188
 20
26.7374751636
 30
0.0
 11
21.0143296534
 21
26.8479605982
 31
0.0
  0
LINE
  5
14D
330
E5
100
AcDbEntity
  8
BLOCKS
 62
    16
100
AcDbLine
 10
20.7512144386
 20
26.5848453834
 30
0.0
 11
20.859650045
 21
26.6932809898
 31
0.0
  0
LINE
  5
14E
330
E5
100
AcDbEntity
  8
BLOCKS
 62
    16
100
AcDbLine
 10
21.0253781968
 20
26.770620794
 30
0.0
 11
21.090718625
 21
26.8359612221
 31
0.0
  0
LINE
  5
14F
330
E5
100
AcDbEntity
  8
BLOCKS
 62
    16
100
AcDbLine
 10
20.8706985885
 20
26.6159411856
 30
0.0
 11
20.981184023
 21
26.7264266202
 31
0.0
  0
LINE
  5
150
330
E5
100
AcDbEntity
  8
BLOCKS
 62
    16
100
AcDbLine
 10
20.9922325665
 20
26.649086816
 30
0.0
 11
21.090718625
 21
26.7475728745
 31
0.0
  0
LINE
  5
151
330
E5
100
AcDbEntity
  8
BLOCKS
 62
    16
100
AcDbLine
 10
20.9279911339
 20
26.5848453834
 30
0.0
 11
20.9480383927
 21
26.6048926421
 31
0.0
  0
LINE
  5
152
330
E5
100
AcDbEntity
  8
BLOCKS
 62
    16
100
AcDbLine
 10
21.0163794815
 20
26.5848453834
 30
0.0
 11
21.0695723707
 21
26.6380382725
 31
0.0
  0
LINE
  5
153
330
E5
100
AcDbEntity
  8
BLOCKS
 62
    16
100
AcDbLine
 10
20.0087523184
 20
26.5848453834
 30
0.0
 11
20.0028471016
 21
26.5789401666
 31
0.0
  0
LINE
  5
154
330
E5
100
AcDbEntity
  8
BLOCKS
 62
    16
100
AcDbLine
 10
20.0797389734
 20
26.5497660213
 30
0.0
 11
20.0177937842
 21
26.4878208321
 31
0.0
  0
LINE
  5
155
330
E5
100
AcDbEntity
  8
BLOCKS
 62
    16
100
AcDbLine
 10
20.0441076574
 20
26.5848453834
 30
0.0
 11
20.0028471016
 21
26.5435848276
 31
0.0
  0
LINE
  5
156
330
E5
100
AcDbEntity
  8
BLOCKS
 62
    16
100
AcDbLine
 10
20.0797389734
 20
26.5144106823
 30
0.0
 11
20.0513518168
 21
26.4860235256
 31
0.0
  0
LINE
  5
157
330
E5
100
AcDbEntity
  8
BLOCKS
 62
    16
100
AcDbLine
 10
20.0433546937
 20
26.8315797931
 30
0.0
 11
20.0272622411
 21
26.8154873405
 31
0.0
  0
LINE
  5
158
330
E5
100
AcDbEntity
  8
BLOCKS
 62
    16
100
AcDbLine
 10
20.0797389734
 20
26.7618980556
 30
0.0
 11
20.0028471016
 21
26.6850061838
 31
0.0
  0
LINE
  5
159
330
E5
100
AcDbEntity
  8
BLOCKS
 62
    16
100
AcDbLine
 10
20.0797389734
 20
26.6558320384
 30
0.0
 11
20.0087523184
 21
26.5848453834
 31
0.0
  0
LINE
  5
15A
330
E5
100
AcDbEntity
  8
BLOCKS
 62
    16
100
AcDbLine
 10
20.0579778128
 20
26.8108475731
 30
0.0
 11
20.0028471016
 21
26.755716862
 31
0.0
  0
LINE
  5
15B
330
E5
100
AcDbEntity
  8
BLOCKS
 62
    16
100
AcDbLine
 10
20.0797389734
 20
26.7265427166
 30
0.0
 11
20.0028471016
 21
26.6496508448
 31
0.0
  0
LINE
  5
15C
330
E5
100
AcDbEntity
  8
BLOCKS
 62
    16
100
AcDbLine
 10
20.0797389734
 20
26.6204766994
 30
0.0
 11
20.0441076574
 21
26.5848453834
 31
0.0
  0
LINE
  5
15D
330
E5
100
AcDbEntity
  8
BLOCKS
 62
    16
100
AcDbLine
 10
20.0177937842
 20
26.4878208321
 30
0.0
 11
20.0028471016
 21
26.4728741495
 31
0.0
  0
LINE
  5
15E
330
E5
100
AcDbEntity
  8
BLOCKS
 62
    16
100
AcDbLine
 10
20.0797389734
 20
26.4437000041
 30
0.0
 11
20.0657012852
 21
26.4296623158
 31
0.0
  0
LINE
  5
15F
330
E5
100
AcDbEntity
  8
BLOCKS
 62
    16
100
AcDbLine
 10
20.0513518168
 20
26.4860235256
 30
0.0
 11
20.0028471016
 21
26.4375188105
 31
0.0
  0
LINE
  5
160
330
E5
100
AcDbEntity
  8
BLOCKS
 62
    16
100
AcDbLine
 10
19.9623943538
 20
26.4324214017
 30
0.0
 11
19.9386122699
 21
26.4086393177
 31
0.0
  0
LINE
  5
161
330
E5
100
AcDbEntity
  8
BLOCKS
 62
    16
100
AcDbLine
 10
19.9958051527
 20
26.4304768616
 30
0.0
 11
19.9653424264
 21
26.4000141353
 31
0.0
  0
LINE
  5
162
330
E5
100
AcDbEntity
  8
BLOCKS
 62
    16
100
AcDbLine
 10
20.0626267506
 20
26.4265877813
 30
0.0
 11
20.0321640243
 21
26.396125055
 31
0.0
  0
LINE
  5
163
330
E5
100
AcDbEntity
  8
BLOCKS
 62
    16
100
AcDbLine
 10
20.0797389734
 20
26.4083446651
 30
0.0
 11
20.0655748231
 21
26.3941805148
 31
0.0
  0
LINE
  5
164
330
E5
100
AcDbEntity
  8
BLOCKS
 62
    16
100
AcDbLine
 10
20.1518098018
 20
26.4097048153
 30
0.0
 11
20.132396421
 21
26.3902914345
 31
0.0
  0
LINE
  5
165
330
E5
100
AcDbEntity
  8
BLOCKS
 62
    16
100
AcDbLine
 10
20.0960375494
 20
26.4246432411
 30
0.0
 11
20.0797389734
 21
26.4083446651
 31
0.0
  0
LINE
  5
166
330
E5
100
AcDbEntity
  8
BLOCKS
 62
    16
100
AcDbLine
 10
20.0257344844
 20
26.3896955151
 30
0.0
 11
19.9870876076
 21
26.3510486382
 31
0.0
  0
LINE
  5
167
330
E5
100
AcDbEntity
  8
BLOCKS
 62
    16
100
AcDbLine
 10
20.1119018845
 20
26.369796898
 30
0.0
 11
20.0918123046
 21
26.3497073181
 31
0.0
  0
LINE
  5
168
330
E5
100
AcDbEntity
  8
BLOCKS
 62
    16
100
AcDbLine
 10
20.0610898234
 20
26.3896955151
 30
0.0
 11
20.0099370923
 21
26.338542784
 31
0.0
  0
INSERT
  5
17E
330
E5
100
AcDbEntity
  8
BLOCKS
100
AcDbBlockReference
  2
SW_BLOCK_DIMENSION_1
 10
20.5035588053
 20
26.145611376
 30
0.0
  0
ENDBLK
  5
E7
330
E5
100
AcDbEntity
  8
0
100
AcDbBlockEnd
  0
BLOCK
  5
16A
330
169
100
AcDbEntity
  8
0
100
AcDbBlockBegin
  2
SW_BLOCK_DIMENSION_1
 70
     0
 10
0.0
 20
0.0
 30
0.0
  3
SW_BLOCK_DIMENSION_1
  1

  0
SOLID
  5
16C
330
169
100
AcDbEntity
  8
BLOCKS
 62
     0
100
AcDbTrace
 10
0.4621598196
 20
-0.0313006311
 30
0.0
 11
0.3610449108
 21
-0.0157444913
 31
0.0
 12
0.3610449108
 22
-0.0468567709
 32
0.0
 13
0.3610449108
 23
-0.0468567709
 33
0.0
  0
SOLID
  5
16D
330
169
100
AcDbEntity
  8
BLOCKS
 62
     0
100
AcDbTrace
 10
0.5871598196
 20
-0.0313006311
 30
0.0
 11
0.6882747285
 21
-0.0468567709
 31
0.0
 12
0.6882747285
 22
-0.0157444913
 32
0.0
 13
0.6882747285
 23
-0.0157444913
 33
0.0
  0
LINE
  5
16E
330
169
100
AcDbEntity
  8
BLOCKS
 62
     0
100
AcDbLine
 10
0.0685763886
 20
0.0798201425
 30
0.0
 11
0.175250773
 21
0.0798201425
 31
0.0
  0
LINE
  5
16F
330
169
100
AcDbEntity
  8
BLOCKS
 62
     0
100
AcDbLine
 10
0.079089508
 20
-0.0940224566
 30
0.0
 11
0.0559413594
 21
-0.0940224566
 31
0.0
  0
LINE
  5
170
330
169
100
AcDbEntity
  8
BLOCKS
 62
     0
100
AcDbLine
 10
0.0559413594
 20
-0.0940224566
 30
0.0
 11
0.0559413594
 21
-0.249307956
 31
0.0
  0
LINE
  5
171
330
169
100
AcDbEntity
  8
BLOCKS
 62
     0
100
AcDbLine
 10
0.0559413594
 20
-0.249307956
 30
0.0
 11
0.079089508
 21
-0.249307956
 31
0.0
  0
LINE
  5
172
330
169
100
AcDbEntity
  8
BLOCKS
 62
     0
100
AcDbLine
 10
0.2141203731
 20
-0.0940224566
 30
0.0
 11
0.2372685218
 21
-0.0940224566
 31
0.0
  0
LINE
  5
173
330
169
100
AcDbEntity
  8
BLOCKS
 62
     0
100
AcDbLine
 10
0.2372685218
 20
-0.0940224566
 30
0.0
 11
0.2372685218
 21
-0.249307956
 31
0.0
  0
LINE
  5
174
330
169
100
AcDbEntity
  8
BLOCKS
 62
     0
100
AcDbLine
 10
0.2372685218
 20
-0.249307956
 30
0.0
 11
0.2141203731
 21
-0.249307956
 31
0.0
  0
LINE
  5
175
330
169
100
AcDbEntity
  8
BLOCKS
 62
     0
100
AcDbLine
 10
0.5871598196
 20
0.3892340074
 30
0.0
 11
0.5871598196
 21
-0.1563006311
 31
0.0
  0
LINE
  5
176
330
169
100
AcDbEntity
  8
BLOCKS
 62
     0
100
AcDbLine
 10
0.4621598196
 20
-0.0313006311
 30
0.0
 11
0.2937728896
 21
-0.0313006311
 31
0.0
  0
LINE
  5
177
330
169
100
AcDbEntity
  8
BLOCKS
 62
     0
100
AcDbLine
 10
0.5871598196
 20
-0.0313006311
 30
0.0
 11
0.7816115674
 21
-0.0313006311
 31
0.0
  0
MTEXT
  5
178
330
169
100
AcDbEntity
  8
BLOCKS
 62
     0
100
AcDbMText
 10
0.0
 20
0.1342778896
 30
0.0039370079
 40
0.1041666667
 41
0.0
 71
     1
 72
     1
  1
 
  7
SLDTEXTSTYLE0
  0
MTEXT
  5
179
330
169
100
AcDbEntity
  8
BLOCKS
 62
     0
100
AcDbMText
 10
0.0833333323
 20
0.2052438631
 30
0.0039370079
 40
0.1041666667
 41
0.0
 71
     1
 72
     1
  1
1
  7
SLDTEXTSTYLE0
  0
MTEXT
  5
17A
330
169
100
AcDbEntity
  8
BLOCKS
 62
     0
100
AcDbMText
 10
0.0833333323
 20
0.0634035871
 30
0.0039370079
 40
0.1041666667
 41
0.0
 71
     1
 72
     1
  1
8
  7
SLDTEXTSTYLE0
  0
MTEXT
  5
17B
330
169
100
AcDbEntity
  8
BLOCKS
 62
     0
100
AcDbMText
 10
0.1900077167
 20
0.1342778896
 30
0.0039370079
 40
0.1041666667
 41
0.0
 71
     1
 72
     1
  1
"
  7
SLDTEXTSTYLE0
  0
MTEXT
  5
17C
330
169
100
AcDbEntity
  8
BLOCKS
 62
     0
100
AcDbMText
 10
0.1080246921
 20
-0.1150300596
 30
0.0039370079
 40
0.1041666667
 41
0.0
 71
     1
 72
     1
  1
3
  7
SLDTEXTSTYLE0
  0
MTEXT
  5
17D
330
169
100
AcDbEntity
  8
BLOCKS
 62
     0
100
AcDbMText
 10
0.2546296418
 20
0.1342778896
 30
0.0039370079
 40
0.1041666667
 41
0.0
 71
     1
 72
     1
  1
 
  7
SLDTEXTSTYLE0
  0
ENDBLK
  5
16B
330
169
100
AcDbEntity
  8
0
100
AcDbBlockEnd
  0
BLOCK
  5
184
330
183
100
AcDbEntity
  8
0
100
AcDbBlockBegin
  2
SW_NOTE_0
 70
     0
 10
0.0
 20
0.0
 30
0.0
  3
SW_NOTE_0
  1

  0
MTEXT
  5
186
330
183
100
AcDbEntity
  8
NOTES
 62
     0
100
AcDbMText
 10
-0.8914472781
 20
0.6859989555
 30
0.0
 40
0.2083333333
 41
0.0
 71
     2
 72
     1
  1
TEMPLATE
  7
SLDTEXTSTYLE0
  0
MTEXT
  5
187
330
183
100
AcDbEntity
  8
NOTES
 62
     0
100
AcDbMText
 10
-0.8883126078
 20
0.4082211811
 30
0.0
 40
0.2083333333
 41
0.0
 71
     2
 72
     1
  1
CENTERLINE
  7
SLDTEXTSTYLE0
  0
MTEXT
  5
188
330
183
100
AcDbEntity
  8
NOTES
 62
     0
100
AcDbMText
 10
-0.8881920698
 20
-0.1473343677
 30
0.0
 40
0.2083333333
 41
0.0
 71
     2
 72
     1
  1
PLANTILLA
  7
SLDTEXTSTYLE0
  0
MTEXT
  5
189
330
183
100
AcDbEntity
  8
NOTES
 62
     0
100
AcDbMText
 10
-0.8912061353
 20
-0.4251121422
 30
0.0
 40
0.2083333333
 41
0.0
 71
     2
 72
     1
  1
CENTRAL
  7
SLDTEXTSTYLE0
  0
ENDBLK
  5
185
330
183
100
AcDbEntity
  8
0
100
AcDbBlockEnd
  0
BLOCK
  5
1A3
330
1A2
100
AcDbEntity
  8
0
100
AcDbBlockBegin
  2
_D
 70
     0
 10
0.0
 20
0.0
 30
0.0
  3
_D
  1

  0
SOLID
  5
1A5
330
1A2
100
AcDbEntity
  8
DIMS
100
AcDbTrace
 10
6.3816853933
 20
19.8230549153
 30
0.0
 11
6.3412394297
 21
19.5601561523
 31
0.0
 12
6.4221313568
 22
19.5601561523
 32
0.0
 13
6.4221313568
 23
19.5601561523
 33
0.0
  0
SOLID
  5
1A6
330
1A2
100
AcDbEntity
  8
DIMS
100
AcDbTrace
 10
6.3816853933
 20
3.0730549153
 30
0.0
 11
6.4221313568
 21
3.3359536784
 31
0.0
 12
6.3412394297
 22
3.3359536784
 32
0.0
 13
6.3412394297
 23
3.3359536784
 33
0.0
  0
LINE
  5
1A7
330
1A2
100
AcDbEntity
  8
DIMS
100
AcDbLine
 10
6.3794284668
 20
14.1728472704
 30
0.0
 11
6.6567818478
 21
14.1728472704
 31
0.0
  0
LINE
  5
1A8
330
1A2
100
AcDbEntity
  8
DIMS
100
AcDbLine
 10
6.0055280187
 20
13.7208565427
 30
0.0
 11
5.9453428327
 21
13.7208565427
 31
0.0
  0
LINE
  5
1A9
330
1A2
100
AcDbEntity
  8
DIMS
100
AcDbLine
 10
5.9453428327
 20
13.7208565427
 30
0.0
 11
5.9453428327
 21
13.3171142734
 31
0.0
  0
LINE
  5
1AA
330
1A2
100
AcDbEntity
  8
DIMS
100
AcDbLine
 10
5.9453428327
 20
13.3171142734
 30
0.0
 11
6.0055280187
 21
13.3171142734
 31
0.0
  0
LINE
  5
1AB
330
1A2
100
AcDbEntity
  8
DIMS
100
AcDbLine
 10
6.7578428045
 20
13.7208565427
 30
0.0
 11
6.8180279905
 21
13.7208565427
 31
0.0
  0
LINE
  5
1AC
330
1A2
100
AcDbEntity
  8
DIMS
100
AcDbLine
 10
6.8180279905
 20
13.7208565427
 30
0.0
 11
6.8180279905
 21
13.3171142734
 31
0.0
  0
LINE
  5
1AD
330
1A2
100
AcDbEntity
  8
DIMS
100
AcDbLine
 10
6.8180279905
 20
13.3171142734
 30
0.0
 11
6.7578428045
 21
13.3171142734
 31
0.0
  0
LINE
  5
1AE
330
1A2
100
AcDbEntity
  8
DIMS
100
AcDbLine
 10
6.3816853933
 20
19.8230549153
 30
0.0
 11
6.3816853933
 21
14.5109375589
 31
0.0
  0
LINE
  5
1AF
330
1A2
100
AcDbEntity
  8
DIMS
100
AcDbLine
 10
6.3816853933
 20
3.0730549153
 30
0.0
 11
6.3816853933
 21
13.2569291653
 31
0.0
  0
MTEXT
  5
1B0
330
1A2
100
AcDbEntity
  8
DIMS
100
AcDbMText
 10
5.939825851
 20
14.3144374357
 30
0.0039370079
 40
0.2708333333
 41
0.0
 71
     1
 72
     1
  1
16
  7
SLDTEXTSTYLE0
  0
MTEXT
  5
1B1
330
1A2
100
AcDbEntity
  8
DIMS
100
AcDbMText
 10
6.4177965186
 20
14.4989489558
 30
0.0039370079
 40
0.2708333333
 41
0.0
 71
     1
 72
     1
  1
3
  7
SLDTEXTSTYLE0
  0
MTEXT
  5
1B2
330
1A2
100
AcDbEntity
  8
DIMS
100
AcDbMText
 10
6.4177965186
 20
14.1301642186
 30
0.0039370079
 40
0.2708333333
 41
0.0
 71
     1
 72
     1
  1
4
  7
SLDTEXTSTYLE0
  0
MTEXT
  5
1B3
330
1A2
100
AcDbEntity
  8
DIMS
100
AcDbMText
 10
6.6951498721
 20
14.3144374357
 30
0.0039370079
 40
0.2708333333
 41
0.0
 71
     1
 72
     1
  1
"
  7
SLDTEXTSTYLE0
  0
MTEXT
  5
1B4
330
1A2
100
AcDbEntity
  8
DIMS
100
AcDbMText
 10
6.0807595046
 20
13.6662367771
 30
0.0039370079
 40
0.2708333333
 41
0.0
 71
     1
 72
     1
  1
425
  7
SLDTEXTSTYLE0
  0
ENDBLK
  5
1A4
330
1A2
100
AcDbEntity
  8
0
100
AcDbBlockEnd
  0
BLOCK
  5
1B7
330
1B6
100
AcDbEntity
  8
0
100
AcDbBlockBegin
  2
_D_1
 70
     0
 10
0.0
 20
0.0
 30
0.0
  3
_D_1
  1

  0
SOLID
  5
1B9
330
1B6
100
AcDbEntity
  8
DIMS
100
AcDbTrace
 10
7.9403370787
 20
19.1980549153
 30
0.0
 11
7.8998911151
 21
18.9351561523
 31
0.0
 12
7.9807830422
 22
18.9351561523
 32
0.0
 13
7.9807830422
 23
18.9351561523
 33
0.0
  0
SOLID
  5
1BA
330
1B6
100
AcDbEntity
  8
DIMS
100
AcDbTrace
 10
7.9403370787
 20
3.6980549153
 30
0.0
 11
7.9807830422
 21
3.9609536784
 31
0.0
 12
7.8998911151
 22
3.9609536784
 32
0.0
 13
7.8998911151
 23
3.9609536784
 33
0.0
  0
LINE
  5
1BB
330
1B6
100
AcDbEntity
  8
DIMS
100
AcDbLine
 10
7.9380801522
 20
10.7873285706
 30
0.0
 11
8.2154335332
 21
10.7873285706
 31
0.0
  0
LINE
  5
1BC
330
1B6
100
AcDbEntity
  8
DIMS
100
AcDbLine
 10
7.5641797041
 20
10.3353378429
 30
0.0
 11
7.5039945181
 21
10.3353378429
 31
0.0
  0
LINE
  5
1BD
330
1B6
100
AcDbEntity
  8
DIMS
100
AcDbLine
 10
7.5039945181
 20
10.3353378429
 30
0.0
 11
7.5039945181
 21
9.9315955736
 31
0.0
  0
LINE
  5
1BE
330
1B6
100
AcDbEntity
  8
DIMS
100
AcDbLine
 10
7.5039945181
 20
9.9315955736
 30
0.0
 11
7.5641797041
 21
9.9315955736
 31
0.0
  0
LINE
  5
1BF
330
1B6
100
AcDbEntity
  8
DIMS
100
AcDbLine
 10
8.3164944899
 20
10.3353378429
 30
0.0
 11
8.3766796759
 21
10.3353378429
 31
0.0
  0
LINE
  5
1C0
330
1B6
100
AcDbEntity
  8
DIMS
100
AcDbLine
 10
8.3766796759
 20
10.3353378429
 30
0.0
 11
8.3766796759
 21
9.9315955736
 31
0.0
  0
LINE
  5
1C1
330
1B6
100
AcDbEntity
  8
DIMS
100
AcDbLine
 10
8.3766796759
 20
9.9315955736
 30
0.0
 11
8.3164944899
 21
9.9315955736
 31
0.0
  0
LINE
  5
1C2
330
1B6
100
AcDbEntity
  8
DIMS
100
AcDbLine
 10
7.9403370787
 20
19.1980549153
 30
0.0
 11
7.9403370787
 21
11.1254188592
 31
0.0
  0
LINE
  5
1C3
330
1B6
100
AcDbEntity
  8
DIMS
100
AcDbLine
 10
7.9403370787
 20
3.6980549153
 30
0.0
 11
7.9403370787
 21
9.8714104656
 31
0.0
  0
MTEXT
  5
1C4
330
1B6
100
AcDbEntity
  8
DIMS
100
AcDbMText
 10
7.4984775364
 20
10.9289187359
 30
0.0039370079
 40
0.2708333333
 41
0.0
 71
     1
 72
     1
  1
15
  7
SLDTEXTSTYLE0
  0
MTEXT
  5
1C5
330
1B6
100
AcDbEntity
  8
DIMS
100
AcDbMText
 10
7.976448204
 20
11.1134302561
 30
0.0039370079
 40
0.2708333333
 41
0.0
 71
     1
 72
     1
  1
1
  7
SLDTEXTSTYLE0
  0
MTEXT
  5
1C6
330
1B6
100
AcDbEntity
  8
DIMS
100
AcDbMText
 10
7.976448204
 20
10.7446455188
 30
0.0039370079
 40
0.2708333333
 41
0.0
 71
     1
 72
     1
  1
2
  7
SLDTEXTSTYLE0
  0
MTEXT
  5
1C7
330
1B6
100
AcDbEntity
  8
DIMS
100
AcDbMText
 10
8.2538015575
 20
10.9289187359
 30
0.0039370079
 40
0.2708333333
 41
0.0
 71
     1
 72
     1
  1
"
  7
SLDTEXTSTYLE0
  0
MTEXT
  5
1C8
330
1B6
100
AcDbEntity
  8
DIMS
100
AcDbMText
 10
7.63941119
 20
10.2807180773
 30
0.0039370079
 40
0.2708333333
 41
0.0
 71
     1
 72
     1
  1
394
  7
SLDTEXTSTYLE0
  0
ENDBLK
  5
1B8
330
1B6
100
AcDbEntity
  8
0
100
AcDbBlockEnd
  0
BLOCK
  5
1CC
330
1CB
100
AcDbEntity
  8
0
100
AcDbBlockBegin
  2
_D_2
 70
     0
 10
0.0
 20
0.0
 30
0.0
  3
_D_2
  1

  0
SOLID
  5
1CE
330
1CB
100
AcDbEntity
  8
DIMS
100
AcDbTrace
 10
3.2275938702
 20
18.7800454274
 30
0.0
 11
3.3864320536
 21
18.5666864177
 31
0.0
 12
3.4432179671
 22
18.6242959993
 32
0.0
 13
3.4432179671
 23
18.6242959993
 33
0.0
  0
LINE
  5
1CF
330
1CB
100
AcDbEntity
  8
DIMS
100
AcDbLine
 10
4.464828018
 20
17.8768521056
 30
0.0
 11
4.742181399
 21
17.8768521056
 31
0.0
  0
LINE
  5
1D0
330
1CB
100
AcDbEntity
  8
DIMS
100
AcDbLine
 10
4.1611436087
 20
17.4248613778
 30
0.0
 11
4.1009584227
 21
17.4248613778
 31
0.0
  0
LINE
  5
1D1
330
1CB
100
AcDbEntity
  8
DIMS
100
AcDbLine
 10
4.1009584227
 20
17.4248613778
 30
0.0
 11
4.1009584227
 21
17.0211191086
 31
0.0
  0
LINE
  5
1D2
330
1CB
100
AcDbEntity
  8
DIMS
100
AcDbLine
 10
4.1009584227
 20
17.0211191086
 30
0.0
 11
4.1611436087
 21
17.0211191086
 31
0.0
  0
LINE
  5
1D3
330
1CB
100
AcDbEntity
  8
DIMS
100
AcDbLine
 10
4.7128411354
 20
17.4248613778
 30
0.0
 11
4.7730263214
 21
17.4248613778
 31
0.0
  0
LINE
  5
1D4
330
1CB
100
AcDbEntity
  8
DIMS
100
AcDbLine
 10
4.7730263214
 20
17.4248613778
 30
0.0
 11
4.7730263214
 21
17.0211191086
 31
0.0
  0
LINE
  5
1D5
330
1CB
100
AcDbEntity
  8
DIMS
100
AcDbLine
 10
4.7730263214
 20
17.0211191086
 30
0.0
 11
4.7128411354
 21
17.0211191086
 31
0.0
  0
LINE
  5
1D6
330
1CB
100
AcDbEntity
  8
DIMS
100
AcDbLine
 10
5.7202225275
 20
16.3230549153
 30
0.0
 11
4.9691219083
 21
17.0634167376
 31
0.0
  0
LINE
  5
1D7
330
1CB
100
AcDbEntity
  8
DIMS
100
AcDbLine
 10
3.2275938702
 20
18.7800454274
 30
0.0
 11
3.9048628358
 21
18.1124596569
 31
0.0
  0
MTEXT
  5
1D8
330
1CB
100
AcDbEntity
  8
DIMS
100
AcDbMText
 10
3.9650402208
 20
18.0184422709
 30
0.0039370079
 40
0.2708333333
 41
0.0
 71
     1
 72
     1
  1
R3
  7
SLDTEXTSTYLE0
  0
MTEXT
  5
1D9
330
1CB
100
AcDbEntity
  8
DIMS
100
AcDbMText
 10
4.5031960698
 20
18.202953791
 30
0.0039370079
 40
0.2708333333
 41
0.0
 71
     1
 72
     1
  1
1
  7
SLDTEXTSTYLE0
  0
MTEXT
  5
1DA
330
1CB
100
AcDbEntity
  8
DIMS
100
AcDbMText
 10
4.5031960698
 20
17.8341690538
 30
0.0039370079
 40
0.2708333333
 41
0.0
 71
     1
 72
     1
  1
2
  7
SLDTEXTSTYLE0
  0
MTEXT
  5
1DB
330
1CB
100
AcDbEntity
  8
DIMS
100
AcDbMText
 10
4.7805494599
 20
18.0184422709
 30
0.0039370079
 40
0.2708333333
 41
0.0
 71
     1
 72
     1
  1
"
  7
SLDTEXTSTYLE0
  0
MTEXT
  5
1DC
330
1CB
100
AcDbEntity
  8
DIMS
100
AcDbMText
 10
4.2363750946
 20
17.3702416123
 30
0.0039370079
 40
0.2708333333
 41
0.0
 71
     1
 72
     1
  1
89
  7
SLDTEXTSTYLE0
  0
ENDBLK
  5
1CD
330
1CB
100
AcDbEntity
  8
0
100
AcDbBlockEnd
  0
BLOCK
  5
1DF
330
1DE
100
AcDbEntity
  8
0
100
AcDbBlockBegin
  2
_D_3
 70
     0
 10
0.0
 20
0.0
 30
0.0
  3
_D_3
  1

  0
SOLID
  5
1E1
330
1DE
100
AcDbEntity
  8
DIMS
100
AcDbTrace
 10
4.0567769843
 20
4.2281510954
 30
0.0
 11
4.241876
 21
4.4191746279
 31
0.0
 12
4.17589903
 22
4.4659778681
 32
0.0
 13
4.17589903
 23
4.4659778681
 33
0.0
  0
LINE
  5
1E2
330
1DE
100
AcDbEntity
  8
DIMS
100
AcDbLine
 10
4.8615928752
 20
5.6123481957
 30
0.0
 11
5.1389462562
 21
5.6123481957
 31
0.0
  0
LINE
  5
1E3
330
1DE
100
AcDbEntity
  8
DIMS
100
AcDbLine
 10
4.5579084659
 20
5.160357468
 30
0.0
 11
4.4977232799
 21
5.160357468
 31
0.0
  0
LINE
  5
1E4
330
1DE
100
AcDbEntity
  8
DIMS
100
AcDbLine
 10
4.4977232799
 20
5.160357468
 30
0.0
 11
4.4977232799
 21
4.7566151987
 31
0.0
  0
LINE
  5
1E5
330
1DE
100
AcDbEntity
  8
DIMS
100
AcDbLine
 10
4.4977232799
 20
4.7566151987
 30
0.0
 11
4.5579084659
 21
4.7566151987
 31
0.0
  0
LINE
  5
1E6
330
1DE
100
AcDbEntity
  8
DIMS
100
AcDbLine
 10
5.1096059926
 20
5.160357468
 30
0.0
 11
5.1697911786
 21
5.160357468
 31
0.0
  0
LINE
  5
1E7
330
1DE
100
AcDbEntity
  8
DIMS
100
AcDbLine
 10
5.1697911786
 20
5.160357468
 30
0.0
 11
5.1697911786
 21
4.7566151987
 31
0.0
  0
LINE
  5
1E8
330
1DE
100
AcDbEntity
  8
DIMS
100
AcDbLine
 10
5.1697911786
 20
4.7566151987
 30
0.0
 11
5.1096059926
 21
4.7566151987
 31
0.0
  0
LINE
  5
1E9
330
1DE
100
AcDbEntity
  8
DIMS
100
AcDbLine
 10
5.7202225275
 20
6.5730549153
 30
0.0
 11
5.2785461915
 21
5.9504384842
 31
0.0
  0
LINE
  5
1EA
330
1DE
100
AcDbEntity
  8
DIMS
100
AcDbLine
 10
4.0567769843
 20
4.2281510954
 30
0.0
 11
4.388968267
 21
4.6964300907
 31
0.0
  0
MTEXT
  5
1EB
330
1DE
100
AcDbEntity
  8
DIMS
100
AcDbMText
 10
4.361805078
 20
5.753938361
 30
0.0039370079
 40
0.2708333333
 41
0.0
 71
     1
 72
     1
  1
R2
  7
SLDTEXTSTYLE0
  0
MTEXT
  5
1EC
330
1DE
100
AcDbEntity
  8
DIMS
100
AcDbMText
 10
4.899960927
 20
5.9384498812
 30
0.0039370079
 40
0.2708333333
 41
0.0
 71
     1
 72
     1
  1
7
  7
SLDTEXTSTYLE0
  0
MTEXT
  5
1ED
330
1DE
100
AcDbEntity
  8
DIMS
100
AcDbMText
 10
4.899960927
 20
5.5696651439
 30
0.0039370079
 40
0.2708333333
 41
0.0
 71
     1
 72
     1
  1
8
  7
SLDTEXTSTYLE0
  0
MTEXT
  5
1EE
330
1DE
100
AcDbEntity
  8
DIMS
100
AcDbMText
 10
5.1773143171
 20
5.753938361
 30
0.0039370079
 40
0.2708333333
 41
0.0
 71
     1
 72
     1
  1
"
  7
SLDTEXTSTYLE0
  0
MTEXT
  5
1EF
330
1DE
100
AcDbEntity
  8
DIMS
100
AcDbMText
 10
4.6331399518
 20
5.1057377024
 30
0.0039370079
 40
0.2708333333
 41
0.0
 71
     1
 72
     1
  1
73
  7
SLDTEXTSTYLE0
  0
ENDBLK
  5
1E0
330
1DE
100
AcDbEntity
  8
0
100
AcDbBlockEnd
  0
BLOCK
  5
1F2
330
1F1
100
AcDbEntity
  8
0
100
AcDbBlockBegin
  2
_D_4
 70
     0
 10
0.0
 20
0.0
 30
0.0
  3
_D_4
  1

  0
SOLID
  5
1F4
330
1F1
100
AcDbEntity
  8
DIMS
100
AcDbTrace
 10
2.2202225275
 20
6.9207162921
 30
0.0
 11
2.4831212906
 21
6.8802703286
 31
0.0
 12
2.4831212906
 22
6.9611622557
 32
0.0
 13
2.4831212906
 23
6.9611622557
 33
0.0
  0
SOLID
  5
1F5
330
1F1
100
AcDbEntity
  8
DIMS
100
AcDbTrace
 10
32.4702225275
 20
6.9207162921
 30
0.0
 11
32.2073237645
 21
6.9611622557
 31
0.0
 12
32.2073237645
 22
6.8802703286
 32
0.0
 13
32.2073237645
 23
6.8802703286
 33
0.0
  0
LINE
  5
1F6
330
1F1
100
AcDbEntity
  8
DIMS
100
AcDbLine
 10
26.8854397028
 20
7.2096302004
 30
0.0
 11
27.1627930838
 21
7.2096302004
 31
0.0
  0
LINE
  5
1F7
330
1F1
100
AcDbEntity
  8
DIMS
100
AcDbLine
 10
26.5115392546
 20
6.7576394727
 30
0.0
 11
26.4513540686
 21
6.7576394727
 31
0.0
  0
LINE
  5
1F8
330
1F1
100
AcDbEntity
  8
DIMS
100
AcDbLine
 10
26.4513540686
 20
6.7576394727
 30
0.0
 11
26.4513540686
 21
6.3538972034
 31
0.0
  0
LINE
  5
1F9
330
1F1
100
AcDbEntity
  8
DIMS
100
AcDbLine
 10
26.4513540686
 20
6.3538972034
 30
0.0
 11
26.5115392546
 21
6.3538972034
 31
0.0
  0
LINE
  5
1FA
330
1F1
100
AcDbEntity
  8
DIMS
100
AcDbLine
 10
27.2638540405
 20
6.7576394727
 30
0.0
 11
27.3240392265
 21
6.7576394727
 31
0.0
  0
LINE
  5
1FB
330
1F1
100
AcDbEntity
  8
DIMS
100
AcDbLine
 10
27.3240392265
 20
6.7576394727
 30
0.0
 11
27.3240392265
 21
6.3538972034
 31
0.0
  0
LINE
  5
1FC
330
1F1
100
AcDbEntity
  8
DIMS
100
AcDbLine
 10
27.3240392265
 20
6.3538972034
 30
0.0
 11
27.2638540405
 21
6.3538972034
 31
0.0
  0
LINE
  5
1FD
330
1F1
100
AcDbEntity
  8
DIMS
100
AcDbLine
 10
2.2202225275
 20
6.9207162921
 30
0.0
 11
26.3460377931
 21
6.9207162921
 31
0.0
  0
LINE
  5
1FE
330
1F1
100
AcDbEntity
  8
DIMS
100
AcDbLine
 10
32.4702225275
 20
6.9207162921
 30
0.0
 11
27.4293554654
 21
6.9207162921
 31
0.0
  0
MTEXT
  5
1FF
330
1F1
100
AcDbEntity
  8
DIMS
100
AcDbMText
 10
26.4458370869
 20
7.3512203657
 30
0.0039370079
 40
0.2708333333
 41
0.0
 71
     1
 72
     1
  1
30
  7
SLDTEXTSTYLE0
  0
MTEXT
  5
200
330
1F1
100
AcDbEntity
  8
DIMS
100
AcDbMText
 10
26.9238077546
 20
7.5357318859
 30
0.0039370079
 40
0.2708333333
 41
0.0
 71
     1
 72
     1
  1
1
  7
SLDTEXTSTYLE0
  0
MTEXT
  5
201
330
1F1
100
AcDbEntity
  8
DIMS
100
AcDbMText
 10
26.9238077546
 20
7.1669471486
 30
0.0039370079
 40
0.2708333333
 41
0.0
 71
     1
 72
     1
  1
4
  7
SLDTEXTSTYLE0
  0
MTEXT
  5
202
330
1F1
100
AcDbEntity
  8
DIMS
100
AcDbMText
 10
27.201161108
 20
7.3512203657
 30
0.0039370079
 40
0.2708333333
 41
0.0
 71
     1
 72
     1
  1
"
  7
SLDTEXTSTYLE0
  0
MTEXT
  5
203
330
1F1
100
AcDbEntity
  8
DIMS
100
AcDbMText
 10
26.5867707405
 20
6.7030197071
 30
0.0039370079
 40
0.2708333333
 41
0.0
 71
     1
 72
     1
  1
768
  7
SLDTEXTSTYLE0
  0
ENDBLK
  5
1F3
330
1F1
100
AcDbEntity
  8
0
100
AcDbBlockEnd
  0
BLOCK
  5
207
330
206
100
AcDbEntity
  8
0
100
AcDbBlockBegin
  2
_D_5
 70
     0
 10
0.0
 20
0.0
 30
0.0
  3
_D_5
  1

  0
SOLID
  5
209
330
206
100
AcDbEntity
  8
DIMS
100
AcDbTrace
 10
2.8452225275
 20
7.8948735955
 30
0.0
 11
3.1081212906
 21
7.854427632
 31
0.0
 12
3.1081212906
 22
7.935319559
 32
0.0
 13
3.1081212906
 23
7.935319559
 33
0.0
  0
SOLID
  5
20A
330
206
100
AcDbEntity
  8
DIMS
100
AcDbTrace
 10
31.8452225275
 20
7.8948735955
 30
0.0
 11
31.5823237645
 21
7.935319559
 31
0.0
 12
31.5823237645
 22
7.854427632
 32
0.0
 13
31.5823237645
 23
7.854427632
 33
0.0
  0
LINE
  5
20B
330
206
100
AcDbEntity
  8
DIMS
100
AcDbLine
 10
23.3942358838
 20
7.9161891676
 30
0.0
 11
23.3340506978
 21
7.9161891676
 31
0.0
  0
LINE
  5
20C
330
206
100
AcDbEntity
  8
DIMS
100
AcDbLine
 10
23.3340506978
 20
7.9161891676
 30
0.0
 11
23.3340506978
 21
7.5124468983
 31
0.0
  0
LINE
  5
20D
330
206
100
AcDbEntity
  8
DIMS
100
AcDbLine
 10
23.3340506978
 20
7.5124468983
 30
0.0
 11
23.3942358838
 21
7.5124468983
 31
0.0
  0
LINE
  5
20E
330
206
100
AcDbEntity
  8
DIMS
100
AcDbLine
 10
24.1465506697
 20
7.9161891676
 30
0.0
 11
24.2067358557
 21
7.9161891676
 31
0.0
  0
LINE
  5
20F
330
206
100
AcDbEntity
  8
DIMS
100
AcDbLine
 10
24.2067358557
 20
7.9161891676
 30
0.0
 11
24.2067358557
 21
7.5124468983
 31
0.0
  0
LINE
  5
210
330
206
100
AcDbEntity
  8
DIMS
100
AcDbLine
 10
24.2067358557
 20
7.5124468983
 30
0.0
 11
24.1465506697
 21
7.5124468983
 31
0.0
  0
LINE
  5
211
330
206
100
AcDbEntity
  8
DIMS
100
AcDbLine
 10
2.8452225275
 20
7.8948735955
 30
0.0
 11
23.2287344223
 21
7.8948735955
 31
0.0
  0
LINE
  5
212
330
206
100
AcDbEntity
  8
DIMS
100
AcDbLine
 10
31.8452225275
 20
7.8948735955
 30
0.0
 11
24.3120520946
 21
7.8948735955
 31
0.0
  0
MTEXT
  5
213
330
206
100
AcDbEntity
  8
DIMS
100
AcDbMText
 10
23.5055784493
 20
8.325496871
 30
0.0039370079
 40
0.2708333333
 41
0.0
 71
     1
 72
     1
  1
29"
  7
SLDTEXTSTYLE0
  0
MTEXT
  5
214
330
206
100
AcDbEntity
  8
DIMS
100
AcDbMText
 10
23.4694673697
 20
7.861569402
 30
0.0039370079
 40
0.2708333333
 41
0.0
 71
     1
 72
     1
  1
737
  7
SLDTEXTSTYLE0
  0
ENDBLK
  5
208
330
206
100
AcDbEntity
  8
0
100
AcDbBlockEnd
  0
BLOCK
  5
216
330
215
100
AcDbEntity
  8
0
100
AcDbBlockBegin
  2
SW_NOTE_1
 70
     0
 10
0.0
 20
0.0
 30
0.0
  3
SW_NOTE_1
  1

  0
MTEXT
  5
218
330
215
100
AcDbEntity
  8
NOTES
 62
     0
100
AcDbMText
 10
0.0231284028
 20
0.2698992249
 30
0.0
 40
0.2083333333
 41
0.0
 71
     1
 72
     1
  1
1/8" OVERHANG
  7
SLDTEXTSTYLE0
  0
MTEXT
  5
219
330
215
100
AcDbEntity
  8
NOTES
 62
     0
100
AcDbMText
 10
0.0231284028
 20
-0.0078785495
 30
0.0
 40
0.2083333333
 41
0.0
 71
     1
 72
     1
  1
[3.2 SOBRESALIENTE]
  7
SLDTEXTSTYLE0
  0
ENDBLK
  5
217
330
215
100
AcDbEntity
  8
0
100
AcDbBlockEnd
  0
BLOCK
  5
21D
330
21C
100
AcDbEntity
  8
0
100
AcDbBlockBegin
  2
SW_NOTE_2
 70
     0
 10
0.0
 20
0.0
 30
0.0
  3
SW_NOTE_2
  1

  0
MTEXT
  5
21F
330
21C
100
AcDbEntity
  8
NOTES
 62
     0
100
AcDbMText
 10
0.0037927409
 20
0.2709844951
 30
0.0
 40
0.2083333333
 41
0.0
 71
     3
 72
     1
  1
1/2" REVEAL
  7
SLDTEXTSTYLE0
  0
MTEXT
  5
220
330
21C
100
AcDbEntity
  8
NOTES
 62
     0
100
AcDbMText
 10
0.0087600754
 20
-0.0067932793
 30
0.0
 40
0.2083333333
 41
0.0
 71
     3
 72
     1
  1
[12.7 REVELADO]
  7
SLDTEXTSTYLE0
  0
ENDBLK
  5
21E
330
21C
100
AcDbEntity
  8
0
100
AcDbBlockEnd
  0
BLOCK
  5
224
330
223
100
AcDbEntity
  8
0
100
AcDbBlockBegin
  2
SW_NOTE_3
 70
     0
 10
0.0
 20
0.0
 30
0.0
  3
SW_NOTE_3
  1

  0
MTEXT
  5
226
330
223
100
AcDbEntity
  8
NOTES
 62
     0
100
AcDbMText
 10
0.0
 20
0.2417002012
 30
0.0
 40
0.1875
 41
0.0
 71
     1
 72
     1
  1
NOTES:
  7
SLDTEXTSTYLE0
  0
MTEXT
  5
227
330
223
100
AcDbEntity
  8
NOTES
 62
     0
100
AcDbMText
 10
0.3937007786
 20
-0.2582997928
 30
0.0
 40
0.1875
 41
0.0
 71
     1
 72
     1
  1
THOROUGHLY READ ALL  INSTALLATION INSTRUCTIONS
  7
SLDTEXTSTYLE0
  0
MTEXT
  5
228
330
223
100
AcDbEntity
  8
NOTES
 62
     0
100
AcDbMText
 10
0.0
 20
-0.2582997928
 30
0.0
 40
0.1875
 41
0.0
 71
     1
 72
     1
  1
1.
  7
SLDTEXTSTYLE0
  0
MTEXT
  5
229
330
223
100
AcDbEntity
  8
NOTES
 62
     0
100
AcDbMText
 10
0.0
 20
-0.5082997897
 30
0.0
 40
0.1875
 41
0.0
 71
     1
 72
     1
  1
BEFORE CUTTING COUNTERTOP.
  7
SLDTEXTSTYLE0
  0
MTEXT
  5
22A
330
223
100
AcDbEntity
  8
NOTES
 62
     0
100
AcDbMText
 10
0.0
 20
-1.0082997837
 30
0.0
 40
0.1875
 41
0.0
 71
     1
 72
     1
  1
2.  DIMENSIONS ARE IN INCHES [MM].
  7
SLDTEXTSTYLE0
  0
MTEXT
  5
22C
330
223
100
AcDbEntity
  8
NOTES
 62
     0
100
AcDbMText
 10
0.0
 20
-1.7582997746
 30
0.0
 40
0.1875
 41
0.0
 71
     1
 72
     1
  1
PLEASE CHECK TEMPLATE AGAINST PHYSICAL SINK FOR 
  7
SLDTEXTSTYLE1
  0
MTEXT
  5
22D
330
223
100
AcDbEntity
  8
NOTES
 62
     0
100
AcDbMText
 10
0.0
 20
-2.0082997716
 30
0.0
 40
0.1875
 41
0.0
 71
     1
 72
     1
  1
MOST ACCURATE CUT.
  7
SLDTEXTSTYLE1
  0
MTEXT
  5
22E
330
223
100
AcDbEntity
  8
NOTES
 62
     0
100
AcDbMText
 10
0.0
 20
-3.0082997595
 30
0.0
 40
0.1875
 41
0.0
 71
     1
 72
     1
  1
NOTAS:
  7
SLDTEXTSTYLE0
  0
MTEXT
  5
22F
330
223
100
AcDbEntity
  8
NOTES
 62
     0
100
AcDbMText
 10
0.0
 20
-3.5082997535
 30
0.0
 40
0.1875
 41
0.0
 71
     1
 72
     1
  1
1.  LEA ATENTAMENTE LAS INSTRUCCIONES DE 
  7
SLDTEXTSTYLE0
  0
MTEXT
  5
230
330
223
100
AcDbEntity
  8
NOTES
 62
     0
100
AcDbMText
 10
0.0
 20
-3.7582997505
 30
0.0
 40
0.1875
 41
0.0
 71
     1
 72
     1
  1
INSTALACIÓN ANTES DE CORTAR LA ENCIMERA.
  7
SLDTEXTSTYLE0
  0
MTEXT
  5
231
330
223
100
AcDbEntity
  8
NOTES
 62
     0
100
AcDbMText
 10
0.0
 20
-4.2582997444
 30
0.0
 40
0.1875
 41
0.0
 71
     1
 72
     1
  1
2.  DIMENSIONES EN PULGADAS [MM].
  7
SLDTEXTSTYLE0
  0
MTEXT
  5
232
330
223
100
AcDbEntity
  8
NOTES
 62
     0
100
AcDbMText
 10
0.0
 20
-5.0082997353
 30
0.0
 40
0.1875
 41
0.0
 71
     1
 72
     1
  1
POR FAVOR COMPRUEBE PLANTILLA CONTRA FREGADERO 
  7
SLDTEXTSTYLE1
  0
MTEXT
  5
233
330
223
100
AcDbEntity
  8
NOTES
 62
     0
100
AcDbMText
 10
0.0
 20
-5.2582997323
 30
0.0
 40
0.1875
 41
0.0
 71
     1
 72
     1
  1
FÍSICO PARA CORTE MÁS EXACTO.
  7
SLDTEXTSTYLE1
  0
ENDBLK
  5
225
330
223
100
AcDbEntity
  8
0
100
AcDbBlockEnd
  0
BLOCK
  5
236
330
235
100
AcDbEntity
  8
0
100
AcDbBlockBegin
  2
SW_NOTE_4
 70
     0
 10
0.0
 20
0.0
 30
0.0
  3
SW_NOTE_4
  1

  0
MTEXT
  5
238
330
235
100
AcDbEntity
  8
NOTES
 62
     0
100
AcDbMText
 10
6.8619791667
 20
1.0742231165
 30
0.0
 40
0.8333333333
 41
0.0
 71
     2
 72
     1
  1
TEMPLATE #: 1000001471
  7
SLDTEXTSTYLE0
  0
MTEXT
  5
239
330
235
100
AcDbEntity
  8
NOTES
 62
     0
100
AcDbMText
 10
6.8569671263
 20
-0.0184439723
 30
0.0
 40
0.4166666667
 41
0.0
 71
     2
 72
     1
  1
DUAL UNDERMOUNT TEMPLATE 31" X 18" W/ 3" RADIUS
  7
SLDTEXTSTYLE0
  0
ENDBLK
  5
237
330
235
100
AcDbEntity
  8
0
100
AcDbBlockEnd
  0
ENDSEC
  0
SECTION
  2
ENTITIES
  0
LINE
  5
17F
330
1F
100
AcDbEntity
  8
OBJECTS
  6
CENTERX2
100
AcDbLine
 10
17.3452225275
 20
3.0730549153
 30
0.0
 11
17.3452225275
 21
4.604293062
 31
0.0
  0
LINE
  5
180
330
1F
100
AcDbEntity
  8
OBJECTS
  6
CENTERX2
100
AcDbLine
 10
2.2202225275
 20
11.4480549153
 30
0.0
 11
3.7514606742
 21
11.4480549153
 31
0.0
  0
LINE
  5
181
330
1F
100
AcDbEntity
  8
OBJECTS
  6
CENTERX2
100
AcDbLine
 10
17.3452225275
 20
19.8230549153
 30
0.0
 11
17.3452225275
 21
18.2918167687
 31
0.0
  0
LINE
  5
182
330
1F
100
AcDbEntity
  8
OBJECTS
  6
CENTERX2
100
AcDbLine
 10
32.4702225275
 20
11.4480549153
 30
0.0
 11
30.9389843809
 21
11.4480549153
 31
0.0
  0
INSERT
  5
18A
102
{ACAD_REACTORS
330
18C
330
18D
102
}
330
1F
100
AcDbEntity
  8
NOTES
100
AcDbBlockReference
  2
SW_NOTE_0
 10
26.9082368304
 20
16.1448599958
 30
0.0
  0
LEADER
  5
18C
330
1F
100
AcDbEntity
  8
NOTES
100
AcDbLeader
  3
SLDDIMSTYLE0
 73
     2
 76
     3
 10
31.3444662921
 20
11.4480549153
 30
0.0
 10
27.1582368304
 20
16.1448599958
 30
0.0
 10
26.9082368304
 20
16.1448599958
 30
0.0
340
18A
1001
ACAD
1000
DSTYLE
1002
{
1070
     6
1000

1002
}
  0
LEADER
  5
18D
330
1F
100
AcDbEntity
  8
NOTES
100
AcDbLeader
  3
SLDDIMSTYLE0
 73
     2
 76
     3
 10
17.3452225275
 20
18.8541432584
 30
0.0
 10
24.8595285756
 20
16.1448599958
 30
0.0
 10
25.1095285756
 20
16.1448599958
 30
0.0
340
18A
212
-1.798708254814724
222
0.0
232
0.0
1001
ACAD
1000
DSTYLE
1002
{
1070
     6
1000

1002
}
  0
LINE
  5
18E
330
1F
100
AcDbEntity
  8
OBJECTS
100
AcDbLine
 10
28.9702225275
 20
19.8230549153
 30
0.0
 11
5.7202225275
 21
19.8230549153
 31
0.0
  0
LINE
  5
18F
330
1F
100
AcDbEntity
  8
OBJECTS
100
AcDbLine
 10
2.2202225275
 20
16.3230549153
 30
0.0
 11
2.2202225275
 21
6.5730549153
 31
0.0
  0
LINE
  5
190
330
1F
100
AcDbEntity
  8
OBJECTS
100
AcDbLine
 10
5.7202225275
 20
3.0730549153
 30
0.0
 11
28.9702225275
 21
3.0730549153
 31
0.0
  0
LINE
  5
191
330
1F
100
AcDbEntity
  8
OBJECTS
100
AcDbLine
 10
32.4702225275
 20
6.5730549153
 30
0.0
 11
32.4702225275
 21
16.3230549153
 31
0.0
  0
LINE
  5
192
330
1F
100
AcDbEntity
  8
OBJECTS
  6
CENTERX2
 62
     1
100
AcDbLine
 10
28.9702225275
 20
19.1980549153
 30
0.0
 11
5.7202225275
 21
19.1980549153
 31
0.0
  0
LINE
  5
193
330
1F
100
AcDbEntity
  8
OBJECTS
  6
CENTERX2
 62
     1
100
AcDbLine
 10
2.8452225275
 20
16.3230549153
 30
0.0
 11
2.8452225275
 21
6.5730549153
 31
0.0
  0
LINE
  5
194
330
1F
100
AcDbEntity
  8
OBJECTS
  6
CENTERX2
 62
     1
100
AcDbLine
 10
5.7202225275
 20
3.6980549153
 30
0.0
 11
28.9702225275
 21
3.6980549153
 31
0.0
  0
LINE
  5
195
330
1F
100
AcDbEntity
  8
OBJECTS
  6
CENTERX2
 62
     1
100
AcDbLine
 10
31.8452225275
 20
6.5730549153
 30
0.0
 11
31.8452225275
 21
16.3230549153
 31
0.0
  0
ARC
  5
196
330
1F
100
AcDbEntity
  8
OBJECTS
100
AcDbCircle
 10
5.7202225275
 20
16.3230549153
 30
0.0
 40
3.500000000000007
100
AcDbArc
 50
90.0
 51
180.0
  0
ARC
  5
197
330
1F
100
AcDbEntity
  8
OBJECTS
100
AcDbCircle
 10
5.7202225275
 20
6.5730549153
 30
0.0
 40
3.500000000000001
100
AcDbArc
 50
180.0
 51
270.0
  0
ARC
  5
198
330
1F
100
AcDbEntity
  8
OBJECTS
100
AcDbCircle
 10
28.9702225275
 20
6.5730549153
 30
0.0
 40
3.499999999999999
100
AcDbArc
 50
270.0
 51
0.0
  0
ARC
  5
199
330
1F
100
AcDbEntity
  8
OBJECTS
100
AcDbCircle
 10
28.9702225275
 20
16.3230549153
 30
0.0
 40
3.5
100
AcDbArc
 50
0.0
 51
90.0
  0
ARC
  5
19A
330
1F
100
AcDbEntity
  8
OBJECTS
  6
CENTERX2
 62
     1
100
AcDbCircle
 10
28.9702225275
 20
16.3230549153
 30
0.0
 40
2.875000000000004
100
AcDbArc
 50
0.0
 51
90.0
  0
ARC
  5
19B
330
1F
100
AcDbEntity
  8
OBJECTS
  6
CENTERX2
 62
     1
100
AcDbCircle
 10
5.7202225275
 20
16.3230549153
 30
0.0
 40
2.875000000000004
100
AcDbArc
 50
90.0
 51
180.0
  0
ARC
  5
19C
330
1F
100
AcDbEntity
  8
OBJECTS
  6
CENTERX2
 62
     1
100
AcDbCircle
 10
5.7202225275
 20
6.5730549153
 30
0.0
 40
2.875
100
AcDbArc
 50
180.0
 51
270.0
  0
ARC
  5
19D
330
1F
100
AcDbEntity
  8
OBJECTS
  6
CENTERX2
 62
     1
100
AcDbCircle
 10
28.9702225275
 20
6.5730549153
 30
0.0
 40
2.875
100
AcDbArc
 50
270.0
 51
0.0
  0
INSERT
  5
19E
330
1F
100
AcDbEntity
  8
BLOCKS
100
AcDbBlockReference
  2
REVEAL-__500
 10
-5.7221831695
 20
-10.9794119883
 30
0.0
  0
INSERT
  5
19F
330
1F
100
AcDbEntity
  8
BLOCKS
100
AcDbBlockReference
  2
OVERHANG_-__125
 10
0.9065062619
 20
-20.8941006184
 30
0.0
  0
DIMENSION
  5
1A0
330
1F
100
AcDbEntity
  8
DIMS
100
AcDbDimension
  2
_D
 10
6.3816853933
 20
3.0730549153
 30
0.0
 11
6.3816853933
 21
13.8839333621
 31
0.0
 70
   160
  1
<>
  3
SLDDIMSTYLE1
100
AcDbAlignedDimension
 13
5.7202225275
 23
19.8230549153
 33
0.0
 14
5.7202225275
 24
3.0730549153
 34
0.0
 50
90.0
100
AcDbRotatedDimension
  0
DIMENSION
  5
1B5
330
1F
100
AcDbEntity
  8
DIMS
100
AcDbDimension
  2
_D_1
 10
7.9403370787
 20
3.6980549153
 30
0.0
 11
7.9403370787
 21
10.4984146624
 31
0.0
 70
   160
  1
<>
  3
SLDDIMSTYLE1
100
AcDbAlignedDimension
 13
5.7202225275
 23
19.1980549153
 33
0.0
 14
5.7202225275
 24
3.6980549153
 34
0.0
 50
90.0
100
AcDbRotatedDimension
  0
DIMENSION
  5
1C9
330
1F
100
AcDbEntity
  8
DIMS
100
AcDbDimension
  2
_D_2
 10
5.7202225275
 20
16.3230549153
 30
0.0
 11
4.4369927658
 21
17.587938591
 31
0.0
 70
   164
  1
<>
  3
SLDDIMSTYLE2
100
AcDbRadialDimension
 15
3.2275938702
 25
18.7800454274
 35
0.0
 40
0.0
  0
DIMENSION
  5
1DD
330
1F
100
AcDbEntity
  8
DIMS
100
AcDbDimension
  2
_D_3
 10
5.7202225275
 20
6.5730549153
 30
0.0
 11
4.833757623
 21
5.3234346812
 31
0.0
 70
   164
  1
<>
  3
SLDDIMSTYLE2
100
AcDbRadialDimension
 15
4.0567769843
 25
4.2281510954
 35
0.0
 40
0.0
  0
DIMENSION
  5
1F0
330
1F
100
AcDbEntity
  8
DIMS
100
AcDbDimension
  2
_D_4
 10
32.4702225275
 20
6.9207162921
 30
0.0
 11
26.8876966292
 21
6.9207162921
 31
0.0
 70
   160
  1
<>
  3
SLDDIMSTYLE1
100
AcDbAlignedDimension
 13
2.2202225275
 23
6.5730549153
 33
0.0
 14
32.4702225275
 24
6.5730549153
 34
0.0
 50
0.0
100
AcDbRotatedDimension
  0
DIMENSION
  5
204
330
1F
100
AcDbEntity
  8
DIMS
100
AcDbDimension
  2
_D_5
 10
31.8452225275
 20
7.8948735955
 30
0.0
 11
23.7703932584
 21
7.8948735955
 31
0.0
 70
   160
  1
<>
  3
SLDDIMSTYLE3
100
AcDbAlignedDimension
 13
2.8452225275
 23
6.5730549153
 33
0.0
 14
31.8452225275
 24
6.5730549153
 34
0.0
 50
0.0
100
AcDbRotatedDimension
  0
INSERT
  5
21A
102
{ACAD_REACTORS
330
21B
102
}
330
1F
100
AcDbEntity
  8
NOTES
100
AcDbBlockReference
  2
SW_NOTE_1
 10
19.538291018
 20
4.49608645
 30
0.0
  0
LEADER
  5
21B
330
1F
100
AcDbEntity
  8
NOTES
100
AcDbLeader
  3
SLDDIMSTYLE0
 73
     2
 76
     3
 10
18.9301316569
 20
3.6980549153
 30
0.0
 10
19.288291018
 20
4.49608645
 30
0.0
 10
19.538291018
 20
4.49608645
 30
0.0
340
21A
1001
ACAD
1000
DSTYLE
1002
{
1070
     6
1000

1002
}
  0
INSERT
  5
221
102
{ACAD_REACTORS
330
222
102
}
330
1F
100
AcDbEntity
  8
NOTES
100
AcDbBlockReference
  2
SW_NOTE_2
 10
14.5420442728
 20
17.0499417464
 30
0.0
  0
LEADER
  5
222
330
1F
100
AcDbEntity
  8
NOTES
100
AcDbLeader
  3
SLDDIMSTYLE0
 73
     2
 76
     3
 10
16.1225395958
 20
19.8230549153
 30
0.0
 10
14.7920442728
 20
17.0499417464
 30
0.0
 10
14.5420442728
 20
17.0499417464
 30
0.0
340
221
1001
ACAD
1000
DSTYLE
1002
{
1070
     6
1000

1002
}
  0
INSERT
  5
234
330
1F
100
AcDbEntity
  8
NOTES
100
AcDbBlockReference
  2
SW_NOTE_3
 10
12.7266850832
 20
13.8823455738
 30
0.0
  0
INSERT
  5
23A
330
1F
100
AcDbEntity
  8
NOTES
100
AcDbBlockReference
  2
SW_NOTE_4
 10
9.6587835639
 20
15.1725614865
 30
0.0
  0
MTEXT
  5
23B
330
1F
100
AcDbEntity
  8
NOTES
100
AcDbMText
 10
27.37514694
 20
4.375786067
 30
0.0
 40
0.2083333333
 41
0.0
 71
     1
 72
     1
  1
REV_E  7/15
  7
SLDTEXTSTYLE0
  0
ENDSEC
  0
SECTION
  2
OBJECTS
  0
DICTIONARY
  5
C
330
0
100
AcDbDictionary
  3
ACAD_GROUP
350
D
  3
ACAD_MLINESTYLE
350
17
1001
ACAD
1000
TREAT_AS_HARD
1070
     0
  0
DICTIONARY
  5
D
102
{ACAD_REACTORS
330
C
102
}
330
C
100
AcDbDictionary
1001
ACAD
1000
TREAT_AS_HARD
1070
     0
  0
DICTIONARY
  5
17
102
{ACAD_REACTORS
330
C
102
}
330
C
100
AcDbDictionary
  3
STANDARD
350
18
1001
ACAD
1000
TREAT_AS_HARD
1070
     0
  0
MLINESTYLE
  5
18
102
{ACAD_REACTORS
330
17
102
}
330
17
100
AcDbMlineStyle
  2
Standard
 70
     0
  3

 62
   256
 51
90.0
 52
90.0
 71
     2
 49
0.5
 62
   256
  6
BYLAYER
 49
-0.5
 62
   256
  6
BYLAYER
  0
ENDSEC
  0
EOF
