  0
SECTION
  2
HEADER
  9
$ACADVER
  1
AC1015
  9
$ACADMAINTVER
 70
     6
  9
$DWGCODEPAGE
  3
ANSI_1252
  9
$INSBASE
 10
0.0
 20
0.0
 30
0.0
  9
$EXTMIN
 10
0.0
 20
0.0
 30
0.0
  9
$EXTMAX
 10
22.0
 20
17.0
 30
0.0
  9
$LIMMIN
 10
0.0
 20
0.0
  9
$LIMMAX
 10
22.0
 20
17.0
  9
$ORTHOMODE
 70
     0
  9
$REGENMODE
 70
     1
  9
$FILLMODE
 70
     1
  9
$QTEXTMODE
 70
     0
  9
$MIRRTEXT
 70
     1
  9
$LTSCALE
 40
1.0
  9
$ATTMODE
 70
     1
  9
$TEXTSIZE
 40
0.2777777778
  9
$TRACEWID
 40
0.05
  9
$TEXTSTYLE
  7
Standard
  9
$CLAYER
  8
0
  9
$CELTYPE
  6
ByLayer
  9
$CECOLOR
 62
   256
  9
$CELTSCALE
 40
1.0
  9
$DISPSILH
 70
     0
  9
$DIMSCALE
 40
1.0
  9
$DIMASZ
 40
0.125
  9
$DIMEXO
 40
0.05
  9
$DIMDLI
 40
0.38
  9
$DIMRND
 40
0.0
  9
$DIMDLE
 40
0.0
  9
$DIMEXE
 40
0.125
  9
$DIMTP
 40
0.0
  9
$DIMTM
 40
0.0
  9
$DIMTXT
 40
0.125
  9
$DIMCEN
 40
0.09
  9
$DIMTSZ
 40
0.0
  9
$DIMTOL
 70
     0
  9
$DIMLIM
 70
     0
  9
$DIMTIH
 70
     1
  9
$DIMTOH
 70
     1
  9
$DIMSE1
 70
     0
  9
$DIMSE2
 70
     0
  9
$DIMTAD
 70
     0
  9
$DIMZIN
 70
     0
  9
$DIMBLK
  1

  9
$DIMASO
 70
     1
  9
$DIMSHO
 70
     1
  9
$DIMPOST
  1

  9
$DIMAPOST
  1

  9
$DIMALT
 70
     0
  9
$DIMALTD
 70
     2
  9
$DIMALTF
 40
25.4
  9
$DIMLFAC
 40
1.0
  9
$DIMTOFL
 70
     0
  9
$DIMTVP
 40
0.0
  9
$DIMTIX
 70
     0
  9
$DIMSOXD
 70
     0
  9
$DIMSAH
 70
     0
  9
$DIMBLK1
  1

  9
$DIMBLK2
  1

  9
$DIMSTYLE
  2
Standard
  9
$DIMCLRD
 70
     0
  9
$DIMCLRE
 70
     0
  9
$DIMCLRT
 70
     0
  9
$DIMTFAC
 40
1.0
  9
$DIMGAP
 40
0.06
  9
$DIMJUST
 70
     0
  9
$DIMSD1
 70
     0
  9
$DIMSD2
 70
     0
  9
$DIMTOLJ
 70
     1
  9
$DIMTZIN
 70
     0
  9
$DIMALTZ
 70
     0
  9
$DIMALTTZ
 70
     0
  9
$DIMUPT
 70
     0
  9
$DIMDEC
 70
     3
  9
$DIMTDEC
 70
     3
  9
$DIMALTU
 70
     2
  9
$DIMALTTD
 70
     2
  9
$DIMTXSTY
  7
Standard
  9
$DIMAUNIT
 70
     0
  9
$DIMADEC
 70
     1
  9
$DIMALTRND
 40
0.0
  9
$DIMAZIN
 70
     0
  9
$DIMDSEP
 70
    46
  9
$DIMATFIT
 70
     3
  9
$DIMFRAC
 70
     0
  9
$DIMLDRBLK
  1

  9
$DIMLUNIT
 70
     2
  9
$DIMLWD
 70
    -2
  9
$DIMLWE
 70
    -2
  9
$DIMTMOVE
 70
     0
  9
$LUNITS
 70
     2
  9
$LUPREC
 70
     3
  9
$SKETCHINC
 40
0.1
  9
$FILLETRAD
 40
0.5
  9
$AUNITS
 70
     0
  9
$AUPREC
 70
     1
  9
$MENU
  1
.
  9
$ELEVATION
 40
0.0
  9
$PELEVATION
 40
0.0
  9
$THICKNESS
 40
0.0
  9
$LIMCHECK
 70
     0
  9
$CHAMFERA
 40
0.0
  9
$CHAMFERB
 40
0.0
  9
$CHAMFERC
 40
0.0
  9
$CHAMFERD
 40
0.0
  9
$SKPOLY
 70
     0
  9
$TDCREATE
 40
2459074.550575394
  9
$TDUCREATE
 40
2459074.758908727
  9
$TDUPDATE
 40
2459074.55057691
  9
$TDUUPDATE
 40
2459074.758910243
  9
$TDINDWG
 40
0.0000000116
  9
$TDUSRTIMER
 40
0.0000000116
  9
$USRTIMER
 70
     1
  9
$ANGBASE
 50
0.0
  9
$ANGDIR
 70
     0
  9
$PDMODE
 70
     0
  9
$PDSIZE
 40
-1.0
  9
$PLINEWID
 40
0.0
  9
$SPLFRAME
 70
     0
  9
$SPLINETYPE
 70
     6
  9
$SPLINESEGS
 70
     8
  9
$HANDSEED
  5
1EA
  9
$SURFTAB1
 70
     6
  9
$SURFTAB2
 70
     6
  9
$SURFTYPE
 70
     6
  9
$SURFU
 70
     6
  9
$SURFV
 70
     6
  9
$UCSBASE
  2

  9
$UCSNAME
  2

  9
$UCSORG
 10
0.0
 20
0.0
 30
0.0
  9
$UCSXDIR
 10
1.0
 20
0.0
 30
0.0
  9
$UCSYDIR
 10
0.0
 20
1.0
 30
0.0
  9
$UCSORTHOREF
  2

  9
$UCSORTHOVIEW
 70
     0
  9
$UCSORGTOP
 10
0.0
 20
0.0
 30
0.0
  9
$UCSORGBOTTOM
 10
0.0
 20
0.0
 30
0.0
  9
$UCSORGLEFT
 10
0.0
 20
0.0
 30
0.0
  9
$UCSORGRIGHT
 10
0.0
 20
0.0
 30
0.0
  9
$UCSORGFRONT
 10
0.0
 20
0.0
 30
0.0
  9
$UCSORGBACK
 10
0.0
 20
0.0
 30
0.0
  9
$PUCSBASE
  2

  9
$PUCSNAME
  2

  9
$PUCSORG
 10
0.0
 20
0.0
 30
0.0
  9
$PUCSXDIR
 10
1.0
 20
0.0
 30
0.0
  9
$PUCSYDIR
 10
0.0
 20
1.0
 30
0.0
  9
$PUCSORTHOREF
  2

  9
$PUCSORTHOVIEW
 70
     0
  9
$PUCSORGTOP
 10
0.0
 20
0.0
 30
0.0
  9
$PUCSORGBOTTOM
 10
0.0
 20
0.0
 30
0.0
  9
$PUCSORGLEFT
 10
0.0
 20
0.0
 30
0.0
  9
$PUCSORGRIGHT
 10
0.0
 20
0.0
 30
0.0
  9
$PUCSORGFRONT
 10
0.0
 20
0.0
 30
0.0
  9
$PUCSORGBACK
 10
0.0
 20
0.0
 30
0.0
  9
$USERI1
 70
     0
  9
$USERI2
 70
     0
  9
$USERI3
 70
     0
  9
$USERI4
 70
     0
  9
$USERI5
 70
     0
  9
$USERR1
 40
0.0
  9
$USERR2
 40
0.0
  9
$USERR3
 40
0.0
  9
$USERR4
 40
0.0
  9
$USERR5
 40
0.0
  9
$WORLDVIEW
 70
     1
  9
$SHADEDGE
 70
     3
  9
$SHADEDIF
 70
    70
  9
$TILEMODE
 70
     1
  9
$MAXACTVP
 70
    64
  9
$PINSBASE
 10
0.0
 20
0.0
 30
0.0
  9
$PLIMCHECK
 70
     0
  9
$PEXTMIN
 10
1.0000000000E+20
 20
1.0000000000E+20
 30
1.0000000000E+20
  9
$PEXTMAX
 10
-1.0000000000E+20
 20
-1.0000000000E+20
 30
-1.0000000000E+20
  9
$PLIMMIN
 10
0.0
 20
0.0
  9
$PLIMMAX
 10
12.0
 20
9.0
  9
$UNITMODE
 70
     0
  9
$VISRETAIN
 70
     1
  9
$PLINEGEN
 70
     0
  9
$PSLTSCALE
 70
     1
  9
$TREEDEPTH
 70
  3020
  9
$CMLSTYLE
  2
Standard
  9
$CMLJUST
 70
     0
  9
$CMLSCALE
 40
1.0
  9
$PROXYGRAPHICS
 70
     1
  9
$MEASUREMENT
 70
     0
  9
$CELWEIGHT
370
    -1
  9
$ENDCAPS
280
     0
  9
$JOINSTYLE
280
     0
  9
$LWDISPLAY
290
     1
  9
$INSUNITS
 70
     1
  9
$HYPERLINKBASE
  1

  9
$STYLESHEET
  1

  9
$XEDIT
290
     1
  9
$CEPSNTYPE
380
     0
  9
$PSTYLEMODE
290
     1
  9
$FINGERPRINTGUID
  2
{99d7c3dc-4b31-4ec3-bca0-6fb369ec4870}
  9
$VERSIONGUID
  2
{FAEB1C32-E019-11D5-929B-00C0DF256EC4}
  9
$EXTNAMES
290
     1
  9
$PSVPSCALE
 40
0.0
  9
$OLESTARTUP
290
     0
  0
ENDSEC
  0
SECTION
  2
CLASSES
  0
CLASS
  1
ACDBDICTIONARYWDFLT
  2
AcDbDictionaryWithDefault
  3
ObjectDBX Classes
 90
        0
280
     0
281
     0
  0
CLASS
  1
VISUALSTYLE
  2
AcDbVisualStyle
  3
ObjectDBX Classes
 90
     4095
280
     0
281
     0
  0
CLASS
  1
MATERIAL
  2
AcDbMaterial
  3
ObjectDBX Classes
 90
     1153
280
     0
281
     0
  0
CLASS
  1
SCALE
  2
AcDbScale
  3
ObjectDBX Classes
 90
     1153
280
     0
281
     0
  0
CLASS
  1
TABLESTYLE
  2
AcDbTableStyle
  3
ObjectDBX Classes
 90
     4095
280
     0
281
     0
  0
CLASS
  1
MLEADERSTYLE
  2
AcDbMLeaderStyle
  3
ACDB_MLEADERSTYLE_CLASS
 90
     4095
280
     0
281
     0
  0
CLASS
  1
SUN
  2
AcDbSun
  3
SCENEOE
 90
     1153
280
     0
281
     0
  0
CLASS
  1
ACDBPLACEHOLDER
  2
AcDbPlaceHolder
  3
ObjectDBX Classes
 90
        0
280
     0
281
     0
  0
CLASS
  1
LAYOUT
  2
AcDbLayout
  3
ObjectDBX Classes
 90
        0
280
     0
281
     0
  0
ENDSEC
  0
SECTION
  2
TABLES
  0
TABLE
  2
VPORT
  5
8
330
0
100
AcDbSymbolTable
 70
     1
  0
VPORT
  5
29
330
8
100
AcDbSymbolTableRecord
100
AcDbViewportTableRecord
  2
*Active
 70
     0
 10
0.0
 20
0.0
 11
1.0
 21
1.0
 12
11.0
 22
8.5
 13
0.0
 23
0.0
 14
0.5
 24
0.5
 15
0.5
 25
0.5
 16
0.0
 26
0.0
 36
1.0
 17
0.0
 27
0.0
 37
0.0
 40
17.0
 41
1.2941176471
 42
50.0
 43
0.0
 44
0.0
 50
0.0
 51
0.0
 71
     0
 72
  2000
 73
     1
 74
     3
 75
     0
 76
     0
 77
     0
 78
     0
281
     0
 65
     1
110
0.0
120
0.0
130
0.0
111
1.0
121
0.0
131
0.0
112
0.0
122
1.0
132
0.0
 79
     0
146
0.0
  0
ENDTAB
  0
TABLE
  2
LTYPE
  5
5
330
0
100
AcDbSymbolTable
 70
     6
  0
LTYPE
  5
14
330
5
100
AcDbSymbolTableRecord
100
AcDbLinetypeTableRecord
  2
ByBlock
 70
     0
  3

 72
    65
 73
     0
 40
0.0
  0
LTYPE
  5
15
330
5
100
AcDbSymbolTableRecord
100
AcDbLinetypeTableRecord
  2
ByLayer
 70
     0
  3

 72
    65
 73
     0
 40
0.0
  0
LTYPE
  5
16
330
5
100
AcDbSymbolTableRecord
100
AcDbLinetypeTableRecord
  2
Continuous
 70
     0
  3
Solid line
 72
    65
 73
     0
 40
0.0
  0
LTYPE
  5
6E
330
5
100
AcDbSymbolTableRecord
100
AcDbLinetypeTableRecord
  2
HIDDEN
 70
     0
  3
Hidden __ __ __ __ __ __ __ __ __ __ __ __ __ __
 72
    65
 73
     2
 40
0.075
 49
0.05
 74
     0
 49
-0.025
 74
     0
  0
LTYPE
  5
6F
330
5
100
AcDbSymbolTableRecord
100
AcDbLinetypeTableRecord
  2
PHANTOM
 70
     0
  3
Phantom ______  __  __  ______  __  __  ______
 72
    65
 73
     6
 40
0.5
 49
0.25
 74
     0
 49
-0.05
 74
     0
 49
0.05
 74
     0
 49
-0.05
 74
     0
 49
0.05
 74
     0
 49
-0.05
 74
     0
  0
LTYPE
  5
70
330
5
100
AcDbSymbolTableRecord
100
AcDbLinetypeTableRecord
  2
CENTER
 70
     0
  3
Center ____ _ ____ _ ____ _ ____ _ ____ _ ____
 72
    65
 73
     4
 40
0.4
 49
0.25
 74
     0
 49
-0.05
 74
     0
 49
0.05
 74
     0
 49
-0.05
 74
     0
  0
LTYPE
  5
71
330
5
100
AcDbSymbolTableRecord
100
AcDbLinetypeTableRecord
  2
CENTERX2
 70
     0
  3
Center (2x) ________  __  ________  __  _____
 72
    65
 73
     4
 40
0.8
 49
0.5
 74
     0
 49
-0.1
 74
     0
 49
0.1
 74
     0
 49
-0.1
 74
     0
  0
LTYPE
  5
72
330
5
100
AcDbSymbolTableRecord
100
AcDbLinetypeTableRecord
  2
DOT2
 70
     0
  3
Dot (.5x) ........................................
 72
    65
 73
     2
 40
0.025
 49
0.0
 74
     0
 49
-0.025
 74
     0
  0
ENDTAB
  0
TABLE
  2
LAYER
  5
2
330
0
100
AcDbSymbolTable
 70
     8
  0
LAYER
  5
10
330
2
100
AcDbSymbolTableRecord
100
AcDbLayerTableRecord
  2
0
 70
     0
 62
     7
  6
Continuous
370
    -3
390
F
  0
LAYER
  5
73
330
2
100
AcDbSymbolTableRecord
100
AcDbLayerTableRecord
  2
SLD-0
 70
     0
 62
   179
  6
Continuous
370
    -3
390
F
  0
LAYER
  5
74
330
2
100
AcDbSymbolTableRecord
100
AcDbLayerTableRecord
  2
OBJECTS
 70
     0
 62
     5
  6
Continuous
370
    -3
390
F
  0
LAYER
  5
75
330
2
100
AcDbSymbolTableRecord
100
AcDbLayerTableRecord
  2
DIMS
 70
     0
 62
     1
  6
Continuous
370
    -3
390
F
  0
LAYER
  5
76
330
2
100
AcDbSymbolTableRecord
100
AcDbLayerTableRecord
  2
NOTES
 70
     0
 62
     7
  6
Continuous
370
    -3
390
F
  0
LAYER
  5
77
330
2
100
AcDbSymbolTableRecord
100
AcDbLayerTableRecord
  2
IMAGES
 70
     0
 62
     7
  6
Continuous
370
    -3
390
F
  0
LAYER
  5
78
330
2
100
AcDbSymbolTableRecord
100
AcDbLayerTableRecord
  2
CENTERLINES
 70
     0
 62
     7
  6
HIDDEN
370
    -3
390
F
  0
LAYER
  5
79
330
2
100
AcDbSymbolTableRecord
100
AcDbLayerTableRecord
  2
BLOCKS
 70
     0
 62
    16
  6
Continuous
370
    -3
390
F
  0
ENDTAB
  0
TABLE
  2
STYLE
  5
3
330
0
100
AcDbSymbolTable
 70
     2
  0
STYLE
  5
11
330
3
100
AcDbSymbolTableRecord
100
AcDbTextStyleTableRecord
  2
Standard
 70
     0
 40
0.0
 41
1.0
 50
0.0
 71
     0
 42
0.2777777778
  3
txt
  4

  0
STYLE
  5
BC
330
3
100
AcDbSymbolTableRecord
100
AcDbTextStyleTableRecord
  2
SLDTEXTSTYLE0
 70
     0
 40
0.0
 41
0.605
 50
0.0
 71
     0
 42
0.2777777778
  3
TXT
  4

  0
ENDTAB
  0
TABLE
  2
VIEW
  5
6
330
0
100
AcDbSymbolTable
 70
     0
  0
ENDTAB
  0
TABLE
  2
UCS
  5
7
330
0
100
AcDbSymbolTable
 70
     0
  0
ENDTAB
  0
TABLE
  2
APPID
  5
9
330
0
100
AcDbSymbolTable
 70
     1
  0
APPID
  5
12
330
9
100
AcDbSymbolTableRecord
100
AcDbRegAppTableRecord
  2
ACAD
 70
     0
  0
ENDTAB
  0
TABLE
  2
DIMSTYLE
  5
A
330
0
100
AcDbSymbolTable
 70
     5
100
AcDbDimStyleTable
  0
DIMSTYLE
105
27
330
A
100
AcDbSymbolTableRecord
100
AcDbDimStyleTableRecord
  2
Standard
 70
     0
178
     0
340
11
  0
DIMSTYLE
105
116
102
{ACAD_REACTORS
330
115
330
154
330
169
102
}
330
A
100
AcDbSymbolTableRecord
100
AcDbDimStyleTableRecord
  2
SLDDIMSTYLE0
 70
     0
 41
0.125
 44
0.0
 45
0.000000001
 78
    12
 79
     3
140
0.2224527995
147
0.0556131999
148
0.000000001
170
     1
171
     0
173
     1
178
     0
271
     6
272
     3
274
     0
276
     2
277
     5
284
    12
340
BC
  0
DIMSTYLE
105
12C
102
{ACAD_REACTORS
330
12B
102
}
330
A
100
AcDbSymbolTableRecord
100
AcDbDimStyleTableRecord
  2
SLDDIMSTYLE1
 70
     0
 41
0.125
 44
0.0
 45
0.000000001
 78
    12
 79
     3
140
0.2224527995
147
0.0556131999
148
0.000000001
170
     1
171
     0
173
     1
178
     0
271
     3
272
     3
274
     0
276
     2
277
     5
284
    12
340
BC
  0
DIMSTYLE
105
140
102
{ACAD_REACTORS
330
13F
330
180
102
}
330
A
100
AcDbSymbolTableRecord
100
AcDbDimStyleTableRecord
  2
SLDDIMSTYLE2
 70
     0
 41
0.125
 44
0.0
 45
0.000000001
 78
    12
 79
     3
140
0.2224527995
141
0.0
147
0.0556131999
148
0.000000001
170
     1
171
     0
173
     1
178
     0
271
     3
272
     3
274
     0
276
     2
277
     5
284
    12
340
BC
  0
DIMSTYLE
105
19C
330
A
100
AcDbSymbolTableRecord
100
AcDbDimStyleTableRecord
  2
SLDDIMSTYLE3
 70
     0
 41
0.125
 44
0.0
 45
0.000000001
146
0.125
147
0.0
173
     1
178
     0
271
     0
272
     0
276
     2
277
     5
340
11
  0
ENDTAB
  0
TABLE
  2
BLOCK_RECORD
  5
1
330
0
100
AcDbSymbolTable
 70
    19
  0
BLOCK_RECORD
  5
1F
330
1
100
AcDbSymbolTableRecord
100
AcDbBlockTableRecord
  2
*Model_Space
340
22
  0
BLOCK_RECORD
  5
1B
330
1
100
AcDbSymbolTableRecord
100
AcDbBlockTableRecord
  2
*Paper_Space
340
1E
  0
BLOCK_RECORD
  5
23
330
1
100
AcDbSymbolTableRecord
100
AcDbBlockTableRecord
  2
*Paper_Space0
340
26
  0
BLOCK_RECORD
  5
7A
330
1
100
AcDbSymbolTableRecord
100
AcDbBlockTableRecord
  2
REVEAL- .500_
340
0
102
{BLKREFS
331
113
102
}
  0
BLOCK_RECORD
  5
AC
330
1
100
AcDbSymbolTableRecord
100
AcDbBlockTableRecord
  2
SW_BLOCK_DIMENSION_0
340
0
102
{BLKREFS
331
C3
102
}
  0
BLOCK_RECORD
  5
C4
330
1
100
AcDbSymbolTableRecord
100
AcDbBlockTableRecord
  2
TOPMOUNT-.3125_
340
0
102
{BLKREFS
331
114
102
}
  0
BLOCK_RECORD
  5
D9
330
1
100
AcDbSymbolTableRecord
100
AcDbBlockTableRecord
  2
SW_BLOCK_DIMENSION_1
340
0
102
{BLKREFS
331
EE
102
}
  0
BLOCK_RECORD
  5
117
330
1
100
AcDbSymbolTableRecord
100
AcDbBlockTableRecord
  2
_D
340
0
  0
BLOCK_RECORD
  5
12D
330
1
100
AcDbSymbolTableRecord
100
AcDbBlockTableRecord
  2
_D_1
340
0
  0
BLOCK_RECORD
  5
141
330
1
100
AcDbSymbolTableRecord
100
AcDbBlockTableRecord
  2
_D_2
340
0
  0
BLOCK_RECORD
  5
155
330
1
100
AcDbSymbolTableRecord
100
AcDbBlockTableRecord
  2
_D_3
340
0
  0
BLOCK_RECORD
  5
16A
330
1
100
AcDbSymbolTableRecord
100
AcDbBlockTableRecord
  2
_D_4
340
0
  0
BLOCK_RECORD
  5
181
330
1
100
AcDbSymbolTableRecord
100
AcDbBlockTableRecord
  2
_D_5
340
0
  0
BLOCK_RECORD
  5
194
330
1
100
AcDbSymbolTableRecord
100
AcDbBlockTableRecord
  2
SW_NOTE_0
340
0
102
{BLKREFS
331
19B
102
}
  0
BLOCK_RECORD
  5
19F
330
1
100
AcDbSymbolTableRecord
100
AcDbBlockTableRecord
  2
SW_NOTE_0_1
340
0
102
{BLKREFS
331
1AF
102
}
  0
BLOCK_RECORD
  5
1B1
330
1
100
AcDbSymbolTableRecord
100
AcDbBlockTableRecord
  2
SW_NOTE_0_2
340
0
102
{BLKREFS
331
1BA
102
}
  0
BLOCK_RECORD
  5
1BC
330
1
100
AcDbSymbolTableRecord
100
AcDbBlockTableRecord
  2
SW_NOTE_0_3
340
0
102
{BLKREFS
331
1C6
102
}
  0
BLOCK_RECORD
  5
1C8
330
1
100
AcDbSymbolTableRecord
100
AcDbBlockTableRecord
  2
SW_NOTE_0_4
340
0
102
{BLKREFS
331
1CD
102
}
  0
BLOCK_RECORD
  5
1CE
330
1
100
AcDbSymbolTableRecord
100
AcDbBlockTableRecord
  2
SW_NOTE_0_5
340
0
102
{BLKREFS
331
1D7
102
}
  0
BLOCK_RECORD
  5
1D9
330
1
100
AcDbSymbolTableRecord
100
AcDbBlockTableRecord
  2
SW_NOTE_0_6
340
0
102
{BLKREFS
331
1DF
102
}
  0
BLOCK_RECORD
  5
1E1
330
1
100
AcDbSymbolTableRecord
100
AcDbBlockTableRecord
  2
SW_NOTE_0_7
340
0
102
{BLKREFS
331
1E7
102
}
  0
ENDTAB
  0
ENDSEC
  0
SECTION
  2
BLOCKS
  0
BLOCK
  5
20
330
1F
100
AcDbEntity
  8
0
100
AcDbBlockBegin
  2
*Model_Space
 70
     0
 10
0.0
 20
0.0
 30
0.0
  3
*Model_Space
  1

  0
ENDBLK
  5
21
330
1F
100
AcDbEntity
  8
0
100
AcDbBlockEnd
  0
BLOCK
  5
1C
330
1B
100
AcDbEntity
 67
     1
  8
0
100
AcDbBlockBegin
  2
*Paper_Space
 70
     0
 10
0.0
 20
0.0
 30
0.0
  3
*Paper_Space
  1

  0
ENDBLK
  5
1D
330
1B
100
AcDbEntity
 67
     1
  8
0
100
AcDbBlockEnd
  0
BLOCK
  5
24
330
23
100
AcDbEntity
  8
0
100
AcDbBlockBegin
  2
*Paper_Space0
 70
     0
 10
0.0
 20
0.0
 30
0.0
  3
*Paper_Space0
  1

  0
ENDBLK
  5
25
330
23
100
AcDbEntity
  8
0
100
AcDbBlockEnd
  0
BLOCK
  5
7B
330
7A
100
AcDbEntity
  8
0
100
AcDbBlockBegin
  2
REVEAL- .500_
 70
     0
 10
0.0
 20
0.0
 30
0.0
  3
REVEAL- .500_
  1

  0
ARC
  5
7D
330
7A
100
AcDbEntity
  8
BLOCKS
100
AcDbCircle
 10
20.1601934329
 20
28.8878838846
 30
0.0
 40
0.2338576391325233
100
AcDbArc
 50
0.0
 51
90.0
  0
ARC
  5
7E
330
7A
100
AcDbEntity
  8
BLOCKS
100
AcDbCircle
 10
19.8280715192
 20
29.4726468145
 30
0.0
 40
0.0659795528056719
100
AcDbArc
 50
0.0
 51
90.0
  0
ARC
  5
7F
330
7A
100
AcDbEntity
  8
BLOCKS
100
AcDbCircle
 10
19.0470381676
 20
28.990848696
 30
0.0
 40
0.0881257319589152
100
AcDbArc
 50
200.9822712638
 51
339.0177287362
  0
ARC
  5
80
330
7A
100
AcDbEntity
  8
BLOCKS
100
AcDbCircle
 10
20.1601934329
 20
28.8878838846
 30
0.0
 40
0.1878262552218324
100
AcDbArc
 50
0.0
 51
90.0
  0
LINE
  5
81
330
7A
100
AcDbEntity
  8
BLOCKS
100
AcDbLine
 10
19.8280715192
 20
29.5386263673
 30
0.0
 11
18.2509355515
 21
29.5386263673
 31
0.0
  0
LINE
  5
82
330
7A
100
AcDbEntity
  8
BLOCKS
100
AcDbLine
 10
18.2806192052
 20
29.1434426864
 30
0.0
 11
19.894051072
 21
29.1434426864
 31
0.0
  0
LINE
  5
83
330
7A
100
AcDbEntity
  8
BLOCKS
100
AcDbLine
 10
19.3470309437
 20
29.1217415238
 30
0.0
 11
20.1601934329
 21
29.1217415238
 31
0.0
  0
LINE
  5
84
330
7A
100
AcDbEntity
  8
BLOCKS
100
AcDbLine
 10
20.394051072
 20
28.8878838846
 30
0.0
 11
20.394051072
 21
28.4971795949
 31
0.0
  0
LINE
  5
85
330
7A
100
AcDbEntity
  8
BLOCKS
100
AcDbLine
 10
20.394051072
 20
28.4971795949
 30
0.0
 11
20.3480196881
 21
28.4971795949
 31
0.0
  0
LINE
  5
86
330
7A
100
AcDbEntity
  8
BLOCKS
100
AcDbLine
 10
20.3480196881
 20
28.4971795949
 30
0.0
 11
20.3480196881
 21
28.8878838846
 31
0.0
  0
LINE
  5
87
330
7A
100
AcDbEntity
  8
BLOCKS
100
AcDbLine
 10
20.1601934329
 20
29.0757101398
 30
0.0
 11
19.3470309437
 21
29.0757101398
 31
0.0
  0
LINE
  5
88
330
7A
100
AcDbEntity
  8
BLOCKS
100
AcDbLine
 10
19.3470309437
 20
29.0757101398
 30
0.0
 11
19.3470309437
 21
29.1217415238
 31
0.0
  0
LINE
  5
89
330
7A
100
AcDbEntity
  8
BLOCKS
100
AcDbLine
 10
19.679261078
 20
29.0223488565
 30
0.0
 11
19.7319208682
 21
29.073015856
 31
0.0
  0
LINE
  5
8A
330
7A
100
AcDbEntity
  8
BLOCKS
100
AcDbLine
 10
19.7319208682
 20
29.073015856
 30
0.0
 11
19.7745573648
 21
29.0287024176
 31
0.0
  0
LINE
  5
8B
330
7A
100
AcDbEntity
  8
BLOCKS
100
AcDbLine
 10
19.7745573648
 20
29.0287024176
 30
0.0
 11
19.705650009
 21
28.9624027047
 31
0.0
  0
LINE
  5
8C
330
7A
100
AcDbEntity
  8
BLOCKS
100
AcDbLine
 10
18.4381035755
 20
29.0888229672
 30
0.0
 11
18.385550816
 21
29.1434426864
 31
0.0
  0
LINE
  5
8D
330
7A
100
AcDbEntity
  8
BLOCKS
100
AcDbLine
 10
18.385550816
 20
29.1434426864
 30
0.0
 11
18.3431444562
 21
29.1026410993
 31
0.0
  0
LINE
  5
8E
330
7A
100
AcDbEntity
  8
BLOCKS
100
AcDbLine
 10
18.3431444562
 20
29.1026410993
 30
0.0
 11
18.4052557657
 21
29.0380868815
 31
0.0
  0
LINE
  5
8F
330
7A
100
AcDbEntity
  8
BLOCKS
100
AcDbLine
 10
18.4381035755
 20
29.0888229672
 30
0.0
 11
19.679261078
 21
29.0223488565
 31
0.0
  0
LINE
  5
90
330
7A
100
AcDbEntity
  8
BLOCKS
100
AcDbLine
 10
19.705650009
 20
28.9624027047
 30
0.0
 11
18.4052557657
 21
29.0380868815
 31
0.0
  0
LINE
  5
91
330
7A
100
AcDbEntity
  8
BLOCKS
100
AcDbLine
 10
19.1283677378
 20
29.0518536895
 30
0.0
 11
19.1283677378
 21
28.9960010797
 31
0.0
  0
LINE
  5
92
330
7A
100
AcDbEntity
  8
BLOCKS
100
AcDbLine
 10
18.9737480593
 20
29.0601348348
 30
0.0
 11
18.9737480593
 21
29.0050000915
 31
0.0
  0
LINE
  5
93
330
7A
100
AcDbEntity
  8
BLOCKS
100
AcDbLine
 10
18.964755941
 20
28.9592927168
 30
0.0
 11
19.1293203942
 21
28.9592927168
 31
0.0
  0
LINE
  5
94
330
7A
100
AcDbEntity
  8
BLOCKS
100
AcDbLine
 10
19.0095275609
 20
29.3495924534
 30
0.0
 11
19.0095275609
 21
28.9592927168
 31
0.0
  0
LINE
  5
95
330
7A
100
AcDbEntity
  8
BLOCKS
100
AcDbLine
 10
19.0864194327
 20
29.3495924534
 30
0.0
 11
19.0864194327
 21
28.9592927168
 31
0.0
  0
LINE
  5
96
330
7A
100
AcDbEntity
  8
BLOCKS
100
AcDbLine
 10
18.9467524826
 20
29.0033177842
 30
0.0
 11
19.1591684741
 21
28.9909549723
 31
0.0
  0
LINE
  5
97
330
7A
100
AcDbEntity
  8
BLOCKS
100
AcDbLine
 10
19.0095275609
 20
29.3495924534
 30
0.0
 11
19.0474925407
 21
29.4047818344
 31
0.0
  0
LINE
  5
98
330
7A
100
AcDbEntity
  8
BLOCKS
100
AcDbLine
 10
19.0474925407
 20
29.4047818344
 30
0.0
 11
19.0864194327
 21
29.3495924534
 31
0.0
  0
LINE
  5
99
330
7A
100
AcDbEntity
  8
BLOCKS
100
AcDbLine
 10
19.1572986604
 20
28.9588281114
 30
0.0
 11
18.9448826689
 21
28.9711909233
 31
0.0
  0
LINE
  5
9A
330
7A
100
AcDbEntity
  8
BLOCKS
100
AcDbLine
 10
19.1591684741
 20
28.9909549723
 30
0.0
 11
19.1572986604
 21
28.9588281114
 31
0.0
  0
LINE
  5
9B
330
7A
100
AcDbEntity
  8
BLOCKS
100
AcDbLine
 10
18.9467524826
 20
29.0033177842
 30
0.0
 11
18.9448826689
 21
28.9711909233
 31
0.0
  0
LINE
  5
9C
330
7A
100
AcDbEntity
  8
BLOCKS
100
AcDbLine
 10
19.1142839592
 20
29.1434426864
 30
0.0
 11
19.1142839592
 21
29.4238049236
 31
0.0
  0
LINE
  5
9D
330
7A
100
AcDbEntity
  8
BLOCKS
100
AcDbLine
 10
19.1142839592
 20
29.4238049236
 30
0.0
 11
18.9877469673
 21
29.4238049236
 31
0.0
  0
LINE
  5
9E
330
7A
100
AcDbEntity
  8
BLOCKS
100
AcDbLine
 10
18.9877469673
 20
29.4238049236
 30
0.0
 11
18.9877469673
 21
29.1434426864
 31
0.0
  0
LINE
  5
9F
330
7A
100
AcDbEntity
  8
BLOCKS
  6
Continuous
100
AcDbLine
 10
19.894051072
 20
29.1434426864
 30
0.0
 11
19.894051072
 21
29.4726468145
 31
0.0
  0
LINE
  5
A0
330
7A
100
AcDbEntity
  8
BLOCKS
100
AcDbLine
 10
19.3020232313
 20
29.1434426864
 30
0.0
 11
19.3470309437
 21
29.0987258318
 31
0.0
  0
LINE
  5
A1
330
7A
100
AcDbEntity
  8
BLOCKS
100
AcDbLine
 10
19.894051072
 20
29.1434426864
 30
0.0
 11
19.9068063572
 21
29.1217415238
 31
0.0
  0
SPLINE
  5
A2
330
7A
100
AcDbEntity
  8
BLOCKS
100
AcDbSpline
210
0.0
220
0.0
230
1.0
 70
     8
 71
     3
 72
     9
 73
     5
 74
     0
 42
0.00000001
 43
0.00000001
 40
0.0
 40
0.0
 40
0.0
 40
0.0
 40
0.5928291688347104
 40
1.0
 40
1.0
 40
1.0
 40
1.0
 10
18.28061920517429
 20
29.14344268635683
 30
0.0
 10
18.23604355296101
 20
29.22927712752979
 30
0.0
 10
18.31552651528452
 20
29.34850064146642
 30
0.0
 10
18.29741369383499
 20
29.50274888669876
 30
0.0
 10
18.25093555152442
 20
29.53862636728042
 30
0.0
  0
HATCH
  5
A3
330
7A
100
AcDbEntity
  8
BLOCKS
 62
    16
100
AcDbHatch
 10
0.0
 20
0.0
 30
0.0
210
0.0
220
0.0
230
1.0
  2
ANSI36
 70
     0
 71
     0
 91
        1
 92
        0
 93
       10
 72
     4
 94
        3
 73
     1
 74
     0
 95
        9
 96
        5
 40
0.0
 40
0.0
 40
0.0
 40
0.0
 40
0.4071708311652896
 40
1.0
 40
1.0
 40
1.0
 40
1.0
 10
18.25093555152442
 20
29.53862636728042
 42
1.0
 10
18.29741369383499
 20
29.50274888669875
 42
1.0
 10
18.31552651528452
 20
29.34850064146643
 42
1.0
 10
18.23604355296101
 20
29.22927712752978
 42
1.0
 10
18.28061920517429
 20
29.14344268635683
 42
1.0
 72
     1
 10
18.28061920517429
 20
29.14344268635683
 11
18.98774696730679
 21
29.14344268635683
 72
     1
 10
18.98774696730679
 20
29.14344268635683
 11
18.98774696730679
 21
29.42380492355081
 72
     1
 10
18.98774696730679
 20
29.42380492355081
 11
19.11428395924128
 21
29.42380492355081
 72
     1
 10
19.11428395924128
 20
29.42380492355081
 11
19.11428395924128
 21
29.14344268635683
 72
     1
 10
19.11428395924128
 20
29.14344268635683
 11
19.30202323130653
 21
29.14344268635683
 72
     1
 10
19.30202323130653
 20
29.14344268635683
 11
19.89405107202551
 21
29.14344268635683
 72
     1
 10
19.89405107202551
 20
29.14344268635683
 11
19.89405107202551
 21
29.47264681447475
 72
     2
 10
19.82807151921984
 20
29.47264681447475
 40
0.0659795528056717
 50
0.0
 51
90.0
 73
     1
 72
     1
 10
19.82807151921984
 20
29.53862636728042
 11
18.25093555152442
 21
29.53862636728042
 97
        0
 75
     0
 76
     1
 52
0.0
 41
0.5
 77
     0
 78
     1
 53
45.0
 43
0.0
 44
0.0
 45
0.0331456303681194
 46
0.1215339780164379
 79
     4
 49
0.15625
 49
-0.03125
 49
0.0
 49
-0.03125
 98
        1
 10
0.0
 20
0.0
  0
HATCH
  5
A4
330
7A
100
AcDbEntity
  8
BLOCKS
 62
    16
100
AcDbHatch
 10
0.0
 20
0.0
 30
0.0
210
0.0
220
0.0
230
1.0
  2
ANSI32
 70
     0
 71
     0
 91
        1
 92
        0
 93
        5
 72
     1
 10
19.08641943273533
 20
29.34959245337754
 11
19.04749254074577
 21
29.40478183438993
 72
     1
 10
19.04749254074577
 20
29.40478183438993
 11
19.00952756093279
 21
29.34959245337754
 72
     1
 10
19.00952756093279
 20
29.34959245337754
 11
19.00952756093279
 21
29.14344268635683
 72
     1
 10
19.00952756093279
 20
29.14344268635683
 11
19.08641943273533
 21
29.14344268635683
 72
     1
 10
19.08641943273533
 20
29.14344268635683
 11
19.08641943273533
 21
29.34959245337754
 97
        0
 75
     0
 76
     1
 52
0.0
 41
0.1666666667
 77
     0
 78
     2
 53
45.0
 43
0.0
 44
0.0
 45
-0.0441941738241592
 46
0.0441941738241592
 79
     0
 53
45.0
 43
0.0294627825
 44
0.0
 45
-0.0441941738241592
 46
0.0441941738241592
 79
     0
 98
        1
 10
0.0
 20
0.0
  0
HATCH
  5
A5
330
7A
100
AcDbEntity
  8
BLOCKS
 62
    16
100
AcDbHatch
 10
0.0
 20
0.0
 30
0.0
210
0.0
220
0.0
230
1.0
  2
ANSI32
 70
     0
 71
     0
 91
        1
 92
        0
 93
        4
 72
     1
 10
19.08641943273533
 20
29.05410036351303
 11
19.08641943273533
 21
29.14344268635683
 72
     1
 10
19.08641943273533
 20
29.14344268635683
 11
19.00952756093279
 21
29.14344268635683
 72
     1
 10
19.00952756093279
 20
29.14344268635683
 11
19.00952756093279
 21
29.05821855059726
 72
     1
 10
19.00952756093279
 20
29.05821855059726
 11
19.08641943273533
 21
29.05410036351303
 97
        0
 75
     0
 76
     1
 52
0.0
 41
0.1666666667
 77
     0
 78
     2
 53
45.0
 43
0.0
 44
0.0
 45
-0.0441941738241592
 46
0.0441941738241592
 79
     0
 53
45.0
 43
0.0294627825
 44
0.0
 45
-0.0441941738241592
 46
0.0441941738241592
 79
     0
 98
        1
 10
0.0
 20
0.0
  0
HATCH
  5
A6
330
7A
100
AcDbEntity
  8
BLOCKS
 62
    16
100
AcDbHatch
 10
0.0
 20
0.0
 30
0.0
210
0.0
220
0.0
230
1.0
  2
ANSI32
 70
     0
 71
     0
 91
        1
 92
        0
 93
        4
 72
     1
 10
19.08641943273533
 20
28.99844251081363
 11
19.08641943273533
 21
29.05410036351303
 72
     1
 10
19.08641943273533
 20
29.05410036351303
 11
19.00952756093279
 21
29.05821855059726
 72
     1
 10
19.00952756093279
 20
29.05821855059726
 11
19.00952756093279
 21
29.00291769059305
 72
     1
 10
19.00952756093279
 20
29.00291769059305
 11
19.08641943273533
 21
28.99844251081363
 97
        0
 75
     0
 76
     1
 52
0.0
 41
0.1666666667
 77
     0
 78
     2
 53
45.0
 43
0.0
 44
0.0
 45
-0.0441941738241592
 46
0.0441941738241592
 79
     0
 53
45.0
 43
0.0294627825
 44
0.0
 45
-0.0441941738241592
 46
0.0441941738241592
 79
     0
 98
        1
 10
0.0
 20
0.0
  0
HATCH
  5
A7
330
7A
100
AcDbEntity
  8
BLOCKS
 62
    16
100
AcDbHatch
 10
0.0
 20
0.0
 30
0.0
210
0.0
220
0.0
230
1.0
  2
ANSI32
 70
     0
 71
     0
 91
        1
 92
        0
 93
        4
 72
     1
 10
19.00952756093279
 20
28.96742852935006
 11
19.08641943273534
 21
28.96295334957064
 72
     1
 10
19.08641943273534
 20
28.96295334957064
 11
19.08641943273534
 21
28.99518903540131
 72
     1
 10
19.08641943273534
 20
28.99518903540131
 11
19.0095275609328
 21
28.99966421518074
 72
     1
 10
19.0095275609328
 20
28.99966421518074
 11
19.00952756093279
 21
28.96742852935006
 97
        0
 75
     0
 76
     1
 52
0.0
 41
0.1666666667
 77
     0
 78
     2
 53
45.0
 43
0.0
 44
0.0
 45
-0.0441941738241592
 46
0.0441941738241592
 79
     0
 53
45.0
 43
0.0294627825
 44
0.0
 45
-0.0441941738241592
 46
0.0441941738241592
 79
     0
 98
        1
 10
0.0
 20
0.0
  0
HATCH
  5
A8
330
7A
100
AcDbEntity
  8
BLOCKS
 62
    16
100
AcDbHatch
 10
0.0
 20
0.0
 30
0.0
210
0.0
220
0.0
230
1.0
  2
ANSI32
 70
     0
 71
     0
 91
        1
 92
        0
 93
        4
 72
     1
 10
19.0095275609328
 20
28.99966421518074
 11
18.94675248259694
 21
29.00331778420741
 72
     1
 10
18.94675248259694
 20
29.00331778420741
 11
18.94488266885844
 21
28.97119092330762
 72
     1
 10
18.94488266885844
 20
28.97119092330762
 11
19.00952756093279
 21
28.96742852935006
 72
     1
 10
19.00952756093279
 20
28.96742852935006
 11
19.0095275609328
 21
28.99966421518074
 97
        0
 75
     0
 76
     1
 52
0.0
 41
0.1666666667
 77
     0
 78
     2
 53
45.0
 43
0.0
 44
0.0
 45
-0.0441941738241592
 46
0.0441941738241592
 79
     0
 53
45.0
 43
0.0294627825
 44
0.0
 45
-0.0441941738241592
 46
0.0441941738241592
 79
     0
 98
        1
 10
0.0
 20
0.0
  0
HATCH
  5
A9
330
7A
100
AcDbEntity
  8
BLOCKS
 62
    16
100
AcDbHatch
 10
0.0
 20
0.0
 30
0.0
210
0.0
220
0.0
230
1.0
  2
ANSI32
 70
     0
 71
     0
 91
        1
 92
        0
 93
        4
 72
     1
 10
19.15729866039344
 20
28.95882811137627
 11
19.15916847413194
 21
28.99095497227606
 72
     1
 10
19.15916847413194
 20
28.99095497227606
 11
19.08641943273534
 21
28.99518903540131
 72
     1
 10
19.08641943273534
 20
28.99518903540131
 11
19.08641943273534
 21
28.96295334957064
 72
     1
 10
19.08641943273534
 20
28.96295334957064
 11
19.15729866039344
 21
28.95882811137627
 97
        0
 75
     0
 76
     1
 52
0.0
 41
0.1666666667
 77
     0
 78
     2
 53
45.0
 43
0.0
 44
0.0
 45
-0.0441941738241592
 46
0.0441941738241592
 79
     0
 53
45.0
 43
0.0294627825
 44
0.0
 45
-0.0441941738241592
 46
0.0441941738241592
 79
     0
 98
        1
 10
0.0
 20
0.0
  0
HATCH
  5
AA
330
7A
100
AcDbEntity
  8
BLOCKS
 62
    16
100
AcDbHatch
 10
0.0
 20
0.0
 30
0.0
210
0.0
220
0.0
230
1.0
  2
ANSI32
 70
     0
 71
     0
 91
        1
 92
        0
 93
        4
 72
     1
 10
19.00952756093279
 20
28.95929271682988
 11
18.96475594104669
 21
28.95929271682988
 72
     2
 10
19.04703816761627
 20
28.99084869604216
 40
0.0881257319589163
 50
200.9822712637957
 51
339.0177287362059
 73
     1
 72
     1
 10
19.12932039418586
 20
28.95929271682988
 11
19.08641943273533
 21
28.95929271682988
 72
     1
 10
19.08641943273533
 20
28.95929271682988
 11
19.00952756093279
 21
28.95929271682988
 97
        0
 75
     0
 76
     1
 52
0.0
 41
0.1666666667
 77
     0
 78
     2
 53
45.0
 43
0.0
 44
0.0
 45
-0.0441941738241592
 46
0.0441941738241592
 79
     0
 53
45.0
 43
0.0294627825
 44
0.0
 45
-0.0441941738241592
 46
0.0441941738241592
 79
     0
 98
        1
 10
0.0
 20
0.0
  0
HATCH
  5
AB
330
7A
100
AcDbEntity
  8
BLOCKS
 62
    16
100
AcDbHatch
 10
0.0
 20
0.0
 30
0.0
210
0.0
220
0.0
230
1.0
  2
SOLID
 70
     1
 71
     0
 91
        1
 92
        0
 93
        5
 72
     1
 10
19.90680635715495
 20
29.12174152375217
 11
19.89405107202551
 21
29.14344268635683
 72
     1
 10
19.89405107202551
 20
29.14344268635683
 11
19.30202323130653
 21
29.14344268635683
 72
     1
 10
19.30202323130653
 20
29.14344268635683
 11
19.34703094371573
 21
29.09872583179682
 72
     1
 10
19.34703094371573
 20
29.09872583179682
 11
19.34703094371572
 21
29.12174152375217
 72
     1
 10
19.34703094371572
 20
29.12174152375217
 11
19.90680635715495
 21
29.12174152375217
 97
        0
 75
     0
 76
     1
 98
        1
 10
0.0
 20
0.0
  0
INSERT
  5
C3
330
7A
100
AcDbEntity
  8
BLOCKS
100
AcDbBlockReference
  2
SW_BLOCK_DIMENSION_0
 10
19.9711023413
 20
29.6493704876
 30
0.0
  0
ENDBLK
  5
7C
330
7A
100
AcDbEntity
  8
0
100
AcDbBlockEnd
  0
BLOCK
  5
AD
330
AC
100
AcDbEntity
  8
0
100
AcDbBlockBegin
  2
SW_BLOCK_DIMENSION_0
 70
     0
 10
0.0
 20
0.0
 30
0.0
  3
SW_BLOCK_DIMENSION_0
  1

  0
SOLID
  5
AF
330
AC
100
AcDbEntity
  8
BLOCKS
 62
     0
100
AcDbTrace
 10
0.4229487308
 20
-0.0313006311
 30
0.0
 11
0.5240636396
 21
-0.0468567709
 31
0.0
 12
0.5240636396
 22
-0.0157444913
 32
0.0
 13
0.5240636396
 23
-0.0157444913
 33
0.0
  0
SOLID
  5
B0
330
AC
100
AcDbEntity
  8
BLOCKS
 62
     0
100
AcDbTrace
 10
-0.0770512692
 20
-0.0313006311
 30
0.0
 11
-0.1781661781
 21
-0.0157444913
 31
0.0
 12
-0.1781661781
 22
-0.0468567709
 32
0.0
 13
-0.1781661781
 23
-0.0468567709
 33
0.0
  0
LINE
  5
B1
330
AC
100
AcDbEntity
  8
BLOCKS
 62
     0
100
AcDbLine
 10
0.1071566371
 20
0.0798201425
 30
0.0
 11
0.2138310215
 21
0.0798201425
 31
0.0
  0
LINE
  5
B2
330
AC
100
AcDbEntity
  8
BLOCKS
 62
     0
100
AcDbLine
 10
0.1080246921
 20
-0.0940224566
 30
0.0
 11
0.0733024703
 21
-0.0940224566
 31
0.0
  0
LINE
  5
B3
330
AC
100
AcDbEntity
  8
BLOCKS
 62
     0
100
AcDbLine
 10
0.0733024703
 20
-0.0940224566
 30
0.0
 11
0.0733024703
 21
-0.249307956
 31
0.0
  0
LINE
  5
B4
330
AC
100
AcDbEntity
  8
BLOCKS
 62
     0
100
AcDbLine
 10
0.0733024703
 20
-0.249307956
 30
0.0
 11
0.1080246921
 21
-0.249307956
 31
0.0
  0
LINE
  5
B5
330
AC
100
AcDbEntity
  8
BLOCKS
 62
     0
100
AcDbLine
 10
0.262345686
 20
-0.0940224566
 30
0.0
 11
0.2970679078
 21
-0.0940224566
 31
0.0
  0
LINE
  5
B6
330
AC
100
AcDbEntity
  8
BLOCKS
 62
     0
100
AcDbLine
 10
0.2970679078
 20
-0.0940224566
 30
0.0
 11
0.2970679078
 21
-0.249307956
 31
0.0
  0
LINE
  5
B7
330
AC
100
AcDbEntity
  8
BLOCKS
 62
     0
100
AcDbLine
 10
0.2970679078
 20
-0.249307956
 30
0.0
 11
0.262345686
 21
-0.249307956
 31
0.0
  0
LINE
  5
B8
330
AC
100
AcDbEntity
  8
BLOCKS
 62
     0
100
AcDbLine
 10
0.4229487308
 20
-0.711486603
 30
0.0
 11
0.4229487308
 21
0.0936993689
 31
0.0
  0
LINE
  5
B9
330
AC
100
AcDbEntity
  8
BLOCKS
 62
     0
100
AcDbLine
 10
-0.0770512692
 20
-0.1267236731
 30
0.0
 11
-0.0770512692
 21
0.0936993689
 31
0.0
  0
LINE
  5
BA
330
AC
100
AcDbEntity
  8
BLOCKS
 62
     0
100
AcDbLine
 10
0.4229487308
 20
-0.0313006311
 30
0.0
 11
0.6174004786
 21
-0.0313006311
 31
0.0
  0
LINE
  5
BB
330
AC
100
AcDbEntity
  8
BLOCKS
 62
     0
100
AcDbLine
 10
-0.0770512692
 20
-0.0313006311
 30
0.0
 11
-0.271503017
 21
-0.0313006311
 31
0.0
  0
MTEXT
  5
BD
330
AC
100
AcDbEntity
  8
BLOCKS
 62
     0
100
AcDbMText
 10
0.0390625
 20
0.1342778896
 30
0.0
 40
0.1041666667
 41
0.0
 71
     1
 72
     1
  1

  7
SLDTEXTSTYLE0
 73
     1
 44
1.0
  0
MTEXT
  5
BE
330
AC
100
AcDbEntity
  8
BLOCKS
 62
     0
100
AcDbMText
 10
0.1219135808
 20
0.2052438631
 30
0.0
 40
0.1041666667
 41
0.0
 71
     1
 72
     1
  1
1
  7
SLDTEXTSTYLE0
 73
     1
 44
1.0
  0
MTEXT
  5
BF
330
AC
100
AcDbEntity
  8
BLOCKS
 62
     0
100
AcDbMText
 10
0.1219135808
 20
0.0634035871
 30
0.0
 40
0.1041666667
 41
0.0
 71
     1
 72
     1
  1
2
  7
SLDTEXTSTYLE0
 73
     1
 44
1.0
  0
MTEXT
  5
C0
330
AC
100
AcDbEntity
  8
BLOCKS
 62
     0
100
AcDbMText
 10
0.2285879652
 20
0.1342778896
 30
0.0
 40
0.1041666667
 41
0.0
 71
     1
 72
     1
  1
"
  7
SLDTEXTSTYLE0
 73
     1
 44
1.0
  0
MTEXT
  5
C1
330
AC
100
AcDbEntity
  8
BLOCKS
 62
     0
100
AcDbMText
 10
0.1080246921
 20
-0.1150300596
 30
0.0
 40
0.1041666667
 41
0.0
 71
     1
 72
     1
  1
13
  7
SLDTEXTSTYLE0
 73
     1
 44
1.0
  0
MTEXT
  5
C2
330
AC
100
AcDbEntity
  8
BLOCKS
 62
     0
100
AcDbMText
 10
0.3708526205
 20
0.1342778896
 30
0.0
 40
0.1041666667
 41
0.0
 71
     1
 72
     1
  1

  7
SLDTEXTSTYLE0
 73
     1
 44
1.0
  0
ENDBLK
  5
AE
330
AC
100
AcDbEntity
  8
0
100
AcDbBlockEnd
  0
BLOCK
  5
C5
330
C4
100
AcDbEntity
  8
0
100
AcDbBlockBegin
  2
TOPMOUNT-.3125_
 70
     0
 10
0.0
 20
0.0
 30
0.0
  3
TOPMOUNT-.3125_
  1

  0
ARC
  5
C7
330
C4
100
AcDbEntity
  8
SLD-0
100
AcDbCircle
 10
4.1513711884
 20
-8.673176012
 30
0.0
 40
0.2333367804802293
100
AcDbArc
 50
0.0
 51
90.0
  0
ARC
  5
C8
330
C4
100
AcDbEntity
  8
SLD-0
100
AcDbCircle
 10
3.8414672068
 20
-8.5251000469
 30
0.0
 40
0.0041583245038872
100
AcDbArc
 50
0.0
 51
90.0
  0
ARC
  5
C9
330
C4
100
AcDbEntity
  8
SLD-0
100
AcDbCircle
 10
4.1513711884
 20
-8.673176012
 30
0.0
 40
0.1874525384626438
100
AcDbArc
 50
0.0
 51
90.0
  0
LINE
  5
CA
330
C4
100
AcDbEntity
  8
SLD-0
100
AcDbLine
 10
3.8414672068
 20
-8.5209417224
 30
0.0
 11
2.5408771735
 21
-8.5209417224
 31
0.0
  0
LINE
  5
CB
330
C4
100
AcDbEntity
  8
SLD-0
100
AcDbLine
 10
2.5705608272
 20
-8.9161254034
 30
0.0
 11
3.8456255313
 21
-8.9170901715
 31
0.0
  0
LINE
  5
CC
330
C4
100
AcDbEntity
  8
SLD-0
100
AcDbLine
 10
3.5904707051
 20
-8.4398392315
 30
0.0
 11
4.1513711884
 21
-8.4398392315
 31
0.0
  0
LINE
  5
CD
330
C4
100
AcDbEntity
  8
SLD-0
100
AcDbLine
 10
4.3847079689
 20
-8.673176012
 30
0.0
 11
4.3847079689
 21
-9.0598915988
 31
0.0
  0
LINE
  5
CE
330
C4
100
AcDbEntity
  8
SLD-0
100
AcDbLine
 10
4.3847079689
 20
-9.0598915988
 30
0.0
 11
4.3388237269
 21
-9.0598915988
 31
0.0
  0
LINE
  5
CF
330
C4
100
AcDbEntity
  8
SLD-0
100
AcDbLine
 10
4.3388237269
 20
-9.0598915988
 30
0.0
 11
4.3388237269
 21
-8.673176012
 31
0.0
  0
LINE
  5
D0
330
C4
100
AcDbEntity
  8
SLD-0
100
AcDbLine
 10
4.1513711884
 20
-8.4857234735
 30
0.0
 11
3.6121112793
 21
-8.4857234735
 31
0.0
  0
LINE
  5
D1
330
C4
100
AcDbEntity
  8
0
  6
Continuous
 62
     7
370
    18
100
AcDbLine
 10
3.5904707051
 20
-8.4398392315
 30
0.0
 11
3.5331255313
 21
-8.4799797593
 31
0.0
  0
LINE
  5
D2
330
C4
100
AcDbEntity
  8
0
  6
Continuous
 62
     7
370
    18
100
AcDbLine
 10
3.6121112793
 20
-8.4857234735
 30
0.0
 11
3.561798124
 21
-8.5209417224
 31
0.0
  0
LINE
  5
D3
330
C4
100
AcDbEntity
  8
0
  6
Continuous
 62
     7
370
    18
100
AcDbLine
 10
3.561798124
 20
-8.5209417224
 30
0.0
 11
3.5331255313
 21
-8.4799797593
 31
0.0
  0
LINE
  5
D4
330
C4
100
AcDbEntity
  8
0
  6
Continuous
 62
     7
370
    18
100
AcDbLine
 10
3.8456255313
 20
-8.5279698981
 30
0.0
 11
3.8456255313
 21
-8.4857234735
 31
0.0
  0
LINE
  5
D5
330
C4
100
AcDbEntity
  8
SLD-0
  6
Continuous
100
AcDbLine
 10
3.8456255313
 20
-8.9170901715
 30
0.0
 11
3.8456255313
 21
-8.5251000469
 31
0.0
  0
SPLINE
  5
D6
330
C4
100
AcDbEntity
  8
SLD-0
100
AcDbSpline
210
0.0
220
0.0
230
1.0
 70
     8
 71
     3
 72
     9
 73
     5
 74
     0
 42
0.00000001
 43
0.00000001
 40
0.0
 40
0.0
 40
0.0
 40
0.0
 40
0.5928291688347104
 40
1.0
 40
1.0
 40
1.0
 40
1.0
 10
2.570560827169567
 20
-8.91612540335651
 30
0.0
 10
2.525985174956283
 20
-8.830290962183552
 30
0.0
 10
2.605468137279787
 20
-8.71106744824692
 30
0.0
 10
2.587355315830262
 20
-8.556819203014584
 30
0.0
 10
2.540877173519692
 20
-8.520941722432918
 30
0.0
  0
HATCH
  5
D7
330
C4
100
AcDbEntity
  8
0
  6
Continuous
 62
     7
100
AcDbHatch
 10
0.0
 20
0.0
 30
0.0
210
0.0
220
0.0
230
1.0
  2
SOLID
 70
     1
 71
     0
 91
        1
 92
        0
 93
        5
 72
     1
 10
3.561798124047808
 20
-8.520941722432916
 11
3.841467206751587
 21
-8.520941722432916
 72
     2
 10
3.841467206751587
 20
-8.525100046936803
 40
0.0041583245038859
 50
270.0000000000008
 51
360.0000000000008
 73
     0
 72
     1
 10
3.845625531255472
 20
-8.525100046936803
 11
3.845625531255472
 21
-8.485723473548633
 72
     1
 10
3.845625531255472
 20
-8.485723473548633
 11
3.612111279274579
 21
-8.485723473548637
 72
     1
 10
3.612111279274579
 20
-8.485723473548637
 11
3.561798124047808
 21
-8.520941722432916
 97
        0
 75
     0
 76
     1
 98
        1
 10
0.0
 20
0.0
  0
HATCH
  5
D8
330
C4
100
AcDbEntity
  8
0
  6
Continuous
 62
     7
100
AcDbHatch
 10
0.0
 20
0.0
 30
0.0
210
0.0
220
0.0
230
1.0
  2
ANSI36
 70
     0
 71
     0
 91
        1
 92
        0
 93
        7
 72
     4
 94
        3
 73
     1
 74
     0
 95
        9
 96
        5
 40
0.0
 40
0.0
 40
0.0
 40
0.0
 40
0.4071708311652896
 40
1.0
 40
1.0
 40
1.0
 40
1.0
 10
2.540877173519692
 20
-8.520941722432918
 42
1.0
 10
2.587355315830261
 20
-8.556819203014584
 42
1.0
 10
2.605468137279787
 20
-8.71106744824692
 42
1.0
 10
2.525985174956283
 20
-8.83029096218355
 42
1.0
 10
2.570560827169567
 20
-8.91612540335651
 42
1.0
 72
     1
 10
2.570560827169567
 20
-8.91612540335651
 11
3.845625531255472
 21
-8.917090171509273
 72
     1
 10
3.845625531255472
 20
-8.917090171509273
 11
3.845625531255472
 21
-8.527969898141233
 72
     1
 10
3.845625531255472
 20
-8.527969898141233
 11
3.845625531255472
 21
-8.525100046936803
 72
     2
 10
3.841467206751587
 20
-8.525100046936803
 40
0.0041583245038859
 50
0.0
 51
90.0
 73
     1
 72
     1
 10
3.841467206751587
 20
-8.520941722432916
 11
3.561798124047808
 21
-8.520941722432916
 72
     1
 10
3.561798124047808
 20
-8.520941722432916
 11
2.540877173519692
 21
-8.520941722432918
 97
        0
 75
     0
 76
     1
 52
0.0
 41
1.0
 77
     0
 78
     1
 53
45.0
 43
0.0
 44
0.0
 45
0.0662912607362388
 46
0.2430679560328757
 79
     4
 49
0.3125
 49
-0.0625
 49
0.0
 49
-0.0625
 98
        1
 10
0.0
 20
0.0
  0
INSERT
  5
EE
330
C4
100
AcDbEntity
  8
0
  6
Continuous
 62
     7
370
    18
100
AcDbBlockReference
  2
SW_BLOCK_DIMENSION_1
 10
3.858757659
 20
-8.0184928317
 30
0.0
  0
ENDBLK
  5
C6
330
C4
100
AcDbEntity
  8
0
100
AcDbBlockEnd
  0
BLOCK
  5
DA
330
D9
100
AcDbEntity
  8
0
100
AcDbBlockBegin
  2
SW_BLOCK_DIMENSION_1
 70
     0
 10
0.0
 20
0.0
 30
0.0
  3
SW_BLOCK_DIMENSION_1
  1

  0
SOLID
  5
DC
330
D9
100
AcDbEntity
  8
0
  6
Continuous
 62
     0
370
    18
100
AcDbTrace
 10
-0.3256321278
 20
-0.0478546034
 30
0.0
 11
-0.2006321278
 21
-0.0670853727
 31
0.0
 12
-0.2006321278
 22
-0.0286238342
 32
0.0
 13
-0.2006321278
 23
-0.0286238342
 33
0.0
  0
SOLID
  5
DD
330
D9
100
AcDbEntity
  8
0
  6
Continuous
 62
     0
370
    18
100
AcDbTrace
 10
-0.0131321278
 20
-0.0478546034
 30
0.0
 11
-0.1381321278
 21
-0.0286238342
 31
0.0
 12
-0.1381321278
 22
-0.0670853727
 32
0.0
 13
-0.1381321278
 23
-0.0670853727
 33
0.0
  0
LINE
  5
DE
330
D9
100
AcDbEntity
  8
0
  6
Continuous
 62
     0
370
     0
100
AcDbLine
 10
0.0659722237
 20
0.0894717862
 30
0.0
 11
0.2934027823
 21
0.0894717862
 31
0.0
  0
LINE
  5
DF
330
D9
100
AcDbEntity
  8
0
  6
Continuous
 62
     0
370
     0
100
AcDbLine
 10
0.1624131925
 20
-0.1152157169
 30
0.0
 11
0.1194444439
 21
-0.1152157169
 31
0.0
  0
LINE
  5
E0
330
D9
100
AcDbEntity
  8
0
  6
Continuous
 62
     0
370
     0
100
AcDbLine
 10
0.1194444439
 20
-0.1152157169
 30
0.0
 11
0.1194444439
 21
-0.3070559941
 31
0.0
  0
LINE
  5
E1
330
D9
100
AcDbEntity
  8
0
  6
Continuous
 62
     0
370
     0
100
AcDbLine
 10
0.1194444439
 20
-0.3070559941
 30
0.0
 11
0.1624131925
 21
-0.3070559941
 31
0.0
  0
LINE
  5
E2
330
D9
100
AcDbEntity
  8
0
  6
Continuous
 62
     0
370
     0
100
AcDbLine
 10
0.2578993036
 20
-0.1152157169
 30
0.0
 11
0.3008680523
 21
-0.1152157169
 31
0.0
  0
LINE
  5
E3
330
D9
100
AcDbEntity
  8
0
  6
Continuous
 62
     0
370
     0
100
AcDbLine
 10
0.3008680523
 20
-0.1152157169
 30
0.0
 11
0.3008680523
 21
-0.3070559941
 31
0.0
  0
LINE
  5
E4
330
D9
100
AcDbEntity
  8
0
  6
Continuous
 62
     0
370
     0
100
AcDbLine
 10
0.3008680523
 20
-0.3070559941
 30
0.0
 11
0.2578993036
 21
-0.3070559941
 31
0.0
  0
LINE
  5
E5
330
D9
100
AcDbEntity
  8
0
  6
Continuous
 62
     0
370
     0
100
AcDbLine
 10
-0.3256321278
 20
-0.4114869276
 30
0.0
 11
-0.3256321278
 21
0.0771453966
 31
0.0
  0
LINE
  5
E6
330
D9
100
AcDbEntity
  8
0
  6
Continuous
 62
     0
370
     0
100
AcDbLine
 10
-0.0131321278
 20
-0.4566072152
 30
0.0
 11
-0.0131321278
 21
0.0771453966
 31
0.0
  0
LINE
  5
E7
330
D9
100
AcDbEntity
  8
0
  6
Continuous
 62
     0
370
     0
100
AcDbLine
 10
-0.3256321278
 20
-0.0478546034
 30
0.0
 11
-0.0131321278
 21
-0.0478546034
 31
0.0
  0
MTEXT
  5
E8
330
D9
100
AcDbEntity
  8
0
  6
Continuous
 62
     0
370
    18
100
AcDbMText
 10
0.046875
 20
0.1611334675
 30
0.0
 40
0.125
 41
0.0
 71
     1
 72
     1
  1

  7
SLDTEXTSTYLE0
 73
     1
 44
1.0
  0
MTEXT
  5
E9
330
D9
100
AcDbEntity
  8
0
  6
Continuous
 62
     0
370
    18
100
AcDbMText
 10
0.1319444474
 20
0.2396677546
 30
0.0
 40
0.125
 41
0.0
 71
     1
 72
     1
  1
5
  7
SLDTEXTSTYLE0
 73
     1
 44
1.0
  0
MTEXT
  5
EA
330
D9
100
AcDbEntity
  8
0
  6
Continuous
 62
     0
370
    18
100
AcDbMText
 10
0.0842013919
 20
0.0745635861
 30
0.0
 40
0.125
 41
0.0
 71
     1
 72
     1
  1
16
  7
SLDTEXTSTYLE0
 73
     1
 44
1.0
  0
MTEXT
  5
EB
330
D9
100
AcDbEntity
  8
0
  6
Continuous
 62
     0
370
    18
100
AcDbMText
 10
0.3116319504
 20
0.1611334675
 30
0.0
 40
0.125
 41
0.0
 71
     1
 72
     1
  1
"
  7
SLDTEXTSTYLE0
 73
     1
 44
1.0
  0
MTEXT
  5
EC
330
D9
100
AcDbEntity
  8
0
  6
Continuous
 62
     0
370
    18
100
AcDbMText
 10
0.1624131925
 20
-0.1459225221
 30
0.0
 40
0.125
 41
0.0
 71
     1
 72
     1
  1
8
  7
SLDTEXTSTYLE0
 73
     1
 44
1.0
  0
MTEXT
  5
ED
330
D9
100
AcDbEntity
  8
0
  6
Continuous
 62
     0
370
    18
100
AcDbMText
 10
0.419444436
 20
0.1611334675
 30
0.0
 40
0.125
 41
0.0
 71
     1
 72
     1
  1

  7
SLDTEXTSTYLE0
 73
     1
 44
1.0
  0
ENDBLK
  5
DB
330
D9
100
AcDbEntity
  8
0
100
AcDbBlockEnd
  0
BLOCK
  5
118
330
117
100
AcDbEntity
  8
0
100
AcDbBlockBegin
  2
_D
 70
     0
 10
0.0
 20
0.0
 30
0.0
  3
_D
  1

  0
SOLID
  5
11A
330
117
100
AcDbEntity
  8
DIMS
100
AcDbTrace
 10
5.3691669583
 20
15.6109427512
 30
0.0
 11
5.3349434507
 21
15.3884899517
 31
0.0
 12
5.4033904659
 22
15.3884899517
 32
0.0
 13
5.4033904659
 23
15.3884899517
 33
0.0
  0
SOLID
  5
11B
330
117
100
AcDbEntity
  8
DIMS
100
AcDbTrace
 10
5.3691669583
 20
1.1109427512
 30
0.0
 11
5.4033904659
 21
1.3333955507
 31
0.0
 12
5.3349434507
 22
1.3333955507
 32
0.0
 13
5.3349434507
 23
1.3333955507
 33
0.0
  0
LINE
  5
11C
330
117
100
AcDbEntity
  8
DIMS
100
AcDbLine
 10
5.3672572245
 20
5.8076761766
 30
0.0
 11
5.6019408518
 21
5.8076761766
 31
0.0
  0
LINE
  5
11D
330
117
100
AcDbEntity
  8
DIMS
100
AcDbLine
 10
5.1145373348
 20
5.4252225114
 30
0.0
 11
5.0381484514
 21
5.4252225114
 31
0.0
  0
LINE
  5
11E
330
117
100
AcDbEntity
  8
DIMS
100
AcDbLine
 10
5.0381484514
 20
5.4252225114
 30
0.0
 11
5.0381484514
 21
5.0835944346
 31
0.0
  0
LINE
  5
11F
330
117
100
AcDbEntity
  8
DIMS
100
AcDbLine
 10
5.0381484514
 20
5.0835944346
 30
0.0
 11
5.1145373348
 21
5.0835944346
 31
0.0
  0
LINE
  5
120
330
117
100
AcDbEntity
  8
DIMS
100
AcDbLine
 10
5.6237965818
 20
5.4252225114
 30
0.0
 11
5.7001854652
 21
5.4252225114
 31
0.0
  0
LINE
  5
121
330
117
100
AcDbEntity
  8
DIMS
100
AcDbLine
 10
5.7001854652
 20
5.4252225114
 30
0.0
 11
5.7001854652
 21
5.0835944346
 31
0.0
  0
LINE
  5
122
330
117
100
AcDbEntity
  8
DIMS
100
AcDbLine
 10
5.7001854652
 20
5.0835944346
 30
0.0
 11
5.6237965818
 21
5.0835944346
 31
0.0
  0
LINE
  5
123
330
117
100
AcDbEntity
  8
DIMS
100
AcDbLine
 10
5.3691669583
 20
15.6109427512
 30
0.0
 11
5.3691669583
 21
6.0937525301
 31
0.0
  0
LINE
  5
124
330
117
100
AcDbEntity
  8
DIMS
100
AcDbLine
 10
5.3691669583
 20
1.1109427512
 30
0.0
 11
5.3691669583
 21
4.6910403744
 31
0.0
  0
MTEXT
  5
125
330
117
100
AcDbEntity
  8
DIMS
100
AcDbMText
 10
4.9952857874
 20
5.927483243
 30
0.0
 40
0.2291666667
 41
0.0
 71
     1
 72
     1
  1
14
  7
SLDTEXTSTYLE0
 73
     1
 44
1.0
  0
MTEXT
  5
126
330
117
100
AcDbEntity
  8
DIMS
100
AcDbMText
 10
5.399722497
 20
6.0836083628
 30
0.0
 40
0.2291666667
 41
0.0
 71
     1
 72
     1
  1
1
  7
SLDTEXTSTYLE0
 73
     1
 44
1.0
  0
MTEXT
  5
127
330
117
100
AcDbEntity
  8
DIMS
100
AcDbMText
 10
5.399722497
 20
5.7715597561
 30
0.0
 40
0.2291666667
 41
0.0
 71
     1
 72
     1
  1
2
  7
SLDTEXTSTYLE0
 73
     1
 44
1.0
  0
MTEXT
  5
128
330
117
100
AcDbEntity
  8
DIMS
100
AcDbMText
 10
5.6344061242
 20
5.927483243
 30
0.0
 40
0.2291666667
 41
0.0
 71
     1
 72
     1
  1
"
  7
SLDTEXTSTYLE0
 73
     1
 44
1.0
  0
MTEXT
  5
129
330
117
100
AcDbEntity
  8
DIMS
100
AcDbMText
 10
5.1145373348
 20
5.3790057824
 30
0.0
 40
0.2291666667
 41
0.0
 71
     1
 72
     1
  1
368
  7
SLDTEXTSTYLE0
 73
     1
 44
1.0
  0
MTEXT
  5
12A
330
117
100
AcDbEntity
  8
DIMS
100
AcDbMText
 10
4.2657719048
 20
4.9864516856
 30
0.0
 40
0.2291666667
 41
0.0
 71
     1
 72
     1
  1
UNDERMOUNT
  7
SLDTEXTSTYLE0
 73
     1
 44
1.0
  0
ENDBLK
  5
119
330
117
100
AcDbEntity
  8
0
100
AcDbBlockEnd
  0
BLOCK
  5
12E
330
12D
100
AcDbEntity
  8
0
100
AcDbBlockBegin
  2
_D_1
 70
     0
 10
0.0
 20
0.0
 30
0.0
  3
_D_1
  1

  0
SOLID
  5
130
330
12D
100
AcDbEntity
  8
DIMS
100
AcDbTrace
 10
1.3088090881
 20
4.5461238643
 30
0.0
 11
1.5312618876
 21
4.5119003567
 31
0.0
 12
1.5312618876
 22
4.5803473719
 32
0.0
 13
1.5312618876
 23
4.5803473719
 33
0.0
  0
SOLID
  5
131
330
12D
100
AcDbEntity
  8
DIMS
100
AcDbTrace
 10
20.3088090881
 20
4.5461238643
 30
0.0
 11
20.0863562886
 21
4.5803473719
 31
0.0
 12
20.0863562886
 22
4.5119003567
 32
0.0
 13
20.0863562886
 23
4.5119003567
 33
0.0
  0
LINE
  5
132
330
12D
100
AcDbEntity
  8
DIMS
100
AcDbLine
 10
7.4843717628
 20
4.734974156
 30
0.0
 11
7.4079828795
 21
4.734974156
 31
0.0
  0
LINE
  5
133
330
12D
100
AcDbEntity
  8
DIMS
100
AcDbLine
 10
7.4079828795
 20
4.734974156
 30
0.0
 11
7.4079828795
 21
4.3933460792
 31
0.0
  0
LINE
  5
134
330
12D
100
AcDbEntity
  8
DIMS
100
AcDbLine
 10
7.4079828795
 20
4.3933460792
 30
0.0
 11
7.4843717628
 21
4.3933460792
 31
0.0
  0
LINE
  5
135
330
12D
100
AcDbEntity
  8
DIMS
100
AcDbLine
 10
7.9936310098
 20
4.734974156
 30
0.0
 11
8.0700198932
 21
4.734974156
 31
0.0
  0
LINE
  5
136
330
12D
100
AcDbEntity
  8
DIMS
100
AcDbLine
 10
8.0700198932
 20
4.734974156
 30
0.0
 11
8.0700198932
 21
4.3933460792
 31
0.0
  0
LINE
  5
137
330
12D
100
AcDbEntity
  8
DIMS
100
AcDbLine
 10
8.0700198932
 20
4.3933460792
 30
0.0
 11
7.9936310098
 21
4.3933460792
 31
0.0
  0
LINE
  5
138
330
12D
100
AcDbEntity
  8
DIMS
100
AcDbLine
 10
1.3088090881
 20
4.5609427512
 30
0.0
 11
1.3088090881
 21
4.4211238643
 31
0.0
  0
LINE
  5
139
330
12D
100
AcDbEntity
  8
DIMS
100
AcDbLine
 10
20.3088090881
 20
4.5609427512
 30
0.0
 11
20.3088090881
 21
4.4211238643
 31
0.0
  0
LINE
  5
13A
330
12D
100
AcDbEntity
  8
DIMS
100
AcDbLine
 10
1.3088090881
 20
4.5461238643
 30
0.0
 11
6.6345544171
 21
4.5461238643
 31
0.0
  0
LINE
  5
13B
330
12D
100
AcDbEntity
  8
DIMS
100
AcDbLine
 10
20.3088090881
 20
4.5461238643
 30
0.0
 11
8.8434483555
 21
4.5461238643
 31
0.0
  0
MTEXT
  5
13C
330
12D
100
AcDbEntity
  8
DIMS
100
AcDbMText
 10
7.5149273199
 20
5.0813114139
 30
0.0
 40
0.2291666667
 41
0.0
 71
     1
 72
     1
  1
19"
  7
SLDTEXTSTYLE0
 73
     1
 44
1.0
  0
MTEXT
  5
13D
330
12D
100
AcDbEntity
  8
DIMS
100
AcDbMText
 10
7.4843717628
 20
4.6887574271
 30
0.0
 40
0.2291666667
 41
0.0
 71
     1
 72
     1
  1
483
  7
SLDTEXTSTYLE0
 73
     1
 44
1.0
  0
MTEXT
  5
13E
330
12D
100
AcDbEntity
  8
DIMS
100
AcDbMText
 10
6.6356063329
 20
4.2962034219
 30
0.0
 40
0.2291666667
 41
0.0
 71
     1
 72
     1
  1
UNDERMOUNT
  7
SLDTEXTSTYLE0
 73
     1
 44
1.0
  0
ENDBLK
  5
12F
330
12D
100
AcDbEntity
  8
0
100
AcDbBlockEnd
  0
BLOCK
  5
142
330
141
100
AcDbEntity
  8
0
100
AcDbBlockBegin
  2
_D_2
 70
     0
 10
0.0
 20
0.0
 30
0.0
  3
_D_2
  1

  0
SOLID
  5
144
330
141
100
AcDbEntity
  8
DIMS
 62
     1
100
AcDbTrace
 10
2.8532971934
 20
1.7081900525
 30
0.0
 11
3.0059690432
 21
1.8735617633
 31
0.0
 12
2.9492019695
 22
1.9118043212
 32
0.0
 13
2.9492019695
 23
1.9118043212
 33
0.0
  0
LINE
  5
145
330
141
100
AcDbEntity
  8
DIMS
 62
     1
100
AcDbLine
 10
3.869412124
 20
3.5968236891
 30
0.0
 11
4.1040957512
 21
3.5968236891
 31
0.0
  0
LINE
  5
146
330
141
100
AcDbEntity
  8
DIMS
 62
     1
100
AcDbLine
 10
3.6761057746
 20
3.2143700239
 30
0.0
 11
3.5997168912
 21
3.2143700239
 31
0.0
  0
LINE
  5
147
330
141
100
AcDbEntity
  8
DIMS
 62
     1
100
AcDbLine
 10
3.5997168912
 20
3.2143700239
 30
0.0
 11
3.5997168912
 21
2.8727419471
 31
0.0
  0
LINE
  5
148
330
141
100
AcDbEntity
  8
DIMS
 62
     1
100
AcDbLine
 10
3.5997168912
 20
2.8727419471
 30
0.0
 11
3.6761057746
 21
2.8727419471
 31
0.0
  0
LINE
  5
149
330
141
100
AcDbEntity
  8
DIMS
 62
     1
100
AcDbLine
 10
4.0156119392
 20
3.2143700239
 30
0.0
 11
4.0920008226
 21
3.2143700239
 31
0.0
  0
LINE
  5
14A
330
141
100
AcDbEntity
  8
DIMS
 62
     1
100
AcDbLine
 10
4.0920008226
 20
3.2143700239
 30
0.0
 11
4.0920008226
 21
2.8727419471
 31
0.0
  0
LINE
  5
14B
330
141
100
AcDbEntity
  8
DIMS
 62
     1
100
AcDbLine
 10
4.0920008226
 20
2.8727419471
 30
0.0
 11
4.0156119392
 21
2.8727419471
 31
0.0
  0
LINE
  5
14C
330
141
100
AcDbEntity
  8
DIMS
 62
     1
100
AcDbLine
 10
4.8088090881
 20
4.6109427512
 30
0.0
 11
4.3183449238
 21
3.8829000427
 31
0.0
  0
LINE
  5
14D
330
141
100
AcDbEntity
  8
DIMS
 62
     1
100
AcDbLine
 10
2.8532971934
 20
1.7081900525
 30
0.0
 11
3.3733728266
 21
2.480187887
 31
0.0
  0
MTEXT
  5
14E
330
141
100
AcDbEntity
  8
DIMS
 62
     1
100
AcDbMText
 10
3.4465147585
 20
3.7166307556
 30
0.0
 40
0.2291666667
 41
0.0
 71
     1
 72
     1
  1
R3
  7
SLDTEXTSTYLE0
 73
     1
 44
1.0
  0
MTEXT
  5
14F
330
141
100
AcDbEntity
  8
DIMS
 62
     1
100
AcDbMText
 10
3.9018773964
 20
3.8727558754
 30
0.0
 40
0.2291666667
 41
0.0
 71
     1
 72
     1
  1
1
  7
SLDTEXTSTYLE0
 73
     1
 44
1.0
  0
MTEXT
  5
150
330
141
100
AcDbEntity
  8
DIMS
 62
     1
100
AcDbMText
 10
3.9018773964
 20
3.5607072687
 30
0.0
 40
0.2291666667
 41
0.0
 71
     1
 72
     1
  1
2
  7
SLDTEXTSTYLE0
 73
     1
 44
1.0
  0
MTEXT
  5
151
330
141
100
AcDbEntity
  8
DIMS
 62
     1
100
AcDbMText
 10
4.136560987
 20
3.7166307556
 30
0.0
 40
0.2291666667
 41
0.0
 71
     1
 72
     1
  1
"
  7
SLDTEXTSTYLE0
 73
     1
 44
1.0
  0
MTEXT
  5
152
330
141
100
AcDbEntity
  8
DIMS
 62
     1
100
AcDbMText
 10
3.6761057746
 20
3.168153295
 30
0.0
 40
0.2291666667
 41
0.0
 71
     1
 72
     1
  1
89
  7
SLDTEXTSTYLE0
 73
     1
 44
1.0
  0
MTEXT
  5
153
330
141
100
AcDbEntity
  8
DIMS
 62
     1
100
AcDbMText
 10
2.7424638217
 20
2.7755991981
 30
0.0
 40
0.2291666667
 41
0.0
 71
     1
 72
     1
  1
UNDERMOUNT
  7
SLDTEXTSTYLE0
 73
     1
 44
1.0
  0
ENDBLK
  5
143
330
141
100
AcDbEntity
  8
0
100
AcDbBlockEnd
  0
BLOCK
  5
156
330
155
100
AcDbEntity
  8
0
100
AcDbBlockBegin
  2
_D_3
 70
     0
 10
0.0
 20
0.0
 30
0.0
  3
_D_3
  1

  0
SOLID
  5
158
330
155
100
AcDbEntity
  8
BLOCKS
 62
     1
100
AcDbTrace
 10
6.5521000674
 20
15.7984427512
 30
0.0
 11
6.5178765597
 21
15.5759899517
 31
0.0
 12
6.586323575
 22
15.5759899517
 32
0.0
 13
6.586323575
 23
15.5759899517
 33
0.0
  0
SOLID
  5
159
330
155
100
AcDbEntity
  8
BLOCKS
 62
     1
100
AcDbTrace
 10
6.5521000674
 20
0.9234427512
 30
0.0
 11
6.586323575
 21
1.1458955507
 31
0.0
 12
6.5178765597
 22
1.1458955507
 32
0.0
 13
6.5178765597
 23
1.1458955507
 33
0.0
  0
LINE
  5
15A
330
155
100
AcDbEntity
  8
BLOCKS
 62
     1
100
AcDbLine
 10
6.5501903336
 20
14.0874685753
 30
0.0
 11
6.7848739608
 21
14.0874685753
 31
0.0
  0
LINE
  5
15B
330
155
100
AcDbEntity
  8
BLOCKS
 62
     1
100
AcDbLine
 10
6.2974704439
 20
13.7050149101
 30
0.0
 11
6.2210815605
 21
13.7050149101
 31
0.0
  0
LINE
  5
15C
330
155
100
AcDbEntity
  8
BLOCKS
 62
     1
100
AcDbLine
 10
6.2210815605
 20
13.7050149101
 30
0.0
 11
6.2210815605
 21
13.3633868333
 31
0.0
  0
LINE
  5
15D
330
155
100
AcDbEntity
  8
BLOCKS
 62
     1
100
AcDbLine
 10
6.2210815605
 20
13.3633868333
 30
0.0
 11
6.2974704439
 21
13.3633868333
 31
0.0
  0
LINE
  5
15E
330
155
100
AcDbEntity
  8
BLOCKS
 62
     1
100
AcDbLine
 10
6.8067296909
 20
13.7050149101
 30
0.0
 11
6.8831185742
 21
13.7050149101
 31
0.0
  0
LINE
  5
15F
330
155
100
AcDbEntity
  8
BLOCKS
 62
     1
100
AcDbLine
 10
6.8831185742
 20
13.7050149101
 30
0.0
 11
6.8831185742
 21
13.3633868333
 31
0.0
  0
LINE
  5
160
330
155
100
AcDbEntity
  8
BLOCKS
 62
     1
100
AcDbLine
 10
6.8831185742
 20
13.3633868333
 30
0.0
 11
6.8067296909
 21
13.3633868333
 31
0.0
  0
LINE
  5
161
330
155
100
AcDbEntity
  8
BLOCKS
 62
     1
100
AcDbLine
 10
6.5521000674
 20
15.7984427512
 30
0.0
 11
6.5521000674
 21
14.3735449289
 31
0.0
  0
LINE
  5
162
330
155
100
AcDbEntity
  8
BLOCKS
 62
     1
100
AcDbLine
 10
6.5521000674
 20
0.9234427512
 30
0.0
 11
6.5521000674
 21
12.9708327731
 31
0.0
  0
MTEXT
  5
163
330
155
100
AcDbEntity
  8
BLOCKS
 62
     1
100
AcDbMText
 10
6.1782188965
 20
14.2072756418
 30
0.0
 40
0.2291666667
 41
0.0
 71
     1
 72
     1
  1
14
  7
SLDTEXTSTYLE0
 73
     1
 44
1.0
  0
MTEXT
  5
164
330
155
100
AcDbEntity
  8
BLOCKS
 62
     1
100
AcDbMText
 10
6.582655606
 20
14.3634007615
 30
0.0
 40
0.2291666667
 41
0.0
 71
     1
 72
     1
  1
7
  7
SLDTEXTSTYLE0
 73
     1
 44
1.0
  0
MTEXT
  5
165
330
155
100
AcDbEntity
  8
BLOCKS
 62
     1
100
AcDbMText
 10
6.582655606
 20
14.0513521548
 30
0.0
 40
0.2291666667
 41
0.0
 71
     1
 72
     1
  1
8
  7
SLDTEXTSTYLE0
 73
     1
 44
1.0
  0
MTEXT
  5
166
330
155
100
AcDbEntity
  8
BLOCKS
 62
     1
100
AcDbMText
 10
6.8173392333
 20
14.2072756418
 30
0.0
 40
0.2291666667
 41
0.0
 71
     1
 72
     1
  1
"
  7
SLDTEXTSTYLE0
 73
     1
 44
1.0
  0
MTEXT
  5
167
330
155
100
AcDbEntity
  8
BLOCKS
 62
     1
100
AcDbMText
 10
6.2974704439
 20
13.6587981812
 30
0.0
 40
0.2291666667
 41
0.0
 71
     1
 72
     1
  1
378
  7
SLDTEXTSTYLE0
 73
     1
 44
1.0
  0
MTEXT
  5
168
330
155
100
AcDbEntity
  8
BLOCKS
 62
     1
100
AcDbMText
 10
5.6354334301
 20
13.2662440843
 30
0.0
 40
0.2291666667
 41
0.0
 71
     1
 72
     1
  1
TOP MOUNT
  7
SLDTEXTSTYLE0
 73
     1
 44
1.0
  0
ENDBLK
  5
157
330
155
100
AcDbEntity
  8
0
100
AcDbBlockEnd
  0
BLOCK
  5
16B
330
16A
100
AcDbEntity
  8
0
100
AcDbBlockBegin
  2
_D_4
 70
     0
 10
0.0
 20
0.0
 30
0.0
  3
_D_4
  1

  0
SOLID
  5
16D
330
16A
100
AcDbEntity
  8
BLOCKS
 62
     1
100
AcDbTrace
 10
1.1213090881
 20
12.3388555338
 30
0.0
 11
1.3437618876
 21
12.3046320262
 31
0.0
 12
1.3437618876
 22
12.3730790414
 32
0.0
 13
1.3437618876
 23
12.3730790414
 33
0.0
  0
SOLID
  5
16E
330
16A
100
AcDbEntity
  8
BLOCKS
 62
     1
100
AcDbTrace
 10
20.4963090881
 20
12.3388555338
 30
0.0
 11
20.2738562886
 21
12.3730790414
 31
0.0
 12
20.2738562886
 22
12.3046320262
 32
0.0
 13
20.2738562886
 23
12.3046320262
 33
0.0
  0
LINE
  5
16F
330
16A
100
AcDbEntity
  8
BLOCKS
 62
     1
100
AcDbLine
 10
7.7370916526
 20
12.7541352581
 30
0.0
 11
7.9717752798
 21
12.7541352581
 31
0.0
  0
LINE
  5
170
330
16A
100
AcDbEntity
  8
BLOCKS
 62
     1
100
AcDbLine
 10
7.4843717628
 20
12.3716815929
 30
0.0
 11
7.4079828795
 21
12.3716815929
 31
0.0
  0
LINE
  5
171
330
16A
100
AcDbEntity
  8
BLOCKS
 62
     1
100
AcDbLine
 10
7.4079828795
 20
12.3716815929
 30
0.0
 11
7.4079828795
 21
12.0300535161
 31
0.0
  0
LINE
  5
172
330
16A
100
AcDbEntity
  8
BLOCKS
 62
     1
100
AcDbLine
 10
7.4079828795
 20
12.0300535161
 30
0.0
 11
7.4843717628
 21
12.0300535161
 31
0.0
  0
LINE
  5
173
330
16A
100
AcDbEntity
  8
BLOCKS
 62
     1
100
AcDbLine
 10
7.9936310098
 20
12.3716815929
 30
0.0
 11
8.0700198932
 21
12.3716815929
 31
0.0
  0
LINE
  5
174
330
16A
100
AcDbEntity
  8
BLOCKS
 62
     1
100
AcDbLine
 10
8.0700198932
 20
12.3716815929
 30
0.0
 11
8.0700198932
 21
12.0300535161
 31
0.0
  0
LINE
  5
175
330
16A
100
AcDbEntity
  8
BLOCKS
 62
     1
100
AcDbLine
 10
8.0700198932
 20
12.0300535161
 30
0.0
 11
7.9936310098
 21
12.0300535161
 31
0.0
  0
LINE
  5
176
330
16A
100
AcDbEntity
  8
BLOCKS
 62
     1
100
AcDbLine
 10
1.1213090881
 20
12.1609427512
 30
0.0
 11
1.1213090881
 21
12.4638555338
 31
0.0
  0
LINE
  5
177
330
16A
100
AcDbEntity
  8
BLOCKS
 62
     1
100
AcDbLine
 10
20.4963090881
 20
12.1609427512
 30
0.0
 11
20.4963090881
 21
12.4638555338
 31
0.0
  0
LINE
  5
178
330
16A
100
AcDbEntity
  8
BLOCKS
 62
     1
100
AcDbLine
 10
1.1213090881
 20
12.3388555338
 30
0.0
 11
6.8212828334
 21
12.3388555338
 31
0.0
  0
LINE
  5
179
330
16A
100
AcDbEntity
  8
BLOCKS
 62
     1
100
AcDbLine
 10
20.4963090881
 20
12.3388555338
 30
0.0
 11
8.6567199393
 21
12.3388555338
 31
0.0
  0
MTEXT
  5
17A
330
16A
100
AcDbEntity
  8
BLOCKS
 62
     1
100
AcDbMText
 10
7.3651202154
 20
12.8739423246
 30
0.0
 40
0.2291666667
 41
0.0
 71
     1
 72
     1
  1
19
  7
SLDTEXTSTYLE0
 73
     1
 44
1.0
  0
MTEXT
  5
17B
330
16A
100
AcDbEntity
  8
BLOCKS
 62
     1
100
AcDbMText
 10
7.769556925
 20
13.0300674443
 30
0.0
 40
0.2291666667
 41
0.0
 71
     1
 72
     1
  1
3
  7
SLDTEXTSTYLE0
 73
     1
 44
1.0
  0
MTEXT
  5
17C
330
16A
100
AcDbEntity
  8
BLOCKS
 62
     1
100
AcDbMText
 10
7.769556925
 20
12.7180188376
 30
0.0
 40
0.2291666667
 41
0.0
 71
     1
 72
     1
  1
8
  7
SLDTEXTSTYLE0
 73
     1
 44
1.0
  0
MTEXT
  5
17D
330
16A
100
AcDbEntity
  8
BLOCKS
 62
     1
100
AcDbMText
 10
8.0042405523
 20
12.8739423246
 30
0.0
 40
0.2291666667
 41
0.0
 71
     1
 72
     1
  1
"
  7
SLDTEXTSTYLE0
 73
     1
 44
1.0
  0
MTEXT
  5
17E
330
16A
100
AcDbEntity
  8
BLOCKS
 62
     1
100
AcDbMText
 10
7.4843717628
 20
12.3254648639
 30
0.0
 40
0.2291666667
 41
0.0
 71
     1
 72
     1
  1
492
  7
SLDTEXTSTYLE0
 73
     1
 44
1.0
  0
MTEXT
  5
17F
330
16A
100
AcDbEntity
  8
BLOCKS
 62
     1
100
AcDbMText
 10
6.8223347491
 20
11.9329107671
 30
0.0
 40
0.2291666667
 41
0.0
 71
     1
 72
     1
  1
TOP MOUNT
  7
SLDTEXTSTYLE0
 73
     1
 44
1.0
  0
ENDBLK
  5
16C
330
16A
100
AcDbEntity
  8
0
100
AcDbBlockEnd
  0
BLOCK
  5
182
330
181
100
AcDbEntity
  8
0
100
AcDbBlockBegin
  2
_D_5
 70
     0
 10
0.0
 20
0.0
 30
0.0
  3
_D_5
  1

  0
SOLID
  5
184
330
181
100
AcDbEntity
  8
BLOCKS
 62
     1
100
AcDbTrace
 10
2.9780489367
 20
15.3118759773
 30
0.0
 11
3.0587840033
 21
15.1017846984
 31
0.0
 12
3.1181994136
 22
15.1357670897
 32
0.0
 13
3.1181994136
 23
15.1357670897
 33
0.0
  0
LINE
  5
185
330
181
100
AcDbEntity
  8
BLOCKS
 62
     1
100
AcDbLine
 10
4.0081375485
 20
13.8189119136
 30
0.0
 11
4.4125742581
 21
13.8189119136
 31
0.0
  0
LINE
  5
186
330
181
100
AcDbEntity
  8
BLOCKS
 62
     1
100
AcDbLine
 10
3.8997077586
 20
13.4364582484
 30
0.0
 11
3.8233188752
 21
13.4364582484
 31
0.0
  0
LINE
  5
187
330
181
100
AcDbEntity
  8
BLOCKS
 62
     1
100
AcDbLine
 10
3.8233188752
 20
13.4364582484
 30
0.0
 11
3.8233188752
 21
13.0948301716
 31
0.0
  0
LINE
  5
188
330
181
100
AcDbEntity
  8
BLOCKS
 62
     1
100
AcDbLine
 10
3.8233188752
 20
13.0948301716
 30
0.0
 11
3.8997077586
 21
13.0948301716
 31
0.0
  0
LINE
  5
189
330
181
100
AcDbEntity
  8
BLOCKS
 62
     1
100
AcDbLine
 10
4.2392139232
 20
13.4364582484
 30
0.0
 11
4.3156028066
 21
13.4364582484
 31
0.0
  0
LINE
  5
18A
330
181
100
AcDbEntity
  8
BLOCKS
 62
     1
100
AcDbLine
 10
4.3156028066
 20
13.4364582484
 30
0.0
 11
4.3156028066
 21
13.0948301716
 31
0.0
  0
LINE
  5
18B
330
181
100
AcDbEntity
  8
BLOCKS
 62
     1
100
AcDbLine
 10
4.3156028066
 20
13.0948301716
 30
0.0
 11
4.2392139232
 21
13.0948301716
 31
0.0
  0
LINE
  5
18C
330
181
100
AcDbEntity
  8
BLOCKS
 62
     1
100
AcDbLine
 10
4.8088090881
 20
12.1109427512
 30
0.0
 11
4.4705984865
 21
12.7022761114
 31
0.0
  0
LINE
  5
18D
330
181
100
AcDbEntity
  8
BLOCKS
 62
     1
100
AcDbLine
 10
2.9780489367
 20
15.3118759773
 30
0.0
 11
3.668323232
 21
14.1049882672
 31
0.0
  0
MTEXT
  5
18E
330
181
100
AcDbEntity
  8
BLOCKS
 62
     1
100
AcDbMText
 10
3.585240183
 20
13.9387189801
 30
0.0
 40
0.2291666667
 41
0.0
 71
     1
 72
     1
  1
R3
  7
SLDTEXTSTYLE0
 73
     1
 44
1.0
  0
MTEXT
  5
18F
330
181
100
AcDbEntity
  8
BLOCKS
 62
     1
100
AcDbMText
 10
4.0406028209
 20
14.0948440999
 30
0.0
 40
0.2291666667
 41
0.0
 71
     1
 72
     1
  1
11
  7
SLDTEXTSTYLE0
 73
     1
 44
1.0
  0
MTEXT
  5
190
330
181
100
AcDbEntity
  8
BLOCKS
 62
     1
100
AcDbMText
 10
4.0406028209
 20
13.7827954932
 30
0.0
 40
0.2291666667
 41
0.0
 71
     1
 72
     1
  1
16
  7
SLDTEXTSTYLE0
 73
     1
 44
1.0
  0
MTEXT
  5
191
330
181
100
AcDbEntity
  8
BLOCKS
 62
     1
100
AcDbMText
 10
4.4450395305
 20
13.9387189801
 30
0.0
 40
0.2291666667
 41
0.0
 71
     1
 72
     1
  1
"
  7
SLDTEXTSTYLE0
 73
     1
 44
1.0
  0
MTEXT
  5
192
330
181
100
AcDbEntity
  8
BLOCKS
 62
     1
100
AcDbMText
 10
3.8997077586
 20
13.3902415195
 30
0.0
 40
0.2291666667
 41
0.0
 71
     1
 72
     1
  1
94
  7
SLDTEXTSTYLE0
 73
     1
 44
1.0
  0
MTEXT
  5
193
330
181
100
AcDbEntity
  8
BLOCKS
 62
     1
100
AcDbMText
 10
3.152794222
 20
12.9976874226
 30
0.0
 40
0.2291666667
 41
0.0
 71
     1
 72
     1
  1
TOP MOUNT
  7
SLDTEXTSTYLE0
 73
     1
 44
1.0
  0
ENDBLK
  5
183
330
181
100
AcDbEntity
  8
0
100
AcDbBlockEnd
  0
BLOCK
  5
195
330
194
100
AcDbEntity
  8
0
100
AcDbBlockBegin
  2
SW_NOTE_0
 70
     0
 10
0.0
 20
0.0
 30
0.0
  3
SW_NOTE_0
  1

  0
MTEXT
  5
197
330
194
100
AcDbEntity
  8
NOTES
 62
     0
100
AcDbMText
 10
0.9095516228
 20
0.6874398822
 30
0.0
 40
0.2083333333
 41
0.0
 71
     2
 72
     1
  1
TEMPLATE
  7
SLDTEXTSTYLE0
 73
     1
 44
1.0
  0
MTEXT
  5
198
330
194
100
AcDbEntity
  8
NOTES
 62
     0
100
AcDbMText
 10
0.912686293
 20
0.4096621077
 30
0.0
 40
0.2083333333
 41
0.0
 71
     2
 72
     1
  1
CENTERLINE
  7
SLDTEXTSTYLE0
 73
     1
 44
1.0
  0
MTEXT
  5
199
330
194
100
AcDbEntity
  8
NOTES
 62
     0
100
AcDbMText
 10
0.9128068311
 20
-0.1458934411
 30
0.0
 40
0.2083333333
 41
0.0
 71
     2
 72
     1
  1
PLANTILLA
  7
SLDTEXTSTYLE0
 73
     1
 44
1.0
  0
MTEXT
  5
19A
330
194
100
AcDbEntity
  8
NOTES
 62
     0
100
AcDbMText
 10
0.9097927656
 20
-0.4236712155
 30
0.0
 40
0.2083333333
 41
0.0
 71
     2
 72
     1
  1
CENTRAL
  7
SLDTEXTSTYLE0
 73
     1
 44
1.0
  0
ENDBLK
  5
196
330
194
100
AcDbEntity
  8
0
100
AcDbBlockEnd
  0
BLOCK
  5
1A0
330
19F
100
AcDbEntity
  8
0
100
AcDbBlockBegin
  2
SW_NOTE_0_1
 70
     0
 10
0.0
 20
0.0
 30
0.0
  3
SW_NOTE_0_1
  1

  0
MTEXT
  5
1A2
330
19F
100
AcDbEntity
  8
NOTES
 62
     0
100
AcDbMText
 10
0.0
 20
0.2148446233
 30
0.0
 40
0.1666666667
 41
0.0
 71
     1
 72
     1
  1
NOTES:
  7
SLDTEXTSTYLE0
 73
     1
 44
1.0
  0
MTEXT
  5
1A3
330
19F
100
AcDbEntity
  8
NOTES
 62
     0
100
AcDbMText
 10
0.3937007786
 20
-0.2295998158
 30
0.0
 40
0.1666666667
 41
0.0
 71
     1
 72
     1
  1
THOROUGHLY READ ALL  INSTALLATION INSTRUCTIONS
  7
SLDTEXTSTYLE0
 73
     1
 44
1.0
  0
MTEXT
  5
1A4
330
19F
100
AcDbEntity
  8
NOTES
 62
     0
100
AcDbMText
 10
0.0
 20
-0.2295998158
 30
0.0
 40
0.1666666667
 41
0.0
 71
     1
 72
     1
  1
1.
  7
SLDTEXTSTYLE0
 73
     1
 44
1.0
  0
MTEXT
  5
1A5
330
19F
100
AcDbEntity
  8
NOTES
 62
     0
100
AcDbMText
 10
0.0
 20
-0.4518220353
 30
0.0
 40
0.1666666667
 41
0.0
 71
     1
 72
     1
  1
BEFORE CUTTING COUNTERTOP.
  7
SLDTEXTSTYLE0
 73
     1
 44
1.0
  0
MTEXT
  5
1A6
330
19F
100
AcDbEntity
  8
NOTES
 62
     0
100
AcDbMText
 10
0.0
 20
-0.8962664744
 30
0.0
 40
0.1666666667
 41
0.0
 71
     1
 72
     1
  1
2.  DIMENSIONS ARE IN INCHES [MM].
  7
SLDTEXTSTYLE0
 73
     1
 44
1.0
  0
MTEXT
  5
1A7
330
19F
100
AcDbEntity
  8
NOTES
 62
     0
100
AcDbMText
 10
0.0
 20
-1.562933133
 30
0.0
 40
0.1666666667
 41
0.0
 71
     1
 72
     1
  1
PLEASE CHECK TEMPLATE AGAINST PHYSICAL SINK FOR MOST
  7
SLDTEXTSTYLE0
 73
     1
 44
1.0
  0
MTEXT
  5
1A8
330
19F
100
AcDbEntity
  8
NOTES
 62
     0
100
AcDbMText
 10
0.0
 20
-1.7851553525
 30
0.0
 40
0.1666666667
 41
0.0
 71
     1
 72
     1
  1
ACCURATE CUT.
  7
SLDTEXTSTYLE0
 73
     1
 44
1.0
  0
MTEXT
  5
1A9
330
19F
100
AcDbEntity
  8
NOTES
 62
     0
100
AcDbMText
 10
0.0
 20
-2.6740442307
 30
0.0
 40
0.1666666667
 41
0.0
 71
     1
 72
     1
  1
NOTAS:
  7
SLDTEXTSTYLE0
 73
     1
 44
1.0
  0
MTEXT
  5
1AA
330
19F
100
AcDbEntity
  8
NOTES
 62
     0
100
AcDbMText
 10
0.0
 20
-3.1184886698
 30
0.0
 40
0.1666666667
 41
0.0
 71
     1
 72
     1
  1
1.  LEA ATENTAMENTE LAS INSTRUCCIONES DE INSTALACIÓN ANTES DE
  7
SLDTEXTSTYLE0
 73
     1
 44
1.0
  0
MTEXT
  5
1AB
330
19F
100
AcDbEntity
  8
NOTES
 62
     0
100
AcDbMText
 10
0.0
 20
-3.3407108893
 30
0.0
 40
0.1666666667
 41
0.0
 71
     1
 72
     1
  1
CORTAR LA ENCIMERA.
  7
SLDTEXTSTYLE0
 73
     1
 44
1.0
  0
MTEXT
  5
1AC
330
19F
100
AcDbEntity
  8
NOTES
 62
     0
100
AcDbMText
 10
0.0
 20
-3.7851553284
 30
0.0
 40
0.1666666667
 41
0.0
 71
     1
 72
     1
  1
2.  DIMENSIONES EN PULGADAS [MM].
  7
SLDTEXTSTYLE0
 73
     1
 44
1.0
  0
MTEXT
  5
1AD
330
19F
100
AcDbEntity
  8
NOTES
 62
     0
100
AcDbMText
 10
0.0
 20
-4.451821987
 30
0.0
 40
0.1666666667
 41
0.0
 71
     1
 72
     1
  1
POR FAVOR COMPRUEBE PLANTILLA CONTRA FREGADERO FÍSICO PARA
  7
SLDTEXTSTYLE0
 73
     1
 44
1.0
  0
MTEXT
  5
1AE
330
19F
100
AcDbEntity
  8
NOTES
 62
     0
100
AcDbMText
 10
0.0
 20
-4.6740442065
 30
0.0
 40
0.1666666667
 41
0.0
 71
     1
 72
     1
  1
CORTE MÁS EXACTO.
  7
SLDTEXTSTYLE0
 73
     1
 44
1.0
  0
ENDBLK
  5
1A1
330
19F
100
AcDbEntity
  8
0
100
AcDbBlockEnd
  0
BLOCK
  5
1B2
330
1B1
100
AcDbEntity
  8
0
100
AcDbBlockBegin
  2
SW_NOTE_0_2
 70
     0
 10
0.0
 20
0.0
 30
0.0
  3
SW_NOTE_0_2
  1

  0
MTEXT
  5
1B4
330
1B1
100
AcDbEntity
  8
NOTES
 62
     0
100
AcDbMText
 10
0.0207822186
 20
1.0330910936
 30
0.0
 40
0.2083333333
 41
0.0
 71
     1
 72
     1
  1
FOR UNDERMOUNT
  7
SLDTEXTSTYLE0
 73
     1
 44
1.0
  0
MTEXT
  5
1B5
330
1B1
100
AcDbEntity
  8
NOTES
 62
     0
100
AcDbMText
 10
0.0207822186
 20
0.715943234
 30
0.0
 40
0.2083333333
 41
0.0
 71
     1
 72
     1
  1
INSTALLATION CUT
  7
SLDTEXTSTYLE0
 73
     1
 44
1.0
  0
MTEXT
  5
1B6
330
1B1
100
AcDbEntity
  8
NOTES
 62
     0
100
AcDbMText
 10
0.0207822186
 20
0.3987953744
 30
0.0
 40
0.2083333333
 41
0.0
 71
     1
 72
     1
  1
ALONG THIS LINE
  7
SLDTEXTSTYLE0
 73
     1
 44
1.0
  0
MTEXT
  5
1B7
330
1B1
100
AcDbEntity
  8
NOTES
 62
     0
100
AcDbMText
 10
0.0207822186
 20
-0.2355003449
 30
0.0
 40
0.2083333333
 41
0.0
 71
     1
 72
     1
  1
PARA LA INSTALACIÓN
  7
SLDTEXTSTYLE0
 73
     1
 44
1.0
  0
MTEXT
  5
1B8
330
1B1
100
AcDbEntity
  8
NOTES
 62
     0
100
AcDbMText
 10
0.0207822186
 20
-0.5526482045
 30
0.0
 40
0.2083333333
 41
0.0
 71
     1
 72
     1
  1
INFERIOR CORTE A LO
  7
SLDTEXTSTYLE0
 73
     1
 44
1.0
  0
MTEXT
  5
1B9
330
1B1
100
AcDbEntity
  8
NOTES
 62
     0
100
AcDbMText
 10
0.0207822186
 20
-0.8697960641
 30
0.0
 40
0.2083333333
 41
0.0
 71
     1
 72
     1
  1
LARGO DE ESTA LÍNEA
  7
SLDTEXTSTYLE0
 73
     1
 44
1.0
  0
ENDBLK
  5
1B3
330
1B1
100
AcDbEntity
  8
0
100
AcDbBlockEnd
  0
BLOCK
  5
1BD
330
1BC
100
AcDbEntity
  8
0
100
AcDbBlockBegin
  2
SW_NOTE_0_3
 70
     0
 10
0.0
 20
0.0
 30
0.0
  3
SW_NOTE_0_3
  1

  0
MTEXT
  5
1BF
330
1BC
100
AcDbEntity
  8
NOTES
 62
     0
100
AcDbMText
 10
3.5115961466
 20
1.1935777479
 30
0.0
 40
0.2083333333
 41
0.0
 71
     3
 72
     1
  1
FOR TOP MOUNT
  7
SLDTEXTSTYLE0
 73
     1
 44
1.0
  0
MTEXT
  5
1C0
330
1BC
100
AcDbEntity
  8
NOTES
 62
     0
100
AcDbMText
 10
3.6080467624
 20
0.8764298883
 30
0.0
 40
0.2083333333
 41
0.0
 71
     3
 72
     1
  1
INSTALLATION CUT
  7
SLDTEXTSTYLE0
 73
     1
 44
1.0
  0
MTEXT
  5
1C1
330
1BC
100
AcDbEntity
  8
NOTES
 62
     0
100
AcDbMText
 10
3.6075644901
 20
0.5592820287
 30
0.0
 40
0.2083333333
 41
0.0
 71
     3
 72
     1
  1
ALONG THIS LINE
  7
SLDTEXTSTYLE0
 73
     1
 44
1.0
  0
MTEXT
  5
1C2
330
1BC
100
AcDbEntity
  8
NOTES
 62
     0
100
AcDbMText
 10
3.6302310371
 20
-0.0750136906
 30
0.0
 40
0.2083333333
 41
0.0
 71
     3
 72
     1
  1
PARA LA INSTALACIÓN DE
  7
SLDTEXTSTYLE0
 73
     1
 44
1.0
  0
MTEXT
  5
1C3
330
1BC
100
AcDbEntity
  8
NOTES
 62
     0
100
AcDbMText
 10
3.6109404365
 20
-0.3921615502
 30
0.0
 40
0.2083333333
 41
0.0
 71
     3
 72
     1
  1
MONTAJE SUPERIOR
  7
SLDTEXTSTYLE0
 73
     1
 44
1.0
  0
MTEXT
  5
1C4
330
1BC
100
AcDbEntity
  8
NOTES
 62
     0
100
AcDbMText
 10
3.6041888103
 20
-0.7093094098
 30
0.0
 40
0.2083333333
 41
0.0
 71
     3
 72
     1
  1
CORTE A LO LARGO
  7
SLDTEXTSTYLE0
 73
     1
 44
1.0
  0
MTEXT
  5
1C5
330
1BC
100
AcDbEntity
  8
NOTES
 62
     0
100
AcDbMText
 10
3.6167272379
 20
-1.0264572694
 30
0.0
 40
0.2083333333
 41
0.0
 71
     3
 72
     1
  1
DE ESTA LÍNEA
  7
SLDTEXTSTYLE0
 73
     1
 44
1.0
  0
ENDBLK
  5
1BE
330
1BC
100
AcDbEntity
  8
0
100
AcDbBlockEnd
  0
BLOCK
  5
1C9
330
1C8
100
AcDbEntity
  8
0
100
AcDbBlockBegin
  2
SW_NOTE_0_4
 70
     0
 10
0.0
 20
0.0
 30
0.0
  3
SW_NOTE_0_4
  1

  0
MTEXT
  5
1CB
330
1C8
100
AcDbEntity
  8
NOTES
 62
     0
100
AcDbMText
 10
6.17578125
 20
0.9668008048
 30
0.0
 40
0.75
 41
0.0
 71
     2
 72
     1
  1
TEMPLATE #: 1000001425
  7
SLDTEXTSTYLE0
 73
     1
 44
1.0
  0
MTEXT
  5
1CC
330
1C8
100
AcDbEntity
  8
NOTES
 62
     0
100
AcDbMText
 10
6.1611058402
 20
-0.1178977056
 30
0.0
 40
0.2916666667
 41
0.0
 71
     2
 72
     1
  1
DUAL MOUNT TEMPLATE 19-3/8" X 14-7/8" W/3-11/16" RADIUS
  7
SLDTEXTSTYLE0
 73
     1
 44
1.0
  0
ENDBLK
  5
1CA
330
1C8
100
AcDbEntity
  8
0
100
AcDbBlockEnd
  0
BLOCK
  5
1CF
330
1CE
100
AcDbEntity
  8
0
100
AcDbBlockBegin
  2
SW_NOTE_0_5
 70
     0
 10
0.0
 20
0.0
 30
0.0
  3
SW_NOTE_0_5
  1

  0
MTEXT
  5
1D1
330
1CE
100
AcDbEntity
  8
NOTES
 62
     0
100
AcDbMText
 10
0.0204594987
 20
1.0306601736
 30
0.0
 40
0.2083333333
 41
0.0
 71
     1
 72
     1
  1
EDGE OF SINK,
  7
SLDTEXTSTYLE0
 73
     1
 44
1.0
  0
MTEXT
  5
1D2
330
1CE
100
AcDbEntity
  8
NOTES
 62
     0
100
AcDbMText
 10
0.0204594987
 20
0.713512314
 30
0.0
 40
0.2083333333
 41
0.0
 71
     1
 72
     1
  1
REFERENCE ONLY
  7
SLDTEXTSTYLE0
 73
     1
 44
1.0
  0
MTEXT
  5
1D3
330
1CE
100
AcDbEntity
  8
NOTES
 62
     0
100
AcDbMText
 10
0.0204594987
 20
0.3963644544
 30
0.0
 40
0.2083333333
 41
0.0
 71
     1
 72
     1
  1
DO NOT CUT
  7
SLDTEXTSTYLE0
 73
     1
 44
1.0
  0
MTEXT
  5
1D4
330
1CE
100
AcDbEntity
  8
NOTES
 62
     0
100
AcDbMText
 10
0.0204594987
 20
-0.2379312649
 30
0.0
 40
0.2083333333
 41
0.0
 71
     1
 72
     1
  1
BORDE DEL FREGADERO,
  7
SLDTEXTSTYLE0
 73
     1
 44
1.0
  0
MTEXT
  5
1D5
330
1CE
100
AcDbEntity
  8
NOTES
 62
     0
100
AcDbMText
 10
0.0204594987
 20
-0.5550791245
 30
0.0
 40
0.2083333333
 41
0.0
 71
     1
 72
     1
  1
SÓLO REFERENCIA
  7
SLDTEXTSTYLE0
 73
     1
 44
1.0
  0
MTEXT
  5
1D6
330
1CE
100
AcDbEntity
  8
NOTES
 62
     0
100
AcDbMText
 10
0.0204594987
 20
-0.8722269841
 30
0.0
 40
0.2083333333
 41
0.0
 71
     1
 72
     1
  1
NO CORTE
  7
SLDTEXTSTYLE0
 73
     1
 44
1.0
  0
ENDBLK
  5
1D0
330
1CE
100
AcDbEntity
  8
0
100
AcDbBlockEnd
  0
BLOCK
  5
1DA
330
1D9
100
AcDbEntity
  8
0
100
AcDbBlockBegin
  2
SW_NOTE_0_6
 70
     0
 10
0.0
 20
0.0
 30
0.0
  3
SW_NOTE_0_6
  1

  0
MTEXT
  5
1DC
330
1D9
100
AcDbEntity
  8
NOTES
 62
     0
100
AcDbMText
 10
2.328098172
 20
0.409786958
 30
0.0
 40
0.2083333333
 41
0.0
 71
     3
 72
     1
  1
1/2" REVEAL
  7
SLDTEXTSTYLE0
 73
     1
 44
1.0
  0
MTEXT
  5
1DD
330
1D9
100
AcDbEntity
  8
NOTES
 62
     0
100
AcDbMText
 10
2.3330655066
 20
0.1320091836
 30
0.0
 40
0.2083333333
 41
0.0
 71
     3
 72
     1
  1
[12.7 REVELADO]
  7
SLDTEXTSTYLE0
 73
     1
 44
1.0
  0
MTEXT
  5
1DE
330
1D9
100
AcDbEntity
  8
NOTES
 62
     0
100
AcDbMText
 10
2.3113642243
 20
-0.1457685908
 30
0.0
 40
0.2083333333
 41
0.0
 71
     3
 72
     1
  1
UNDERMOUNT
  7
SLDTEXTSTYLE0
 73
     1
 44
1.0
  0
ENDBLK
  5
1DB
330
1D9
100
AcDbEntity
  8
0
100
AcDbBlockEnd
  0
BLOCK
  5
1E2
330
1E1
100
AcDbEntity
  8
0
100
AcDbBlockBegin
  2
SW_NOTE_0_7
 70
     0
 10
0.0
 20
0.0
 30
0.0
  3
SW_NOTE_0_7
  1

  0
MTEXT
  5
1E4
330
1E1
100
AcDbEntity
  8
NOTES
 62
     0
100
AcDbMText
 10
1.6925117976
 20
0.4093984573
 30
0.0
 40
0.2083333333
 41
0.0
 71
     3
 72
     1
  1
5/16"
  7
SLDTEXTSTYLE0
 73
     1
 44
1.0
  0
MTEXT
  5
1E5
330
1E1
100
AcDbEntity
  8
NOTES
 62
     0
100
AcDbMText
 10
1.6907274593
 20
0.1316206828
 30
0.0
 40
0.2083333333
 41
0.0
 71
     3
 72
     1
  1
[8]
  7
SLDTEXTSTYLE0
 73
     1
 44
1.0
  0
MTEXT
  5
1E6
330
1E1
100
AcDbEntity
  8
NOTES
 62
     0
100
AcDbMText
 10
1.6868693939
 20
-0.1461570916
 30
0.0
 40
0.2083333333
 41
0.0
 71
     3
 72
     1
  1
TOP MOUNT
  7
SLDTEXTSTYLE0
 73
     1
 44
1.0
  0
ENDBLK
  5
1E3
330
1E1
100
AcDbEntity
  8
0
100
AcDbBlockEnd
  0
ENDSEC
  0
SECTION
  2
ENTITIES
  0
ARC
  5
EF
330
1F
100
AcDbEntity
  8
0
  6
Continuous
 62
     7
100
AcDbCircle
 10
16.8088090881
 20
4.6109427512
 30
0.0
 40
3.999999999999996
100
AcDbArc
 50
270.0
 51
0.0
  0
ARC
  5
F0
330
1F
100
AcDbEntity
  8
0
  6
Continuous
 62
     7
100
AcDbCircle
 10
16.8088090881
 20
12.1109427512
 30
0.0
 40
3.999999999999998
100
AcDbArc
 50
0.0
 51
90.0
  0
ARC
  5
F1
330
1F
100
AcDbEntity
  8
0
  6
Continuous
 62
     7
100
AcDbCircle
 10
4.8088090881
 20
12.1109427512
 30
0.0
 40
3.999999999999998
100
AcDbArc
 50
90.0
 51
180.0
  0
ARC
  5
F2
330
1F
100
AcDbEntity
  8
0
  6
Continuous
 62
     7
100
AcDbCircle
 10
4.8088090881
 20
4.6109427512
 30
0.0
 40
3.999999999999996
100
AcDbArc
 50
180.0
 51
270.0
  0
ARC
  5
F3
330
1F
100
AcDbEntity
  8
0
  6
Continuous
 62
     7
100
AcDbCircle
 10
4.8088090881
 20
4.6109427512
 30
0.0
 40
3.5
100
AcDbArc
 50
180.0
 51
270.0
  0
ARC
  5
F4
330
1F
100
AcDbEntity
  8
0
  6
Continuous
 62
     7
100
AcDbCircle
 10
4.8088090881
 20
12.1109427512
 30
0.0
 40
3.5
100
AcDbArc
 50
90.0
 51
180.0
  0
ARC
  5
F5
330
1F
100
AcDbEntity
  8
0
  6
Continuous
 62
     7
100
AcDbCircle
 10
16.8088090881
 20
12.1109427512
 30
0.0
 40
3.5
100
AcDbArc
 50
0.0
 51
90.0
  0
ARC
  5
F6
330
1F
100
AcDbEntity
  8
0
  6
Continuous
 62
     7
100
AcDbCircle
 10
16.8088090881
 20
4.6109427512
 30
0.0
 40
3.5
100
AcDbArc
 50
270.0
 51
0.0
  0
ARC
  5
F7
330
1F
100
AcDbEntity
  8
0
  6
Continuous
 62
     7
100
AcDbCircle
 10
4.8088090881
 20
12.1109427512
 30
0.0
 40
3.687499999999998
100
AcDbArc
 50
90.0
 51
180.0
  0
ARC
  5
F8
330
1F
100
AcDbEntity
  8
0
  6
Continuous
 62
     7
100
AcDbCircle
 10
4.8088090881
 20
4.6109427512
 30
0.0
 40
3.687499999999997
100
AcDbArc
 50
180.0
 51
270.0
  0
ARC
  5
F9
330
1F
100
AcDbEntity
  8
0
  6
Continuous
 62
     7
100
AcDbCircle
 10
16.8088090881
 20
4.6109427512
 30
0.0
 40
3.687499999999996
100
AcDbArc
 50
270.0
 51
0.0
  0
ARC
  5
FA
330
1F
100
AcDbEntity
  8
0
  6
Continuous
 62
     7
100
AcDbCircle
 10
16.8088090881
 20
12.1109427512
 30
0.0
 40
3.687499999999996
100
AcDbArc
 50
0.0
 51
90.0
  0
LINE
  5
FB
330
1F
100
AcDbEntity
  8
0
  6
Continuous
 62
     7
100
AcDbLine
 10
20.8088090881
 20
12.1109427512
 30
0.0
 11
20.8088090881
 21
4.6109427512
 31
0.0
  0
LINE
  5
FC
330
1F
100
AcDbEntity
  8
0
  6
Continuous
 62
     7
100
AcDbLine
 10
16.8088090881
 20
16.1109427512
 30
0.0
 11
4.8088090881
 21
16.1109427512
 31
0.0
  0
LINE
  5
FD
330
1F
100
AcDbEntity
  8
0
  6
Continuous
 62
     7
100
AcDbLine
 10
0.8088090881
 20
12.1109427512
 30
0.0
 11
0.8088090881
 21
4.6109427512
 31
0.0
  0
LINE
  5
FE
330
1F
100
AcDbEntity
  8
0
  6
Continuous
 62
     7
100
AcDbLine
 10
4.8088090881
 20
0.6109427512
 30
0.0
 11
16.8088090881
 21
0.6109427512
 31
0.0
  0
LINE
  5
FF
330
1F
100
AcDbEntity
  8
0
  6
Continuous
 62
     7
100
AcDbLine
 10
1.3088090881
 20
12.1109427512
 30
0.0
 11
1.3088090881
 21
4.6109427512
 31
0.0
  0
LINE
  5
100
330
1F
100
AcDbEntity
  8
0
  6
Continuous
 62
     7
100
AcDbLine
 10
16.8088090881
 20
15.6109427512
 30
0.0
 11
4.8088090881
 21
15.6109427512
 31
0.0
  0
LINE
  5
101
330
1F
100
AcDbEntity
  8
0
  6
Continuous
 62
     7
100
AcDbLine
 10
20.3088090881
 20
4.6109427512
 30
0.0
 11
20.3088090881
 21
12.1109427512
 31
0.0
  0
LINE
  5
102
330
1F
100
AcDbEntity
  8
0
  6
Continuous
 62
     7
100
AcDbLine
 10
4.8088090881
 20
1.1109427512
 30
0.0
 11
16.8088090881
 21
1.1109427512
 31
0.0
  0
LINE
  5
103
330
1F
100
AcDbEntity
  8
0
  6
Continuous
 62
     7
100
AcDbLine
 10
1.1213090881
 20
12.1109427512
 30
0.0
 11
1.1213090881
 21
4.6109427512
 31
0.0
  0
LINE
  5
104
330
1F
100
AcDbEntity
  8
0
  6
Continuous
 62
     7
100
AcDbLine
 10
4.8088090881
 20
0.9234427512
 30
0.0
 11
16.8088090881
 21
0.9234427512
 31
0.0
  0
LINE
  5
105
330
1F
100
AcDbEntity
  8
0
  6
Continuous
 62
     7
100
AcDbLine
 10
20.4963090881
 20
4.6109427512
 30
0.0
 11
20.4963090881
 21
12.1109427512
 31
0.0
  0
LINE
  5
106
330
1F
100
AcDbEntity
  8
0
  6
Continuous
 62
     7
100
AcDbLine
 10
16.8088090881
 20
15.7984427512
 30
0.0
 11
4.8088090881
 21
15.7984427512
 31
0.0
  0
LINE
  5
107
330
1F
100
AcDbEntity
  8
OBJECTS
  6
CENTERX2
100
AcDbLine
 10
10.8088090881
 20
15.6109427512
 30
0.0
 11
10.8088090881
 21
14.0857180964
 31
0.0
  0
LINE
  5
108
330
1F
100
AcDbEntity
  8
OBJECTS
  6
CENTERX2
100
AcDbLine
 10
20.3088090881
 20
8.3609427512
 30
0.0
 11
18.7835844333
 21
8.3609427512
 31
0.0
  0
LINE
  5
109
330
1F
100
AcDbEntity
  8
OBJECTS
  6
CENTERX2
100
AcDbLine
 10
10.8088090881
 20
1.1109427512
 30
0.0
 11
10.8088090881
 21
2.636167406
 31
0.0
  0
LINE
  5
10A
330
1F
100
AcDbEntity
  8
OBJECTS
  6
CENTERX2
100
AcDbLine
 10
1.3088090881
 20
8.3609427512
 30
0.0
 11
2.8340337429
 21
8.3609427512
 31
0.0
  0
LINE
  5
10B
330
1F
100
AcDbEntity
  8
OBJECTS
  6
PHANTOM
100
AcDbLine
 10
1.3088090881
 20
12.1109427512
 30
0.0
 11
1.3088090881
 21
4.6109427512
 31
0.0
  0
LINE
  5
10C
330
1F
100
AcDbEntity
  8
OBJECTS
  6
PHANTOM
100
AcDbLine
 10
4.8088090881
 20
1.1109427512
 30
0.0
 11
16.8088090881
 21
1.1109427512
 31
0.0
  0
LINE
  5
10D
330
1F
100
AcDbEntity
  8
OBJECTS
  6
PHANTOM
100
AcDbLine
 10
20.3088090881
 20
4.6109427512
 30
0.0
 11
20.3088090881
 21
12.1109427512
 31
0.0
  0
LINE
  5
10E
330
1F
100
AcDbEntity
  8
OBJECTS
  6
PHANTOM
100
AcDbLine
 10
16.8088090881
 20
15.6109427512
 30
0.0
 11
4.8088090881
 21
15.6109427512
 31
0.0
  0
ARC
  5
10F
330
1F
100
AcDbEntity
  8
OBJECTS
  6
PHANTOM
100
AcDbCircle
 10
4.8088090881
 20
4.6109427512
 30
0.0
 40
3.5
100
AcDbArc
 50
180.0
 51
270.0
  0
ARC
  5
110
330
1F
100
AcDbEntity
  8
OBJECTS
  6
PHANTOM
100
AcDbCircle
 10
16.8088090881
 20
4.6109427512
 30
0.0
 40
3.5
100
AcDbArc
 50
270.0
 51
0.0
  0
ARC
  5
111
330
1F
100
AcDbEntity
  8
OBJECTS
  6
PHANTOM
100
AcDbCircle
 10
16.8088090881
 20
12.1109427512
 30
0.0
 40
3.5
100
AcDbArc
 50
0.0
 51
90.0
  0
ARC
  5
112
330
1F
100
AcDbEntity
  8
OBJECTS
  6
PHANTOM
100
AcDbCircle
 10
4.8088090881
 20
12.1109427512
 30
0.0
 40
3.5
100
AcDbArc
 50
90.0
 51
180.0
  0
INSERT
  5
113
330
1F
100
AcDbEntity
  8
BLOCKS
100
AcDbBlockReference
  2
REVEAL- .500_
 10
-16.7424093179
 20
-22.3907101162
 30
0.0
  0
INSERT
  5
114
330
1F
100
AcDbEntity
  8
BLOCKS
100
AcDbBlockReference
  2
TOPMOUNT-.3125_
 10
6.2404882038
 20
23.2805445563
 30
0.0
  0
DIMENSION
  5
115
330
1F
100
AcDbEntity
  8
DIMS
100
AcDbDimension
  2
_D
 10
5.3691669583
 20
1.1109427512
 30
0.0
 11
5.3691669583
 21
5.3923964522
 31
0.0
 70
   160
  1
<>\PUNDERMOUNT
 71
     2
 42
-1.0
  3
SLDDIMSTYLE0
100
AcDbAlignedDimension
 13
4.8088090881
 23
15.6109427512
 33
0.0
 14
4.8088090881
 24
1.1109427512
 34
0.0
 50
90.0
100
AcDbRotatedDimension
  0
DIMENSION
  5
12B
330
1F
100
AcDbEntity
  8
DIMS
100
AcDbDimension
  2
_D_1
 10
20.3088090881
 20
4.5461238643
 30
0.0
 11
7.7390013863
 21
4.5461238643
 31
0.0
 70
   160
  1
<>\PUNDERMOUNT
 71
     2
 42
-1.0
  3
SLDDIMSTYLE1
100
AcDbAlignedDimension
 13
1.3088090881
 23
4.6109427512
 33
0.0
 14
20.3088090881
 24
4.6109427512
 34
0.0
 50
0.0
100
AcDbRotatedDimension
  0
DIMENSION
  5
13F
330
1F
100
AcDbEntity
  8
DIMS
 62
     1
100
AcDbDimension
  2
_D_2
 10
4.8088090881
 20
4.6109427512
 30
0.0
 11
3.8458592689
 21
3.1815443585
 31
0.0
 70
   164
  1
<>\PUNDERMOUNT
 71
     1
 42
-1.0
  3
SLDDIMSTYLE2
100
AcDbRadialDimension
 15
2.8532971934
 25
1.7081900525
 35
0.0
 40
0.0
  0
DIMENSION
  5
154
330
1F
100
AcDbEntity
  8
BLOCKS
 62
     1
100
AcDbDimension
  2
_D_3
 10
6.5521000674
 20
0.9234427512
 30
0.0
 11
6.5521000674
 21
13.672188851
 31
0.0
 70
   160
  1
<>\PTOP MOUNT
 71
     2
 42
-1.0
  3
SLDDIMSTYLE0
100
AcDbAlignedDimension
 13
4.8088090881
 23
15.7984427512
 33
0.0
 14
4.8088090881
 24
0.9234427512
 34
0.0
 50
90.0
100
AcDbRotatedDimension
  0
DIMENSION
  5
169
330
1F
100
AcDbEntity
  8
BLOCKS
 62
     1
100
AcDbDimension
  2
_D_4
 10
20.4963090881
 20
12.3388555338
 30
0.0
 11
7.7390013863
 21
12.3388555338
 31
0.0
 70
   160
  1
<>\PTOP MOUNT
 71
     2
 42
-1.0
  3
SLDDIMSTYLE0
100
AcDbAlignedDimension
 13
1.1213090881
 23
12.1109427512
 33
0.0
 14
20.4963090881
 24
12.1109427512
 34
0.0
 50
0.0
100
AcDbRotatedDimension
  0
DIMENSION
  5
180
330
1F
100
AcDbEntity
  8
BLOCKS
 62
     1
100
AcDbDimension
  2
_D_5
 10
4.8088090881
 20
12.1109427512
 30
0.0
 11
4.0694612529
 21
13.403632583
 31
0.0
 70
   164
  1
<>\PTOP MOUNT
 71
     1
 42
-1.0
  3
SLDDIMSTYLE2
100
AcDbRadialDimension
 15
2.9780489367
 25
15.3118759773
 35
0.0
 40
0.0
  0
INSERT
  5
19B
102
{ACAD_REACTORS
330
19D
330
19E
102
}
330
1F
100
AcDbEntity
  8
NOTES
100
AcDbBlockReference
  2
SW_NOTE_0
 10
15.2651690597
 20
6.7373406055
 30
0.0
  0
LEADER
  5
19D
330
1F
100
AcDbEntity
  8
NOTES
100
AcDbLeader
  3
SLDDIMSTYLE3
 73
     2
 76
     3
 10
10.8088090881
 20
2.0582526204
 30
0.0
 10
15.0151690597
 20
6.7373406055
 30
0.0
 10
15.2651690597
 20
6.7373406055
 30
0.0
340
19B
  0
LEADER
  5
19E
330
1F
100
AcDbEntity
  8
NOTES
100
AcDbLeader
  3
SLDDIMSTYLE3
 73
     2
 76
     3
 10
19.5325847499
 20
8.3609427512
 30
0.0
 10
17.3174490269
 20
6.7373406055
 30
0.0
 10
17.0674490269
 20
6.7373406055
 30
0.0
340
19B
212
1.802279967104948
222
0.0
232
0.0
  0
INSERT
  5
1AF
330
1F
100
AcDbEntity
  8
NOTES
100
AcDbBlockReference
  2
SW_NOTE_0_1
 10
11.7401529456
 20
14.7360777279
 30
0.0
  0
MTEXT
  5
1B0
330
1F
100
AcDbEntity
  8
NOTES
100
AcDbMText
 10
16.7183099837
 20
1.7782373105
 30
0.0
 40
0.2083333333
 41
0.0
 71
     1
 72
     1
  1
REV_E  8/20
  7
SLDTEXTSTYLE0
 73
     1
 44
1.0
  0
INSERT
  5
1BA
102
{ACAD_REACTORS
330
1BB
102
}
330
1F
100
AcDbEntity
  8
NOTES
 62
   218
100
AcDbBlockReference
  2
SW_NOTE_0_2
 10
14.471150665
 20
3.26769235
 30
0.0
  0
LEADER
  5
1BB
330
1F
100
AcDbEntity
  8
NOTES
 62
   218
100
AcDbLeader
  3
SLDDIMSTYLE3
 73
     2
 76
     3
 10
13.7792720307
 20
1.1109427512
 30
0.0
 10
14.2215248887
 20
3.26769235
 30
0.0
 10
14.471150665
 20
3.26769235
 30
0.0
340
1BA
  0
INSERT
  5
1C6
102
{ACAD_REACTORS
330
1C7
102
}
330
1F
100
AcDbEntity
  8
NOTES
 62
     7
100
AcDbBlockReference
  2
SW_NOTE_0_3
 10
1.5718940476
 20
10.71846137
 30
0.0
  0
LEADER
  5
1C7
330
1F
100
AcDbEntity
  8
NOTES
 62
     7
100
AcDbLeader
  3
SLDDIMSTYLE3
 73
     2
 76
     3
 10
1.1213090881
 20
11.4564367816
 30
0.0
 10
1.3218940476
 20
10.71846137
 30
0.0
 10
1.5718940476
 20
10.71846137
 30
0.0
340
1C6
  0
INSERT
  5
1CD
330
1F
100
AcDbEntity
  8
NOTES
 62
     7
100
AcDbBlockReference
  2
SW_NOTE_0_4
 10
5.3195918429
 20
8.1382448598
 30
0.0
  0
INSERT
  5
1D7
102
{ACAD_REACTORS
330
1D8
102
}
330
1F
100
AcDbEntity
  8
NOTES
 62
     7
100
AcDbBlockReference
  2
SW_NOTE_0_5
 10
7.2588169126
 20
2.2846219565
 30
0.0
  0
LEADER
  5
1D8
330
1F
100
AcDbEntity
  8
NOTES
 62
     7
100
AcDbLeader
  3
SLDDIMSTYLE3
 73
     2
 76
     3
 10
6.977615906
 20
0.6109427512
 30
0.0
 10
7.0092393037
 20
2.2846219565
 30
0.0
 10
7.2588169126
 20
2.2846219565
 30
0.0
340
1D7
  0
INSERT
  5
1DF
102
{ACAD_REACTORS
330
1E0
102
}
330
1F
100
AcDbEntity
  8
NOTES
100
AcDbBlockReference
  2
SW_NOTE_0_6
 10
2.2489389457
 20
5.6573810627
 30
0.0
  0
LEADER
  5
1E0
330
1F
100
AcDbEntity
  8
NOTES
100
AcDbLeader
  3
SLDDIMSTYLE3
 73
     2
 76
     3
 10
1.3088090881
 20
5.4007008127
 30
0.0
 10
1.9989389457
 20
5.6573810627
 30
0.0
 10
2.2489389457
 20
5.6573810627
 30
0.0
340
1DF
  0
INSERT
  5
1E7
102
{ACAD_REACTORS
330
1E8
102
}
330
1F
100
AcDbEntity
  8
NOTES
100
AcDbBlockReference
  2
SW_NOTE_0_7
 10
8.1473613067
 20
13.8551483586
 30
0.0
  0
LEADER
  5
1E8
330
1F
100
AcDbEntity
  8
NOTES
100
AcDbLeader
  3
SLDDIMSTYLE3
 73
     2
 76
     3
 10
8.4906569597
 20
15.7984427512
 30
0.0
 10
7.8973613067
 20
13.8551483586
 30
0.0
 10
8.1473613067
 20
13.8551483586
 30
0.0
340
1E7
  0
ENDSEC
  0
SECTION
  2
OBJECTS
  0
DICTIONARY
  5
C
330
0
100
AcDbDictionary
281
     1
  3
ACAD_GROUP
350
D
  3
ACAD_LAYOUT
350
1A
  3
ACAD_MLINESTYLE
350
17
  3
ACAD_PLOTSETTINGS
350
19
  3
ACAD_PLOTSTYLENAME
350
E
  3
ACAD_SCALELIST
350
47
  3
DWGPROPS
350
1E9
  0
DICTIONARY
  5
D
102
{ACAD_REACTORS
330
C
102
}
330
C
100
AcDbDictionary
281
     1
  0
DICTIONARY
  5
1A
102
{ACAD_REACTORS
330
C
102
}
330
C
100
AcDbDictionary
281
     1
  3
Layout1
350
1E
  3
Layout2
350
26
  3
Model
350
22
  0
DICTIONARY
  5
17
102
{ACAD_REACTORS
330
C
102
}
330
C
100
AcDbDictionary
281
     1
  3
Standard
350
18
  0
DICTIONARY
  5
19
102
{ACAD_REACTORS
330
C
102
}
330
C
100
AcDbDictionary
281
     1
  0
ACDBDICTIONARYWDFLT
  5
E
102
{ACAD_REACTORS
330
C
102
}
330
C
100
AcDbDictionary
281
     1
  3
Normal
350
F
100
AcDbDictionaryWithDefault
340
F
  0
DICTIONARY
  5
47
102
{ACAD_REACTORS
330
C
102
}
330
C
100
AcDbDictionary
281
     1
  3
A0
350
48
  3
A1
350
49
  3
A2
350
4A
  3
A3
350
4B
  3
A4
350
4C
  3
A5
350
4D
  3
A6
350
4E
  3
A7
350
4F
  3
A8
350
50
  3
A9
350
51
  3
B0
350
52
  3
B1
350
53
  3
B2
350
54
  3
B3
350
55
  3
B4
350
56
  3
B5
350
57
  3
B6
350
58
  3
B7
350
59
  3
B8
350
5A
  3
B9
350
5B
  3
C0
350
5C
  3
C1
350
5D
  3
C2
350
5E
  3
C3
350
5F
  3
C4
350
60
  3
C5
350
61
  3
C6
350
62
  3
C7
350
63
  3
C8
350
64
  3
C9
350
65
  3
D0
350
66
  3
D1
350
67
  3
D2
350
68
  0
XRECORD
  5
1E9
102
{ACAD_REACTORS
330
C
102
}
330
C
100
AcDbXrecord
280
     1
  1
DWGPROPS COOKIE
  2

  3

  4

  6

  7

  8
mariusz.orda
  9

300
=
301
=
302
=
303
=
304
=
305
=
306
=
307
=
308
=
309
=
 40
0.0
 41
2459074.758908727
 42
2459074.758910243
  1

 90
        0
  0
LAYOUT
  5
1E
102
{ACAD_REACTORS
330
1A
102
}
330
1A
100
AcDbPlotSettings
  1

  2
none_device
  4

  6

 40
0.0
 41
0.0
 42
0.0
 43
0.0
 44
0.0
 45
0.0
 46
0.0
 47
0.0
 48
0.0
 49
0.0
140
0.0
141
0.0
142
1.0
143
1.0
 70
   688
 72
     0
 73
     0
 74
     5
  7

 75
    16
147
1.0
148
0.0
149
0.0
100
AcDbLayout
  1
Layout1
 70
     1
 71
     1
 10
0.0
 20
0.0
 11
12.0
 21
9.0
 12
0.0
 22
0.0
 32
0.0
 14
1.0000000000E+20
 24
1.0000000000E+20
 34
1.0000000000E+20
 15
-1.0000000000E+20
 25
-1.0000000000E+20
 35
-1.0000000000E+20
146
0.0
 13
0.0
 23
0.0
 33
0.0
 16
1.0
 26
0.0
 36
0.0
 17
0.0
 27
1.0
 37
0.0
 76
     0
330
1B
  0
LAYOUT
  5
26
102
{ACAD_REACTORS
330
1A
102
}
330
1A
100
AcDbPlotSettings
  1

  2
none_device
  4

  6

 40
0.0
 41
0.0
 42
0.0
 43
0.0
 44
0.0
 45
0.0
 46
0.0
 47
0.0
 48
0.0
 49
0.0
140
0.0
141
0.0
142
1.0
143
1.0
 70
   688
 72
     0
 73
     0
 74
     5
  7

 75
    16
147
1.0
148
0.0
149
0.0
100
AcDbLayout
  1
Layout2
 70
     1
 71
     2
 10
0.0
 20
0.0
 11
0.0
 21
0.0
 12
0.0
 22
0.0
 32
0.0
 14
0.0
 24
0.0
 34
0.0
 15
0.0
 25
0.0
 35
0.0
146
0.0
 13
0.0
 23
0.0
 33
0.0
 16
1.0
 26
0.0
 36
0.0
 17
0.0
 27
1.0
 37
0.0
 76
     0
330
23
  0
LAYOUT
  5
22
102
{ACAD_REACTORS
330
1A
102
}
330
1A
100
AcDbPlotSettings
  1

  2
none_device
  4
Letter_(8.50_x_11.00_Inches)
  6

 40
6.35
 41
6.35
 42
6.35000508
 43
6.35000508
 44
215.9
 45
279.4
 46
0.0
 47
0.0
 48
0.0
 49
0.0
140
0.0
141
0.0
142
1.0
143
1.0
 70
  1712
 72
     0
 73
     0
 74
     0
  7

 75
     0
147
1.0
148
0.0
149
0.0
100
AcDbLayout
  1
Model
 70
     1
 71
     0
 10
0.0
 20
0.0
 11
22.0
 21
17.0
 12
0.0
 22
0.0
 32
0.0
 14
0.0
 24
0.0
 34
0.0
 15
22.0
 25
17.0
 35
0.0
146
0.0
 13
0.0
 23
0.0
 33
0.0
 16
1.0
 26
0.0
 36
0.0
 17
0.0
 27
1.0
 37
0.0
 76
     0
330
1F
331
29
  0
MLINESTYLE
  5
18
102
{ACAD_REACTORS
330
17
102
}
330
17
100
AcDbMlineStyle
  2
Standard
 70
     0
  3

 62
   256
 51
90.0
 52
90.0
 71
     2
 49
0.5
 62
   256
  6
BYLAYER
 49
-0.5
 62
   256
  6
BYLAYER
  0
ACDBPLACEHOLDER
  5
F
102
{ACAD_REACTORS
330
E
102
}
330
E
  0
SCALE
  5
48
102
{ACAD_REACTORS
330
47
102
}
330
47
100
AcDbScale
 70
     0
300
1:1
140
1.0
141
1.0
290
     1
  0
SCALE
  5
49
102
{ACAD_REACTORS
330
47
102
}
330
47
100
AcDbScale
 70
     0
300
1:2
140
1.0
141
2.0
290
     0
  0
SCALE
  5
4A
102
{ACAD_REACTORS
330
47
102
}
330
47
100
AcDbScale
 70
     0
300
1:4
140
1.0
141
4.0
290
     0
  0
SCALE
  5
4B
102
{ACAD_REACTORS
330
47
102
}
330
47
100
AcDbScale
 70
     0
300
1:5
140
1.0
141
5.0
290
     0
  0
SCALE
  5
4C
102
{ACAD_REACTORS
330
47
102
}
330
47
100
AcDbScale
 70
     0
300
1:8
140
1.0
141
8.0
290
     0
  0
SCALE
  5
4D
102
{ACAD_REACTORS
330
47
102
}
330
47
100
AcDbScale
 70
     0
300
1:10
140
1.0
141
10.0
290
     0
  0
SCALE
  5
4E
102
{ACAD_REACTORS
330
47
102
}
330
47
100
AcDbScale
 70
     0
300
1:16
140
1.0
141
16.0
290
     0
  0
SCALE
  5
4F
102
{ACAD_REACTORS
330
47
102
}
330
47
100
AcDbScale
 70
     0
300
1:20
140
1.0
141
20.0
290
     0
  0
SCALE
  5
50
102
{ACAD_REACTORS
330
47
102
}
330
47
100
AcDbScale
 70
     0
300
1:30
140
1.0
141
30.0
290
     0
  0
SCALE
  5
51
102
{ACAD_REACTORS
330
47
102
}
330
47
100
AcDbScale
 70
     0
300
1:40
140
1.0
141
40.0
290
     0
  0
SCALE
  5
52
102
{ACAD_REACTORS
330
47
102
}
330
47
100
AcDbScale
 70
     0
300
1:50
140
1.0
141
50.0
290
     0
  0
SCALE
  5
53
102
{ACAD_REACTORS
330
47
102
}
330
47
100
AcDbScale
 70
     0
300
1:100
140
1.0
141
100.0
290
     0
  0
SCALE
  5
54
102
{ACAD_REACTORS
330
47
102
}
330
47
100
AcDbScale
 70
     0
300
2:1
140
2.0
141
1.0
290
     0
  0
SCALE
  5
55
102
{ACAD_REACTORS
330
47
102
}
330
47
100
AcDbScale
 70
     0
300
4:1
140
4.0
141
1.0
290
     0
  0
SCALE
  5
56
102
{ACAD_REACTORS
330
47
102
}
330
47
100
AcDbScale
 70
     0
300
8:1
140
8.0
141
1.0
290
     0
  0
SCALE
  5
57
102
{ACAD_REACTORS
330
47
102
}
330
47
100
AcDbScale
 70
     0
300
10:1
140
10.0
141
1.0
290
     0
  0
SCALE
  5
58
102
{ACAD_REACTORS
330
47
102
}
330
47
100
AcDbScale
 70
     0
300
100:1
140
100.0
141
1.0
290
     0
  0
SCALE
  5
59
102
{ACAD_REACTORS
330
47
102
}
330
47
100
AcDbScale
 70
     0
300
1/128" = 1'-0"
140
0.0078125
141
12.0
290
     0
  0
SCALE
  5
5A
102
{ACAD_REACTORS
330
47
102
}
330
47
100
AcDbScale
 70
     0
300
1/64" = 1'-0"
140
0.015625
141
12.0
290
     0
  0
SCALE
  5
5B
102
{ACAD_REACTORS
330
47
102
}
330
47
100
AcDbScale
 70
     0
300
1/32" = 1'-0"
140
0.03125
141
12.0
290
     0
  0
SCALE
  5
5C
102
{ACAD_REACTORS
330
47
102
}
330
47
100
AcDbScale
 70
     0
300
1/16" = 1'-0"
140
0.0625
141
12.0
290
     0
  0
SCALE
  5
5D
102
{ACAD_REACTORS
330
47
102
}
330
47
100
AcDbScale
 70
     0
300
3/32" = 1'-0"
140
0.09375
141
12.0
290
     0
  0
SCALE
  5
5E
102
{ACAD_REACTORS
330
47
102
}
330
47
100
AcDbScale
 70
     0
300
1/8" = 1'-0"
140
0.125
141
12.0
290
     0
  0
SCALE
  5
5F
102
{ACAD_REACTORS
330
47
102
}
330
47
100
AcDbScale
 70
     0
300
3/16" = 1'-0"
140
0.1875
141
12.0
290
     0
  0
SCALE
  5
60
102
{ACAD_REACTORS
330
47
102
}
330
47
100
AcDbScale
 70
     0
300
1/4" = 1'-0"
140
0.25
141
12.0
290
     0
  0
SCALE
  5
61
102
{ACAD_REACTORS
330
47
102
}
330
47
100
AcDbScale
 70
     0
300
3/8" = 1'-0"
140
0.375
141
12.0
290
     0
  0
SCALE
  5
62
102
{ACAD_REACTORS
330
47
102
}
330
47
100
AcDbScale
 70
     0
300
1/2" = 1'-0"
140
0.5
141
12.0
290
     0
  0
SCALE
  5
63
102
{ACAD_REACTORS
330
47
102
}
330
47
100
AcDbScale
 70
     0
300
3/4" = 1'-0"
140
0.75
141
12.0
290
     0
  0
SCALE
  5
64
102
{ACAD_REACTORS
330
47
102
}
330
47
100
AcDbScale
 70
     0
300
1" = 1'-0"
140
1.0
141
12.0
290
     0
  0
SCALE
  5
65
102
{ACAD_REACTORS
330
47
102
}
330
47
100
AcDbScale
 70
     0
300
1-1/2" = 1'-0"
140
1.5
141
12.0
290
     0
  0
SCALE
  5
66
102
{ACAD_REACTORS
330
47
102
}
330
47
100
AcDbScale
 70
     0
300
3" = 1'-0"
140
3.0
141
12.0
290
     0
  0
SCALE
  5
67
102
{ACAD_REACTORS
330
47
102
}
330
47
100
AcDbScale
 70
     0
300
6" = 1'-0"
140
6.0
141
12.0
290
     0
  0
SCALE
  5
68
102
{ACAD_REACTORS
330
47
102
}
330
47
100
AcDbScale
 70
     0
300
1'-0" = 1'-0"
140
12.0
141
12.0
290
     0
  0
ENDSEC
  0
EOF
