  0
SECTION
  2
HEADER
  9
$ACADVER
  1
AC1012
  9
$DWGCODEPAGE
  3
ansi_1252
  9
$INSBASE
 10
0.0
 20
0.0
 30
0.0
  9
$EXTMIN
 10
0.0
 20
0.0
 30
0.0
  9
$EXTMAX
 10
32.0
 20
15.0
 30
0.0
  9
$LIMMIN
 10
0.0
 20
0.0
  9
$LIMMAX
 10
32.0
 20
15.0
  9
$ORTHOMODE
 70
     0
  9
$REGENMODE
 70
     1
  9
$FILLMODE
 70
     1
  9
$QTEXTMODE
 70
     0
  9
$MIRRTEXT
 70
     1
  9
$DRAGMODE
 70
     2
  9
$LTSCALE
 40
1.0
  9
$OSMODE
 70
    37
  9
$ATTMODE
 70
     1
  9
$TEXTSIZE
 40
0.2777777778
  9
$TRACEWID
 40
0.05
  9
$TEXTSTYLE
  7
STANDARD
  9
$CLAYER
  8
0
  9
$CELTYPE
  6
BYLAYER
  9
$CECOLOR
 62
   256
  9
$CELTSCALE
 40
1.0
  9
$DELOBJ
 70
     1
  9
$DISPSILH
 70
     0
  9
$DIMSCALE
 40
1.0
  9
$DIMASZ
 40
0.262898763
  9
$DIMEXO
 40
0.05
  9
$DIMDLI
 40
0.38
  9
$DIMRND
 40
0.0
  9
$DIMDLE
 40
0.0
  9
$DIMEXE
 40
0.125
  9
$DIMTP
 40
0.0
  9
$DIMTM
 40
0.0
  9
$DIMTXT
 40
0.3611111111
  9
$DIMCEN
 40
0.09
  9
$DIMTSZ
 40
0.0
  9
$DIMTOL
 70
     0
  9
$DIMLIM
 70
     0
  9
$DIMTIH
 70
     1
  9
$DIMTOH
 70
     1
  9
$DIMSE1
 70
     0
  9
$DIMSE2
 70
     0
  9
$DIMTAD
 70
     0
  9
$DIMZIN
 70
     0
  9
$DIMBLK
  1

  9
$DIMASO
 70
     1
  9
$DIMSHO
 70
     1
  9
$DIMPOST
  1

  9
$DIMAPOST
  1

  9
$DIMALT
 70
     0
  9
$DIMALTD
 70
     2
  9
$DIMALTF
 40
25.4
  9
$DIMLFAC
 40
1.0
  9
$DIMTOFL
 70
     0
  9
$DIMTVP
 40
0.0
  9
$DIMTIX
 70
     0
  9
$DIMSOXD
 70
     0
  9
$DIMSAH
 70
     0
  9
$DIMBLK1
  1

  9
$DIMBLK2
  1

  9
$DIMSTYLE
  2
STANDARD
  9
$DIMCLRD
 70
     0
  9
$DIMCLRE
 70
     0
  9
$DIMCLRT
 70
     0
  9
$DIMTFAC
 40
1.0
  9
$DIMGAP
 40
0.06
  9
$DIMJUST
 70
     0
  9
$DIMSD1
 70
     0
  9
$DIMSD2
 70
     0
  9
$DIMTOLJ
 70
     1
  9
$DIMTZIN
 70
     0
  9
$DIMALTZ
 70
     0
  9
$DIMALTTZ
 70
     0
  9
$DIMFIT
 70
     3
  9
$DIMUPT
 70
     0
  9
$DIMUNIT
 70
     2
  9
$DIMDEC
 70
     3
  9
$DIMTDEC
 70
     3
  9
$DIMALTU
 70
     2
  9
$DIMALTTD
 70
     2
  9
$DIMTXSTY
  7
STANDARD
  9
$DIMAUNIT
 70
     0
  9
$LUNITS
 70
     2
  9
$LUPREC
 70
     3
  9
$SKETCHINC
 40
0.1
  9
$FILLETRAD
 40
0.5
  9
$AUNITS
 70
     0
  9
$AUPREC
 70
     1
  9
$MENU
  1
.
  9
$ELEVATION
 40
0.0
  9
$PELEVATION
 40
0.0
  9
$THICKNESS
 40
0.0
  9
$LIMCHECK
 70
     0
  9
$CHAMFERA
 40
0.5
  9
$CHAMFERB
 40
0.5
  9
$CHAMFERC
 40
1.0
  9
$CHAMFERD
 40
0.0
  9
$SKPOLY
 70
     0
  9
$TDCREATE
 40
2457231.414274583
  9
$TDUPDATE
 40
2457231.414274896
  9
$TDINDWG
 40
0.0000000116
  9
$TDUSRTIMER
 40
0.0000000116
  9
$USRTIMER
 70
     1
  9
$ANGBASE
 50
0.0
  9
$ANGDIR
 70
     0
  9
$PDMODE
 70
     0
  9
$PDSIZE
 40
-1.0
  9
$PLINEWID
 40
0.0
  9
$COORDS
 70
     1
  9
$SPLFRAME
 70
     0
  9
$SPLINETYPE
 70
     6
  9
$SPLINESEGS
 70
     8
  9
$ATTDIA
 70
     0
  9
$ATTREQ
 70
     1
  9
$HANDLING
 70
     1
  9
$HANDSEED
  5
14D
  9
$SURFTAB1
 70
     6
  9
$SURFTAB2
 70
     6
  9
$SURFTYPE
 70
     6
  9
$SURFU
 70
     6
  9
$SURFV
 70
     6
  9
$UCSNAME
  2

  9
$UCSORG
 10
0.0
 20
0.0
 30
0.0
  9
$UCSXDIR
 10
1.0
 20
0.0
 30
0.0
  9
$UCSYDIR
 10
0.0
 20
1.0
 30
0.0
  9
$PUCSNAME
  2

  9
$PUCSORG
 10
0.0
 20
0.0
 30
0.0
  9
$PUCSXDIR
 10
1.0
 20
0.0
 30
0.0
  9
$PUCSYDIR
 10
0.0
 20
1.0
 30
0.0
  9
$USERI1
 70
     0
  9
$USERI2
 70
     0
  9
$USERI3
 70
     0
  9
$USERI4
 70
     0
  9
$USERI5
 70
     0
  9
$USERR1
 40
0.0
  9
$USERR2
 40
0.0
  9
$USERR3
 40
0.0
  9
$USERR4
 40
0.0
  9
$USERR5
 40
0.0
  9
$WORLDVIEW
 70
     1
  9
$SHADEDGE
 70
     3
  9
$SHADEDIF
 70
    70
  9
$TILEMODE
 70
     1
  9
$MAXACTVP
 70
    64
  9
$PINSBASE
 10
0.0
 20
0.0
 30
0.0
  9
$PLIMCHECK
 70
     0
  9
$PEXTMIN
 10
1.0000000000E+20
 20
1.0000000000E+20
 30
1.0000000000E+20
  9
$PEXTMAX
 10
-1.0000000000E+20
 20
-1.0000000000E+20
 30
-1.0000000000E+20
  9
$PLIMMIN
 10
0.0
 20
0.0
  9
$PLIMMAX
 10
12.0
 20
9.0
  9
$UNITMODE
 70
     0
  9
$VISRETAIN
 70
     1
  9
$PLINEGEN
 70
     0
  9
$PSLTSCALE
 70
     1
  9
$TREEDEPTH
 70
  3020
  9
$PICKSTYLE
 70
     1
  9
$CMLSTYLE
  2
STANDARD
  9
$CMLJUST
 70
     0
  9
$CMLSCALE
 40
1.0
  9
$SAVEIMAGES
 70
     1
  0
ENDSEC
  0
SECTION
  2
CLASSES
  0
CLASS
  1
ACDBDICTIONARYWDFLT
  2
AcDbDictionaryWithDefault
  3
ObjectDBX Classes
 90
    32768
280
     0
281
     0
  0
CLASS
  1
VISUALSTYLE
  2
AcDbVisualStyle
  3
ObjectDBX Classes
 90
     4095
280
     0
281
     0
  0
CLASS
  1
MATERIAL
  2
AcDbMaterial
  3
ObjectDBX Classes
 90
     1153
280
     0
281
     0
  0
CLASS
  1
XRECORD
  2
AcDbXrecord
  3
AutoCAD 2000
 90
    32768
280
     0
281
     0
  0
ENDSEC
  0
SECTION
  2
TABLES
  0
TABLE
  2
VPORT
  5
8
330
0
100
AcDbSymbolTable
 70
     1
  0
VPORT
  5
29
330
8
100
AcDbSymbolTableRecord
100
AcDbViewportTableRecord
  2
*ACTIVE
 70
     0
 10
0.0
 20
0.0
 11
1.0
 21
1.0
 12
16.0
 22
7.5
 13
0.0
 23
0.0
 14
0.5
 24
0.5
 15
0.5
 25
0.5
 16
0.0
 26
0.0
 36
1.0
 17
0.0
 27
0.0
 37
0.0
 40
15.0
 41
2.1333333333
 42
50.0
 43
0.0
 44
0.0
 50
0.0
 51
0.0
 71
     0
 72
  2000
 73
     1
 74
     3
 75
     0
 76
     0
 77
     0
 78
     0
  0
ENDTAB
  0
TABLE
  2
LTYPE
  5
5
330
0
100
AcDbSymbolTable
 70
     6
  0
LTYPE
  5
14
330
5
100
AcDbSymbolTableRecord
100
AcDbLinetypeTableRecord
  2
BYBLOCK
 70
     0
  3

 72
    65
 73
     0
 40
0.0
  0
LTYPE
  5
15
330
5
100
AcDbSymbolTableRecord
100
AcDbLinetypeTableRecord
  2
BYLAYER
 70
     0
  3

 72
    65
 73
     0
 40
0.0
  0
LTYPE
  5
16
330
5
100
AcDbSymbolTableRecord
100
AcDbLinetypeTableRecord
  2
CONTINUOUS
 70
     0
  3
Solid line
 72
    65
 73
     0
 40
0.0
  0
LTYPE
  5
3F
330
5
100
AcDbSymbolTableRecord
100
AcDbLinetypeTableRecord
  2
HIDDEN
 70
     0
  3
Hidden __ __ __ __ __ __ __ __ __ __ __ __ __ __
 72
    65
 73
     2
 40
0.075
 49
0.05
 74
     0
 49
-0.025
 74
     0
  0
LTYPE
  5
40
330
5
100
AcDbSymbolTableRecord
100
AcDbLinetypeTableRecord
  2
PHANTOM
 70
     0
  3
Phantom ______  __  __  ______  __  __  ______
 72
    65
 73
     6
 40
0.5
 49
0.25
 74
     0
 49
-0.05
 74
     0
 49
0.05
 74
     0
 49
-0.05
 74
     0
 49
0.05
 74
     0
 49
-0.05
 74
     0
  0
LTYPE
  5
41
330
5
100
AcDbSymbolTableRecord
100
AcDbLinetypeTableRecord
  2
CENTER
 70
     0
  3
Center ____ _ ____ _ ____ _ ____ _ ____ _ ____
 72
    65
 73
     4
 40
0.4
 49
0.25
 74
     0
 49
-0.05
 74
     0
 49
0.05
 74
     0
 49
-0.05
 74
     0
  0
LTYPE
  5
42
330
5
100
AcDbSymbolTableRecord
100
AcDbLinetypeTableRecord
  2
CENTERX2
 70
     0
  3
Center (2x) ________  __  ________  __  _____
 72
    65
 73
     4
 40
0.8
 49
0.5
 74
     0
 49
-0.1
 74
     0
 49
0.1
 74
     0
 49
-0.1
 74
     0
  0
LTYPE
  5
43
330
5
100
AcDbSymbolTableRecord
100
AcDbLinetypeTableRecord
  2
DOT2
 70
     0
  3
Dot (.5x) ........................................
 72
    65
 73
     2
 40
0.025
 49
0.0
 74
     0
 49
-0.025
 74
     0
  0
ENDTAB
  0
TABLE
  2
LAYER
  5
2
330
0
100
AcDbSymbolTable
 70
     8
  0
LAYER
  5
10
330
2
100
AcDbSymbolTableRecord
100
AcDbLayerTableRecord
  2
0
 70
     0
 62
     7
  6
CONTINUOUS
  0
LAYER
  5
44
330
2
100
AcDbSymbolTableRecord
100
AcDbLayerTableRecord
  2
SLD-0
 70
     0
 62
   179
  6
CONTINUOUS
  0
LAYER
  5
45
330
2
100
AcDbSymbolTableRecord
100
AcDbLayerTableRecord
  2
OBJECTS
 70
     0
 62
     5
  6
CONTINUOUS
  0
LAYER
  5
46
330
2
100
AcDbSymbolTableRecord
100
AcDbLayerTableRecord
  2
DIMS
 70
     0
 62
     1
  6
CONTINUOUS
  0
LAYER
  5
47
330
2
100
AcDbSymbolTableRecord
100
AcDbLayerTableRecord
  2
NOTES
 70
     0
 62
     7
  6
CONTINUOUS
  0
LAYER
  5
48
330
2
100
AcDbSymbolTableRecord
100
AcDbLayerTableRecord
  2
IMAGES
 70
     0
 62
     7
  6
CONTINUOUS
  0
LAYER
  5
49
330
2
100
AcDbSymbolTableRecord
100
AcDbLayerTableRecord
  2
CENTERLINES
 70
     0
 62
     7
  6
HIDDEN
  0
LAYER
  5
4A
330
2
100
AcDbSymbolTableRecord
100
AcDbLayerTableRecord
  2
BLOCKS
 70
     0
 62
    17
  6
CONTINUOUS
  0
ENDTAB
  0
TABLE
  2
STYLE
  5
3
330
0
100
AcDbSymbolTable
 70
     3
  0
STYLE
  5
11
330
3
100
AcDbSymbolTableRecord
100
AcDbTextStyleTableRecord
  2
STANDARD
 70
     0
 40
0.0
 41
1.0
 50
0.0
 71
     0
 42
0.2777777778
  3
ARIAL.TTF
  4

1001
ACAD
1000
ARIAL
1071
       34
  0
STYLE
  5
DA
330
3
100
AcDbSymbolTableRecord
100
AcDbTextStyleTableRecord
  2
SLDTEXTSTYLE0
 70
     0
 40
0.0
 41
0.948
 50
0.0
 71
     0
 42
0.2
  3
ARIAL.TTF
  4

1001
ACAD
1000
Arial
1071
      290
  0
STYLE
  5
13D
330
3
100
AcDbSymbolTableRecord
100
AcDbTextStyleTableRecord
  2
SLDTEXTSTYLE1
 70
     0
 40
0.0
 41
0.948
 50
0.0
 71
     0
 42
0.2
  3
ARIALBD.TTF
  4

1001
ACAD
1000
Arial
1071
 33554722
  0
ENDTAB
  0
TABLE
  2
VIEW
  5
6
330
0
100
AcDbSymbolTable
 70
     0
  0
ENDTAB
  0
TABLE
  2
UCS
  5
7
330
0
100
AcDbSymbolTable
 70
     0
  0
ENDTAB
  0
TABLE
  2
APPID
  5
9
330
0
100
AcDbSymbolTable
 70
     1
  0
APPID
  5
12
330
9
100
AcDbSymbolTableRecord
100
AcDbRegAppTableRecord
  2
ACAD
 70
     0
  0
ENDTAB
  0
TABLE
  2
DIMSTYLE
  5
A
330
0
100
AcDbSymbolTable
 70
     4
  0
DIMSTYLE
105
27
330
A
100
AcDbSymbolTableRecord
100
AcDbDimStyleTableRecord
  2
STANDARD
 70
     0
  3

  4

  5

  6

  7

 40
1.0
 41
0.18
 42
0.0625
 43
0.38
 44
0.18
 45
0.0
 46
0.0
 47
0.0
 48
0.0
140
0.18
141
0.09
142
0.0
143
25.4
144
1.0
145
0.0
146
1.0
147
0.09
 71
     0
 72
     0
 73
     1
 74
     1
 75
     0
 76
     0
 77
     0
 78
     0
170
     0
171
     2
172
     0
173
     0
174
     0
175
     0
176
     0
177
     0
178
     0
270
     2
271
     4
272
     4
273
     2
274
     2
340
11
275
     0
280
     0
281
     0
282
     0
283
     1
284
     0
285
     0
286
     0
287
     3
288
     0
  0
DIMSTYLE
105
ED
102
{ACAD_REACTORS
330
EC
330
116
102
}
330
A
100
AcDbSymbolTableRecord
100
AcDbDimStyleTableRecord
  2
SLDDIMSTYLE0
 70
     0
  3

  4

  5

  6

  7

 40
1.0
 41
0.262898763
 42
0.0625
 43
0.38
 44
0.0
 45
0.000000001
 46
0.0
 47
0.0
 48
0.0
140
0.262898763
141
0.09
142
0.0
143
25.4
144
1.0
145
0.0
146
1.0
147
0.0657246908
 71
     0
 72
     0
 73
     1
 74
     1
 75
     0
 76
     0
 77
     0
 78
    12
170
     1
171
     2
172
     0
173
     1
174
     0
175
     0
176
     0
177
     0
178
     0
270
     5
271
     6
272
     3
273
     2
274
     2
340
DA
275
     0
280
     0
281
     0
282
     0
283
     1
284
    12
285
     0
286
     0
287
     3
288
     0
  0
DIMSTYLE
105
104
102
{ACAD_REACTORS
330
103
102
}
330
A
100
AcDbSymbolTableRecord
100
AcDbDimStyleTableRecord
  2
SLDDIMSTYLE1
 70
     0
  3

  4

  5

  6

  7

 40
1.0
 41
0.262898763
 42
0.0625
 43
0.38
 44
0.0
 45
0.000000001
 46
0.0
 47
0.0
 48
0.0
140
0.262898763
141
0.09
142
0.0
143
25.4
144
1.0
145
0.0
146
1.0
147
0.0657246908
 71
     0
 72
     0
 73
     1
 74
     1
 75
     0
 76
     0
 77
     0
 78
    12
170
     1
171
     2
172
     0
173
     1
174
     0
175
     0
176
     0
177
     0
178
     0
270
     5
271
     3
272
     3
273
     2
274
     2
340
DA
275
     0
280
     0
281
     0
282
     0
283
     1
284
    12
285
     0
286
     0
287
     3
288
     0
  0
DIMSTYLE
105
132
330
A
100
AcDbSymbolTableRecord
100
AcDbDimStyleTableRecord
  2
SLDDIMSTYLE2
 70
     0
  3

  4

  5

  6

  7

 40
1.0
 41
0.262898763
 42
0.0625
 43
0.38
 44
0.0
 45
0.000000001
 46
0.0
 47
0.0
 48
0.0
140
0.0
141
0.09
142
0.0
143
25.4
144
1.0
145
0.0
146
0.262898763
147
0.0
 71
     0
 72
     0
 73
     1
 74
     1
 75
     0
 76
     0
 77
     0
 78
     0
170
     0
171
     2
172
     0
173
     1
174
     0
175
     0
176
     0
177
     0
178
     0
270
     5
271
     0
272
     0
273
     2
274
     2
340
11
275
     0
280
     0
281
     0
282
     0
283
     1
284
     0
285
     0
286
     0
287
     3
288
     0
  0
ENDTAB
  0
TABLE
  2
BLOCK_RECORD
  5
1
330
0
100
AcDbSymbolTable
 70
     9
  0
BLOCK_RECORD
  5
1F
330
1
100
AcDbSymbolTableRecord
100
AcDbBlockTableRecord
  2
*MODEL_SPACE
  0
BLOCK_RECORD
  5
1B
330
1
100
AcDbSymbolTableRecord
100
AcDbBlockTableRecord
  2
*PAPER_SPACE
  0
BLOCK_RECORD
  5
23
330
1
100
AcDbSymbolTableRecord
100
AcDbBlockTableRecord
  2
*PAPER_SPACE0
  0
BLOCK_RECORD
  5
4B
330
1
100
AcDbSymbolTableRecord
100
AcDbBlockTableRecord
  2
BLOCK2
  0
BLOCK_RECORD
  5
CA
330
1
100
AcDbSymbolTableRecord
100
AcDbBlockTableRecord
  2
SW_BLOCK_DIMENSION_0
  0
BLOCK_RECORD
  5
EE
330
1
100
AcDbSymbolTableRecord
100
AcDbBlockTableRecord
  2
_D
  0
BLOCK_RECORD
  5
105
330
1
100
AcDbSymbolTableRecord
100
AcDbBlockTableRecord
  2
_D_1
  0
BLOCK_RECORD
  5
117
330
1
100
AcDbSymbolTableRecord
100
AcDbBlockTableRecord
  2
_D_2
  0
BLOCK_RECORD
  5
12C
330
1
100
AcDbSymbolTableRecord
100
AcDbBlockTableRecord
  2
SW_NOTE_0
  0
BLOCK_RECORD
  5
134
330
1
100
AcDbSymbolTableRecord
100
AcDbBlockTableRecord
  2
SW_NOTE_1
  0
BLOCK_RECORD
  5
147
330
1
100
AcDbSymbolTableRecord
100
AcDbBlockTableRecord
  2
SW_NOTE_2
  0
ENDTAB
  0
ENDSEC
  0
SECTION
  2
BLOCKS
  0
BLOCK
  5
20
330
1F
100
AcDbEntity
  8
0
100
AcDbBlockBegin
  2
*MODEL_SPACE
 70
     0
 10
0.0
 20
0.0
 30
0.0
  3
*MODEL_SPACE
  1

  0
ENDBLK
  5
21
330
1F
100
AcDbEntity
  8
0
100
AcDbBlockEnd
  0
BLOCK
  5
1C
330
1B
100
AcDbEntity
 67
     1
  8
0
100
AcDbBlockBegin
  2
*PAPER_SPACE
 70
     0
 10
0.0
 20
0.0
 30
0.0
  3
*PAPER_SPACE
  1

  0
ENDBLK
  5
1D
330
1B
100
AcDbEntity
 67
     1
  8
0
100
AcDbBlockEnd
  0
BLOCK
  5
24
330
23
100
AcDbEntity
  8
0
100
AcDbBlockBegin
  2
*PAPER_SPACE0
 70
     0
 10
0.0
 20
0.0
 30
0.0
  3
*PAPER_SPACE0
  1

  0
ENDBLK
  5
25
330
23
100
AcDbEntity
  8
0
100
AcDbBlockEnd
  0
BLOCK
  5
4C
330
4B
100
AcDbEntity
  8
0
100
AcDbBlockBegin
  2
BLOCK2
 70
     0
 10
0.0
 20
0.0
 30
0.0
  3
BLOCK2
  1

  0
ARC
  5
4E
330
4B
100
AcDbEntity
  8
BLOCKS
100
AcDbCircle
 10
17.9069879518
 20
18.3791566265
 30
0.0
 40
0.363375711421682
100
AcDbArc
 50
0.0
 51
90.0
  0
ARC
  5
4F
330
4B
100
AcDbEntity
  8
BLOCKS
100
AcDbCircle
 10
17.4543841104
 20
19.0934376287
 30
0.0
 40
0.0659795528056684
100
AcDbArc
 50
0.0
 51
90.0
  0
ARC
  5
50
330
4B
100
AcDbEntity
  8
BLOCKS
100
AcDbCircle
 10
16.6733507588
 20
18.6116395102
 30
0.0
 40
0.0881257319589185
100
AcDbArc
 50
200.9822712638
 51
339.0177287362
  0
ARC
  5
51
330
4B
100
AcDbEntity
  8
BLOCKS
100
AcDbCircle
 10
17.9069879518
 20
18.3791566265
 30
0.0
 40
0.3173443275109911
100
AcDbArc
 50
0.0
 51
90.0
  0
LINE
  5
52
330
4B
100
AcDbEntity
  8
BLOCKS
100
AcDbLine
 10
17.4543841104
 20
19.1594171815
 30
0.0
 11
15.8772481427
 21
19.1594171815
 31
0.0
  0
LINE
  5
53
330
4B
100
AcDbEntity
  8
BLOCKS
100
AcDbLine
 10
15.9069317964
 20
18.7642335005
 30
0.0
 11
17.5203636632
 21
18.7642335005
 31
0.0
  0
LINE
  5
54
330
4B
100
AcDbEntity
  8
BLOCKS
100
AcDbLine
 10
16.9733435349
 20
18.7425323379
 30
0.0
 11
17.9069879518
 21
18.7425323379
 31
0.0
  0
LINE
  5
55
330
4B
100
AcDbEntity
  8
BLOCKS
100
AcDbLine
 10
18.2703636632
 20
18.3791566265
 30
0.0
 11
18.2703636632
 21
18.0426692043
 31
0.0
  0
LINE
  5
56
330
4B
100
AcDbEntity
  8
BLOCKS
100
AcDbLine
 10
18.2703636632
 20
18.0426692043
 30
0.0
 11
18.2243322793
 21
18.0426692043
 31
0.0
  0
LINE
  5
57
330
4B
100
AcDbEntity
  8
BLOCKS
100
AcDbLine
 10
18.2243322793
 20
18.0426692043
 30
0.0
 11
18.2243322793
 21
18.3791566265
 31
0.0
  0
LINE
  5
58
330
4B
100
AcDbEntity
  8
BLOCKS
100
AcDbLine
 10
17.9069879518
 20
18.696500954
 30
0.0
 11
16.9733435349
 21
18.696500954
 31
0.0
  0
LINE
  5
59
330
4B
100
AcDbEntity
  8
BLOCKS
100
AcDbLine
 10
16.9733435349
 20
18.696500954
 30
0.0
 11
16.9733435349
 21
18.7425323379
 31
0.0
  0
LINE
  5
5A
330
4B
100
AcDbEntity
  8
BLOCKS
100
AcDbLine
 10
17.3055736692
 20
18.6431396707
 30
0.0
 11
17.3582334594
 21
18.6938066702
 31
0.0
  0
LINE
  5
5B
330
4B
100
AcDbEntity
  8
BLOCKS
100
AcDbLine
 10
17.3582334594
 20
18.6938066702
 30
0.0
 11
17.400869956
 21
18.6494932317
 31
0.0
  0
LINE
  5
5C
330
4B
100
AcDbEntity
  8
BLOCKS
100
AcDbLine
 10
17.400869956
 20
18.6494932317
 30
0.0
 11
17.3319626002
 21
18.5831935188
 31
0.0
  0
LINE
  5
5D
330
4B
100
AcDbEntity
  8
BLOCKS
100
AcDbLine
 10
16.0644161667
 20
18.7096137814
 30
0.0
 11
16.0118634072
 21
18.7642335005
 31
0.0
  0
LINE
  5
5E
330
4B
100
AcDbEntity
  8
BLOCKS
100
AcDbLine
 10
16.0118634072
 20
18.7642335005
 30
0.0
 11
15.9694570474
 21
18.7234319135
 31
0.0
  0
LINE
  5
5F
330
4B
100
AcDbEntity
  8
BLOCKS
100
AcDbLine
 10
15.9694570474
 20
18.7234319135
 30
0.0
 11
16.0315683569
 21
18.6588776957
 31
0.0
  0
LINE
  5
60
330
4B
100
AcDbEntity
  8
BLOCKS
100
AcDbLine
 10
16.0644161667
 20
18.7096137814
 30
0.0
 11
17.3055736692
 21
18.6431396707
 31
0.0
  0
LINE
  5
61
330
4B
100
AcDbEntity
  8
BLOCKS
100
AcDbLine
 10
17.3319626002
 20
18.5831935188
 30
0.0
 11
16.0315683569
 21
18.6588776957
 31
0.0
  0
LINE
  5
62
330
4B
100
AcDbEntity
  8
BLOCKS
100
AcDbLine
 10
16.754680329
 20
18.6726445037
 30
0.0
 11
16.754680329
 21
18.6167918939
 31
0.0
  0
LINE
  5
63
330
4B
100
AcDbEntity
  8
BLOCKS
100
AcDbLine
 10
16.6000606505
 20
18.680925649
 30
0.0
 11
16.6000606505
 21
18.6257909057
 31
0.0
  0
LINE
  5
64
330
4B
100
AcDbEntity
  8
BLOCKS
100
AcDbLine
 10
16.5910685323
 20
18.580083531
 30
0.0
 11
16.7556329854
 21
18.580083531
 31
0.0
  0
LINE
  5
65
330
4B
100
AcDbEntity
  8
BLOCKS
100
AcDbLine
 10
16.6358401521
 20
18.9703832676
 30
0.0
 11
16.6358401521
 21
18.580083531
 31
0.0
  0
LINE
  5
66
330
4B
100
AcDbEntity
  8
BLOCKS
100
AcDbLine
 10
16.7127320239
 20
18.9703832676
 30
0.0
 11
16.7127320239
 21
18.580083531
 31
0.0
  0
LINE
  5
67
330
4B
100
AcDbEntity
  8
BLOCKS
100
AcDbLine
 10
16.5730650738
 20
18.6241085984
 30
0.0
 11
16.7854810653
 21
18.6117457865
 31
0.0
  0
LINE
  5
68
330
4B
100
AcDbEntity
  8
BLOCKS
100
AcDbLine
 10
16.6358401521
 20
18.9703832676
 30
0.0
 11
16.6738051319
 21
19.0255726486
 31
0.0
  0
LINE
  5
69
330
4B
100
AcDbEntity
  8
BLOCKS
100
AcDbLine
 10
16.6738051319
 20
19.0255726486
 30
0.0
 11
16.7127320239
 21
18.9703832676
 31
0.0
  0
LINE
  5
6A
330
4B
100
AcDbEntity
  8
BLOCKS
100
AcDbLine
 10
16.7836112516
 20
18.5796189256
 30
0.0
 11
16.5711952601
 21
18.5919817375
 31
0.0
  0
LINE
  5
6B
330
4B
100
AcDbEntity
  8
BLOCKS
100
AcDbLine
 10
16.7854810653
 20
18.6117457865
 30
0.0
 11
16.7836112516
 21
18.5796189256
 31
0.0
  0
LINE
  5
6C
330
4B
100
AcDbEntity
  8
BLOCKS
100
AcDbLine
 10
16.5730650738
 20
18.6241085984
 30
0.0
 11
16.5711952601
 21
18.5919817375
 31
0.0
  0
LINE
  5
6D
330
4B
100
AcDbEntity
  8
BLOCKS
100
AcDbLine
 10
16.7405965504
 20
18.7642335005
 30
0.0
 11
16.7405965504
 21
19.0445957377
 31
0.0
  0
LINE
  5
6E
330
4B
100
AcDbEntity
  8
BLOCKS
100
AcDbLine
 10
16.7405965504
 20
19.0445957377
 30
0.0
 11
16.6140595585
 21
19.0445957377
 31
0.0
  0
LINE
  5
6F
330
4B
100
AcDbEntity
  8
BLOCKS
100
AcDbLine
 10
16.6140595585
 20
19.0445957377
 30
0.0
 11
16.6140595585
 21
18.7642335005
 31
0.0
  0
LINE
  5
70
330
4B
100
AcDbEntity
  8
BLOCKS
  6
CONTINUOUS
100
AcDbLine
 10
17.5203636632
 20
18.7642335005
 30
0.0
 11
17.5203636632
 21
19.0934376287
 31
0.0
  0
LINE
  5
71
330
4B
100
AcDbEntity
  8
BLOCKS
100
AcDbLine
 10
16.9283358225
 20
18.7642335005
 30
0.0
 11
16.9733435349
 21
18.719516646
 31
0.0
  0
LINE
  5
72
330
4B
100
AcDbEntity
  8
BLOCKS
100
AcDbLine
 10
17.5203636632
 20
18.7642335005
 30
0.0
 11
17.5331189484
 21
18.7425323379
 31
0.0
  0
SPLINE
  5
73
330
4B
100
AcDbEntity
  8
BLOCKS
100
AcDbSpline
210
0.0
220
0.0
230
1.0
 70
     8
 71
     3
 72
     9
 73
     5
 74
     0
 42
0.00000001
 43
0.00000001
 12
1.0
 22
0.0
 32
0.0
 13
1.0
 23
0.0
 33
0.0
 40
0.0
 40
0.0
 40
0.0
 40
0.0
 40
0.5928291688347104
 40
1.0
 40
1.0
 40
1.0
 40
1.0
 10
15.90693179637769
 20
18.76423350053237
 30
0.0
 10
15.8623561441644
 20
18.85006794170532
 30
0.0
 10
15.94183910648792
 20
18.96929145564197
 30
0.0
 10
15.92372628503838
 20
19.12353970087429
 30
0.0
 10
15.87724814272782
 20
19.15941718145596
 30
0.0
  0
LINE
  5
74
330
4B
100
AcDbEntity
  8
BLOCKS
 62
    16
100
AcDbLine
 10
15.9176949632
 20
19.0996754786
 30
0.0
 11
15.9774366661
 21
19.1594171815
 31
0.0
  0
LINE
  5
75
330
4B
100
AcDbEntity
  8
BLOCKS
 62
    16
100
AcDbLine
 10
16.0093394678
 20
19.1029316355
 30
0.0
 11
16.0658250138
 21
19.1594171815
 31
0.0
  0
LINE
  5
76
330
4B
100
AcDbEntity
  8
BLOCKS
 62
    16
100
AcDbLine
 10
15.9241067422
 20
19.0176989099
 30
0.0
 11
15.965145294
 21
19.0587374617
 31
0.0
  0
LINE
  5
77
330
4B
100
AcDbEntity
  8
BLOCKS
 62
    16
100
AcDbLine
 10
16.1308734458
 20
19.1360772659
 30
0.0
 11
16.1542133614
 21
19.1594171815
 31
0.0
  0
LINE
  5
78
330
4B
100
AcDbEntity
  8
BLOCKS
 62
    16
100
AcDbLine
 10
15.9761938374
 20
18.9813976575
 30
0.0
 11
16.086679272
 21
19.091883092
 31
0.0
  0
LINE
  5
79
330
4B
100
AcDbEntity
  8
BLOCKS
 62
    16
100
AcDbLine
 10
15.8969551199
 20
18.9021589399
 30
0.0
 11
15.9319996636
 21
18.9372034837
 31
0.0
  0
LINE
  5
7A
330
4B
100
AcDbEntity
  8
BLOCKS
 62
    16
100
AcDbLine
 10
16.0977278154
 20
19.0145432878
 30
0.0
 11
16.20821325
 21
19.1250287224
 31
0.0
  0
LINE
  5
7B
330
4B
100
AcDbEntity
  8
BLOCKS
 62
    16
100
AcDbLine
 10
15.9430482071
 20
18.8598636795
 30
0.0
 11
16.0535336416
 21
18.970349114
 31
0.0
  0
LINE
  5
7C
330
4B
100
AcDbEntity
  8
BLOCKS
 62
    16
100
AcDbLine
 10
15.8912716689
 20
18.8080871413
 30
0.0
 11
15.8988540332
 21
18.8156695056
 31
0.0
  0
LINE
  5
7D
330
4B
100
AcDbEntity
  8
BLOCKS
 62
    16
100
AcDbLine
 10
16.2192617935
 20
19.0476889182
 30
0.0
 11
16.329747228
 21
19.1581743528
 31
0.0
  0
LINE
  5
7E
330
4B
100
AcDbEntity
  8
BLOCKS
 62
    16
100
AcDbLine
 10
16.0645821851
 20
18.8930093098
 30
0.0
 11
16.1750676196
 21
19.0034947444
 31
0.0
  0
LINE
  5
7F
330
4B
100
AcDbEntity
  8
BLOCKS
 62
    16
100
AcDbLine
 10
15.9358063758
 20
18.7642335005
 30
0.0
 11
16.0203880113
 21
18.848815136
 31
0.0
  0
LINE
  5
80
330
4B
100
AcDbEntity
  8
BLOCKS
 62
    16
100
AcDbLine
 10
16.3407957715
 20
19.0808345486
 30
0.0
 11
16.4193784044
 21
19.1594171815
 31
0.0
  0
LINE
  5
81
330
4B
100
AcDbEntity
  8
BLOCKS
 62
    16
100
AcDbLine
 10
16.1861161631
 20
18.9261549402
 30
0.0
 11
16.2966015977
 21
19.0366403748
 31
0.0
  0
LINE
  5
82
330
4B
100
AcDbEntity
  8
BLOCKS
 62
    16
100
AcDbLine
 10
16.0314365547
 20
18.7714753318
 30
0.0
 11
16.1419219893
 21
18.8819607664
 31
0.0
  0
LINE
  5
83
330
4B
100
AcDbEntity
  8
BLOCKS
 62
    16
100
AcDbLine
 10
16.4623297495
 20
19.1139801789
 30
0.0
 11
16.507766752
 21
19.1594171815
 31
0.0
  0
LINE
  5
84
330
4B
100
AcDbEntity
  8
BLOCKS
 62
    16
100
AcDbLine
 10
16.3076501411
 20
18.9593005706
 30
0.0
 11
16.4181355757
 21
19.0697860051
 31
0.0
  0
LINE
  5
85
330
4B
100
AcDbEntity
  8
BLOCKS
 62
    16
100
AcDbLine
 10
16.1529705327
 20
18.8046209622
 30
0.0
 11
16.2634559673
 21
18.9151063967
 31
0.0
  0
LINE
  5
86
330
4B
100
AcDbEntity
  8
BLOCKS
 62
    16
100
AcDbLine
 10
16.5838637275
 20
19.1471258093
 30
0.0
 11
16.5961550997
 21
19.1594171815
 31
0.0
  0
LINE
  5
87
330
4B
100
AcDbEntity
  8
BLOCKS
 62
    16
100
AcDbLine
 10
16.4291841191
 20
18.9924462009
 30
0.0
 11
16.5396695537
 21
19.1029316355
 31
0.0
  0
LINE
  5
88
330
4B
100
AcDbEntity
  8
BLOCKS
 62
    16
100
AcDbLine
 10
16.2745045107
 20
18.8377665925
 30
0.0
 11
16.3849899453
 21
18.9482520271
 31
0.0
  0
LINE
  5
89
330
4B
100
AcDbEntity
  8
BLOCKS
 62
    16
100
AcDbLine
 10
16.2009714187
 20
18.7642335005
 30
0.0
 11
16.2303103369
 21
18.7935724187
 31
0.0
  0
LINE
  5
8A
330
4B
100
AcDbEntity
  8
BLOCKS
 62
    16
100
AcDbLine
 10
16.5507180971
 20
19.0255918313
 30
0.0
 11
16.6612035317
 21
19.1360772659
 31
0.0
  0
LINE
  5
8B
330
4B
100
AcDbEntity
  8
BLOCKS
 62
    16
100
AcDbLine
 10
16.3960384888
 20
18.8709122229
 30
0.0
 11
16.5065239233
 21
18.9813976575
 31
0.0
  0
LINE
  5
8C
330
4B
100
AcDbEntity
  8
BLOCKS
 62
    16
100
AcDbLine
 10
16.2893597664
 20
18.7642335005
 30
0.0
 11
16.3518443149
 21
18.8267180491
 31
0.0
  0
LINE
  5
8D
330
4B
100
AcDbEntity
  8
BLOCKS
 62
    16
100
AcDbLine
 10
16.5175724668
 20
18.9040578533
 30
0.0
 11
16.6140595585
 21
19.000544945
 31
0.0
  0
LINE
  5
8E
330
4B
100
AcDbEntity
  8
BLOCKS
 62
    16
100
AcDbLine
 10
16.377748114
 20
18.7642335005
 30
0.0
 11
16.473378293
 21
18.8598636795
 31
0.0
  0
LINE
  5
8F
330
4B
100
AcDbEntity
  8
BLOCKS
 62
    16
100
AcDbLine
 10
16.6722520752
 20
19.0587374617
 30
0.0
 11
16.772931795
 21
19.1594171815
 31
0.0
  0
LINE
  5
90
330
4B
100
AcDbEntity
  8
BLOCKS
 62
    16
100
AcDbLine
 10
16.4844268364
 20
18.7825238753
 30
0.0
 11
16.594912271
 21
18.8930093098
 31
0.0
  0
LINE
  5
91
330
4B
100
AcDbEntity
  8
BLOCKS
 62
    16
100
AcDbLine
 10
16.7937860532
 20
19.091883092
 30
0.0
 11
16.8613201426
 21
19.1594171815
 31
0.0
  0
LINE
  5
92
330
4B
100
AcDbEntity
  8
BLOCKS
 62
    16
100
AcDbLine
 10
16.7405965504
 20
19.0386935893
 30
0.0
 11
16.7495918794
 21
19.0476889182
 31
0.0
  0
LINE
  5
93
330
4B
100
AcDbEntity
  8
BLOCKS
 62
    16
100
AcDbLine
 10
16.6059608144
 20
18.8156695056
 30
0.0
 11
16.6140595585
 21
18.8237682497
 31
0.0
  0
LINE
  5
94
330
4B
100
AcDbEntity
  8
BLOCKS
 62
    16
100
AcDbLine
 10
16.5545248093
 20
18.7642335005
 30
0.0
 11
16.5617666406
 21
18.7714753318
 31
0.0
  0
LINE
  5
95
330
4B
100
AcDbEntity
  8
BLOCKS
 62
    16
100
AcDbLine
 10
16.9153200312
 20
19.1250287224
 30
0.0
 11
16.9497084902
 21
19.1594171815
 31
0.0
  0
LINE
  5
96
330
4B
100
AcDbEntity
  8
BLOCKS
 62
    16
100
AcDbLine
 10
16.7606404228
 20
18.970349114
 30
0.0
 11
16.8711258574
 21
19.0808345486
 31
0.0
  0
LINE
  5
97
330
4B
100
AcDbEntity
  8
BLOCKS
 62
    16
100
AcDbLine
 10
17.0368540092
 20
19.1581743528
 30
0.0
 11
17.0380968379
 21
19.1594171815
 31
0.0
  0
LINE
  5
98
330
4B
100
AcDbEntity
  8
BLOCKS
 62
    16
100
AcDbLine
 10
16.8821744008
 20
19.0034947444
 30
0.0
 11
16.9926598354
 21
19.1139801789
 31
0.0
  0
LINE
  5
99
330
4B
100
AcDbEntity
  8
BLOCKS
 62
    16
100
AcDbLine
 10
16.7405965504
 20
18.861916894
 30
0.0
 11
16.837980227
 21
18.9593005706
 31
0.0
  0
LINE
  5
9A
330
4B
100
AcDbEntity
  8
BLOCKS
 62
    16
100
AcDbLine
 10
17.0037083788
 20
19.0366403748
 30
0.0
 11
17.1141938134
 21
19.1471258093
 31
0.0
  0
LINE
  5
9B
330
4B
100
AcDbEntity
  8
BLOCKS
 62
    16
100
AcDbLine
 10
16.8490287705
 20
18.8819607664
 30
0.0
 11
16.959514205
 21
18.9924462009
 31
0.0
  0
LINE
  5
9C
330
4B
100
AcDbEntity
  8
BLOCKS
 62
    16
100
AcDbLine
 10
16.7405965504
 20
18.7735285464
 30
0.0
 11
16.8048345966
 21
18.8377665925
 31
0.0
  0
LINE
  5
9D
330
4B
100
AcDbEntity
  8
BLOCKS
 62
    16
100
AcDbLine
 10
17.1252423569
 20
19.0697860051
 30
0.0
 11
17.2148735332
 21
19.1594171815
 31
0.0
  0
LINE
  5
9E
330
4B
100
AcDbEntity
  8
BLOCKS
 62
    16
100
AcDbLine
 10
16.9705627485
 20
18.9151063967
 30
0.0
 11
17.081048183
 21
19.0255918313
 31
0.0
  0
LINE
  5
9F
330
4B
100
AcDbEntity
  8
BLOCKS
 62
    16
100
AcDbLine
 10
16.8196898523
 20
18.7642335005
 30
0.0
 11
16.9263685747
 21
18.8709122229
 31
0.0
  0
LINE
  5
A0
330
4B
100
AcDbEntity
  8
BLOCKS
 62
    16
100
AcDbLine
 10
17.2467763349
 20
19.1029316355
 30
0.0
 11
17.3032618808
 21
19.1594171815
 31
0.0
  0
LINE
  5
A1
330
4B
100
AcDbEntity
  8
BLOCKS
 62
    16
100
AcDbLine
 10
17.0920967265
 20
18.9482520271
 30
0.0
 11
17.2025821611
 21
19.0587374617
 31
0.0
  0
LINE
  5
A2
330
4B
100
AcDbEntity
  8
BLOCKS
 62
    16
100
AcDbLine
 10
16.9374171181
 20
18.7935724187
 30
0.0
 11
17.0479025527
 21
18.9040578533
 31
0.0
  0
LINE
  5
A3
330
4B
100
AcDbEntity
  8
BLOCKS
 62
    16
100
AcDbLine
 10
17.3683103129
 20
19.1360772659
 30
0.0
 11
17.3916502285
 21
19.1594171815
 31
0.0
  0
LINE
  5
A4
330
4B
100
AcDbEntity
  8
BLOCKS
 62
    16
100
AcDbLine
 10
17.2136307045
 20
18.9813976575
 30
0.0
 11
17.3241161391
 21
19.091883092
 31
0.0
  0
LINE
  5
A5
330
4B
100
AcDbEntity
  8
BLOCKS
 62
    16
100
AcDbLine
 10
17.0589510961
 20
18.8267180491
 30
0.0
 11
17.1694365307
 21
18.9372034837
 31
0.0
  0
LINE
  5
A6
330
4B
100
AcDbEntity
  8
BLOCKS
 62
    16
100
AcDbLine
 10
16.9964665476
 20
18.7642335005
 30
0.0
 11
17.0147569223
 21
18.7825238753
 31
0.0
  0
LINE
  5
A7
330
4B
100
AcDbEntity
  8
BLOCKS
 62
    16
100
AcDbLine
 10
17.3351646825
 20
19.0145432878
 30
0.0
 11
17.4456501171
 21
19.1250287224
 31
0.0
  0
LINE
  5
A8
330
4B
100
AcDbEntity
  8
BLOCKS
 62
    16
100
AcDbLine
 10
17.1804850741
 20
18.8598636795
 30
0.0
 11
17.2909705087
 21
18.970349114
 31
0.0
  0
LINE
  5
A9
330
4B
100
AcDbEntity
  8
BLOCKS
 62
    16
100
AcDbLine
 10
17.0848548952
 20
18.7642335005
 30
0.0
 11
17.1362909003
 21
18.8156695056
 31
0.0
  0
LINE
  5
AA
330
4B
100
AcDbEntity
  8
BLOCKS
 62
    16
100
AcDbLine
 10
17.4566986605
 20
19.0476889182
 30
0.0
 11
17.5184048822
 21
19.1093951399
 31
0.0
  0
LINE
  5
AB
330
4B
100
AcDbEntity
  8
BLOCKS
 62
    16
100
AcDbLine
 10
17.3020190522
 20
18.8930093098
 30
0.0
 11
17.4125044867
 21
19.0034947444
 31
0.0
  0
LINE
  5
AC
330
4B
100
AcDbEntity
  8
BLOCKS
 62
    16
100
AcDbLine
 10
17.1732432429
 20
18.7642335005
 30
0.0
 11
17.2578248783
 21
18.848815136
 31
0.0
  0
LINE
  5
AD
330
4B
100
AcDbEntity
  8
BLOCKS
 62
    16
100
AcDbLine
 10
17.4235530302
 20
18.9261549402
 30
0.0
 11
17.5203636632
 21
19.0229655733
 31
0.0
  0
LINE
  5
AE
330
4B
100
AcDbEntity
  8
BLOCKS
 62
    16
100
AcDbLine
 10
17.2688734218
 20
18.7714753318
 30
0.0
 11
17.3793588564
 21
18.8819607664
 31
0.0
  0
LINE
  5
AF
330
4B
100
AcDbEntity
  8
BLOCKS
 62
    16
100
AcDbLine
 10
17.3904073998
 20
18.8046209622
 30
0.0
 11
17.5008928344
 21
18.9151063967
 31
0.0
  0
LINE
  5
B0
330
4B
100
AcDbEntity
  8
BLOCKS
 62
    16
100
AcDbLine
 10
17.5119413778
 20
18.8377665925
 30
0.0
 11
17.5203636632
 21
18.846188878
 31
0.0
  0
LINE
  5
B1
330
4B
100
AcDbEntity
  8
BLOCKS
 62
    16
100
AcDbLine
 10
17.4384082858
 20
18.7642335005
 30
0.0
 11
17.467747204
 21
18.7935724187
 31
0.0
  0
LINE
  5
B2
330
4B
100
AcDbEntity
  8
BLOCKS
 62
    16
100
AcDbLine
 10
16.6960034705
 20
18.9941005094
 30
0.0
 11
16.6358401521
 21
18.933937191
 31
0.0
  0
LINE
  5
B3
330
4B
100
AcDbEntity
  8
BLOCKS
 62
    16
100
AcDbLine
 10
16.7127320239
 20
18.9224407151
 30
0.0
 11
16.6358401521
 21
18.8455488433
 31
0.0
  0
LINE
  5
B4
330
4B
100
AcDbEntity
  8
BLOCKS
 62
    16
100
AcDbLine
 10
16.7127320239
 20
18.8340523675
 30
0.0
 11
16.642913157
 21
18.7642335005
 31
0.0
  0
LINE
  5
B5
330
4B
100
AcDbEntity
  8
BLOCKS
 62
    16
100
AcDbLine
 10
16.708189403
 20
18.9768236594
 30
0.0
 11
16.6358401521
 21
18.9044744085
 31
0.0
  0
LINE
  5
B6
330
4B
100
AcDbEntity
  8
BLOCKS
 62
    16
100
AcDbLine
 10
16.7127320239
 20
18.8929779326
 30
0.0
 11
16.6358401521
 21
18.8160860608
 31
0.0
  0
LINE
  5
B7
330
4B
100
AcDbEntity
  8
BLOCKS
 62
    16
100
AcDbLine
 10
16.7127320239
 20
18.804589585
 30
0.0
 11
16.6723759395
 21
18.7642335005
 31
0.0
  0
LINE
  5
B8
330
4B
100
AcDbEntity
  8
BLOCKS
 62
    16
100
AcDbLine
 10
16.642913157
 20
18.7642335005
 30
0.0
 11
16.6358401521
 21
18.7571604957
 31
0.0
  0
LINE
  5
B9
330
4B
100
AcDbEntity
  8
BLOCKS
 62
    16
100
AcDbLine
 10
16.7127320239
 20
18.7456640199
 30
0.0
 11
16.6455569548
 21
18.6784889507
 31
0.0
  0
LINE
  5
BA
330
4B
100
AcDbEntity
  8
BLOCKS
 62
    16
100
AcDbLine
 10
16.6723759395
 20
18.7642335005
 30
0.0
 11
16.6358401521
 21
18.7276977132
 31
0.0
  0
LINE
  5
BB
330
4B
100
AcDbEntity
  8
BLOCKS
 62
    16
100
AcDbLine
 10
16.7127320239
 20
18.7162012374
 30
0.0
 11
16.6735219819
 21
18.6769911953
 31
0.0
  0
LINE
  5
BC
330
4B
100
AcDbEntity
  8
BLOCKS
 62
    16
100
AcDbLine
 10
16.6455569548
 20
18.6784889507
 30
0.0
 11
16.6358401521
 21
18.668772148
 31
0.0
  0
LINE
  5
BD
330
4B
100
AcDbEntity
  8
BLOCKS
 62
    16
100
AcDbLine
 10
16.7127320239
 20
18.6572756722
 30
0.0
 11
16.6767820021
 21
18.6213256503
 31
0.0
  0
LINE
  5
BE
330
4B
100
AcDbEntity
  8
BLOCKS
 62
    16
100
AcDbLine
 10
16.6735219819
 20
18.6769911953
 30
0.0
 11
16.6358401521
 21
18.6393093655
 31
0.0
  0
LINE
  5
BF
330
4B
100
AcDbEntity
  8
BLOCKS
 62
    16
100
AcDbLine
 10
16.7127320239
 20
18.6278128897
 30
0.0
 11
16.7046243344
 21
18.6197052002
 31
0.0
  0
LINE
  5
C0
330
4B
100
AcDbEntity
  8
BLOCKS
 62
    16
100
AcDbLine
 10
16.6737074675
 20
18.6182511157
 30
0.0
 11
16.6432447412
 21
18.5877883894
 31
0.0
  0
LINE
  5
C1
330
4B
100
AcDbEntity
  8
BLOCKS
 62
    16
100
AcDbLine
 10
16.7015497998
 20
18.6166306656
 30
0.0
 11
16.6710870735
 21
18.5861679393
 31
0.0
  0
LINE
  5
C2
330
4B
100
AcDbEntity
  8
BLOCKS
 62
    16
100
AcDbLine
 10
16.5901804702
 20
18.6231124661
 30
0.0
 11
16.5719458243
 21
18.6048778202
 31
0.0
  0
LINE
  5
C3
330
4B
100
AcDbEntity
  8
BLOCKS
 62
    16
100
AcDbLine
 10
16.6180228026
 20
18.621492016
 30
0.0
 11
16.5875600763
 21
18.5910292897
 31
0.0
  0
LINE
  5
C4
330
4B
100
AcDbEntity
  8
BLOCKS
 62
    16
100
AcDbLine
 10
16.7572344647
 20
18.6133897654
 30
0.0
 11
16.7267717384
 21
18.5829270391
 31
0.0
  0
LINE
  5
C5
330
4B
100
AcDbEntity
  8
BLOCKS
 62
    16
100
AcDbLine
 10
16.7850767971
 20
18.6117693152
 30
0.0
 11
16.7546140708
 21
18.5813065889
 31
0.0
  0
LINE
  5
C6
330
4B
100
AcDbEntity
  8
BLOCKS
 62
    16
100
AcDbLine
 10
16.6355398827
 20
18.580083531
 30
0.0
 11
16.6079875379
 21
18.5525311861
 31
0.0
  0
LINE
  5
C7
330
4B
100
AcDbEntity
  8
BLOCKS
 62
    16
100
AcDbLine
 10
16.7239282304
 20
18.580083531
 30
0.0
 11
16.6675496233
 21
18.523704924
 31
0.0
  0
LINE
  5
C8
330
4B
100
AcDbEntity
  8
BLOCKS
 62
    16
100
AcDbLine
 10
16.6650026652
 20
18.580083531
 30
0.0
 11
16.6237303533
 21
18.5388112191
 31
0.0
  0
LINE
  5
C9
330
4B
100
AcDbEntity
  8
BLOCKS
 62
    16
100
AcDbLine
 10
16.7533910129
 20
18.580083531
 30
0.0
 11
16.7014064441
 21
18.5280989622
 31
0.0
  0
INSERT
  5
E1
330
4B
100
AcDbEntity
  8
BLOCKS
100
AcDbBlockReference
  2
SW_BLOCK_DIMENSION_0
 10
17.6320825175
 20
19.1448105175
 30
0.0
  0
ENDBLK
  5
4D
330
4B
100
AcDbEntity
  8
0
100
AcDbBlockEnd
  0
BLOCK
  5
CB
330
CA
100
AcDbEntity
  8
0
100
AcDbBlockBegin
  2
SW_BLOCK_DIMENSION_0
 70
     0
 10
0.0
 20
0.0
 30
0.0
  3
SW_BLOCK_DIMENSION_0
  1

  0
SOLID
  5
CD
330
CA
100
AcDbEntity
  8
BLOCKS
 62
     0
100
AcDbTrace
 10
0.6382811457
 20
-0.0313006311
 30
0.0
 11
0.5371662369
 21
-0.0157444913
 31
0.0
 12
0.5371662369
 22
-0.0468567709
 32
0.0
 13
0.5371662369
 23
-0.0468567709
 33
0.0
  0
SOLID
  5
CE
330
CA
100
AcDbEntity
  8
BLOCKS
 62
     0
100
AcDbTrace
 10
-0.1117188543
 20
-0.0313006311
 30
0.0
 11
-0.0106039454
 21
-0.0468567709
 31
0.0
 12
-0.0106039454
 22
-0.0157444913
 32
0.0
 13
-0.0106039454
 23
-0.0157444913
 33
0.0
  0
LINE
  5
CF
330
CA
100
AcDbEntity
  8
BLOCKS
 62
     0
100
AcDbLine
 10
0.2036072721
 20
0.0798201425
 30
0.0
 11
0.3102816564
 21
0.0798201425
 31
0.0
  0
LINE
  5
D0
330
CA
100
AcDbEntity
  8
BLOCKS
 62
     0
100
AcDbLine
 10
0.079089508
 20
-0.0940224566
 30
0.0
 11
0.0559413594
 21
-0.0940224566
 31
0.0
  0
LINE
  5
D1
330
CA
100
AcDbEntity
  8
BLOCKS
 62
     0
100
AcDbLine
 10
0.0559413594
 20
-0.0940224566
 30
0.0
 11
0.0559413594
 21
-0.249307956
 31
0.0
  0
LINE
  5
D2
330
CA
100
AcDbEntity
  8
BLOCKS
 62
     0
100
AcDbLine
 10
0.0559413594
 20
-0.249307956
 30
0.0
 11
0.079089508
 21
-0.249307956
 31
0.0
  0
LINE
  5
D3
330
CA
100
AcDbEntity
  8
BLOCKS
 62
     0
100
AcDbLine
 10
0.4841821217
 20
-0.0940224566
 30
0.0
 11
0.5073302703
 21
-0.0940224566
 31
0.0
  0
LINE
  5
D4
330
CA
100
AcDbEntity
  8
BLOCKS
 62
     0
100
AcDbLine
 10
0.5073302703
 20
-0.0940224566
 30
0.0
 11
0.5073302703
 21
-0.249307956
 31
0.0
  0
LINE
  5
D5
330
CA
100
AcDbEntity
  8
BLOCKS
 62
     0
100
AcDbLine
 10
0.5073302703
 20
-0.249307956
 30
0.0
 11
0.4841821217
 21
-0.249307956
 31
0.0
  0
LINE
  5
D6
330
CA
100
AcDbEntity
  8
BLOCKS
 62
     0
100
AcDbLine
 10
0.6382811457
 20
-0.7156538909
 30
0.0
 11
0.6382811457
 21
0.0936993689
 31
0.0
  0
LINE
  5
D7
330
CA
100
AcDbEntity
  8
BLOCKS
 62
     0
100
AcDbLine
 10
-0.1117188543
 20
-0.0013728888
 30
0.0
 11
-0.1117188543
 21
0.0936993689
 31
0.0
  0
LINE
  5
D8
330
CA
100
AcDbEntity
  8
BLOCKS
 62
     0
100
AcDbLine
 10
0.6382811457
 20
-0.0313006311
 30
0.0
 11
0.5637873967
 21
-0.0313006311
 31
0.0
  0
LINE
  5
D9
330
CA
100
AcDbEntity
  8
BLOCKS
 62
     0
100
AcDbLine
 10
-0.1117188543
 20
-0.0313006311
 30
0.0
 11
-0.0005157303
 21
-0.0313006311
 31
0.0
  0
MTEXT
  5
DB
330
CA
100
AcDbEntity
  8
BLOCKS
 62
     0
100
AcDbMText
 10
0.0
 20
0.1342778896
 30
0.0039370079
 40
0.1041666667
 41
0.0
 71
     1
 72
     1
  1
 
  7
SLDTEXTSTYLE0
  0
MTEXT
  5
DC
330
CA
100
AcDbEntity
  8
BLOCKS
 62
     0
100
AcDbMText
 10
0.2183642158
 20
0.2052438631
 30
0.0039370079
 40
0.1041666667
 41
0.0
 71
     1
 72
     1
  1
3
  7
SLDTEXTSTYLE0
  0
MTEXT
  5
DD
330
CA
100
AcDbEntity
  8
BLOCKS
 62
     0
100
AcDbMText
 10
0.2183642158
 20
0.0634035871
 30
0.0039370079
 40
0.1041666667
 41
0.0
 71
     1
 72
     1
  1
4
  7
SLDTEXTSTYLE0
  0
MTEXT
  5
DE
330
CA
100
AcDbEntity
  8
BLOCKS
 62
     0
100
AcDbMText
 10
0.3250386001
 20
0.1342778896
 30
0.0039370079
 40
0.1041666667
 41
0.0
 71
     1
 72
     1
  1
"
  7
SLDTEXTSTYLE0
  0
MTEXT
  5
DF
330
CA
100
AcDbEntity
  8
BLOCKS
 62
     0
100
AcDbMText
 10
0.1080246921
 20
-0.1150300596
 30
0.0039370079
 40
0.1041666667
 41
0.0
 71
     1
 72
     1
  1
19.05
  7
SLDTEXTSTYLE0
  0
MTEXT
  5
E0
330
CA
100
AcDbEntity
  8
BLOCKS
 62
     0
100
AcDbMText
 10
0.5246914087
 20
0.1342778896
 30
0.0039370079
 40
0.1041666667
 41
0.0
 71
     1
 72
     1
  1
 
  7
SLDTEXTSTYLE0
  0
ENDBLK
  5
CC
330
CA
100
AcDbEntity
  8
0
100
AcDbBlockEnd
  0
BLOCK
  5
EF
330
EE
100
AcDbEntity
  8
0
100
AcDbBlockBegin
  2
_D
 70
     0
 10
0.0
 20
0.0
 30
0.0
  3
_D
  1

  0
SOLID
  5
F1
330
EE
100
AcDbEntity
  8
DIMS
100
AcDbTrace
 10
2.8179976706
 20
1.4613079768
 30
0.0
 11
3.0808964336
 21
1.4208620133
 31
0.0
 12
3.0808964336
 22
1.5017539404
 32
0.0
 13
3.0808964336
 23
1.5017539404
 33
0.0
  0
SOLID
  5
F2
330
EE
100
AcDbEntity
  8
DIMS
100
AcDbTrace
 10
29.3179976706
 20
1.4613079768
 30
0.0
 11
29.0550989076
 21
1.5017539404
 31
0.0
 12
29.0550989076
 22
1.4208620133
 32
0.0
 13
29.0550989076
 23
1.4208620133
 33
0.0
  0
LINE
  5
F3
330
EE
100
AcDbEntity
  8
DIMS
100
AcDbLine
 10
16.5250999083
 20
1.7502218851
 30
0.0
 11
16.8024532893
 21
1.7502218851
 31
0.0
  0
LINE
  5
F4
330
EE
100
AcDbEntity
  8
DIMS
100
AcDbLine
 10
15.9004278037
 20
1.2982311574
 30
0.0
 11
15.8402426177
 21
1.2982311574
 31
0.0
  0
LINE
  5
F5
330
EE
100
AcDbEntity
  8
DIMS
100
AcDbLine
 10
15.8402426177
 20
1.2982311574
 30
0.0
 11
15.8402426177
 21
0.8944888881
 31
0.0
  0
LINE
  5
F6
330
EE
100
AcDbEntity
  8
DIMS
100
AcDbLine
 10
15.8402426177
 20
0.8944888881
 30
0.0
 11
15.9004278037
 21
0.8944888881
 31
0.0
  0
LINE
  5
F7
330
EE
100
AcDbEntity
  8
DIMS
100
AcDbLine
 10
17.154285829
 20
1.2982311574
 30
0.0
 11
17.214471015
 21
1.2982311574
 31
0.0
  0
LINE
  5
F8
330
EE
100
AcDbEntity
  8
DIMS
100
AcDbLine
 10
17.214471015
 20
1.2982311574
 30
0.0
 11
17.214471015
 21
0.8944888881
 31
0.0
  0
LINE
  5
F9
330
EE
100
AcDbEntity
  8
DIMS
100
AcDbLine
 10
17.214471015
 20
0.8944888881
 30
0.0
 11
17.154285829
 21
0.8944888881
 31
0.0
  0
LINE
  5
FA
330
EE
100
AcDbEntity
  8
DIMS
100
AcDbLine
 10
2.8179976706
 20
8.1800087642
 30
0.0
 11
2.8179976706
 21
1.3363079768
 31
0.0
  0
LINE
  5
FB
330
EE
100
AcDbEntity
  8
DIMS
100
AcDbLine
 10
29.3179976706
 20
9.8050087642
 30
0.0
 11
29.3179976706
 21
1.3363079768
 31
0.0
  0
LINE
  5
FC
330
EE
100
AcDbEntity
  8
DIMS
100
AcDbLine
 10
2.8179976706
 20
1.4613079768
 30
0.0
 11
15.7348778844
 21
1.4613079768
 31
0.0
  0
LINE
  5
FD
330
EE
100
AcDbEntity
  8
DIMS
100
AcDbLine
 10
29.3179976706
 20
1.4613079768
 30
0.0
 11
17.319835785
 21
1.4613079768
 31
0.0
  0
MTEXT
  5
FE
330
EE
100
AcDbEntity
  8
DIMS
100
AcDbMText
 10
16.0854972925
 20
1.8918120504
 30
0.0039370079
 40
0.2708333333
 41
0.0
 71
     1
 72
     1
  1
26
  7
SLDTEXTSTYLE0
  0
MTEXT
  5
FF
330
EE
100
AcDbEntity
  8
DIMS
100
AcDbMText
 10
16.5634679601
 20
2.0763235706
 30
0.0039370079
 40
0.2708333333
 41
0.0
 71
     1
 72
     1
  1
1
  7
SLDTEXTSTYLE0
  0
MTEXT
  5
100
330
EE
100
AcDbEntity
  8
DIMS
100
AcDbMText
 10
16.5634679601
 20
1.7075388333
 30
0.0039370079
 40
0.2708333333
 41
0.0
 71
     1
 72
     1
  1
2
  7
SLDTEXTSTYLE0
  0
MTEXT
  5
101
330
EE
100
AcDbEntity
  8
DIMS
100
AcDbMText
 10
16.8408213136
 20
1.8918120504
 30
0.0039370079
 40
0.2708333333
 41
0.0
 71
     1
 72
     1
  1
"
  7
SLDTEXTSTYLE0
  0
MTEXT
  5
102
330
EE
100
AcDbEntity
  8
DIMS
100
AcDbMText
 10
15.9756592896
 20
1.2436113918
 30
0.0039370079
 40
0.2708333333
 41
0.0
 71
     1
 72
     1
  1
673.10
  7
SLDTEXTSTYLE0
  0
ENDBLK
  5
F0
330
EE
100
AcDbEntity
  8
0
100
AcDbBlockEnd
  0
BLOCK
  5
106
330
105
100
AcDbEntity
  8
0
100
AcDbBlockBegin
  2
_D_1
 70
     0
 10
0.0
 20
0.0
 30
0.0
  3
_D_1
  1

  0
SOLID
  5
108
330
105
100
AcDbEntity
  8
DIMS
100
AcDbTrace
 10
30.6979189304
 20
2.6050087642
 30
0.0
 11
30.738364894
 21
2.8679075273
 31
0.0
 12
30.6574729669
 22
2.8679075273
 32
0.0
 13
30.6574729669
 23
2.8679075273
 33
0.0
  0
SOLID
  5
109
330
105
100
AcDbEntity
  8
DIMS
100
AcDbTrace
 10
30.6979189304
 20
13.6050087642
 30
0.0
 11
30.6574729669
 21
13.3421100012
 31
0.0
 12
30.738364894
 22
13.3421100012
 32
0.0
 13
30.738364894
 23
13.3421100012
 33
0.0
  0
LINE
  5
10A
330
105
100
AcDbEntity
  8
DIMS
100
AcDbLine
 10
30.0709898994
 20
7.12040553
 30
0.0
 11
30.0108047134
 21
7.12040553
 31
0.0
  0
LINE
  5
10B
330
105
100
AcDbEntity
  8
DIMS
100
AcDbLine
 10
30.0108047134
 20
7.12040553
 30
0.0
 11
30.0108047134
 21
6.7166632608
 31
0.0
  0
LINE
  5
10C
330
105
100
AcDbEntity
  8
DIMS
100
AcDbLine
 10
30.0108047134
 20
6.7166632608
 30
0.0
 11
30.0709898994
 21
6.7166632608
 31
0.0
  0
LINE
  5
10D
330
105
100
AcDbEntity
  8
DIMS
100
AcDbLine
 10
31.3248479248
 20
7.12040553
 30
0.0
 11
31.3850331107
 21
7.12040553
 31
0.0
  0
LINE
  5
10E
330
105
100
AcDbEntity
  8
DIMS
100
AcDbLine
 10
31.3850331107
 20
7.12040553
 30
0.0
 11
31.3850331107
 21
6.7166632608
 31
0.0
  0
LINE
  5
10F
330
105
100
AcDbEntity
  8
DIMS
100
AcDbLine
 10
31.3850331107
 20
6.7166632608
 30
0.0
 11
31.3248479248
 21
6.7166632608
 31
0.0
  0
LINE
  5
110
330
105
100
AcDbEntity
  8
DIMS
100
AcDbLine
 10
10.9570992857
 20
2.6050087642
 30
0.0
 11
30.8229189304
 21
2.6050087642
 31
0.0
  0
LINE
  5
111
330
105
100
AcDbEntity
  8
DIMS
100
AcDbLine
 10
25.6179976706
 20
13.6050087642
 30
0.0
 11
30.8229189304
 21
13.6050087642
 31
0.0
  0
LINE
  5
112
330
105
100
AcDbEntity
  8
DIMS
100
AcDbLine
 10
30.6979189304
 20
2.6050087642
 30
0.0
 11
30.6979189304
 21
6.6564780977
 31
0.0
  0
LINE
  5
113
330
105
100
AcDbEntity
  8
DIMS
100
AcDbLine
 10
30.6979189304
 20
13.6050087642
 30
0.0
 11
30.6979189304
 21
7.5417018182
 31
0.0
  0
MTEXT
  5
114
330
105
100
AcDbEntity
  8
DIMS
100
AcDbMText
 10
30.4331041213
 20
7.5297132335
 30
0.0039370079
 40
0.2708333333
 41
0.0
 71
     1
 72
     1
  1
11"
  7
SLDTEXTSTYLE0
  0
MTEXT
  5
115
330
105
100
AcDbEntity
  8
DIMS
100
AcDbMText
 10
30.1462213854
 20
7.0657857645
 30
0.0039370079
 40
0.2708333333
 41
0.0
 71
     1
 72
     1
  1
279.40
  7
SLDTEXTSTYLE0
  0
ENDBLK
  5
107
330
105
100
AcDbEntity
  8
0
100
AcDbBlockEnd
  0
BLOCK
  5
118
330
117
100
AcDbEntity
  8
0
100
AcDbBlockBegin
  2
_D_2
 70
     0
 10
0.0
 20
0.0
 30
0.0
  3
_D_2
  1

  0
SOLID
  5
11A
330
117
100
AcDbEntity
  8
DIMS
100
AcDbTrace
 10
1.6742968832
 20
12.8550087642
 30
0.0
 11
1.6338509196
 21
12.5921100012
 31
0.0
 12
1.7147428467
 22
12.5921100012
 32
0.0
 13
1.7147428467
 23
12.5921100012
 33
0.0
  0
SOLID
  5
11B
330
117
100
AcDbEntity
  8
DIMS
100
AcDbTrace
 10
1.6742968832
 20
2.6050087642
 30
0.0
 11
1.7147428467
 21
2.8679075273
 31
0.0
 12
1.6338509196
 22
2.8679075273
 32
0.0
 13
1.6338509196
 23
2.8679075273
 33
0.0
  0
LINE
  5
11C
330
117
100
AcDbEntity
  8
DIMS
100
AcDbLine
 10
1.6720399568
 20
8.3602260767
 30
0.0
 11
1.9493933377
 21
8.3602260767
 31
0.0
  0
LINE
  5
11D
330
117
100
AcDbEntity
  8
DIMS
100
AcDbLine
 10
1.0473678522
 20
7.908235349
 30
0.0
 11
0.9871826662
 21
7.908235349
 31
0.0
  0
LINE
  5
11E
330
117
100
AcDbEntity
  8
DIMS
100
AcDbLine
 10
0.9871826662
 20
7.908235349
 30
0.0
 11
0.9871826662
 21
7.5044930797
 31
0.0
  0
LINE
  5
11F
330
117
100
AcDbEntity
  8
DIMS
100
AcDbLine
 10
0.9871826662
 20
7.5044930797
 30
0.0
 11
1.0473678522
 21
7.5044930797
 31
0.0
  0
LINE
  5
120
330
117
100
AcDbEntity
  8
DIMS
100
AcDbLine
 10
2.3012258775
 20
7.908235349
 30
0.0
 11
2.3614110635
 21
7.908235349
 31
0.0
  0
LINE
  5
121
330
117
100
AcDbEntity
  8
DIMS
100
AcDbLine
 10
2.3614110635
 20
7.908235349
 30
0.0
 11
2.3614110635
 21
7.5044930797
 31
0.0
  0
LINE
  5
122
330
117
100
AcDbEntity
  8
DIMS
100
AcDbLine
 10
2.3614110635
 20
7.5044930797
 30
0.0
 11
2.3012258775
 21
7.5044930797
 31
0.0
  0
LINE
  5
123
330
117
100
AcDbEntity
  8
DIMS
100
AcDbLine
 10
7.3929976706
 20
12.8550087642
 30
0.0
 11
1.5492968832
 21
12.8550087642
 31
0.0
  0
LINE
  5
124
330
117
100
AcDbEntity
  8
DIMS
100
AcDbLine
 10
10.8570992857
 20
2.6050087642
 30
0.0
 11
1.5492968832
 21
2.6050087642
 31
0.0
  0
LINE
  5
125
330
117
100
AcDbEntity
  8
DIMS
100
AcDbLine
 10
1.6742968832
 20
12.8550087642
 30
0.0
 11
1.6742968832
 21
8.6983163652
 31
0.0
  0
LINE
  5
126
330
117
100
AcDbEntity
  8
DIMS
100
AcDbLine
 10
1.6742968832
 20
2.6050087642
 30
0.0
 11
1.6742968832
 21
7.4443079716
 31
0.0
  0
MTEXT
  5
127
330
117
100
AcDbEntity
  8
DIMS
100
AcDbMText
 10
1.2324373409
 20
8.501816242
 30
0.0039370079
 40
0.2708333333
 41
0.0
 71
     1
 72
     1
  1
10
  7
SLDTEXTSTYLE0
  0
MTEXT
  5
128
330
117
100
AcDbEntity
  8
DIMS
100
AcDbMText
 10
1.7104080085
 20
8.6863277622
 30
0.0039370079
 40
0.2708333333
 41
0.0
 71
     1
 72
     1
  1
1
  7
SLDTEXTSTYLE0
  0
MTEXT
  5
129
330
117
100
AcDbEntity
  8
DIMS
100
AcDbMText
 10
1.7104080085
 20
8.3175430249
 30
0.0039370079
 40
0.2708333333
 41
0.0
 71
     1
 72
     1
  1
4
  7
SLDTEXTSTYLE0
  0
MTEXT
  5
12A
330
117
100
AcDbEntity
  8
DIMS
100
AcDbMText
 10
1.987761362
 20
8.501816242
 30
0.0039370079
 40
0.2708333333
 41
0.0
 71
     1
 72
     1
  1
"
  7
SLDTEXTSTYLE0
  0
MTEXT
  5
12B
330
117
100
AcDbEntity
  8
DIMS
100
AcDbMText
 10
1.1225993381
 20
7.8536155834
 30
0.0039370079
 40
0.2708333333
 41
0.0
 71
     1
 72
     1
  1
260.35
  7
SLDTEXTSTYLE0
  0
ENDBLK
  5
119
330
117
100
AcDbEntity
  8
0
100
AcDbBlockEnd
  0
BLOCK
  5
12D
330
12C
100
AcDbEntity
  8
0
100
AcDbBlockBegin
  2
SW_NOTE_0
 70
     0
 10
0.0
 20
0.0
 30
0.0
  3
SW_NOTE_0
  1

  0
MTEXT
  5
12F
330
12C
100
AcDbEntity
  8
NOTES
 62
     0
100
AcDbMText
 10
0.000965954
 20
0.2155593432
 30
0.0
 40
0.1666666667
 41
0.0
 71
     3
 72
     1
  1
3/4" REVEAL
  7
SLDTEXTSTYLE0
  0
MTEXT
  5
130
330
12C
100
AcDbEntity
  8
NOTES
 62
     0
100
AcDbMText
 10
0.0026249117
 20
-0.0066628764
 30
0.0
 40
0.1666666667
 41
0.0
 71
     3
 72
     1
  1
[19 REVELADO]
  7
SLDTEXTSTYLE0
  0
ENDBLK
  5
12E
330
12C
100
AcDbEntity
  8
0
100
AcDbBlockEnd
  0
BLOCK
  5
135
330
134
100
AcDbEntity
  8
0
100
AcDbBlockBegin
  2
SW_NOTE_1
 70
     0
 10
0.0
 20
0.0
 30
0.0
  3
SW_NOTE_1
  1

  0
MTEXT
  5
137
330
134
100
AcDbEntity
  8
NOTES
 62
     0
100
AcDbMText
 10
0.0
 20
0.1879890454
 30
0.0
 40
0.1458333333
 41
0.0
 71
     1
 72
     1
  1
NOTES:
  7
SLDTEXTSTYLE0
  0
MTEXT
  5
138
330
134
100
AcDbEntity
  8
NOTES
 62
     0
100
AcDbMText
 10
0.3937007786
 20
-0.2008998388
 30
0.0
 40
0.1458333333
 41
0.0
 71
     1
 72
     1
  1
THOROUGHLY READ ALL  INSTALLATION 
  7
SLDTEXTSTYLE0
  0
MTEXT
  5
139
330
134
100
AcDbEntity
  8
NOTES
 62
     0
100
AcDbMText
 10
0.0
 20
-0.2008998388
 30
0.0
 40
0.1458333333
 41
0.0
 71
     1
 72
     1
  1
1.
  7
SLDTEXTSTYLE0
  0
MTEXT
  5
13A
330
134
100
AcDbEntity
  8
NOTES
 62
     0
100
AcDbMText
 10
0.3937007786
 20
-0.3953442809
 30
0.0
 40
0.1458333333
 41
0.0
 71
     1
 72
     1
  1
INSTRUCTIONS
  7
SLDTEXTSTYLE0
  0
MTEXT
  5
13B
330
134
100
AcDbEntity
  8
NOTES
 62
     0
100
AcDbMText
 10
0.0
 20
-0.589788723
 30
0.0
 40
0.1458333333
 41
0.0
 71
     1
 72
     1
  1
BEFORE CUTTING COUNTERTOP.
  7
SLDTEXTSTYLE0
  0
MTEXT
  5
13C
330
134
100
AcDbEntity
  8
NOTES
 62
     0
100
AcDbMText
 10
0.0
 20
-0.9786776072
 30
0.0
 40
0.1458333333
 41
0.0
 71
     1
 72
     1
  1
2.  DIMENSIONS ARE IN INCHES [MM].
  7
SLDTEXTSTYLE0
  0
MTEXT
  5
13E
330
134
100
AcDbEntity
  8
NOTES
 62
     0
100
AcDbMText
 10
0.0
 20
-1.5620109335
 30
0.0
 40
0.1458333333
 41
0.0
 71
     1
 72
     1
  1
PLEASE CHECK TEMPLATE AGAINST PHYSICAL SINK 
  7
SLDTEXTSTYLE1
  0
MTEXT
  5
13F
330
134
100
AcDbEntity
  8
NOTES
 62
     0
100
AcDbMText
 10
0.0
 20
-1.7564553756
 30
0.0
 40
0.1458333333
 41
0.0
 71
     1
 72
     1
  1
FOR MOST ACCURATE CUT.
  7
SLDTEXTSTYLE1
  0
MTEXT
  5
140
330
134
100
AcDbEntity
  8
NOTES
 62
     0
100
AcDbMText
 10
0.0
 20
-2.5342331439
 30
0.0
 40
0.1458333333
 41
0.0
 71
     1
 72
     1
  1
NOTAS:
  7
SLDTEXTSTYLE0
  0
MTEXT
  5
141
330
134
100
AcDbEntity
  8
NOTES
 62
     0
100
AcDbMText
 10
0.0
 20
-2.9231220281
 30
0.0
 40
0.1458333333
 41
0.0
 71
     1
 72
     1
  1
1.  LEA ATENTAMENTE LAS INSTRUCCIONES DE 
  7
SLDTEXTSTYLE0
  0
MTEXT
  5
142
330
134
100
AcDbEntity
  8
NOTES
 62
     0
100
AcDbMText
 10
0.0
 20
-3.1175664702
 30
0.0
 40
0.1458333333
 41
0.0
 71
     1
 72
     1
  1
INSTALACIÓN ANTES DE CORTAR LA ENCIMERA.
  7
SLDTEXTSTYLE0
  0
MTEXT
  5
143
330
134
100
AcDbEntity
  8
NOTES
 62
     0
100
AcDbMText
 10
0.0
 20
-3.5064553544
 30
0.0
 40
0.1458333333
 41
0.0
 71
     1
 72
     1
  1
2.  DIMENSIONES EN PULGADAS [MM].
  7
SLDTEXTSTYLE0
  0
MTEXT
  5
144
330
134
100
AcDbEntity
  8
NOTES
 62
     0
100
AcDbMText
 10
0.0
 20
-4.0897886807
 30
0.0
 40
0.1458333333
 41
0.0
 71
     1
 72
     1
  1
POR FAVOR COMPRUEBE PLANTILLA CONTRA 
  7
SLDTEXTSTYLE1
  0
MTEXT
  5
145
330
134
100
AcDbEntity
  8
NOTES
 62
     0
100
AcDbMText
 10
0.0
 20
-4.2842331228
 30
0.0
 40
0.1458333333
 41
0.0
 71
     1
 72
     1
  1
FREGADERO FÍSICO PARA CORTE MÁS EXACTO.
  7
SLDTEXTSTYLE1
  0
ENDBLK
  5
136
330
134
100
AcDbEntity
  8
0
100
AcDbBlockEnd
  0
BLOCK
  5
148
330
147
100
AcDbEntity
  8
0
100
AcDbBlockBegin
  2
SW_NOTE_2
 70
     0
 10
0.0
 20
0.0
 30
0.0
  3
SW_NOTE_2
  1

  0
MTEXT
  5
14A
330
147
100
AcDbEntity
  8
NOTES
 62
     0
100
AcDbMText
 10
4.1171875
 20
0.6445338699
 30
0.0
 40
0.5
 41
0.0
 71
     2
 72
     1
  1
TEMPLATE #: 1000001409
  7
SLDTEXTSTYLE0
  0
MTEXT
  5
14B
330
147
100
AcDbEntity
  8
NOTES
 62
     0
100
AcDbMText
 10
4.1057298179
 20
-0.0110663944
 30
0.0
 40
0.25
 41
0.0
 71
     2
 72
     1
  1
REVEAL UNDERMOUNT TEMPLATE FOR 28" X 12-1/2"
  7
SLDTEXTSTYLE0
  0
ENDBLK
  5
149
330
147
100
AcDbEntity
  8
0
100
AcDbBlockEnd
  0
ENDSEC
  0
SECTION
  2
ENTITIES
  0
MTEXT
  5
E2
330
1F
100
AcDbEntity
  8
NOTES
100
AcDbMText
 10
22.67592766
 20
5.820979209
 30
0.0
 40
0.2083333333
 41
0.0
 71
     1
 72
     1
  1
REV_B  7/15
  7
SLDTEXTSTYLE0
  0
ARC
  5
E3
330
1F
100
AcDbEntity
  8
OBJECTS
100
AcDbCircle
 10
21.3258078532
 20
17.792503681
 30
0.0
 40
5.250000000000009
100
AcDbArc
 50
259.2002540232
 51
298.1222511076
  0
ARC
  5
E4
330
1F
100
AcDbEntity
  8
OBJECTS
100
AcDbCircle
 10
25.5679976706
 20
9.8550087642
 30
0.0
 40
3.749999999999999
100
AcDbArc
 50
305.1686360397
 51
118.1222511076
  0
ARC
  5
E5
330
1F
100
AcDbEntity
  8
OBJECTS
100
AcDbCircle
 10
21.0321164166
 20
16.2925087642
 30
0.0
 40
11.62500000000001
100
AcDbArc
 50
266.4344483655
 51
305.1686360397
  0
ARC
  5
E6
330
1F
100
AcDbEntity
  8
OBJECTS
100
AcDbCircle
 10
19.7727596579
 20
-3.9182933117
 30
0.0
 40
8.625000000000002
100
AcDbArc
 50
86.4344483655
 51
116.6727588268
  0
ARC
  5
E7
330
1F
100
AcDbEntity
  8
OBJECTS
100
AcDbCircle
 10
10.9070992857
 20
13.7300087642
 30
0.0
 40
11.125
100
AcDbArc
 50
237.795772496
 51
296.6727588268
  0
ARC
  5
E8
330
1F
100
AcDbEntity
  8
OBJECTS
100
AcDbCircle
 10
7.4429976706
 20
8.2300087642
 30
0.0
 40
4.625000000000004
100
AcDbArc
 50
63.4957258945
 51
237.795772496
  0
ARC
  5
E9
330
1F
100
AcDbEntity
  8
OBJECTS
100
AcDbCircle
 10
12.5192571711
 20
18.409508481
 30
0.0
 40
6.749999999999999
100
AcDbArc
 50
243.4957258945
 51
291.5671839053
  0
ARC
  5
EA
330
1F
100
AcDbEntity
  8
OBJECTS
100
AcDbCircle
 10
18.5385755796
 20
3.1809684689
 30
0.0
 40
9.624999999999996
100
AcDbArc
 50
79.2002540232
 51
111.5671839053
  0
INSERT
  5
EB
330
1F
100
AcDbEntity
  8
BLOCKS
100
AcDbBlockReference
  2
BLOCK2
 10
-5.6499633567
 20
-8.71819735
 30
0.0
  0
DIMENSION
  5
EC
330
1F
100
AcDbEntity
  8
DIMS
100
AcDbDimension
  2
_D
 10
29.3179976706
 20
1.4613079768
 30
0.0
 11
16.5273568347
 21
1.4613079768
 31
0.0
 70
   160
  1
<>
  3
SLDDIMSTYLE0
100
AcDbAlignedDimension
 13
2.8179976706
 23
8.2300087642
 33
0.0
 14
29.3179976706
 24
9.8550087642
 34
0.0
 50
0.0
100
AcDbRotatedDimension
  0
DIMENSION
  5
103
330
1F
100
AcDbEntity
  8
DIMS
100
AcDbDimension
  2
_D_1
 10
30.6979189304
 20
13.6050087642
 30
0.0
 11
30.6979189304
 21
7.099089958
 31
0.0
 70
   160
  1
<>
  3
SLDDIMSTYLE1
100
AcDbAlignedDimension
 13
10.9070992857
 23
2.6050087642
 33
0.0
 14
25.5679976706
 24
13.6050087642
 34
0.0
 50
90.0
100
AcDbRotatedDimension
  0
DIMENSION
  5
116
330
1F
100
AcDbEntity
  8
DIMS
100
AcDbDimension
  2
_D_2
 10
1.6742968832
 20
2.6050087642
 30
0.0
 11
1.6742968832
 21
8.0713121684
 31
0.0
 70
   160
  1
<>
  3
SLDDIMSTYLE0
100
AcDbAlignedDimension
 13
7.4429976706
 23
12.8550087642
 33
0.0
 14
10.9070992857
 24
2.6050087642
 34
0.0
 50
90.0
100
AcDbRotatedDimension
  0
INSERT
  5
131
102
{ACAD_REACTORS
330
133
102
}
330
1F
100
AcDbEntity
  8
NOTES
100
AcDbBlockReference
  2
SW_NOTE_0
 10
11.727103191
 20
11.0447341054
 30
0.0
  0
LEADER
  5
133
330
1F
100
AcDbEntity
  8
NOTES
100
AcDbLeader
  3
SLDDIMSTYLE2
 73
     2
 76
     3
 10
12.3405877848
 20
11.6618735434
 30
0.0
 10
11.977103191
 20
11.0447341054
 30
0.0
 10
11.727103191
 20
11.0447341054
 30
0.0
340
131
1001
ACAD
1000
DSTYLE
1002
{
1070
     6
1000

1002
}
  0
INSERT
  5
146
330
1F
100
AcDbEntity
  8
NOTES
100
AcDbBlockReference
  2
SW_NOTE_1
 10
8.3344738317
 20
8.4188816066
 30
0.0
  0
INSERT
  5
14C
330
1F
100
AcDbEntity
  8
NOTES
100
AcDbBlockReference
  2
SW_NOTE_2
 10
16.5247566463
 20
9.1521938218
 30
0.0
  0
ENDSEC
  0
SECTION
  2
OBJECTS
  0
DICTIONARY
  5
C
330
0
100
AcDbDictionary
  3
ACAD_GROUP
350
D
  3
ACAD_MLINESTYLE
350
17
1001
ACAD
1000
TREAT_AS_HARD
1070
     0
  0
DICTIONARY
  5
D
102
{ACAD_REACTORS
330
C
102
}
330
C
100
AcDbDictionary
1001
ACAD
1000
TREAT_AS_HARD
1070
     0
  0
DICTIONARY
  5
17
102
{ACAD_REACTORS
330
C
102
}
330
C
100
AcDbDictionary
  3
STANDARD
350
18
1001
ACAD
1000
TREAT_AS_HARD
1070
     0
  0
MLINESTYLE
  5
18
102
{ACAD_REACTORS
330
17
102
}
330
17
100
AcDbMlineStyle
  2
Standard
 70
     0
  3

 62
   256
 51
90.0
 52
90.0
 71
     2
 49
0.5
 62
   256
  6
BYLAYER
 49
-0.5
 62
   256
  6
BYLAYER
  0
ENDSEC
  0
EOF
