  0
SECTION
  2
HEADER
  9
$ACADVER
  1
AC1032
  9
$ACADMAINTVER
 90
       55
  9
$DWGCODEPAGE
  3
ANSI_1252
  9
$LASTSAVEDBY
  1
kenton.nall
  9
$REQUIREDVERSIONS
160
                 0
  9
$INSBASE
 10
0.0
 20
0.0
 30
0.0
  9
$EXTMIN
 10
1.992426193499999
 20
0.917223751799996
 30
0.0
  9
$EXTMAX
 10
31.7424261935
 20
21.4660097997
 30
0.0039370079
  9
$LIMMIN
 10
0.0
 20
0.0
  9
$LIMMAX
 10
34.0
 20
22.0
  9
$ORTHOMODE
 70
     0
  9
$REGENMODE
 70
     1
  9
$FILLMODE
 70
     1
  9
$QTEXTMODE
 70
     0
  9
$MIRRTEXT
 70
     1
  9
$LTSCALE
 40
1.0
  9
$ATTMODE
 70
     1
  9
$TEXTSIZE
 40
0.2777777778
  9
$TRACEWID
 40
0.05
  9
$TEXTSTYLE
  7
Standard
  9
$CLAYER
  8
0
  9
$CELTYPE
  6
ByLayer
  9
$CECOLOR
 62
   256
  9
$CELTSCALE
 40
1.0
  9
$DISPSILH
 70
     0
  9
$DIMSCALE
 40
1.0
  9
$DIMASZ
 40
0.262898763
  9
$DIMEXO
 40
0.05
  9
$DIMDLI
 40
0.38
  9
$DIMRND
 40
0.0
  9
$DIMDLE
 40
0.0
  9
$DIMEXE
 40
0.125
  9
$DIMTP
 40
0.0
  9
$DIMTM
 40
0.0
  9
$DIMTXT
 40
0.3611111111
  9
$DIMCEN
 40
0.09
  9
$DIMTSZ
 40
0.0
  9
$DIMTOL
 70
     0
  9
$DIMLIM
 70
     0
  9
$DIMTIH
 70
     1
  9
$DIMTOH
 70
     1
  9
$DIMSE1
 70
     0
  9
$DIMSE2
 70
     0
  9
$DIMTAD
 70
     0
  9
$DIMZIN
 70
     0
  9
$DIMBLK
  1

  9
$DIMASO
 70
     1
  9
$DIMSHO
 70
     1
  9
$DIMPOST
  1

  9
$DIMAPOST
  1

  9
$DIMALT
 70
     0
  9
$DIMALTD
 70
     2
  9
$DIMALTF
 40
25.4
  9
$DIMLFAC
 40
1.0
  9
$DIMTOFL
 70
     0
  9
$DIMTVP
 40
0.0
  9
$DIMTIX
 70
     0
  9
$DIMSOXD
 70
     0
  9
$DIMSAH
 70
     0
  9
$DIMBLK1
  1

  9
$DIMBLK2
  1

  9
$DIMSTYLE
  2
Standard
  9
$DIMCLRD
 70
     0
  9
$DIMCLRE
 70
     0
  9
$DIMCLRT
 70
     0
  9
$DIMTFAC
 40
1.0
  9
$DIMGAP
 40
0.06
  9
$DIMJUST
 70
     0
  9
$DIMSD1
 70
     0
  9
$DIMSD2
 70
     0
  9
$DIMTOLJ
 70
     1
  9
$DIMTZIN
 70
     0
  9
$DIMALTZ
 70
     0
  9
$DIMALTTZ
 70
     0
  9
$DIMUPT
 70
     0
  9
$DIMDEC
 70
     3
  9
$DIMTDEC
 70
     3
  9
$DIMALTU
 70
     2
  9
$DIMALTTD
 70
     2
  9
$DIMTXSTY
  7
Standard
  9
$DIMAUNIT
 70
     0
  9
$DIMADEC
 70
     1
  9
$DIMALTRND
 40
0.0
  9
$DIMAZIN
 70
     0
  9
$DIMDSEP
 70
    46
  9
$DIMATFIT
 70
     3
  9
$DIMFRAC
 70
     0
  9
$DIMLDRBLK
  1

  9
$DIMLUNIT
 70
     2
  9
$DIMLWD
 70
    -2
  9
$DIMLWE
 70
    -2
  9
$DIMTMOVE
 70
     0
  9
$DIMFXL
 40
1.0
  9
$DIMFXLON
 70
     0
  9
$DIMJOGANG
 40
0.7853981633974483
  9
$DIMTFILL
 70
     0
  9
$DIMTFILLCLR
 70
     0
  9
$DIMARCSYM
 70
     0
  9
$DIMLTYPE
  6

  9
$DIMLTEX1
  6

  9
$DIMLTEX2
  6

  9
$DIMTXTDIRECTION
 70
     0
  9
$LUNITS
 70
     2
  9
$LUPREC
 70
     3
  9
$SKETCHINC
 40
0.1
  9
$FILLETRAD
 40
0.5
  9
$AUNITS
 70
     0
  9
$AUPREC
 70
     1
  9
$MENU
  1
.
  9
$ELEVATION
 40
0.0
  9
$PELEVATION
 40
0.0
  9
$THICKNESS
 40
0.0
  9
$LIMCHECK
 70
     0
  9
$CHAMFERA
 40
0.5
  9
$CHAMFERB
 40
0.5
  9
$CHAMFERC
 40
1.0
  9
$CHAMFERD
 40
0.0
  9
$SKPOLY
 70
     0
  9
$TDCREATE
 40
2457270.459722222
  9
$TDUCREATE
 40
2457270.626392234
  9
$TDUPDATE
 40
2460347.690231482
  9
$TDUUPDATE
 40
2460347.898564815
  9
$TDINDWG
 40
0.0008796412
  9
$TDUSRTIMER
 40
0.0008796412
  9
$USRTIMER
 70
     1
  9
$ANGBASE
 50
0.0
  9
$ANGDIR
 70
     0
  9
$PDMODE
 70
     0
  9
$PDSIZE
 40
-1.0
  9
$PLINEWID
 40
0.0
  9
$SPLFRAME
 70
     0
  9
$SPLINETYPE
 70
     6
  9
$SPLINESEGS
 70
     8
  9
$HANDSEED
  5
286
  9
$SURFTAB1
 70
     6
  9
$SURFTAB2
 70
     6
  9
$SURFTYPE
 70
     6
  9
$SURFU
 70
     6
  9
$SURFV
 70
     6
  9
$UCSBASE
  2

  9
$UCSNAME
  2

  9
$UCSORG
 10
0.0
 20
0.0
 30
0.0
  9
$UCSXDIR
 10
1.0
 20
0.0
 30
0.0
  9
$UCSYDIR
 10
0.0
 20
1.0
 30
0.0
  9
$UCSORTHOREF
  2

  9
$UCSORTHOVIEW
 70
     0
  9
$UCSORGTOP
 10
0.0
 20
0.0
 30
0.0
  9
$UCSORGBOTTOM
 10
0.0
 20
0.0
 30
0.0
  9
$UCSORGLEFT
 10
0.0
 20
0.0
 30
0.0
  9
$UCSORGRIGHT
 10
0.0
 20
0.0
 30
0.0
  9
$UCSORGFRONT
 10
0.0
 20
0.0
 30
0.0
  9
$UCSORGBACK
 10
0.0
 20
0.0
 30
0.0
  9
$PUCSBASE
  2

  9
$PUCSNAME
  2

  9
$PUCSORG
 10
0.0
 20
0.0
 30
0.0
  9
$PUCSXDIR
 10
1.0
 20
0.0
 30
0.0
  9
$PUCSYDIR
 10
0.0
 20
1.0
 30
0.0
  9
$PUCSORTHOREF
  2

  9
$PUCSORTHOVIEW
 70
     0
  9
$PUCSORGTOP
 10
0.0
 20
0.0
 30
0.0
  9
$PUCSORGBOTTOM
 10
0.0
 20
0.0
 30
0.0
  9
$PUCSORGLEFT
 10
0.0
 20
0.0
 30
0.0
  9
$PUCSORGRIGHT
 10
0.0
 20
0.0
 30
0.0
  9
$PUCSORGFRONT
 10
0.0
 20
0.0
 30
0.0
  9
$PUCSORGBACK
 10
0.0
 20
0.0
 30
0.0
  9
$USERI1
 70
     0
  9
$USERI2
 70
     0
  9
$USERI3
 70
     0
  9
$USERI4
 70
     0
  9
$USERI5
 70
     0
  9
$USERR1
 40
0.0
  9
$USERR2
 40
0.0
  9
$USERR3
 40
0.0
  9
$USERR4
 40
0.0
  9
$USERR5
 40
0.0
  9
$WORLDVIEW
 70
     1
  9
$SHADEDGE
 70
     3
  9
$SHADEDIF
 70
    70
  9
$TILEMODE
 70
     1
  9
$MAXACTVP
 70
    64
  9
$PINSBASE
 10
0.0
 20
0.0
 30
0.0
  9
$PLIMCHECK
 70
     0
  9
$PEXTMIN
 10
1.000000000000000E+20
 20
1.000000000000000E+20
 30
1.000000000000000E+20
  9
$PEXTMAX
 10
-1.000000000000000E+20
 20
-1.000000000000000E+20
 30
-1.000000000000000E+20
  9
$PLIMMIN
 10
0.0
 20
0.0
  9
$PLIMMAX
 10
12.0
 20
9.0
  9
$UNITMODE
 70
     0
  9
$VISRETAIN
 70
     1
  9
$PLINEGEN
 70
     0
  9
$PSLTSCALE
 70
     1
  9
$TREEDEPTH
 70
  3020
  9
$CMLSTYLE
  2
Standard
  9
$CMLJUST
 70
     0
  9
$CMLSCALE
 40
1.0
  9
$PROXYGRAPHICS
 70
     1
  9
$MEASUREMENT
 70
     0
  9
$CELWEIGHT
370
    -1
  9
$ENDCAPS
280
     0
  9
$JOINSTYLE
280
     0
  9
$LWDISPLAY
290
     1
  9
$INSUNITS
 70
     1
  9
$HYPERLINKBASE
  1

  9
$STYLESHEET
  1

  9
$XEDIT
290
     1
  9
$CEPSNTYPE
380
     0
  9
$PSTYLEMODE
290
     1
  9
$FINGERPRINTGUID
  2
{B960A5ED-6CE5-4CAB-BF03-53F4FCF7EA30}
  9
$VERSIONGUID
  2
{2CFDA162-EF51-5E46-8970-D5DC285C9FD9}
  9
$EXTNAMES
290
     1
  9
$PSVPSCALE
 40
0.0
  9
$OLESTARTUP
290
     0
  9
$SORTENTS
280
   127
  9
$INDEXCTL
280
     0
  9
$HIDETEXT
280
     0
  9
$XCLIPFRAME
280
     2
  9
$HALOGAP
280
     0
  9
$OBSCOLOR
 70
   257
  9
$OBSLTYPE
280
     0
  9
$INTERSECTIONDISPLAY
280
     0
  9
$INTERSECTIONCOLOR
 70
   257
  9
$DIMASSOC
280
     1
  9
$PROJECTNAME
  1

  9
$CAMERADISPLAY
290
     0
  9
$LENSLENGTH
 40
50.0
  9
$CAMERAHEIGHT
 40
0.0
  9
$STEPSPERSEC
 40
2.0
  9
$STEPSIZE
 40
6.0
  9
$3DDWFPREC
 40
2.0
  9
$PSOLWIDTH
 40
0.25
  9
$PSOLHEIGHT
 40
4.0
  9
$LOFTANG1
 40
1.570796326794896
  9
$LOFTANG2
 40
1.570796326794896
  9
$LOFTMAG1
 40
0.0
  9
$LOFTMAG2
 40
0.0
  9
$LOFTPARAM
 70
     7
  9
$LOFTNORMALS
280
     1
  9
$LATITUDE
 40
37.795
  9
$LONGITUDE
 40
-122.394
  9
$NORTHDIRECTION
 40
0.0
  9
$TIMEZONE
 70
 -8000
  9
$LIGHTGLYPHDISPLAY
280
     1
  9
$TILEMODELIGHTSYNCH
280
     1
  9
$CMATERIAL
347
211
  9
$SOLIDHIST
280
     0
  9
$SHOWHIST
280
     1
  9
$DWFFRAME
280
     2
  9
$DGNFRAME
280
     0
  9
$REALWORLDSCALE
290
     1
  9
$INTERFERECOLOR
 62
     1
  9
$INTERFEREOBJVS
345
233
  9
$INTERFEREVPVS
346
230
  9
$CSHADOW
280
     0
  9
$SHADOWPLANELOCATION
 40
0.0
  0
ENDSEC
  0
SECTION
  2
CLASSES
  0
CLASS
  1
ACDBDICTIONARYWDFLT
  2
AcDbDictionaryWithDefault
  3
ObjectDBX Classes
 90
        0
 91
        1
280
     0
281
     0
  0
CLASS
  1
VISUALSTYLE
  2
AcDbVisualStyle
  3
ObjectDBX Classes
 90
     4095
 91
       24
280
     0
281
     0
  0
CLASS
  1
MATERIAL
  2
AcDbMaterial
  3
ObjectDBX Classes
 90
     1153
 91
        3
280
     0
281
     0
  0
CLASS
  1
TABLESTYLE
  2
AcDbTableStyle
  3
ObjectDBX Classes
 90
     4095
 91
        1
280
     0
281
     0
  0
CLASS
  1
SCALE
  2
AcDbScale
  3
ObjectDBX Classes
 90
     1153
 91
       17
280
     0
281
     0
  0
CLASS
  1
MLEADERSTYLE
  2
AcDbMLeaderStyle
  3
ACDB_MLEADERSTYLE_CLASS
 90
     4095
 91
        1
280
     0
281
     0
  0
CLASS
  1
ACDBSECTIONVIEWSTYLE
  2
AcDbSectionViewStyle
  3
ObjectDBX Classes
 90
     1025
 91
        1
280
     0
281
     0
  0
CLASS
  1
ACDBDETAILVIEWSTYLE
  2
AcDbDetailViewStyle
  3
ObjectDBX Classes
 90
     1025
 91
        1
280
     0
281
     0
  0
CLASS
  1
ACAD_EVALUATION_GRAPH
  2
AcDbEvalGraph
  3
ObjectDBX Classes
 90
     1153
 91
        1
280
     0
281
     0
  0
CLASS
  1
ACAECUSTOBJ
  2
AcAeEditorObj
  3
AcAeEditorObj
 90
     1024
 91
        1
280
     0
281
     0
  0
CLASS
  1
ACDB_DYNAMICBLOCKPURGEPREVENTER_VERSION
  2
AcDbDynamicBlockPurgePreventer
  3
ObjectDBX Classes
 90
     1153
 91
        1
280
     0
281
     0
  0
CLASS
  1
DICTIONARYVAR
  2
AcDbDictionaryVar
  3
ObjectDBX Classes
 90
        0
 91
        9
280
     0
281
     0
  0
CLASS
  1
CELLSTYLEMAP
  2
AcDbCellStyleMap
  3
ObjectDBX Classes
 90
     1152
 91
        1
280
     0
281
     0
  0
ENDSEC
  0
SECTION
  2
TABLES
  0
TABLE
  2
VPORT
  5
8
330
0
100
AcDbSymbolTable
 70
     1
  0
VPORT
  5
29
330
8
100
AcDbSymbolTableRecord
100
AcDbViewportTableRecord
  2
*Active
 70
     0
 10
0.0
 20
0.0
 11
1.0
 21
1.0
 12
33.03133903083903
 22
11.0
 13
0.0
 23
0.0
 14
0.5
 24
0.5
 15
0.5
 25
0.5
 16
0.0
 26
0.0
 36
1.0
 17
0.0
 27
0.0
 37
0.0
 40
47.37201147031758
 41
2.06084656084656
 42
50.0
 43
0.0
 44
0.0
 50
0.0
 51
0.0
 71
     0
 72
  2000
 73
     1
 74
     3
 75
     0
 76
     0
 77
     0
 78
     0
281
     0
 65
     1
110
0.0
120
0.0
130
0.0
111
1.0
121
0.0
131
0.0
112
0.0
122
1.0
132
0.0
 79
     0
146
0.0
348
22F
 60
     3
 61
     5
292
     1
282
     1
141
0.0
142
0.0
 63
   250
421
  3355443
1001
ACAD_NAV_VCDISPLAY
1070
     3
  0
ENDTAB
  0
TABLE
  2
LTYPE
  5
5
330
0
100
AcDbSymbolTable
 70
     7
  0
LTYPE
  5
14
330
5
100
AcDbSymbolTableRecord
100
AcDbLinetypeTableRecord
  2
ByBlock
 70
     0
  3

 72
    65
 73
     0
 40
0.0
  0
LTYPE
  5
15
330
5
100
AcDbSymbolTableRecord
100
AcDbLinetypeTableRecord
  2
ByLayer
 70
     0
  3

 72
    65
 73
     0
 40
0.0
  0
LTYPE
  5
16
330
5
100
AcDbSymbolTableRecord
100
AcDbLinetypeTableRecord
  2
Continuous
 70
     0
  3
Solid line
 72
    65
 73
     0
 40
0.0
  0
LTYPE
  5
3F
330
5
100
AcDbSymbolTableRecord
100
AcDbLinetypeTableRecord
  2
HIDDEN
 70
     0
  3
Hidden __ __ __ __ __ __ __ __ __ __ __ __ __ __
 72
    65
 73
     2
 40
0.075
 49
0.05
 74
     0
 49
-0.025
 74
     0
  0
LTYPE
  5
40
330
5
100
AcDbSymbolTableRecord
100
AcDbLinetypeTableRecord
  2
PHANTOM
 70
     0
  3
Phantom ______  __  __  ______  __  __  ______
 72
    65
 73
     6
 40
0.5
 49
0.25
 74
     0
 49
-0.05
 74
     0
 49
0.05
 74
     0
 49
-0.05
 74
     0
 49
0.05
 74
     0
 49
-0.05
 74
     0
  0
LTYPE
  5
41
330
5
100
AcDbSymbolTableRecord
100
AcDbLinetypeTableRecord
  2
CENTER
 70
     0
  3
Center ____ _ ____ _ ____ _ ____ _ ____ _ ____
 72
    65
 73
     4
 40
0.4
 49
0.25
 74
     0
 49
-0.05
 74
     0
 49
0.05
 74
     0
 49
-0.05
 74
     0
  0
LTYPE
  5
42
330
5
100
AcDbSymbolTableRecord
100
AcDbLinetypeTableRecord
  2
CENTERX2
 70
     0
  3
Center (2x) ________  __  ________  __  _____
 72
    65
 73
     4
 40
0.8
 49
0.5
 74
     0
 49
-0.1
 74
     0
 49
0.1
 74
     0
 49
-0.1
 74
     0
  0
LTYPE
  5
43
330
5
100
AcDbSymbolTableRecord
100
AcDbLinetypeTableRecord
  2
DOT2
 70
     0
  3
Dot (.5x) ........................................
 72
    65
 73
     2
 40
0.025
 49
0.0
 74
     0
 49
-0.025
 74
     0
  0
ENDTAB
  0
TABLE
  2
LAYER
  5
2
102
{ACAD_XDICTIONARY
360
272
102
}
330
0
100
AcDbSymbolTable
 70
     8
  0
LAYER
  5
10
330
2
100
AcDbSymbolTableRecord
100
AcDbLayerTableRecord
  2
0
 70
     0
 62
     7
  6
Continuous
370
    -3
390
F
347
221
348
0
  0
LAYER
  5
44
330
2
100
AcDbSymbolTableRecord
100
AcDbLayerTableRecord
  2
SLD-0
 70
     0
 62
   179
  6
Continuous
370
    -3
390
F
347
221
348
0
  0
LAYER
  5
45
330
2
100
AcDbSymbolTableRecord
100
AcDbLayerTableRecord
  2
OBJECTS
 70
     0
 62
     5
  6
Continuous
370
    -3
390
F
347
221
348
0
  0
LAYER
  5
46
330
2
100
AcDbSymbolTableRecord
100
AcDbLayerTableRecord
  2
DIMS
 70
     0
 62
     1
  6
Continuous
370
    -3
390
F
347
221
348
0
  0
LAYER
  5
47
330
2
100
AcDbSymbolTableRecord
100
AcDbLayerTableRecord
  2
NOTES
 70
     0
 62
     7
  6
Continuous
370
    -3
390
F
347
221
348
0
  0
LAYER
  5
48
330
2
100
AcDbSymbolTableRecord
100
AcDbLayerTableRecord
  2
IMAGES
 70
     0
 62
     7
  6
Continuous
370
    -3
390
F
347
221
348
0
  0
LAYER
  5
49
330
2
100
AcDbSymbolTableRecord
100
AcDbLayerTableRecord
  2
CENTERLINES
 70
     0
 62
     7
  6
HIDDEN
370
    -3
390
F
347
221
348
0
  0
LAYER
  5
4A
330
2
100
AcDbSymbolTableRecord
100
AcDbLayerTableRecord
  2
BLOCKS
 70
     0
 62
    16
  6
Continuous
370
    -3
390
F
347
221
348
0
  0
ENDTAB
  0
TABLE
  2
STYLE
  5
3
330
0
100
AcDbSymbolTable
 70
     2
  0
STYLE
  5
11
330
3
100
AcDbSymbolTableRecord
100
AcDbTextStyleTableRecord
  2
Standard
 70
     0
 40
0.0
 41
1.0
 50
0.0
 71
     0
 42
0.2777777778
  3
txt
  4

  0
STYLE
  5
8D
330
3
100
AcDbSymbolTableRecord
100
AcDbTextStyleTableRecord
  2
SLDTEXTSTYLE0
 70
     0
 40
0.0
 41
0.605
 50
0.0
 71
     0
 42
0.2
  3
TXT
  4

  0
ENDTAB
  0
TABLE
  2
VIEW
  5
6
330
0
100
AcDbSymbolTable
 70
     1
  0
ENDTAB
  0
TABLE
  2
UCS
  5
7
330
0
100
AcDbSymbolTable
 70
     0
  0
ENDTAB
  0
TABLE
  2
APPID
  5
9
330
0
100
AcDbSymbolTable
 70
     6
  0
APPID
  5
12
330
9
100
AcDbSymbolTableRecord
100
AcDbRegAppTableRecord
  2
ACAD
 70
     0
  0
APPID
  5
266
330
9
100
AcDbSymbolTableRecord
100
AcDbRegAppTableRecord
  2
ACAUTHENVIRON
 70
     0
  0
APPID
  5
26A
330
9
100
AcDbSymbolTableRecord
100
AcDbRegAppTableRecord
  2
ACAD_EXEMPT_FROM_CAD_STANDARDS
 70
     0
  0
APPID
  5
26C
330
9
100
AcDbSymbolTableRecord
100
AcDbRegAppTableRecord
  2
AcDbDynamicBlockTrueName
 70
     0
  0
APPID
  5
26D
330
9
100
AcDbSymbolTableRecord
100
AcDbRegAppTableRecord
  2
AcDbDynamicBlockGUID
 70
     0
  0
APPID
  5
282
330
9
100
AcDbSymbolTableRecord
100
AcDbRegAppTableRecord
  2
ACAD_NAV_VCDISPLAY
 70
     0
  0
ENDTAB
  0
TABLE
  2
DIMSTYLE
  5
A
330
0
100
AcDbSymbolTable
 70
     7
100
AcDbDimStyleTable
 71
     0
  0
DIMSTYLE
105
27
330
A
100
AcDbSymbolTableRecord
100
AcDbDimStyleTableRecord
  2
Standard
 70
     0
340
11
  0
DIMSTYLE
105
FA
102
{ACAD_REACTORS
330
F9
330
10D
102
}
330
A
100
AcDbSymbolTableRecord
100
AcDbDimStyleTableRecord
  2
SLDDIMSTYLE0
 70
     0
 41
0.262898763
 44
0.0
 45
0.000000001
 78
    12
 79
     3
140
0.262898763
141
0.0
147
0.0657246908
148
0.000000001
170
     1
171
     0
173
     1
271
     3
272
     3
274
     0
276
     2
277
     5
284
    12
340
8D
  0
DIMSTYLE
105
121
102
{ACAD_REACTORS
330
120
102
}
330
A
100
AcDbSymbolTableRecord
100
AcDbDimStyleTableRecord
  2
SLDDIMSTYLE1
 70
     0
 41
0.262898763
 44
0.0
 45
0.000000001
 78
    12
 79
     3
140
0.262898763
141
0.0
147
0.0657246908
148
0.000000001
170
     1
171
     0
173
     1
271
     3
272
     3
274
     0
276
     2
277
     5
279
     1
284
    12
340
8D
  0
DIMSTYLE
105
135
102
{ACAD_REACTORS
330
134
102
}
330
A
100
AcDbSymbolTableRecord
100
AcDbDimStyleTableRecord
  2
SLDDIMSTYLE2
 70
     0
 41
0.262898763
 44
0.0
 45
0.000000001
 78
    12
 79
     3
140
0.262898763
141
0.0
147
0.0657246908
148
0.000000001
170
     1
171
     0
173
     1
271
     3
272
     3
274
     0
276
     2
277
     5
279
     1
284
    12
340
8D
  0
DIMSTYLE
105
149
102
{ACAD_REACTORS
330
148
330
15D
330
171
330
185
330
195
330
1A5
102
}
330
A
100
AcDbSymbolTableRecord
100
AcDbDimStyleTableRecord
  2
SLDDIMSTYLE3
 70
     0
 41
0.262898763
 44
0.0
 45
0.000000001
 78
    12
 79
     3
140
0.262898763
147
0.0657246908
148
0.000000001
170
     1
171
     0
173
     1
271
     3
272
     3
274
     0
276
     2
277
     5
284
    12
340
8D
  0
DIMSTYLE
105
1BA
102
{ACAD_REACTORS
330
1B9
330
1CC
102
}
330
A
100
AcDbSymbolTableRecord
100
AcDbDimStyleTableRecord
  2
SLDDIMSTYLE4
 70
     0
 41
0.262898763
 44
0.0
 45
0.000000001
 78
    12
 79
     3
140
0.262898763
141
0.0
147
0.0657246908
148
0.000000001
170
     1
171
     0
173
     1
271
     3
272
     3
274
     0
276
     2
277
     5
284
    12
340
8D
  0
DIMSTYLE
105
1E7
330
A
100
AcDbSymbolTableRecord
100
AcDbDimStyleTableRecord
  2
SLDDIMSTYLE5
 70
     0
 41
0.262898763
 44
0.0
 45
0.000000001
140
0.0
146
0.262898763
147
0.0
173
     1
271
     0
272
     0
276
     2
277
     5
340
11
  0
ENDTAB
  0
TABLE
  2
BLOCK_RECORD
  5
1
330
0
100
AcDbSymbolTable
 70
    23
  0
BLOCK_RECORD
  5
1F
330
1
100
AcDbSymbolTableRecord
100
AcDbBlockTableRecord
  2
*Model_Space
340
22
 70
     0
280
     1
281
     0
  0
BLOCK_RECORD
  5
1B
330
1
100
AcDbSymbolTableRecord
100
AcDbBlockTableRecord
  2
*Paper_Space
340
1E
 70
     0
280
     1
281
     0
  0
BLOCK_RECORD
  5
23
330
1
100
AcDbSymbolTableRecord
100
AcDbBlockTableRecord
  2
*Paper_Space0
340
26
 70
     0
280
     1
281
     0
  0
BLOCK_RECORD
  5
4B
330
1
100
AcDbSymbolTableRecord
100
AcDbBlockTableRecord
  2
REVEAL- .500
340
0
102
{BLKREFS
331
F7
102
}
 70
     0
280
     1
281
     0
  0
BLOCK_RECORD
  5
7D
330
1
100
AcDbSymbolTableRecord
100
AcDbBlockTableRecord
  2
SW_BLOCK_DIMENSION_0
340
0
102
{BLKREFS
331
94
102
}
 70
     0
280
     1
281
     0
  0
BLOCK_RECORD
  5
95
330
1
100
AcDbSymbolTableRecord
100
AcDbBlockTableRecord
  2
OVERHANG - .125
340
0
102
{BLKREFS
331
F8
102
}
 70
     0
280
     1
281
     0
  0
BLOCK_RECORD
  5
C7
330
1
100
AcDbSymbolTableRecord
100
AcDbBlockTableRecord
  2
SW_BLOCK_DIMENSION_1
340
0
102
{BLKREFS
331
DC
102
}
 70
     0
280
     1
281
     0
  0
BLOCK_RECORD
  5
FB
330
1
100
AcDbSymbolTableRecord
100
AcDbBlockTableRecord
  2
_D
340
0
 70
     0
280
     1
281
     0
  0
BLOCK_RECORD
  5
10E
330
1
100
AcDbSymbolTableRecord
100
AcDbBlockTableRecord
  2
_D_1
340
0
 70
     0
280
     1
281
     0
  0
BLOCK_RECORD
  5
122
330
1
100
AcDbSymbolTableRecord
100
AcDbBlockTableRecord
  2
_D_2
340
0
 70
     0
280
     1
281
     0
  0
BLOCK_RECORD
  5
136
330
1
100
AcDbSymbolTableRecord
100
AcDbBlockTableRecord
  2
_D_3
340
0
 70
     0
280
     1
281
     0
  0
BLOCK_RECORD
  5
14A
330
1
100
AcDbSymbolTableRecord
100
AcDbBlockTableRecord
  2
_D_4
340
0
 70
     0
280
     1
281
     0
  0
BLOCK_RECORD
  5
15E
330
1
100
AcDbSymbolTableRecord
100
AcDbBlockTableRecord
  2
_D_5
340
0
 70
     0
280
     1
281
     0
  0
BLOCK_RECORD
  5
172
330
1
100
AcDbSymbolTableRecord
100
AcDbBlockTableRecord
  2
_D_6
340
0
 70
     0
280
     1
281
     0
  0
BLOCK_RECORD
  5
186
330
1
100
AcDbSymbolTableRecord
100
AcDbBlockTableRecord
  2
_D_7
340
0
 70
     0
280
     1
281
     0
  0
BLOCK_RECORD
  5
196
330
1
100
AcDbSymbolTableRecord
100
AcDbBlockTableRecord
  2
_D_8
340
0
 70
     0
280
     1
281
     0
  0
BLOCK_RECORD
  5
1A6
330
1
100
AcDbSymbolTableRecord
100
AcDbBlockTableRecord
  2
_D_9
340
0
 70
     0
280
     1
281
     0
  0
BLOCK_RECORD
  5
1BB
330
1
100
AcDbSymbolTableRecord
100
AcDbBlockTableRecord
  2
_D_10
340
0
 70
     0
280
     1
281
     0
  0
BLOCK_RECORD
  5
1CD
330
1
100
AcDbSymbolTableRecord
100
AcDbBlockTableRecord
  2
_D_11
340
0
 70
     0
280
     1
281
     0
  0
BLOCK_RECORD
  5
1DF
330
1
100
AcDbSymbolTableRecord
100
AcDbBlockTableRecord
  2
SW_NOTE_0
340
0
102
{BLKREFS
331
1E6
102
}
 70
     0
280
     1
281
     0
  0
BLOCK_RECORD
  5
1EA
330
1
100
AcDbSymbolTableRecord
100
AcDbBlockTableRecord
  2
SW_NOTE_1
340
0
102
{BLKREFS
331
1EF
102
}
 70
     0
280
     1
281
     0
  0
BLOCK_RECORD
  5
1F1
330
1
100
AcDbSymbolTableRecord
100
AcDbBlockTableRecord
  2
SW_NOTE_2
340
0
102
{BLKREFS
331
1F6
102
}
 70
     0
280
     1
281
     0
  0
BLOCK_RECORD
  5
1F8
330
1
100
AcDbSymbolTableRecord
100
AcDbBlockTableRecord
  2
SW_NOTE_3
340
0
102
{BLKREFS
331
205
102
}
 70
     0
280
     1
281
     0
  0
BLOCK_RECORD
  5
206
102
{ACAD_XDICTIONARY
360
267
102
}
330
1
100
AcDbSymbolTableRecord
100
AcDbBlockTableRecord
  2
SW_NOTE_4
340
0
102
{BLKREFS
331
20C
102
}
 70
     0
280
     1
281
     0
1001
AcDbDynamicBlockGUID
1000
{BDFF0345-FAEE-674A-A7FE-423446A522BD}
  0
ENDTAB
  0
ENDSEC
  0
SECTION
  2
BLOCKS
  0
BLOCK
  5
20
330
1F
100
AcDbEntity
  8
0
100
AcDbBlockBegin
  2
*Model_Space
 70
     0
 10
0.0
 20
0.0
 30
0.0
  3
*Model_Space
  1

  0
ENDBLK
  5
21
330
1F
100
AcDbEntity
  8
0
100
AcDbBlockEnd
  0
BLOCK
  5
1C
330
1B
100
AcDbEntity
 67
     1
  8
0
100
AcDbBlockBegin
  2
*Paper_Space
 70
     0
 10
0.0
 20
0.0
 30
0.0
  3
*Paper_Space
  1

  0
ENDBLK
  5
1D
330
1B
100
AcDbEntity
 67
     1
  8
0
100
AcDbBlockEnd
  0
BLOCK
  5
24
330
23
100
AcDbEntity
 67
     1
  8
0
100
AcDbBlockBegin
  2
*Paper_Space0
 70
     0
 10
0.0
 20
0.0
 30
0.0
  3
*Paper_Space0
  1

  0
ENDBLK
  5
25
330
23
100
AcDbEntity
 67
     1
  8
0
100
AcDbBlockEnd
  0
BLOCK
  5
4C
330
4B
100
AcDbEntity
  8
0
100
AcDbBlockBegin
  2
REVEAL- .500
 70
     0
 10
0.0
 20
0.0
 30
0.0
  3
REVEAL- .500
  1

  0
ARC
  5
4E
330
4B
100
AcDbEntity
  8
BLOCKS
100
AcDbCircle
 10
20.1601934329
 20
28.8878838846
 30
0.0
 40
0.2338576391325233
100
AcDbArc
 50
0.0
 51
90.0
  0
ARC
  5
4F
330
4B
100
AcDbEntity
  8
BLOCKS
100
AcDbCircle
 10
19.8280715192
 20
29.4726468145
 30
0.0
 40
0.0659795528056719
100
AcDbArc
 50
0.0
 51
90.0
  0
ARC
  5
50
330
4B
100
AcDbEntity
  8
BLOCKS
100
AcDbCircle
 10
19.0470381676
 20
28.990848696
 30
0.0
 40
0.0881257319589152
100
AcDbArc
 50
200.9822712638
 51
339.0177287362
  0
ARC
  5
51
330
4B
100
AcDbEntity
  8
BLOCKS
100
AcDbCircle
 10
20.1601934329
 20
28.8878838846
 30
0.0
 40
0.1878262552218324
100
AcDbArc
 50
0.0
 51
90.0
  0
LINE
  5
52
330
4B
100
AcDbEntity
  8
BLOCKS
100
AcDbLine
 10
19.8280715192
 20
29.5386263673
 30
0.0
 11
18.2509355515
 21
29.5386263673
 31
0.0
  0
LINE
  5
53
330
4B
100
AcDbEntity
  8
BLOCKS
100
AcDbLine
 10
18.2806192052
 20
29.1434426864
 30
0.0
 11
19.894051072
 21
29.1434426864
 31
0.0
  0
LINE
  5
54
330
4B
100
AcDbEntity
  8
BLOCKS
100
AcDbLine
 10
19.3470309437
 20
29.1217415238
 30
0.0
 11
20.1601934329
 21
29.1217415238
 31
0.0
  0
LINE
  5
55
330
4B
100
AcDbEntity
  8
BLOCKS
100
AcDbLine
 10
20.394051072
 20
28.8878838846
 30
0.0
 11
20.394051072
 21
28.4971795949
 31
0.0
  0
LINE
  5
56
330
4B
100
AcDbEntity
  8
BLOCKS
100
AcDbLine
 10
20.394051072
 20
28.4971795949
 30
0.0
 11
20.3480196881
 21
28.4971795949
 31
0.0
  0
LINE
  5
57
330
4B
100
AcDbEntity
  8
BLOCKS
100
AcDbLine
 10
20.3480196881
 20
28.4971795949
 30
0.0
 11
20.3480196881
 21
28.8878838846
 31
0.0
  0
LINE
  5
58
330
4B
100
AcDbEntity
  8
BLOCKS
100
AcDbLine
 10
20.1601934329
 20
29.0757101398
 30
0.0
 11
19.3470309437
 21
29.0757101398
 31
0.0
  0
LINE
  5
59
330
4B
100
AcDbEntity
  8
BLOCKS
100
AcDbLine
 10
19.3470309437
 20
29.0757101398
 30
0.0
 11
19.3470309437
 21
29.1217415238
 31
0.0
  0
LINE
  5
5A
330
4B
100
AcDbEntity
  8
BLOCKS
100
AcDbLine
 10
19.679261078
 20
29.0223488565
 30
0.0
 11
19.7319208682
 21
29.073015856
 31
0.0
  0
LINE
  5
5B
330
4B
100
AcDbEntity
  8
BLOCKS
100
AcDbLine
 10
19.7319208682
 20
29.073015856
 30
0.0
 11
19.7745573648
 21
29.0287024176
 31
0.0
  0
LINE
  5
5C
330
4B
100
AcDbEntity
  8
BLOCKS
100
AcDbLine
 10
19.7745573648
 20
29.0287024176
 30
0.0
 11
19.705650009
 21
28.9624027047
 31
0.0
  0
LINE
  5
5D
330
4B
100
AcDbEntity
  8
BLOCKS
100
AcDbLine
 10
18.43810357549999
 20
29.0888229672
 30
0.0
 11
18.385550816
 21
29.1434426864
 31
0.0
  0
LINE
  5
5E
330
4B
100
AcDbEntity
  8
BLOCKS
100
AcDbLine
 10
18.385550816
 20
29.1434426864
 30
0.0
 11
18.3431444562
 21
29.1026410993
 31
0.0
  0
LINE
  5
5F
330
4B
100
AcDbEntity
  8
BLOCKS
100
AcDbLine
 10
18.3431444562
 20
29.1026410993
 30
0.0
 11
18.4052557657
 21
29.0380868815
 31
0.0
  0
LINE
  5
60
330
4B
100
AcDbEntity
  8
BLOCKS
100
AcDbLine
 10
18.43810357549999
 20
29.0888229672
 30
0.0
 11
19.679261078
 21
29.0223488565
 31
0.0
  0
LINE
  5
61
330
4B
100
AcDbEntity
  8
BLOCKS
100
AcDbLine
 10
19.705650009
 20
28.9624027047
 30
0.0
 11
18.4052557657
 21
29.0380868815
 31
0.0
  0
LINE
  5
62
330
4B
100
AcDbEntity
  8
BLOCKS
100
AcDbLine
 10
19.1283677378
 20
29.0518536895
 30
0.0
 11
19.1283677378
 21
28.9960010797
 31
0.0
  0
LINE
  5
63
330
4B
100
AcDbEntity
  8
BLOCKS
100
AcDbLine
 10
18.9737480593
 20
29.0601348348
 30
0.0
 11
18.9737480593
 21
29.0050000915
 31
0.0
  0
LINE
  5
64
330
4B
100
AcDbEntity
  8
BLOCKS
100
AcDbLine
 10
18.964755941
 20
28.9592927168
 30
0.0
 11
19.1293203942
 21
28.9592927168
 31
0.0
  0
LINE
  5
65
330
4B
100
AcDbEntity
  8
BLOCKS
100
AcDbLine
 10
19.0095275609
 20
29.3495924534
 30
0.0
 11
19.0095275609
 21
28.9592927168
 31
0.0
  0
LINE
  5
66
330
4B
100
AcDbEntity
  8
BLOCKS
100
AcDbLine
 10
19.0864194327
 20
29.3495924534
 30
0.0
 11
19.0864194327
 21
28.9592927168
 31
0.0
  0
LINE
  5
67
330
4B
100
AcDbEntity
  8
BLOCKS
100
AcDbLine
 10
18.9467524826
 20
29.0033177842
 30
0.0
 11
19.1591684741
 21
28.9909549723
 31
0.0
  0
LINE
  5
68
330
4B
100
AcDbEntity
  8
BLOCKS
100
AcDbLine
 10
19.0095275609
 20
29.3495924534
 30
0.0
 11
19.0474925407
 21
29.4047818344
 31
0.0
  0
LINE
  5
69
330
4B
100
AcDbEntity
  8
BLOCKS
100
AcDbLine
 10
19.0474925407
 20
29.4047818344
 30
0.0
 11
19.0864194327
 21
29.3495924534
 31
0.0
  0
LINE
  5
6A
330
4B
100
AcDbEntity
  8
BLOCKS
100
AcDbLine
 10
19.1572986604
 20
28.9588281114
 30
0.0
 11
18.9448826689
 21
28.9711909233
 31
0.0
  0
LINE
  5
6B
330
4B
100
AcDbEntity
  8
BLOCKS
100
AcDbLine
 10
19.1591684741
 20
28.9909549723
 30
0.0
 11
19.1572986604
 21
28.9588281114
 31
0.0
  0
LINE
  5
6C
330
4B
100
AcDbEntity
  8
BLOCKS
100
AcDbLine
 10
18.9467524826
 20
29.0033177842
 30
0.0
 11
18.9448826689
 21
28.9711909233
 31
0.0
  0
LINE
  5
6D
330
4B
100
AcDbEntity
  8
BLOCKS
100
AcDbLine
 10
19.1142839592
 20
29.1434426864
 30
0.0
 11
19.1142839592
 21
29.4238049236
 31
0.0
  0
LINE
  5
6E
330
4B
100
AcDbEntity
  8
BLOCKS
100
AcDbLine
 10
19.1142839592
 20
29.4238049236
 30
0.0
 11
18.9877469673
 21
29.4238049236
 31
0.0
  0
LINE
  5
6F
330
4B
100
AcDbEntity
  8
BLOCKS
100
AcDbLine
 10
18.9877469673
 20
29.4238049236
 30
0.0
 11
18.9877469673
 21
29.1434426864
 31
0.0
  0
LINE
  5
70
330
4B
100
AcDbEntity
  8
BLOCKS
  6
Continuous
100
AcDbLine
 10
19.894051072
 20
29.1434426864
 30
0.0
 11
19.894051072
 21
29.4726468145
 31
0.0
  0
LINE
  5
71
330
4B
100
AcDbEntity
  8
BLOCKS
100
AcDbLine
 10
19.3020232313
 20
29.1434426864
 30
0.0
 11
19.3470309437
 21
29.0987258318
 31
0.0
  0
LINE
  5
72
330
4B
100
AcDbEntity
  8
BLOCKS
100
AcDbLine
 10
19.894051072
 20
29.1434426864
 30
0.0
 11
19.9068063572
 21
29.1217415238
 31
0.0
  0
SPLINE
  5
73
330
4B
100
AcDbEntity
  8
BLOCKS
100
AcDbSpline
210
0.0
220
0.0
230
1.0
 70
     8
 71
     3
 72
     9
 73
     5
 74
     0
 42
0.00000001
 43
0.0000000001
 40
0.0
 40
0.0
 40
0.0
 40
0.0
 40
0.5928291688347104
 40
1.0
 40
1.0
 40
1.0
 40
1.0
 10
18.28061920517429
 20
29.14344268635682
 30
0.0
 10
18.23604355296101
 20
29.22927712752978
 30
0.0
 10
18.31552651528452
 20
29.34850064146644
 30
0.0
 10
18.29741369383499
 20
29.50274888669875
 30
0.0
 10
18.25093555152442
 20
29.53862636728042
 30
0.0
  0
HATCH
  5
74
330
4B
100
AcDbEntity
  8
BLOCKS
 62
    16
100
AcDbHatch
 10
0.0
 20
0.0
 30
0.0
210
0.0
220
0.0
230
1.0
  2
ANSI36
 70
     0
 71
     0
 91
        1
 92
        0
 93
       10
 72
     4
 94
        3
 73
     1
 74
     0
 95
        9
 96
        5
 40
0.0
 40
0.0
 40
0.0
 40
0.0
 40
0.4071708311652897
 40
1.0
 40
1.0
 40
1.0
 40
1.0
 10
18.25093555152442
 20
29.53862636728042
 42
1.0
 10
18.29741369383499
 20
29.50274888669875
 42
1.0
 10
18.31552651528452
 20
29.34850064146644
 42
1.0
 10
18.23604355296101
 20
29.22927712752978
 42
1.0
 10
18.28061920517429
 20
29.14344268635682
 42
1.0
 97
        0
 72
     1
 10
18.28061920517429
 20
29.14344268635682
 11
18.98774696730679
 21
29.14344268635682
 72
     1
 10
18.98774696730679
 20
29.14344268635682
 11
18.98774696730679
 21
29.42380492355081
 72
     1
 10
18.98774696730679
 20
29.42380492355081
 11
19.11428395924128
 21
29.42380492355081
 72
     1
 10
19.11428395924128
 20
29.42380492355081
 11
19.11428395924128
 21
29.14344268635682
 72
     1
 10
19.11428395924128
 20
29.14344268635682
 11
19.30202323130653
 21
29.14344268635682
 72
     1
 10
19.30202323130653
 20
29.14344268635682
 11
19.89405107202551
 21
29.14344268635682
 72
     1
 10
19.89405107202551
 20
29.14344268635682
 11
19.89405107202551
 21
29.47264681447475
 72
     2
 10
19.82807151921984
 20
29.47264681447475
 40
0.0659795528056717
 50
0.0
 51
90.0
 73
     1
 72
     1
 10
19.82807151921984
 20
29.53862636728042
 11
18.25093555152442
 21
29.53862636728042
 97
        0
 75
     0
 76
     1
 52
0.0
 41
0.5
 77
     0
 78
     1
 53
45.0
 43
0.0
 44
0.0
 45
0.0331456303681194
 46
0.1215339780164378
 79
     4
 49
0.15625
 49
-0.03125
 49
0.0
 49
-0.03125
 98
        1
 10
0.0
 20
0.0
  0
HATCH
  5
75
330
4B
100
AcDbEntity
  8
BLOCKS
 62
    16
100
AcDbHatch
 10
0.0
 20
0.0
 30
0.0
210
0.0
220
0.0
230
1.0
  2
ANSI32
 70
     0
 71
     0
 91
        1
 92
        0
 93
        5
 72
     1
 10
19.08641943273533
 20
29.34959245337754
 11
19.04749254074577
 21
29.40478183438993
 72
     1
 10
19.04749254074577
 20
29.40478183438993
 11
19.00952756093279
 21
29.34959245337754
 72
     1
 10
19.00952756093279
 20
29.34959245337754
 11
19.00952756093279
 21
29.14344268635682
 72
     1
 10
19.00952756093279
 20
29.14344268635682
 11
19.08641943273533
 21
29.14344268635682
 72
     1
 10
19.08641943273533
 20
29.14344268635682
 11
19.08641943273533
 21
29.34959245337754
 97
        0
 75
     0
 76
     1
 52
0.0
 41
0.1666666667
 77
     0
 78
     2
 53
45.0
 43
0.0
 44
0.0
 45
-0.0441941738241592
 46
0.0441941738241592
 79
     0
 53
45.0
 43
0.0294627825
 44
0.0
 45
-0.0441941738241592
 46
0.0441941738241592
 79
     0
 98
        1
 10
0.0
 20
0.0
  0
HATCH
  5
76
330
4B
100
AcDbEntity
  8
BLOCKS
 62
    16
100
AcDbHatch
 10
0.0
 20
0.0
 30
0.0
210
0.0
220
0.0
230
1.0
  2
ANSI32
 70
     0
 71
     0
 91
        1
 92
        0
 93
        4
 72
     1
 10
19.08641943273533
 20
29.05410036351303
 11
19.08641943273533
 21
29.14344268635682
 72
     1
 10
19.08641943273533
 20
29.14344268635682
 11
19.00952756093279
 21
29.14344268635682
 72
     1
 10
19.00952756093279
 20
29.14344268635682
 11
19.00952756093279
 21
29.05821855059727
 72
     1
 10
19.00952756093279
 20
29.05821855059727
 11
19.08641943273533
 21
29.05410036351303
 97
        0
 75
     0
 76
     1
 52
0.0
 41
0.1666666667
 77
     0
 78
     2
 53
45.0
 43
0.0
 44
0.0
 45
-0.0441941738241592
 46
0.0441941738241592
 79
     0
 53
45.0
 43
0.0294627825
 44
0.0
 45
-0.0441941738241592
 46
0.0441941738241592
 79
     0
 98
        1
 10
0.0
 20
0.0
  0
HATCH
  5
77
330
4B
100
AcDbEntity
  8
BLOCKS
 62
    16
100
AcDbHatch
 10
0.0
 20
0.0
 30
0.0
210
0.0
220
0.0
230
1.0
  2
ANSI32
 70
     0
 71
     0
 91
        1
 92
        0
 93
        4
 72
     1
 10
19.08641943273533
 20
28.99844251081363
 11
19.08641943273533
 21
29.05410036351303
 72
     1
 10
19.08641943273533
 20
29.05410036351303
 11
19.00952756093279
 21
29.05821855059727
 72
     1
 10
19.00952756093279
 20
29.05821855059727
 11
19.00952756093279
 21
29.00291769059305
 72
     1
 10
19.00952756093279
 20
29.00291769059305
 11
19.08641943273533
 21
28.99844251081363
 97
        0
 75
     0
 76
     1
 52
0.0
 41
0.1666666667
 77
     0
 78
     2
 53
45.0
 43
0.0
 44
0.0
 45
-0.0441941738241592
 46
0.0441941738241592
 79
     0
 53
45.0
 43
0.0294627825
 44
0.0
 45
-0.0441941738241592
 46
0.0441941738241592
 79
     0
 98
        1
 10
0.0
 20
0.0
  0
HATCH
  5
78
330
4B
100
AcDbEntity
  8
BLOCKS
 62
    16
100
AcDbHatch
 10
0.0
 20
0.0
 30
0.0
210
0.0
220
0.0
230
1.0
  2
ANSI32
 70
     0
 71
     0
 91
        1
 92
        0
 93
        4
 72
     1
 10
19.00952756093279
 20
28.96742852935006
 11
19.08641943273534
 21
28.96295334957065
 72
     1
 10
19.08641943273534
 20
28.96295334957065
 11
19.08641943273534
 21
28.99518903540131
 72
     1
 10
19.08641943273534
 20
28.99518903540131
 11
19.0095275609328
 21
28.99966421518074
 72
     1
 10
19.0095275609328
 20
28.99966421518074
 11
19.00952756093279
 21
28.96742852935006
 97
        0
 75
     0
 76
     1
 52
0.0
 41
0.1666666667
 77
     0
 78
     2
 53
45.0
 43
0.0
 44
0.0
 45
-0.0441941738241592
 46
0.0441941738241592
 79
     0
 53
45.0
 43
0.0294627825
 44
0.0
 45
-0.0441941738241592
 46
0.0441941738241592
 79
     0
 98
        1
 10
0.0
 20
0.0
  0
HATCH
  5
79
330
4B
100
AcDbEntity
  8
BLOCKS
 62
    16
100
AcDbHatch
 10
0.0
 20
0.0
 30
0.0
210
0.0
220
0.0
230
1.0
  2
ANSI32
 70
     0
 71
     0
 91
        1
 92
        0
 93
        4
 72
     1
 10
19.0095275609328
 20
28.99966421518074
 11
18.94675248259694
 21
29.00331778420741
 72
     1
 10
18.94675248259694
 20
29.00331778420741
 11
18.94488266885844
 21
28.97119092330762
 72
     1
 10
18.94488266885844
 20
28.97119092330762
 11
19.00952756093279
 21
28.96742852935006
 72
     1
 10
19.00952756093279
 20
28.96742852935006
 11
19.0095275609328
 21
28.99966421518074
 97
        0
 75
     0
 76
     1
 52
0.0
 41
0.1666666667
 77
     0
 78
     2
 53
45.0
 43
0.0
 44
0.0
 45
-0.0441941738241592
 46
0.0441941738241592
 79
     0
 53
45.0
 43
0.0294627825
 44
0.0
 45
-0.0441941738241592
 46
0.0441941738241592
 79
     0
 98
        1
 10
0.0
 20
0.0
  0
HATCH
  5
7A
330
4B
100
AcDbEntity
  8
BLOCKS
 62
    16
100
AcDbHatch
 10
0.0
 20
0.0
 30
0.0
210
0.0
220
0.0
230
1.0
  2
ANSI32
 70
     0
 71
     0
 91
        1
 92
        0
 93
        4
 72
     1
 10
19.15729866039344
 20
28.95882811137627
 11
19.15916847413194
 21
28.99095497227606
 72
     1
 10
19.15916847413194
 20
28.99095497227606
 11
19.08641943273534
 21
28.99518903540131
 72
     1
 10
19.08641943273534
 20
28.99518903540131
 11
19.08641943273534
 21
28.96295334957065
 72
     1
 10
19.08641943273534
 20
28.96295334957065
 11
19.15729866039344
 21
28.95882811137627
 97
        0
 75
     0
 76
     1
 52
0.0
 41
0.1666666667
 77
     0
 78
     2
 53
45.0
 43
0.0
 44
0.0
 45
-0.0441941738241592
 46
0.0441941738241592
 79
     0
 53
45.0
 43
0.0294627825
 44
0.0
 45
-0.0441941738241592
 46
0.0441941738241592
 79
     0
 98
        1
 10
0.0
 20
0.0
  0
HATCH
  5
7B
330
4B
100
AcDbEntity
  8
BLOCKS
 62
    16
100
AcDbHatch
 10
0.0
 20
0.0
 30
0.0
210
0.0
220
0.0
230
1.0
  2
ANSI32
 70
     0
 71
     0
 91
        1
 92
        0
 93
        4
 72
     1
 10
19.00952756093279
 20
28.95929271682988
 11
18.96475594104669
 21
28.95929271682988
 72
     2
 10
19.04703816761626
 20
28.99084869604216
 40
0.0881257319589163
 50
200.9822712637957
 51
339.0177287362059
 73
     1
 72
     1
 10
19.12932039418586
 20
28.95929271682988
 11
19.08641943273533
 21
28.95929271682988
 72
     1
 10
19.08641943273533
 20
28.95929271682988
 11
19.00952756093279
 21
28.95929271682988
 97
        0
 75
     0
 76
     1
 52
0.0
 41
0.1666666667
 77
     0
 78
     2
 53
45.0
 43
0.0
 44
0.0
 45
-0.0441941738241592
 46
0.0441941738241592
 79
     0
 53
45.0
 43
0.0294627825
 44
0.0
 45
-0.0441941738241592
 46
0.0441941738241592
 79
     0
 98
        1
 10
0.0
 20
0.0
  0
HATCH
  5
7C
330
4B
100
AcDbEntity
  8
BLOCKS
 62
    16
100
AcDbHatch
 10
0.0
 20
0.0
 30
0.0
210
0.0
220
0.0
230
1.0
  2
SOLID
 70
     1
 71
     0
 91
        1
 92
        0
 93
        5
 72
     1
 10
19.90680635715495
 20
29.12174152375217
 11
19.89405107202551
 21
29.14344268635682
 72
     1
 10
19.89405107202551
 20
29.14344268635682
 11
19.30202323130653
 21
29.14344268635682
 72
     1
 10
19.30202323130653
 20
29.14344268635682
 11
19.34703094371573
 21
29.09872583179682
 72
     1
 10
19.34703094371573
 20
29.09872583179682
 11
19.34703094371572
 21
29.12174152375217
 72
     1
 10
19.34703094371572
 20
29.12174152375217
 11
19.90680635715495
 21
29.12174152375217
 97
        0
 75
     0
 76
     1
 98
        1
 10
0.0
 20
0.0
450
        0
451
        0
460
0.0
461
0.0
452
        0
462
0.0
453
        0
470

  0
INSERT
  5
94
330
4B
100
AcDbEntity
  8
BLOCKS
100
AcDbBlockReference
  2
SW_BLOCK_DIMENSION_0
 10
19.9473259871
 20
29.6493704876
 30
0.0
  0
ENDBLK
  5
4D
330
4B
100
AcDbEntity
  8
0
100
AcDbBlockEnd
  0
BLOCK
  5
7E
330
7D
100
AcDbEntity
  8
0
100
AcDbBlockBegin
  2
SW_BLOCK_DIMENSION_0
 70
     0
 10
0.0
 20
0.0
 30
0.0
  3
SW_BLOCK_DIMENSION_0
  1

  0
SOLID
  5
80
330
7D
100
AcDbEntity
  8
BLOCKS
 62
     0
100
AcDbTrace
 10
0.4467250849
 20
-0.0313006311
 30
0.0
 11
0.5478399938000001
 21
-0.0468567709
 31
0.0
 12
0.5478399938000001
 22
-0.0157444913
 32
0.0
 13
0.5478399938000001
 23
-0.0157444913
 33
0.0
  0
SOLID
  5
81
330
7D
100
AcDbEntity
  8
BLOCKS
 62
     0
100
AcDbTrace
 10
-0.0532749151
 20
-0.0313006311
 30
0.0
 11
-0.1543898239
 21
-0.0157444913
 31
0.0
 12
-0.1543898239
 22
-0.0468567709
 32
0.0
 13
-0.1543898239
 23
-0.0468567709
 33
0.0
  0
LINE
  5
82
330
7D
100
AcDbEntity
  8
BLOCKS
 62
     0
100
AcDbLine
 10
0.0608603444
 20
0.0798201425
 30
0.0
 11
0.1675347288
 21
0.0798201425
 31
0.0
  0
LINE
  5
83
330
7D
100
AcDbEntity
  8
BLOCKS
 62
     0
100
AcDbLine
 10
0.079089508
 20
-0.0940224566
 30
0.0
 11
0.0559413594
 21
-0.0940224566
 31
0.0
  0
LINE
  5
84
330
7D
100
AcDbEntity
  8
BLOCKS
 62
     0
100
AcDbLine
 10
0.0559413594
 20
-0.0940224566
 30
0.0
 11
0.0559413594
 21
-0.249307956
 31
0.0
  0
LINE
  5
85
330
7D
100
AcDbEntity
  8
BLOCKS
 62
     0
100
AcDbLine
 10
0.0559413594
 20
-0.249307956
 30
0.0
 11
0.079089508
 21
-0.249307956
 31
0.0
  0
LINE
  5
86
330
7D
100
AcDbEntity
  8
BLOCKS
 62
     0
100
AcDbLine
 10
0.2912808701
 20
-0.0940224566
 30
0.0
 11
0.3144290187
 21
-0.0940224566
 31
0.0
  0
LINE
  5
87
330
7D
100
AcDbEntity
  8
BLOCKS
 62
     0
100
AcDbLine
 10
0.3144290187
 20
-0.0940224566
 30
0.0
 11
0.3144290187
 21
-0.249307956
 31
0.0
  0
LINE
  5
88
330
7D
100
AcDbEntity
  8
BLOCKS
 62
     0
100
AcDbLine
 10
0.3144290187
 20
-0.249307956
 30
0.0
 11
0.2912808701
 21
-0.249307956
 31
0.0
  0
LINE
  5
89
330
7D
100
AcDbEntity
  8
BLOCKS
 62
     0
100
AcDbLine
 10
0.4467250849
 20
-0.711486603
 30
0.0
 11
0.4467250849
 21
0.0936993689
 31
0.0
  0
LINE
  5
8A
330
7D
100
AcDbEntity
  8
BLOCKS
 62
     0
100
AcDbLine
 10
-0.0532749151
 20
-0.1267236731
 30
0.0
 11
-0.0532749151
 21
0.0936993689
 31
0.0
  0
LINE
  5
8B
330
7D
100
AcDbEntity
  8
BLOCKS
 62
     0
100
AcDbLine
 10
0.4467250849
 20
-0.0313006311
 30
0.0
 11
0.6411768327000001
 21
-0.0313006311
 31
0.0
  0
LINE
  5
8C
330
7D
100
AcDbEntity
  8
BLOCKS
 62
     0
100
AcDbLine
 10
-0.0532749151
 20
-0.0313006311
 30
0.0
 11
-0.2477266629
 21
-0.0313006311
 31
0.0
  0
MTEXT
  5
8E
330
7D
100
AcDbEntity
  8
BLOCKS
 62
     0
100
AcDbMText
 10
0.0390625
 20
0.1342778896
 30
0.0039370079
 40
0.1041666667
 41
0.0
 46
0.0
 71
     1
 72
     1
  1

  7
SLDTEXTSTYLE0
 73
     1
 44
1.0
  0
MTEXT
  5
8F
330
7D
100
AcDbEntity
  8
BLOCKS
 62
     0
100
AcDbMText
 10
0.0756172881
 20
0.2052438631
 30
0.0039370079
 40
0.1041666667
 41
0.0
 46
0.0
 71
     1
 72
     1
  1
1
  7
SLDTEXTSTYLE0
 73
     1
 44
1.0
  0
MTEXT
  5
90
330
7D
100
AcDbEntity
  8
BLOCKS
 62
     0
100
AcDbMText
 10
0.0756172881
 20
0.0634035871
 30
0.0039370079
 40
0.1041666667
 41
0.0
 46
0.0
 71
     1
 72
     1
  1
2
  7
SLDTEXTSTYLE0
 73
     1
 44
1.0
  0
MTEXT
  5
91
330
7D
100
AcDbEntity
  8
BLOCKS
 62
     0
100
AcDbMText
 10
0.1822916725
 20
0.1342778896
 30
0.0039370079
 40
0.1041666667
 41
0.0
 46
0.0
 71
     1
 72
     1
  1
"
  7
SLDTEXTSTYLE0
 73
     1
 44
1.0
  0
MTEXT
  5
92
330
7D
100
AcDbEntity
  8
BLOCKS
 62
     0
100
AcDbMText
 10
0.1080246921
 20
-0.1150300596
 30
0.0039370079
 40
0.1041666667
 41
0.0
 46
0.0
 71
     1
 72
     1
  1
13
  7
SLDTEXTSTYLE0
 73
     1
 44
1.0
  0
MTEXT
  5
93
330
7D
100
AcDbEntity
  8
BLOCKS
 62
     0
100
AcDbMText
 10
0.3708526205
 20
0.1342778896
 30
0.0039370079
 40
0.1041666667
 41
0.0
 46
0.0
 71
     1
 72
     1
  1

  7
SLDTEXTSTYLE0
 73
     1
 44
1.0
  0
ENDBLK
  5
7F
330
7D
100
AcDbEntity
  8
0
100
AcDbBlockEnd
  0
BLOCK
  5
96
330
95
100
AcDbEntity
  8
0
100
AcDbBlockBegin
  2
OVERHANG - .125
 70
     0
 10
0.0
 20
0.0
 30
0.0
  3
OVERHANG - .125
  1

  0
ARC
  5
98
330
95
100
AcDbEntity
  8
0
  6
Continuous
 62
    16
370
     0
100
AcDbCircle
 10
21.0247390722
 20
26.9140495115
 30
0.0
 40
0.0659795528056719
100
AcDbArc
 50
0.0
 51
90.0
  0
ARC
  5
99
330
95
100
AcDbEntity
  8
0
  6
Continuous
 62
    16
370
     0
100
AcDbCircle
 10
20.0403577083
 20
26.4212514943
 30
0.0
 40
0.0881257319589152
100
AcDbArc
 50
200.9822712638
 51
339.0177287362
  0
ARC
  5
9A
330
95
100
AcDbEntity
  8
0
  6
Continuous
 62
    16
370
     0
100
AcDbCircle
 10
20.731618625
 20
26.3139893982
 30
0.0
 40
0.1880000000000024
100
AcDbArc
 50
0.0
 51
90.0
  0
ARC
  5
9B
330
95
100
AcDbEntity
  8
0
  6
Continuous
 62
    16
370
     0
100
AcDbCircle
 10
20.731618625
 20
26.3139893982
 30
0.0
 40
0.2341000000000015
100
AcDbArc
 50
0.0
 51
90.0
  0
ARC
  5
9C
330
95
100
AcDbEntity
  8
BLOCKS
100
AcDbCircle
 10
21.3249668066
 20
26.3001927866
 30
0.0
 40
0.3686452378780193
100
AcDbArc
 50
129.4518716023
 51
170.6861521435
  0
LINE
  5
9D
330
95
100
AcDbEntity
  8
0
  6
Continuous
 62
    16
370
     0
100
AcDbLine
 10
19.4314231162
 20
26.5192257655
 30
0.0
 11
19.3788703567
 21
26.5738454846
 31
0.0
  0
LINE
  5
9E
330
95
100
AcDbEntity
  8
0
  6
Continuous
 62
    16
370
     0
100
AcDbLine
 10
20.0408120814
 20
26.8351846327
 30
0.0
 11
20.0797389734
 21
26.7799952517
 31
0.0
  0
LINE
  5
9F
330
95
100
AcDbEntity
  8
0
  6
Continuous
 62
    16
370
     0
100
AcDbLine
 10
19.3788703567
 20
26.5738454846
 30
0.0
 11
19.3364639969
 21
26.53304389760001
 31
0.0
  0
LINE
  5
A0
330
95
100
AcDbEntity
  8
0
  6
Continuous
 62
    16
370
     0
100
AcDbLine
 10
20.6725806187
 20
26.4527516548
 30
0.0
 11
20.7252404088
 21
26.5034186543
 31
0.0
  0
LINE
  5
A1
330
95
100
AcDbEntity
  8
0
  6
Continuous
 62
    16
370
     0
100
AcDbLine
 10
20.0797389734
 20
26.7799952517
 30
0.0
 11
20.0797389734
 21
26.3896955151
 31
0.0
  0
LINE
  5
A2
330
95
100
AcDbEntity
  8
0
  6
Continuous
 62
    16
370
     0
100
AcDbLine
 10
19.9814774532
 20
26.8652076206
 30
0.0
 11
19.9814774532
 21
26.5848453834
 31
0.0
  0
LINE
  5
A3
330
95
100
AcDbEntity
  8
0
  6
Continuous
 62
    16
370
     0
100
AcDbLine
 10
20.7678769055
 20
26.4591052159
 30
0.0
 11
20.6989695496
 21
26.392805503
 31
0.0
  0
LINE
  5
A4
330
95
100
AcDbEntity
  8
0
  6
Continuous
 62
    16
370
     0
100
AcDbLine
 10
21.0247390722
 20
26.9800290643
 30
0.0
 11
19.2446660374
 21
26.9800290643
 31
0.0
  0
LINE
  5
A5
330
95
100
AcDbEntity
  8
0
  6
Continuous
 62
    16
370
     0
100
AcDbLine
 10
19.9670675999
 20
26.4905376331
 30
0.0
 11
19.9670675999
 21
26.4354028898
 31
0.0
  0
LINE
  5
A6
330
95
100
AcDbEntity
  8
0
  6
Continuous
 62
    16
370
     0
100
AcDbLine
 10
20.1524880148
 20
26.4213577706
 30
0.0
 11
20.1506182011
 21
26.3892309097
 31
0.0
  0
LINE
  5
A7
330
95
100
AcDbEntity
  8
0
  6
Continuous
 62
    16
370
     0
100
AcDbLine
 10
19.3364639969
 20
26.53304389760001
 30
0.0
 11
19.3985753063
 21
26.4684896798
 31
0.0
  0
LINE
  5
A8
330
95
100
AcDbEntity
  8
0
  6
Continuous
 62
    16
370
     0
100
AcDbLine
 10
20.2906117643
 20
26.5019893982
 30
0.0
 11
20.2906117643
 21
26.5480893982
 31
0.0
  0
LINE
  5
A9
330
95
100
AcDbEntity
  8
0
  6
Continuous
 62
    16
370
     0
100
AcDbLine
 10
19.4314231162
 20
26.5192257655
 30
0.0
 11
20.6725806187
 21
26.4527516548
 31
0.0
  0
LINE
  5
AA
330
95
100
AcDbEntity
  8
0
  6
Continuous
 62
    16
370
     0
100
AcDbLine
 10
19.9400720233
 20
26.4337205825
 30
0.0
 11
20.1524880148
 21
26.4213577706
 31
0.0
  0
LINE
  5
AB
330
95
100
AcDbEntity
  8
0
  6
Continuous
 62
    16
370
     0
100
AcDbLine
 10
21.090718625
 20
26.5848453834
 30
0.0
 11
21.090718625
 21
26.9140495115
 31
0.0
  0
LINE
  5
AC
330
95
100
AcDbEntity
  8
0
  6
Continuous
 62
    16
370
     0
100
AcDbLine
 10
20.731618625
 20
26.5019893982
 30
0.0
 11
20.2906117643
 21
26.5019893982
 31
0.0
  0
LINE
  5
AD
330
95
100
AcDbEntity
  8
0
  6
Continuous
 62
    16
370
     0
100
AcDbLine
 10
20.919618625
 20
25.9230893982
 30
0.0
 11
20.919618625
 21
26.3139893982
 31
0.0
  0
LINE
  5
AE
330
95
100
AcDbEntity
  8
0
  6
Continuous
 62
    16
370
     0
100
AcDbLine
 10
19.9580754817
 20
26.3896955151
 30
0.0
 11
20.1226399348
 21
26.3896955151
 31
0.0
  0
LINE
  5
AF
330
95
100
AcDbEntity
  8
0
  6
Continuous
 62
    16
370
     0
100
AcDbLine
 10
20.1506182011
 20
26.3892309097
 30
0.0
 11
19.9382022095
 21
26.4015937216
 31
0.0
  0
LINE
  5
B0
330
95
100
AcDbEntity
  8
0
  6
Continuous
 62
    16
370
     0
100
AcDbLine
 10
20.965718625
 20
25.9230893982
 30
0.0
 11
20.919618625
 21
25.9230893982
 31
0.0
  0
LINE
  5
B1
330
95
100
AcDbEntity
  8
0
  6
Continuous
 62
    16
370
     0
100
AcDbLine
 10
20.965718625
 20
26.3139893982
 30
0.0
 11
20.965718625
 21
25.9230893982
 31
0.0
  0
LINE
  5
B2
330
95
100
AcDbEntity
  8
0
  6
Continuous
 62
    16
370
     0
100
AcDbLine
 10
20.6989695496
 20
26.392805503
 30
0.0
 11
19.3985753063
 21
26.4684896798
 31
0.0
  0
LINE
  5
B3
330
95
100
AcDbEntity
  8
0
  6
Continuous
 62
    16
370
     0
100
AcDbLine
 10
19.2743496911
 20
26.5848453834
 30
0.0
 11
21.090718625
 21
26.5848453834
 31
0.0
  0
LINE
  5
B4
330
95
100
AcDbEntity
  8
0
  6
Continuous
 62
    16
370
     0
100
AcDbLine
 10
20.0028471016
 20
26.7799952517
 30
0.0
 11
20.0408120814
 21
26.8351846327
 31
0.0
  0
LINE
  5
B5
330
95
100
AcDbEntity
  8
0
  6
Continuous
 62
    16
370
     0
100
AcDbLine
 10
20.2906117643
 20
26.5480893982
 30
0.0
 11
20.731618625
 21
26.5480893982
 31
0.0
  0
LINE
  5
B6
330
95
100
AcDbEntity
  8
0
  6
Continuous
 62
    16
370
     0
100
AcDbLine
 10
20.0028471016
 20
26.7799952517
 30
0.0
 11
20.0028471016
 21
26.3896955151
 31
0.0
  0
LINE
  5
B7
330
95
100
AcDbEntity
  8
0
  6
Continuous
 62
    16
370
     0
100
AcDbLine
 10
20.1080144451
 20
26.8652076206
 30
0.0
 11
19.9814774532
 21
26.8652076206
 31
0.0
  0
LINE
  5
B8
330
95
100
AcDbEntity
  8
0
  6
Continuous
 62
    16
370
     0
100
AcDbLine
 10
20.7252404088
 20
26.5034186543
 30
0.0
 11
20.7678769055
 21
26.4591052159
 31
0.0
  0
LINE
  5
B9
330
95
100
AcDbEntity
  8
0
  6
Continuous
 62
    16
370
     0
100
AcDbLine
 10
19.9400720233
 20
26.4337205825
 30
0.0
 11
19.9382022095
 21
26.4015937216
 31
0.0
  0
LINE
  5
BA
330
95
100
AcDbEntity
  8
0
  6
Continuous
 62
    16
370
     0
100
AcDbLine
 10
20.1080144451
 20
26.5848453834
 30
0.0
 11
20.1080144451
 21
26.8652076206
 31
0.0
  0
LINE
  5
BB
330
95
100
AcDbEntity
  8
0
  6
Continuous
 62
    16
370
     0
100
AcDbLine
 10
20.1216872784
 20
26.4822564878
 30
0.0
 11
20.1216872784
 21
26.426403878
 31
0.0
  0
LINE
  5
BC
330
95
100
AcDbEntity
  8
BLOCKS
100
AcDbLine
 10
20.2906117643
 20
26.5480893982
 30
0.0
 11
20.2368944426
 21
26.5848453834
 31
0.0
  0
SPLINE
  5
BD
330
95
100
AcDbEntity
  8
0
  6
Continuous
 62
    16
370
     0
100
AcDbSpline
210
0.0
220
0.0
230
1.0
 70
     8
 71
     3
 72
     9
 73
     5
 74
     0
 42
0.00000001
 43
0.0000000001
 40
0.0
 40
0.0
 40
0.0
 40
0.0
 40
0.5928291688347104
 40
1.0
 40
1.0
 40
1.0
 40
1.0
 10
19.27434969107827
 20
26.58484538338648
 30
0.0
 10
19.22977403886498
 20
26.67067982455945
 30
0.0
 10
19.3092570011885
 20
26.78990333849607
 30
0.0
 10
19.29114417973896
 20
26.9441515837284
 30
0.0
 10
19.24466603742839
 20
26.98002906431008
 30
0.0
  0
HATCH
  5
BE
330
95
100
AcDbEntity
  8
BLOCKS
 62
    16
100
AcDbHatch
 10
0.0
 20
0.0
 30
0.0
210
0.0
220
0.0
230
1.0
  2
ANSI36
 70
     0
 71
     0
 91
        1
 92
        0
 93
       10
 72
     4
 94
        3
 73
     1
 74
     0
 95
        9
 96
        5
 40
0.0
 40
0.0
 40
0.0
 40
0.0
 40
0.4071708311652897
 40
1.0
 40
1.0
 40
1.0
 40
1.0
 10
19.24466603742839
 20
26.98002906431008
 42
1.0
 10
19.29114417973896
 20
26.9441515837284
 42
1.0
 10
19.3092570011885
 20
26.78990333849607
 42
1.0
 10
19.22977403886498
 20
26.67067982455945
 42
1.0
 10
19.27434969107827
 20
26.58484538338648
 42
1.0
 97
        0
 72
     1
 10
19.27434969107827
 20
26.58484538338648
 11
19.98147745321076
 21
26.58484538338648
 72
     1
 10
19.98147745321076
 20
26.58484538338648
 11
19.98147745321076
 21
26.86520762058046
 72
     1
 10
19.98147745321076
 20
26.86520762058046
 11
20.10801444514525
 21
26.86520762058046
 72
     1
 10
20.10801444514525
 20
26.86520762058046
 11
20.10801444514525
 21
26.58484538338648
 72
     1
 10
20.10801444514525
 20
26.58484538338648
 11
20.23689444261453
 21
26.58484538338649
 72
     1
 10
20.23689444261453
 20
26.58484538338649
 11
21.0907186249667
 21
26.58484538338648
 72
     1
 10
21.0907186249667
 20
26.58484538338648
 11
21.0907186249667
 21
26.9140495115044
 72
     2
 10
21.02473907216103
 20
26.9140495115044
 40
0.0659795528056717
 50
0.0
 51
90.0
 73
     1
 72
     1
 10
21.02473907216103
 20
26.98002906431007
 11
19.24466603742839
 21
26.98002906431008
 97
        0
 75
     0
 76
     1
 52
0.0
 41
0.5
 77
     0
 78
     1
 53
45.0
 43
0.0
 44
0.0
 45
0.0331456303681194
 46
0.1215339780164378
 79
     4
 49
0.15625
 49
-0.03125
 49
0.0
 49
-0.03125
 98
        1
 10
0.0
 20
0.0
  0
HATCH
  5
BF
330
95
100
AcDbEntity
  8
BLOCKS
 62
    16
100
AcDbHatch
 10
0.0
 20
0.0
 30
0.0
210
0.0
220
0.0
230
1.0
  2
ANSI32
 70
     0
 71
     0
 91
        1
 92
        0
 93
        4
 72
     1
 10
20.07973897339712
 20
26.58484538338648
 11
20.00284710159458
 21
26.58484538338648
 72
     1
 10
20.00284710159458
 20
26.58484538338648
 11
20.00284710159458
 21
26.48862134888004
 72
     1
 10
20.00284710159458
 20
26.48862134888004
 11
20.07973897339712
 21
26.48450316179581
 72
     1
 10
20.07973897339712
 20
26.48450316179581
 11
20.07973897339712
 21
26.58484538338648
 97
        0
 75
     0
 76
     1
 52
0.0
 41
0.2
 77
     0
 78
     2
 53
45.0
 43
0.0
 44
0.0
 45
-0.0530330085889911
 46
0.0530330085889911
 79
     0
 53
45.0
 43
0.035355339
 44
0.0
 45
-0.0530330085889911
 46
0.0530330085889911
 79
     0
 98
        1
 10
0.0
 20
0.0
  0
HATCH
  5
C0
330
95
100
AcDbEntity
  8
BLOCKS
 62
    16
100
AcDbHatch
 10
0.0
 20
0.0
 30
0.0
210
0.0
220
0.0
230
1.0
  2
ANSI32
 70
     0
 71
     0
 91
        1
 92
        0
 93
        5
 72
     1
 10
20.04081208140756
 20
26.8351846326727
 11
20.00284710159458
 21
26.77999525166031
 72
     1
 10
20.00284710159458
 20
26.77999525166031
 11
20.00284710159458
 21
26.58484538338648
 72
     1
 10
20.00284710159458
 20
26.58484538338648
 11
20.07973897339712
 21
26.58484538338648
 72
     1
 10
20.07973897339712
 20
26.58484538338648
 11
20.07973897339712
 21
26.77999525166031
 72
     1
 10
20.07973897339712
 20
26.77999525166031
 11
20.04081208140756
 21
26.8351846326727
 97
        0
 75
     0
 76
     1
 52
0.0
 41
0.2
 77
     0
 78
     2
 53
45.0
 43
0.0
 44
0.0
 45
-0.0530330085889911
 46
0.0530330085889911
 79
     0
 53
45.0
 43
0.035355339
 44
0.0
 45
-0.0530330085889911
 46
0.0530330085889911
 79
     0
 98
        1
 10
0.0
 20
0.0
  0
HATCH
  5
C1
330
95
100
AcDbEntity
  8
BLOCKS
 62
    16
100
AcDbHatch
 10
0.0
 20
0.0
 30
0.0
210
0.0
220
0.0
230
1.0
  2
ANSI32
 70
     0
 71
     0
 91
        1
 92
        0
 93
        4
 72
     1
 10
20.07973897339712
 20
26.48450316179581
 11
20.00284710159458
 21
26.48862134888004
 72
     1
 10
20.00284710159458
 20
26.48862134888004
 11
20.00284710159458
 21
26.43332048887585
 72
     1
 10
20.00284710159458
 20
26.43332048887585
 11
20.07973897339712
 21
26.42884530909641
 72
     1
 10
20.07973897339712
 20
26.42884530909641
 11
20.07973897339712
 21
26.48450316179581
 97
        0
 75
     0
 76
     1
 52
0.0
 41
0.2
 77
     0
 78
     2
 53
45.0
 43
0.0
 44
0.0
 45
-0.0530330085889911
 46
0.0530330085889911
 79
     0
 53
45.0
 43
0.035355339
 44
0.0
 45
-0.0530330085889911
 46
0.0530330085889911
 79
     0
 98
        1
 10
0.0
 20
0.0
  0
HATCH
  5
C2
330
95
100
AcDbEntity
  8
BLOCKS
 62
    16
100
AcDbHatch
 10
0.0
 20
0.0
 30
0.0
210
0.0
220
0.0
230
1.0
  2
ANSI32
 70
     0
 71
     0
 91
        1
 92
        0
 93
        4
 72
     1
 10
20.00284710159458
 20
26.43006701346352
 11
19.94007202325873
 21
26.43372058249019
 72
     1
 10
19.94007202325873
 20
26.43372058249019
 11
19.93820220952023
 21
26.40159372159039
 72
     1
 10
19.93820220952023
 20
26.40159372159039
 11
20.00284710159458
 21
26.39783132763285
 72
     1
 10
20.00284710159458
 20
26.39783132763285
 11
20.00284710159458
 21
26.43006701346352
 97
        0
 75
     0
 76
     1
 52
0.0
 41
0.2
 77
     0
 78
     2
 53
45.0
 43
0.0
 44
0.0
 45
-0.0530330085889911
 46
0.0530330085889911
 79
     0
 53
45.0
 43
0.035355339
 44
0.0
 45
-0.0530330085889911
 46
0.0530330085889911
 79
     0
 98
        1
 10
0.0
 20
0.0
  0
HATCH
  5
C3
330
95
100
AcDbEntity
  8
BLOCKS
 62
    16
100
AcDbHatch
 10
0.0
 20
0.0
 30
0.0
210
0.0
220
0.0
230
1.0
  2
ANSI32
 70
     0
 71
     0
 91
        1
 92
        0
 93
        4
 72
     1
 10
20.07973897339712
 20
26.42559183368408
 11
20.00284710159458
 21
26.43006701346352
 72
     1
 10
20.00284710159458
 20
26.43006701346352
 11
20.00284710159458
 21
26.39783132763285
 72
     1
 10
20.00284710159458
 20
26.39783132763285
 11
20.07973897339712
 21
26.39335614785342
 72
     1
 10
20.07973897339712
 20
26.39335614785342
 11
20.07973897339712
 21
26.42559183368408
 97
        0
 75
     0
 76
     1
 52
0.0
 41
0.2
 77
     0
 78
     2
 53
45.0
 43
0.0
 44
0.0
 45
-0.0530330085889911
 46
0.0530330085889911
 79
     0
 53
45.0
 43
0.035355339
 44
0.0
 45
-0.0530330085889911
 46
0.0530330085889911
 79
     0
 98
        1
 10
0.0
 20
0.0
  0
HATCH
  5
C4
330
95
100
AcDbEntity
  8
BLOCKS
 62
    16
100
AcDbHatch
 10
0.0
 20
0.0
 30
0.0
210
0.0
220
0.0
230
1.0
  2
ANSI32
 70
     0
 71
     0
 91
        1
 92
        0
 93
        4
 72
     1
 10
20.07973897339712
 20
26.39335614785342
 11
20.15061820105523
 21
26.38923090965904
 72
     1
 10
20.15061820105523
 20
26.38923090965904
 11
20.15248801479373
 21
26.42135777055884
 72
     1
 10
20.15248801479373
 20
26.42135777055884
 11
20.07973897339712
 21
26.42559183368408
 72
     1
 10
20.07973897339712
 20
26.42559183368408
 11
20.07973897339712
 21
26.39335614785342
 97
        0
 75
     0
 76
     1
 52
0.0
 41
0.2
 77
     0
 78
     2
 53
45.0
 43
0.0
 44
0.0
 45
-0.0530330085889911
 46
0.0530330085889911
 79
     0
 53
45.0
 43
0.035355339
 44
0.0
 45
-0.0530330085889911
 46
0.0530330085889911
 79
     0
 98
        1
 10
0.0
 20
0.0
  0
HATCH
  5
C5
330
95
100
AcDbEntity
  8
BLOCKS
 62
    16
100
AcDbHatch
 10
0.0
 20
0.0
 30
0.0
210
0.0
220
0.0
230
1.0
  2
ANSI32
 70
     0
 71
     0
 91
        1
 92
        0
 93
        4
 72
     1
 10
20.00284710159458
 20
26.38969551511265
 11
19.95807548170848
 21
26.38969551511265
 72
     2
 10
20.04035770827806
 20
26.42125149432493
 40
0.0881257319589163
 50
200.9822712637957
 51
339.0177287362059
 73
     1
 72
     1
 10
20.12263993484765
 20
26.38969551511265
 11
20.07973897339712
 21
26.38969551511265
 72
     1
 10
20.07973897339712
 20
26.38969551511265
 11
20.00284710159458
 21
26.38969551511265
 97
        0
 75
     0
 76
     1
 52
0.0
 41
0.2
 77
     0
 78
     2
 53
45.0
 43
0.0
 44
0.0
 45
-0.0530330085889911
 46
0.0530330085889911
 79
     0
 53
45.0
 43
0.035355339
 44
0.0
 45
-0.0530330085889911
 46
0.0530330085889911
 79
     0
 98
        1
 10
0.0
 20
0.0
  0
HATCH
  5
C6
330
95
100
AcDbEntity
  8
BLOCKS
100
AcDbHatch
 10
0.0
 20
0.0
 30
0.0
210
0.0
220
0.0
230
1.0
  2
SOLID
 70
     1
 71
     0
 91
        1
 92
        0
 93
        5
 72
     2
 10
21.32496680656287
 20
26.30019278664964
 40
0.3686452378780171
 50
189.3138478564999
 51
230.5481283977413
 73
     0
 72
     1
 10
21.0907186249667
 20
26.58484538338648
 11
20.23689444261453
 21
26.58484538338649
 72
     1
 10
20.23689444261453
 20
26.58484538338649
 11
20.29061176430621
 21
26.54808939823214
 72
     1
 10
20.29061176430621
 20
26.54808939823214
 11
20.7316186249667
 21
26.54808939823214
 72
     2
 10
20.7316186249667
 20
26.31398939823214
 40
0.2341000000000018
 50
270.0000000000008
 51
348.7012977589557
 73
     0
 97
        0
 75
     0
 76
     1
 98
        1
 10
0.0
 20
0.0
450
        0
451
        0
460
0.0
461
0.0
452
        0
462
0.0
453
        0
470

  0
INSERT
  5
DC
330
95
100
AcDbEntity
  8
BLOCKS
100
AcDbBlockReference
  2
SW_BLOCK_DIMENSION_1
 10
20.1569468392
 20
26.145611376
 30
0.0
  0
ENDBLK
  5
97
330
95
100
AcDbEntity
  8
0
100
AcDbBlockEnd
  0
BLOCK
  5
C8
330
C7
100
AcDbEntity
  8
0
100
AcDbBlockBegin
  2
SW_BLOCK_DIMENSION_1
 70
     0
 10
0.0
 20
0.0
 30
0.0
  3
SW_BLOCK_DIMENSION_1
  1

  0
SOLID
  5
CA
330
C7
100
AcDbEntity
  8
BLOCKS
 62
     0
100
AcDbTrace
 10
0.8087717856999999
 20
-0.0313006311
 30
0.0
 11
0.7076568769
 21
-0.0157444913
 31
0.0
 12
0.7076568769
 22
-0.0468567709
 32
0.0
 13
0.7076568769
 23
-0.0468567709
 33
0.0
  0
SOLID
  5
CB
330
C7
100
AcDbEntity
  8
BLOCKS
 62
     0
100
AcDbTrace
 10
0.9337717856999999
 20
-0.0313006311
 30
0.0
 11
1.034886694599999
 21
-0.0468567709
 31
0.0
 12
1.034886694599999
 22
-0.0157444913
 32
0.0
 13
1.034886694599999
 23
-0.0157444913
 33
0.0
  0
LINE
  5
CC
330
C7
100
AcDbEntity
  8
BLOCKS
 62
     0
100
AcDbLine
 10
0.0533371922
 20
0.0798201425
 30
0.0
 11
0.1600115765
 21
0.0798201425
 31
0.0
  0
LINE
  5
CD
330
C7
100
AcDbEntity
  8
BLOCKS
 62
     0
100
AcDbLine
 10
0.1101466042
 20
-0.0940224566
 30
0.0
 11
0.0869984556
 21
-0.0940224566
 31
0.0
  0
LINE
  5
CE
330
C7
100
AcDbEntity
  8
BLOCKS
 62
     0
100
AcDbLine
 10
0.0869984556
 20
-0.0940224566
 30
0.0
 11
0.0869984556
 21
-0.249307956
 31
0.0
  0
LINE
  5
CF
330
C7
100
AcDbEntity
  8
BLOCKS
 62
     0
100
AcDbLine
 10
0.0869984556
 20
-0.249307956
 30
0.0
 11
0.1101466042
 21
-0.249307956
 31
0.0
  0
LINE
  5
D0
330
C7
100
AcDbEntity
  8
BLOCKS
 62
     0
100
AcDbLine
 10
0.2451774694
 20
-0.0940224566
 30
0.0
 11
0.268325618
 21
-0.0940224566
 31
0.0
  0
LINE
  5
D1
330
C7
100
AcDbEntity
  8
BLOCKS
 62
     0
100
AcDbLine
 10
0.268325618
 20
-0.0940224566
 30
0.0
 11
0.268325618
 21
-0.249307956
 31
0.0
  0
LINE
  5
D2
330
C7
100
AcDbEntity
  8
BLOCKS
 62
     0
100
AcDbLine
 10
0.268325618
 20
-0.249307956
 30
0.0
 11
0.2451774694
 21
-0.249307956
 31
0.0
  0
LINE
  5
D3
330
C7
100
AcDbEntity
  8
BLOCKS
 62
     0
100
AcDbLine
 10
0.9337717856999999
 20
0.3892340074
 30
0.0
 11
0.9337717856999999
 21
-0.1563006311
 31
0.0
  0
LINE
  5
D4
330
C7
100
AcDbEntity
  8
BLOCKS
 62
     0
100
AcDbLine
 10
0.8087717856999999
 20
-0.0313006311
 30
0.0
 11
0.3557739200999999
 21
-0.0313006311
 31
0.0
  0
LINE
  5
D5
330
C7
100
AcDbEntity
  8
BLOCKS
 62
     0
100
AcDbLine
 10
0.9337717856999999
 20
-0.0313006311
 30
0.0
 11
1.128223533499999
 21
-0.0313006311
 31
0.0
  0
MTEXT
  5
D6
330
C7
100
AcDbEntity
  8
BLOCKS
 62
     0
100
AcDbMText
 10
0.0390625
 20
0.1342778896
 30
0.0039370079
 40
0.1041666667
 41
0.0
 46
0.0
 71
     1
 72
     1
  1

  7
SLDTEXTSTYLE0
 73
     1
 44
1.0
  0
MTEXT
  5
D7
330
C7
100
AcDbEntity
  8
BLOCKS
 62
     0
100
AcDbMText
 10
0.0680941359
 20
0.2052438631
 30
0.0039370079
 40
0.1041666667
 41
0.0
 46
0.0
 71
     1
 72
     1
  1
1
  7
SLDTEXTSTYLE0
 73
     1
 44
1.0
  0
MTEXT
  5
D8
330
C7
100
AcDbEntity
  8
BLOCKS
 62
     0
100
AcDbMText
 10
0.0680941359
 20
0.0634035871
 30
0.0039370079
 40
0.1041666667
 41
0.0
 46
0.0
 71
     1
 72
     1
  1
8
  7
SLDTEXTSTYLE0
 73
     1
 44
1.0
  0
MTEXT
  5
D9
330
C7
100
AcDbEntity
  8
BLOCKS
 62
     0
100
AcDbMText
 10
0.1747685202
 20
0.1342778896
 30
0.0039370079
 40
0.1041666667
 41
0.0
 46
0.0
 71
     1
 72
     1
  1
"
  7
SLDTEXTSTYLE0
 73
     1
 44
1.0
  0
MTEXT
  5
DA
330
C7
100
AcDbEntity
  8
BLOCKS
 62
     0
100
AcDbMText
 10
0.1390817883
 20
-0.1150300596
 30
0.0039370079
 40
0.1041666667
 41
0.0
 46
0.0
 71
     1
 72
     1
  1
3
  7
SLDTEXTSTYLE0
 73
     1
 44
1.0
  0
MTEXT
  5
DB
330
C7
100
AcDbEntity
  8
BLOCKS
 62
     0
100
AcDbMText
 10
0.3558063343
 20
0.1342778896
 30
0.0039370079
 40
0.1041666667
 41
0.0
 46
0.0
 71
     1
 72
     1
  1

  7
SLDTEXTSTYLE0
 73
     1
 44
1.0
  0
ENDBLK
  5
C9
330
C7
100
AcDbEntity
  8
0
100
AcDbBlockEnd
  0
BLOCK
  5
FC
330
FB
100
AcDbEntity
  8
0
100
AcDbBlockBegin
  2
_D
 70
     0
 10
0.0
 20
0.0
 30
0.0
  3
_D
  1

  0
SOLID
  5
FE
330
FB
100
AcDbEntity
  8
DIMS
440
 16777216
100
AcDbTrace
 10
17.860292614
 20
19.6116448888
 30
0.0
 11
17.7629626001
 21
19.8591898422
 31
0.0
 12
17.6930568344
 22
19.8184874125
 32
0.0
 13
17.6930568344
 23
19.8184874125
 33
0.0
  0
LINE
  5
FF
330
FB
100
AcDbEntity
  8
DIMS
440
 16777216
100
AcDbLine
 10
16.1658348509
 20
21.1399081142
 30
0.0
 11
16.4431882319
 21
21.1399081142
 31
0.0
  0
LINE
  5
100
330
FB
100
AcDbEntity
  8
DIMS
440
 16777216
100
AcDbLine
 10
15.9825208044
 20
20.6879173865
 30
0.0
 11
15.9223356184
 21
20.6879173865
 31
0.0
  0
LINE
  5
101
330
FB
100
AcDbEntity
  8
DIMS
440
 16777216
100
AcDbLine
 10
15.9223356184
 20
20.6879173865
 30
0.0
 11
15.9223356184
 21
20.2841751172
 31
0.0
  0
LINE
  5
102
330
FB
100
AcDbEntity
  8
DIMS
440
 16777216
100
AcDbLine
 10
15.9223356184
 20
20.2841751172
 30
0.0
 11
15.9825208044
 21
20.2841751172
 31
0.0
  0
LINE
  5
103
330
FB
100
AcDbEntity
  8
DIMS
440
 16777216
100
AcDbLine
 10
16.5342183311
 20
20.6879173865
 30
0.0
 11
16.5944035171
 21
20.6879173865
 31
0.0
  0
LINE
  5
104
330
FB
100
AcDbEntity
  8
DIMS
440
 16777216
100
AcDbLine
 10
16.5944035171
 20
20.6879173865
 30
0.0
 11
16.5944035171
 21
20.2841751172
 31
0.0
  0
LINE
  5
105
330
FB
100
AcDbEntity
  8
DIMS
440
 16777216
100
AcDbLine
 10
16.5944035171
 20
20.2841751172
 30
0.0
 11
16.5342183311
 21
20.2841751172
 31
0.0
  0
LINE
  5
106
330
FB
100
AcDbEntity
  8
DIMS
440
 16777216
100
AcDbLine
 10
17.860292614
 20
19.6116448888
 30
0.0
 11
17.1006920819
 21
20.9162465338
 31
0.0
  0
LINE
  5
107
330
FB
100
AcDbEntity
  8
DIMS
440
 16777216
100
AcDbLine
 10
17.1006920819
 20
20.9162465338
 30
0.0
 11
16.8506920819
 21
20.9162465338
 31
0.0
  0
MTEXT
  5
108
330
FB
100
AcDbEntity
  8
DIMS
440
 16777216
100
AcDbMText
 10
15.6660470537
 20
21.2814982795
 30
0.0039370079
 40
0.2708333333
 41
0.0
 46
0.0
 71
     1
 72
     1
  1
R2
  7
SLDTEXTSTYLE0
 73
     1
 44
1.0
  0
MTEXT
  5
109
330
FB
100
AcDbEntity
  8
DIMS
440
 16777216
100
AcDbMText
 10
16.2042029027
 20
21.4660097997
 30
0.0039370079
 40
0.2708333333
 41
0.0
 46
0.0
 71
     1
 72
     1
  1
1
  7
SLDTEXTSTYLE0
 73
     1
 44
1.0
  0
MTEXT
  5
10A
330
FB
100
AcDbEntity
  8
DIMS
440
 16777216
100
AcDbMText
 10
16.2042029027
 20
21.0972250624
 30
0.0039370079
 40
0.2708333333
 41
0.0
 46
0.0
 71
     1
 72
     1
  1
4
  7
SLDTEXTSTYLE0
 73
     1
 44
1.0
  0
MTEXT
  5
10B
330
FB
100
AcDbEntity
  8
DIMS
440
 16777216
100
AcDbMText
 10
16.4815562928
 20
21.2814982795
 30
0.0039370079
 40
0.2708333333
 41
0.0
 46
0.0
 71
     1
 72
     1
  1
"
  7
SLDTEXTSTYLE0
 73
     1
 44
1.0
  0
MTEXT
  5
10C
330
FB
100
AcDbEntity
  8
DIMS
440
 16777216
100
AcDbMText
 10
16.05775229029999
 20
20.6332976209
 30
0.0039370079
 40
0.2708333333
 41
0.0
 46
0.0
 71
     1
 72
     1
  1
57
  7
SLDTEXTSTYLE0
 73
     1
 44
1.0
  0
ENDBLK
  5
FD
330
FB
100
AcDbEntity
  8
0
100
AcDbBlockEnd
  0
BLOCK
  5
10F
330
10E
100
AcDbEntity
  8
0
100
AcDbBlockBegin
  2
_D_1
 70
     0
 10
0.0
 20
0.0
 30
0.0
  3
_D_1
  1

  0
SOLID
  5
111
330
10E
100
AcDbEntity
  8
DIMS
440
 16777216
100
AcDbTrace
 10
16.1588932608
 20
17.4394160284
 30
0.0
 11
16.20355969
 21
17.1772013345
 31
0.0
 12
16.2803101677
 22
17.202752617
 32
0.0
 13
16.2803101677
 23
17.202752617
 33
0.0
  0
LINE
  5
112
330
10E
100
AcDbEntity
  8
DIMS
440
 16777216
100
AcDbLine
 10
17.4561314547
 20
16.0186560612
 30
0.0
 11
17.7334848357
 21
16.0186560612
 31
0.0
  0
LINE
  5
113
330
10E
100
AcDbEntity
  8
DIMS
440
 16777216
100
AcDbLine
 10
17.2728174082
 20
15.5666653335
 30
0.0
 11
17.2126322222
 21
15.5666653335
 31
0.0
  0
LINE
  5
114
330
10E
100
AcDbEntity
  8
DIMS
440
 16777216
100
AcDbLine
 10
17.2126322222
 20
15.5666653335
 30
0.0
 11
17.2126322222
 21
15.1629230642
 31
0.0
  0
LINE
  5
115
330
10E
100
AcDbEntity
  8
DIMS
440
 16777216
100
AcDbLine
 10
17.2126322222
 20
15.1629230642
 30
0.0
 11
17.2728174082
 21
15.1629230642
 31
0.0
  0
LINE
  5
116
330
10E
100
AcDbEntity
  8
DIMS
440
 16777216
100
AcDbLine
 10
17.8245149349
 20
15.5666653335
 30
0.0
 11
17.8847001209
 21
15.5666653335
 31
0.0
  0
LINE
  5
117
330
10E
100
AcDbEntity
  8
DIMS
440
 16777216
100
AcDbLine
 10
17.8847001209
 20
15.5666653335
 30
0.0
 11
17.8847001209
 21
15.1629230642
 31
0.0
  0
LINE
  5
118
330
10E
100
AcDbEntity
  8
DIMS
440
 16777216
100
AcDbLine
 10
17.8847001209
 20
15.1629230642
 30
0.0
 11
17.8245149349
 21
15.1629230642
 31
0.0
  0
LINE
  5
119
330
10E
100
AcDbEntity
  8
DIMS
440
 16777216
100
AcDbLine
 10
16.1588932608
 20
17.4394160284
 30
0.0
 11
16.7063436574
 21
15.7949944808
 31
0.0
  0
LINE
  5
11A
330
10E
100
AcDbEntity
  8
DIMS
440
 16777216
100
AcDbLine
 10
16.7063436574
 20
15.7949944808
 30
0.0
 11
16.9563436574
 21
15.7949944808
 31
0.0
  0
MTEXT
  5
11B
330
10E
100
AcDbEntity
  8
DIMS
440
 16777216
100
AcDbMText
 10
16.9563436574
 20
16.1602462265
 30
0.0039370079
 40
0.2708333333
 41
0.0
 46
0.0
 71
     1
 72
     1
  1
R2
  7
SLDTEXTSTYLE0
 73
     1
 44
1.0
  0
MTEXT
  5
11C
330
10E
100
AcDbEntity
  8
DIMS
440
 16777216
100
AcDbMText
 10
17.4944995064
 20
16.3447577467
 30
0.0039370079
 40
0.2708333333
 41
0.0
 46
0.0
 71
     1
 72
     1
  1
7
  7
SLDTEXTSTYLE0
 73
     1
 44
1.0
  0
MTEXT
  5
11D
330
10E
100
AcDbEntity
  8
DIMS
440
 16777216
100
AcDbMText
 10
17.4944995064
 20
15.9759730094
 30
0.0039370079
 40
0.2708333333
 41
0.0
 46
0.0
 71
     1
 72
     1
  1
8
  7
SLDTEXTSTYLE0
 73
     1
 44
1.0
  0
MTEXT
  5
11E
330
10E
100
AcDbEntity
  8
DIMS
440
 16777216
100
AcDbMText
 10
17.7718528966
 20
16.1602462265
 30
0.0039370079
 40
0.2708333333
 41
0.0
 46
0.0
 71
     1
 72
     1
  1
"
  7
SLDTEXTSTYLE0
 73
     1
 44
1.0
  0
MTEXT
  5
11F
330
10E
100
AcDbEntity
  8
DIMS
440
 16777216
100
AcDbMText
 10
17.3480488941
 20
15.5120455679
 30
0.0039370079
 40
0.2708333333
 41
0.0
 46
0.0
 71
     1
 72
     1
  1
73
  7
SLDTEXTSTYLE0
 73
     1
 44
1.0
  0
ENDBLK
  5
110
330
10E
100
AcDbEntity
  8
0
100
AcDbBlockEnd
  0
BLOCK
  5
123
330
122
100
AcDbEntity
  8
0
100
AcDbBlockBegin
  2
_D_2
 70
     0
 10
0.0
 20
0.0
 30
0.0
  3
_D_2
  1

  0
SOLID
  5
125
330
122
100
AcDbEntity
  8
DIMS
440
 16777216
100
AcDbTrace
 10
3.702585673
 20
17.1999328607
 30
0.0
 11
3.7517742935
 21
16.9385287383
 31
0.0
 12
3.828072012599999
 22
16.9654018091
 32
0.0
 13
3.828072012599999
 23
16.9654018091
 33
0.0
  0
LINE
  5
126
330
122
100
AcDbEntity
  8
DIMS
440
 16777216
100
AcDbLine
 10
5.0482455217
 20
15.7318012423
 30
0.0
 11
5.325598902699999
 21
15.7318012423
 31
0.0
  0
LINE
  5
127
330
122
100
AcDbEntity
  8
DIMS
440
 16777216
100
AcDbLine
 10
4.864931475199999
 20
15.2798105146
 30
0.0
 11
4.804746289299999
 21
15.2798105146
 31
0.0
  0
LINE
  5
128
330
122
100
AcDbEntity
  8
DIMS
440
 16777216
100
AcDbLine
 10
4.804746289299999
 20
15.2798105146
 30
0.0
 11
4.804746289299999
 21
14.8760682453
 31
0.0
  0
LINE
  5
129
330
122
100
AcDbEntity
  8
DIMS
440
 16777216
100
AcDbLine
 10
4.804746289299999
 20
14.8760682453
 30
0.0
 11
4.864931475199999
 21
14.8760682453
 31
0.0
  0
LINE
  5
12A
330
122
100
AcDbEntity
  8
DIMS
440
 16777216
100
AcDbLine
 10
5.416629002
 20
15.2798105146
 30
0.0
 11
5.476814187999999
 21
15.2798105146
 31
0.0
  0
LINE
  5
12B
330
122
100
AcDbEntity
  8
DIMS
440
 16777216
100
AcDbLine
 10
5.476814187999999
 20
15.2798105146
 30
0.0
 11
5.476814187999999
 21
14.8760682453
 31
0.0
  0
LINE
  5
12C
330
122
100
AcDbEntity
  8
DIMS
440
 16777216
100
AcDbLine
 10
5.476814187999999
 20
14.8760682453
 30
0.0
 11
5.416629002
 21
14.8760682453
 31
0.0
  0
LINE
  5
12D
330
122
100
AcDbEntity
  8
DIMS
440
 16777216
100
AcDbLine
 10
3.702585673
 20
17.1999328607
 30
0.0
 11
4.298457724499999
 21
15.5081396619
 31
0.0
  0
LINE
  5
12E
330
122
100
AcDbEntity
  8
DIMS
440
 16777216
100
AcDbLine
 10
4.298457724499999
 20
15.5081396619
 30
0.0
 11
4.548457724499999
 21
15.5081396619
 31
0.0
  0
MTEXT
  5
12F
330
122
100
AcDbEntity
  8
DIMS
440
 16777216
100
AcDbMText
 10
4.548457724499999
 20
15.8733914076
 30
0.0039370079
 40
0.2708333333
 41
0.0
 46
0.0
 71
     1
 72
     1
  1
R1
  7
SLDTEXTSTYLE0
 73
     1
 44
1.0
  0
MTEXT
  5
130
330
122
100
AcDbEntity
  8
DIMS
440
 16777216
100
AcDbMText
 10
5.0866135735
 20
16.0579029278
 30
0.0039370079
 40
0.2708333333
 41
0.0
 46
0.0
 71
     1
 72
     1
  1
5
  7
SLDTEXTSTYLE0
 73
     1
 44
1.0
  0
MTEXT
  5
131
330
122
100
AcDbEntity
  8
DIMS
440
 16777216
100
AcDbMText
 10
5.0866135735
 20
15.6891181905
 30
0.0039370079
 40
0.2708333333
 41
0.0
 46
0.0
 71
     1
 72
     1
  1
8
  7
SLDTEXTSTYLE0
 73
     1
 44
1.0
  0
MTEXT
  5
132
330
122
100
AcDbEntity
  8
DIMS
440
 16777216
100
AcDbMText
 10
5.3639669637
 20
15.8733914076
 30
0.0039370079
 40
0.2708333333
 41
0.0
 46
0.0
 71
     1
 72
     1
  1
"
  7
SLDTEXTSTYLE0
 73
     1
 44
1.0
  0
MTEXT
  5
133
330
122
100
AcDbEntity
  8
DIMS
440
 16777216
100
AcDbMText
 10
4.9401629612
 20
15.225190749
 30
0.0039370079
 40
0.2708333333
 41
0.0
 46
0.0
 71
     1
 72
     1
  1
41
  7
SLDTEXTSTYLE0
 73
     1
 44
1.0
  0
ENDBLK
  5
124
330
122
100
AcDbEntity
  8
0
100
AcDbBlockEnd
  0
BLOCK
  5
137
330
136
100
AcDbEntity
  8
0
100
AcDbBlockBegin
  2
_D_3
 70
     0
 10
0.0
 20
0.0
 30
0.0
  3
_D_3
  1

  0
SOLID
  5
139
330
136
100
AcDbEntity
  8
DIMS
440
 16777216
100
AcDbTrace
 10
3.0103099567
 20
1.284568823499999
 30
0.0
 11
3.188117791
 21
1.482397056199999
 31
0.0
 12
3.120432642099999
 22
1.526694059199999
 32
0.0
 13
3.120432642099999
 23
1.526694059199999
 33
0.0
  0
LINE
  5
13A
330
136
100
AcDbEntity
  8
DIMS
440
 16777216
100
AcDbLine
 10
5.145220719
 20
3.624677292999999
 30
0.0
 11
5.422574099999999
 21
3.624677292999999
 31
0.0
  0
LINE
  5
13B
330
136
100
AcDbEntity
  8
DIMS
440
 16777216
100
AcDbLine
 10
4.961906672499999
 20
3.172686565299999
 30
0.0
 11
4.901721486499999
 21
3.172686565299999
 31
0.0
  0
LINE
  5
13C
330
136
100
AcDbEntity
  8
DIMS
440
 16777216
100
AcDbLine
 10
4.901721486499999
 20
3.172686565299999
 30
0.0
 11
4.901721486499999
 21
2.768944296
 31
0.0
  0
LINE
  5
13D
330
136
100
AcDbEntity
  8
DIMS
440
 16777216
100
AcDbLine
 10
4.901721486499999
 20
2.768944296
 30
0.0
 11
4.961906672499999
 21
2.768944296
 31
0.0
  0
LINE
  5
13E
330
136
100
AcDbEntity
  8
DIMS
440
 16777216
100
AcDbLine
 10
5.513604199199999
 20
3.172686565299999
 30
0.0
 11
5.573789385199999
 21
3.172686565299999
 31
0.0
  0
LINE
  5
13F
330
136
100
AcDbEntity
  8
DIMS
440
 16777216
100
AcDbLine
 10
5.573789385199999
 20
3.172686565299999
 30
0.0
 11
5.573789385199999
 21
2.768944296
 31
0.0
  0
LINE
  5
140
330
136
100
AcDbEntity
  8
DIMS
440
 16777216
100
AcDbLine
 10
5.573789385199999
 20
2.768944296
 30
0.0
 11
5.513604199199999
 21
2.768944296
 31
0.0
  0
LINE
  5
141
330
136
100
AcDbEntity
  8
DIMS
440
 16777216
100
AcDbLine
 10
3.0103099567
 20
1.284568823499999
 30
0.0
 11
4.3954329218
 21
3.4010157126
 31
0.0
  0
LINE
  5
142
330
136
100
AcDbEntity
  8
DIMS
440
 16777216
100
AcDbLine
 10
4.3954329218
 20
3.4010157126
 30
0.0
 11
4.6454329218
 21
3.4010157126
 31
0.0
  0
MTEXT
  5
143
330
136
100
AcDbEntity
  8
DIMS
440
 16777216
100
AcDbMText
 10
4.6454329218
 20
3.766267458299999
 30
0.0039370079
 40
0.2708333333
 41
0.0
 46
0.0
 71
     1
 72
     1
  1
R2
  7
SLDTEXTSTYLE0
 73
     1
 44
1.0
  0
MTEXT
  5
144
330
136
100
AcDbEntity
  8
DIMS
440
 16777216
100
AcDbMText
 10
5.1835887708
 20
3.9507789785
 30
0.0039370079
 40
0.2708333333
 41
0.0
 46
0.0
 71
     1
 72
     1
  1
1
  7
SLDTEXTSTYLE0
 73
     1
 44
1.0
  0
MTEXT
  5
145
330
136
100
AcDbEntity
  8
DIMS
440
 16777216
100
AcDbMText
 10
5.1835887708
 20
3.581994241199999
 30
0.0039370079
 40
0.2708333333
 41
0.0
 46
0.0
 71
     1
 72
     1
  1
4
  7
SLDTEXTSTYLE0
 73
     1
 44
1.0
  0
MTEXT
  5
146
330
136
100
AcDbEntity
  8
DIMS
440
 16777216
100
AcDbMText
 10
5.4609421609
 20
3.766267458299999
 30
0.0039370079
 40
0.2708333333
 41
0.0
 46
0.0
 71
     1
 72
     1
  1
"
  7
SLDTEXTSTYLE0
 73
     1
 44
1.0
  0
MTEXT
  5
147
330
136
100
AcDbEntity
  8
DIMS
440
 16777216
100
AcDbMText
 10
5.037138158399999
 20
3.1180667997
 30
0.0039370079
 40
0.2708333333
 41
0.0
 46
0.0
 71
     1
 72
     1
  1
57
  7
SLDTEXTSTYLE0
 73
     1
 44
1.0
  0
ENDBLK
  5
138
330
136
100
AcDbEntity
  8
0
100
AcDbBlockEnd
  0
BLOCK
  5
14B
330
14A
100
AcDbEntity
  8
0
100
AcDbBlockBegin
  2
_D_4
 70
     0
 10
0.0
 20
0.0
 30
0.0
  3
_D_4
  1

  0
SOLID
  5
14D
330
14A
100
AcDbEntity
  8
DIMS
440
 16777216
100
AcDbTrace
 10
1.992426193499999
 20
4.220561756
 30
0.0
 11
2.255324956599999
 21
4.180115792499999
 31
0.0
 12
2.255324956599999
 22
4.261007719599999
 32
0.0
 13
2.255324956599999
 23
4.261007719599999
 33
0.0
  0
SOLID
  5
14E
330
14A
100
AcDbEntity
  8
DIMS
440
 16777216
100
AcDbTrace
 10
31.7424261935
 20
4.220561756
 30
0.0
 11
31.4795274305
 21
4.261007719599999
 31
0.0
 12
31.4795274305
 22
4.180115792499999
 32
0.0
 13
31.4795274305
 23
4.180115792499999
 33
0.0
  0
LINE
  5
14F
330
14A
100
AcDbEntity
  8
DIMS
440
 16777216
100
AcDbLine
 10
18.2370019639
 20
4.5094756643
 30
0.0
 11
18.5143553448
 21
4.5094756643
 31
0.0
  0
LINE
  5
150
330
14A
100
AcDbEntity
  8
DIMS
440
 16777216
100
AcDbLine
 10
17.9834718785
 20
4.057484936599999
 30
0.0
 11
17.9232866925
 21
4.057484936599999
 31
0.0
  0
LINE
  5
151
330
14A
100
AcDbEntity
  8
DIMS
440
 16777216
100
AcDbLine
 10
17.9232866925
 20
4.057484936599999
 30
0.0
 11
17.9232866925
 21
3.653742667299999
 31
0.0
  0
LINE
  5
152
330
14A
100
AcDbEntity
  8
DIMS
440
 16777216
100
AcDbLine
 10
17.9232866925
 20
3.653742667299999
 30
0.0
 11
17.9834718785
 21
3.653742667299999
 31
0.0
  0
LINE
  5
153
330
14A
100
AcDbEntity
  8
DIMS
440
 16777216
100
AcDbLine
 10
18.7357866643
 20
4.057484936599999
 30
0.0
 11
18.7959718503
 21
4.057484936599999
 31
0.0
  0
LINE
  5
154
330
14A
100
AcDbEntity
  8
DIMS
440
 16777216
100
AcDbLine
 10
18.7959718503
 20
4.057484936599999
 30
0.0
 11
18.7959718503
 21
3.653742667299999
 31
0.0
  0
LINE
  5
155
330
14A
100
AcDbEntity
  8
DIMS
440
 16777216
100
AcDbLine
 10
18.7959718503
 20
3.653742667299999
 30
0.0
 11
18.7357866643
 21
3.653742667299999
 31
0.0
  0
LINE
  5
156
330
14A
100
AcDbEntity
  8
DIMS
440
 16777216
100
AcDbLine
 10
1.992426193499999
 20
4.220561756
 30
0.0
 11
17.7372508944
 21
4.220561756
 31
0.0
  0
LINE
  5
157
330
14A
100
AcDbEntity
  8
DIMS
440
 16777216
100
AcDbLine
 10
31.7424261935
 20
4.220561756
 30
0.0
 11
18.9820076118
 21
4.220561756
 31
0.0
  0
MTEXT
  5
158
330
14A
100
AcDbEntity
  8
DIMS
440
 16777216
100
AcDbMText
 10
17.797399348
 20
4.651065829599999
 30
0.0039370079
 40
0.2708333333
 41
0.0
 46
0.0
 71
     1
 72
     1
  1
29
  7
SLDTEXTSTYLE0
 73
     1
 44
1.0
  0
MTEXT
  5
159
330
14A
100
AcDbEntity
  8
DIMS
440
 16777216
100
AcDbMText
 10
18.2753700156
 20
4.8355773498
 30
0.0039370079
 40
0.2708333333
 41
0.0
 46
0.0
 71
     1
 72
     1
  1
3
  7
SLDTEXTSTYLE0
 73
     1
 44
1.0
  0
MTEXT
  5
15A
330
14A
100
AcDbEntity
  8
DIMS
440
 16777216
100
AcDbMText
 10
18.2753700156
 20
4.466792612499999
 30
0.0039370079
 40
0.2708333333
 41
0.0
 46
0.0
 71
     1
 72
     1
  1
4
  7
SLDTEXTSTYLE0
 73
     1
 44
1.0
  0
MTEXT
  5
15B
330
14A
100
AcDbEntity
  8
DIMS
440
 16777216
100
AcDbMText
 10
18.5527233691
 20
4.651065829599999
 30
0.0039370079
 40
0.2708333333
 41
0.0
 46
0.0
 71
     1
 72
     1
  1
"
  7
SLDTEXTSTYLE0
 73
     1
 44
1.0
  0
MTEXT
  5
15C
330
14A
100
AcDbEntity
  8
DIMS
440
 16777216
100
AcDbMText
 10
18.0587033644
 20
4.002865170999999
 30
0.0039370079
 40
0.2708333333
 41
0.0
 46
0.0
 71
     1
 72
     1
  1
756
  7
SLDTEXTSTYLE0
 73
     1
 44
1.0
  0
ENDBLK
  5
14C
330
14A
100
AcDbEntity
  8
0
100
AcDbBlockEnd
  0
BLOCK
  5
15F
330
15E
100
AcDbEntity
  8
0
100
AcDbBlockBegin
  2
_D_5
 70
     0
 10
0.0
 20
0.0
 30
0.0
  3
_D_5
  1

  0
SOLID
  5
161
330
15E
100
AcDbEntity
  8
DIMS
440
 16777216
100
AcDbTrace
 10
2.6174261935
 20
5.6335451964
 30
0.0
 11
2.8803249566
 21
5.593099232899999
 31
0.0
 12
2.8803249566
 22
5.673991159999999
 32
0.0
 13
2.8803249566
 23
5.673991159999999
 33
0.0
  0
SOLID
  5
162
330
15E
100
AcDbEntity
  8
DIMS
440
 16777216
100
AcDbTrace
 10
31.1174261935
 20
5.6335451964
 30
0.0
 11
30.8545274305
 21
5.673991159999999
 31
0.0
 12
30.8545274305
 22
5.593099232899999
 32
0.0
 13
30.8545274305
 23
5.593099232899999
 33
0.0
  0
LINE
  5
163
330
15E
100
AcDbEntity
  8
DIMS
440
 16777216
100
AcDbLine
 10
16.2561352308
 20
5.9224591047
 30
0.0
 11
16.5334886118
 21
5.9224591047
 31
0.0
  0
LINE
  5
164
330
15E
100
AcDbEntity
  8
DIMS
440
 16777216
100
AcDbLine
 10
16.0026051454
 20
5.470468377
 30
0.0
 11
15.9424199594
 21
5.470468377
 31
0.0
  0
LINE
  5
165
330
15E
100
AcDbEntity
  8
DIMS
440
 16777216
100
AcDbLine
 10
15.9424199594
 20
5.470468377
 30
0.0
 11
15.9424199594
 21
5.0667261077
 31
0.0
  0
LINE
  5
166
330
15E
100
AcDbEntity
  8
DIMS
440
 16777216
100
AcDbLine
 10
15.9424199594
 20
5.0667261077
 30
0.0
 11
16.0026051454
 21
5.0667261077
 31
0.0
  0
LINE
  5
167
330
15E
100
AcDbEntity
  8
DIMS
440
 16777216
100
AcDbLine
 10
16.7549199313
 20
5.470468377
 30
0.0
 11
16.8151051173
 21
5.470468377
 31
0.0
  0
LINE
  5
168
330
15E
100
AcDbEntity
  8
DIMS
440
 16777216
100
AcDbLine
 10
16.8151051173
 20
5.470468377
 30
0.0
 11
16.8151051173
 21
5.0667261077
 31
0.0
  0
LINE
  5
169
330
15E
100
AcDbEntity
  8
DIMS
440
 16777216
100
AcDbLine
 10
16.8151051173
 20
5.0667261077
 30
0.0
 11
16.7549199313
 21
5.0667261077
 31
0.0
  0
LINE
  5
16A
330
15E
100
AcDbEntity
  8
DIMS
440
 16777216
100
AcDbLine
 10
2.6174261935
 20
5.6335451964
 30
0.0
 11
15.7563841613
 21
5.6335451964
 31
0.0
  0
LINE
  5
16B
330
15E
100
AcDbEntity
  8
DIMS
440
 16777216
100
AcDbLine
 10
31.1174261935
 20
5.6335451964
 30
0.0
 11
17.0011408787
 21
5.6335451964
 31
0.0
  0
MTEXT
  5
16C
330
15E
100
AcDbEntity
  8
DIMS
440
 16777216
100
AcDbMText
 10
15.8165326149
 20
6.064049269999999
 30
0.0039370079
 40
0.2708333333
 41
0.0
 46
0.0
 71
     1
 72
     1
  1
28
  7
SLDTEXTSTYLE0
 73
     1
 44
1.0
  0
MTEXT
  5
16D
330
15E
100
AcDbEntity
  8
DIMS
440
 16777216
100
AcDbMText
 10
16.2945032826
 20
6.248560790099999
 30
0.0039370079
 40
0.2708333333
 41
0.0
 46
0.0
 71
     1
 72
     1
  1
1
  7
SLDTEXTSTYLE0
 73
     1
 44
1.0
  0
MTEXT
  5
16E
330
15E
100
AcDbEntity
  8
DIMS
440
 16777216
100
AcDbMText
 10
16.2945032826
 20
5.879776052899999
 30
0.0039370079
 40
0.2708333333
 41
0.0
 46
0.0
 71
     1
 72
     1
  1
2
  7
SLDTEXTSTYLE0
 73
     1
 44
1.0
  0
MTEXT
  5
16F
330
15E
100
AcDbEntity
  8
DIMS
440
 16777216
100
AcDbMText
 10
16.571856636
 20
6.064049269999999
 30
0.0039370079
 40
0.2708333333
 41
0.0
 46
0.0
 71
     1
 72
     1
  1
"
  7
SLDTEXTSTYLE0
 73
     1
 44
1.0
  0
MTEXT
  5
170
330
15E
100
AcDbEntity
  8
DIMS
440
 16777216
100
AcDbMText
 10
16.0778366313
 20
5.415848611399999
 30
0.0039370079
 40
0.2708333333
 41
0.0
 46
0.0
 71
     1
 72
     1
  1
724
  7
SLDTEXTSTYLE0
 73
     1
 44
1.0
  0
ENDBLK
  5
160
330
15E
100
AcDbEntity
  8
0
100
AcDbBlockEnd
  0
BLOCK
  5
173
330
172
100
AcDbEntity
  8
0
100
AcDbBlockBegin
  2
_D_6
 70
     0
 10
0.0
 20
0.0
 30
0.0
  3
_D_6
  1

  0
SOLID
  5
175
330
172
100
AcDbEntity
  8
DIMS
440
 16777216
100
AcDbTrace
 10
27.5692017106
 20
1.5422237518
 30
0.0
 11
27.6096476741
 21
1.805122514799999
 31
0.0
 12
27.528755747
 22
1.805122514799999
 32
0.0
 13
27.528755747
 23
1.805122514799999
 33
0.0
  0
SOLID
  5
176
330
172
100
AcDbEntity
  8
DIMS
440
 16777216
100
AcDbTrace
 10
27.5692017106
 20
19.2922237518
 30
0.0
 11
27.528755747
 21
19.0293249888
 31
0.0
 12
27.6096476741
 22
19.0293249888
 32
0.0
 13
27.6096476741
 23
19.0293249888
 33
0.0
  0
LINE
  5
177
330
172
100
AcDbEntity
  8
DIMS
440
 16777216
100
AcDbLine
 10
27.4465744213
 20
9.038536395999999
 30
0.0
 11
27.7239278023
 21
9.038536395999999
 31
0.0
  0
LINE
  5
178
330
172
100
AcDbEntity
  8
DIMS
440
 16777216
100
AcDbLine
 10
27.193044336
 20
8.586545668300001
 30
0.0
 11
27.13285915
 21
8.586545668300001
 31
0.0
  0
LINE
  5
179
330
172
100
AcDbEntity
  8
DIMS
440
 16777216
100
AcDbLine
 10
27.13285915
 20
8.586545668300001
 30
0.0
 11
27.13285915
 21
8.182803398999999
 31
0.0
  0
LINE
  5
17A
330
172
100
AcDbEntity
  8
DIMS
440
 16777216
100
AcDbLine
 10
27.13285915
 20
8.182803398999999
 30
0.0
 11
27.193044336
 21
8.182803398999999
 31
0.0
  0
LINE
  5
17B
330
172
100
AcDbEntity
  8
DIMS
440
 16777216
100
AcDbLine
 10
27.9453591218
 20
8.586545668300001
 30
0.0
 11
28.0055443078
 21
8.586545668300001
 31
0.0
  0
LINE
  5
17C
330
172
100
AcDbEntity
  8
DIMS
440
 16777216
100
AcDbLine
 10
28.0055443078
 20
8.586545668300001
 30
0.0
 11
28.0055443078
 21
8.182803398999999
 31
0.0
  0
LINE
  5
17D
330
172
100
AcDbEntity
  8
DIMS
440
 16777216
100
AcDbLine
 10
28.0055443078
 20
8.182803398999999
 30
0.0
 11
27.9453591218
 21
8.182803398999999
 31
0.0
  0
LINE
  5
17E
330
172
100
AcDbEntity
  8
DIMS
440
 16777216
100
AcDbLine
 10
27.5692017106
 20
1.5422237518
 30
0.0
 11
27.5692017106
 21
8.122618291
 31
0.0
  0
LINE
  5
17F
330
172
100
AcDbEntity
  8
DIMS
440
 16777216
100
AcDbLine
 10
27.5692017106
 20
19.2922237518
 30
0.0
 11
27.5692017106
 21
9.376626684499999
 31
0.0
  0
MTEXT
  5
180
330
172
100
AcDbEntity
  8
DIMS
440
 16777216
100
AcDbMText
 10
27.0069718055
 20
9.180126561299999
 30
0.0039370079
 40
0.2708333333
 41
0.0
 46
0.0
 71
     1
 72
     1
  1
17
  7
SLDTEXTSTYLE0
 73
     1
 44
1.0
  0
MTEXT
  5
181
330
172
100
AcDbEntity
  8
DIMS
440
 16777216
100
AcDbMText
 10
27.4849424731
 20
9.364638081499998
 30
0.0039370079
 40
0.2708333333
 41
0.0
 46
0.0
 71
     1
 72
     1
  1
3
  7
SLDTEXTSTYLE0
 73
     1
 44
1.0
  0
MTEXT
  5
182
330
172
100
AcDbEntity
  8
DIMS
440
 16777216
100
AcDbMText
 10
27.4849424731
 20
8.9958533442
 30
0.0039370079
 40
0.2708333333
 41
0.0
 46
0.0
 71
     1
 72
     1
  1
4
  7
SLDTEXTSTYLE0
 73
     1
 44
1.0
  0
MTEXT
  5
183
330
172
100
AcDbEntity
  8
DIMS
440
 16777216
100
AcDbMText
 10
27.7622958266
 20
9.180126561299999
 30
0.0039370079
 40
0.2708333333
 41
0.0
 46
0.0
 71
     1
 72
     1
  1
"
  7
SLDTEXTSTYLE0
 73
     1
 44
1.0
  0
MTEXT
  5
184
330
172
100
AcDbEntity
  8
DIMS
440
 16777216
100
AcDbMText
 10
27.2682758219
 20
8.531925902699999
 30
0.0039370079
 40
0.2708333333
 41
0.0
 46
0.0
 71
     1
 72
     1
  1
451
  7
SLDTEXTSTYLE0
 73
     1
 44
1.0
  0
ENDBLK
  5
174
330
172
100
AcDbEntity
  8
0
100
AcDbBlockEnd
  0
BLOCK
  5
187
330
186
100
AcDbEntity
  8
0
100
AcDbBlockBegin
  2
_D_7
 70
     0
 10
0.0
 20
0.0
 30
0.0
  3
_D_7
  1

  0
SOLID
  5
189
330
186
100
AcDbEntity
  8
DIMS
440
 16777216
100
AcDbTrace
 10
28.9533336166
 20
0.9172237518000001
 30
0.0
 11
28.99377958010001
 21
1.1801225148
 31
0.0
 12
28.912887653
 22
1.1801225148
 32
0.0
 13
28.912887653
 23
1.1801225148
 33
0.0
  0
SOLID
  5
18A
330
186
100
AcDbEntity
  8
DIMS
440
 16777216
100
AcDbTrace
 10
28.9533336166
 20
19.9172237518
 30
0.0
 11
28.912887653
 21
19.6543249888
 31
0.0
 12
28.99377958010001
 22
19.6543249888
 32
0.0
 13
28.99377958010001
 23
19.6543249888
 33
0.0
  0
LINE
  5
18B
330
186
100
AcDbEntity
  8
DIMS
440
 16777216
100
AcDbLine
 10
28.577176242
 20
12.3820491273
 30
0.0
 11
28.516991056
 21
12.3820491273
 31
0.0
  0
LINE
  5
18C
330
186
100
AcDbEntity
  8
DIMS
440
 16777216
100
AcDbLine
 10
28.516991056
 20
12.3820491273
 30
0.0
 11
28.516991056
 21
11.9783068581
 31
0.0
  0
LINE
  5
18D
330
186
100
AcDbEntity
  8
DIMS
440
 16777216
100
AcDbLine
 10
28.516991056
 20
11.9783068581
 30
0.0
 11
28.577176242
 21
11.9783068581
 31
0.0
  0
LINE
  5
18E
330
186
100
AcDbEntity
  8
DIMS
440
 16777216
100
AcDbLine
 10
29.3294910278
 20
12.3820491273
 30
0.0
 11
29.3896762138
 21
12.3820491273
 31
0.0
  0
LINE
  5
18F
330
186
100
AcDbEntity
  8
DIMS
440
 16777216
100
AcDbLine
 10
29.3896762138
 20
12.3820491273
 30
0.0
 11
29.3896762138
 21
11.9783068581
 31
0.0
  0
LINE
  5
190
330
186
100
AcDbEntity
  8
DIMS
440
 16777216
100
AcDbLine
 10
29.3896762138
 20
11.9783068581
 30
0.0
 11
29.3294910278
 21
11.9783068581
 31
0.0
  0
LINE
  5
191
330
186
100
AcDbEntity
  8
DIMS
440
 16777216
100
AcDbLine
 10
28.9533336166
 20
0.9172237518000001
 30
0.0
 11
28.9533336166
 21
11.918121695
 31
0.0
  0
LINE
  5
192
330
186
100
AcDbEntity
  8
DIMS
440
 16777216
100
AcDbLine
 10
28.9533336166
 20
19.9172237518
 30
0.0
 11
28.9533336166
 21
12.8033454155
 31
0.0
  0
MTEXT
  5
193
330
186
100
AcDbEntity
  8
DIMS
440
 16777216
100
AcDbMText
 10
28.5681484262
 20
12.7913568307
 30
0.0039370079
 40
0.2708333333
 41
0.0
 46
0.0
 71
     1
 72
     1
  1
19"
  7
SLDTEXTSTYLE0
 73
     1
 44
1.0
  0
MTEXT
  5
194
330
186
100
AcDbEntity
  8
DIMS
440
 16777216
100
AcDbMText
 10
28.6524077279
 20
12.3274293617
 30
0.0039370079
 40
0.2708333333
 41
0.0
 46
0.0
 71
     1
 72
     1
  1
483
  7
SLDTEXTSTYLE0
 73
     1
 44
1.0
  0
ENDBLK
  5
188
330
186
100
AcDbEntity
  8
0
100
AcDbBlockEnd
  0
BLOCK
  5
197
330
196
100
AcDbEntity
  8
0
100
AcDbBlockBegin
  2
_D_8
 70
     0
 10
0.0
 20
0.0
 30
0.0
  3
_D_8
  1

  0
SOLID
  5
199
330
196
100
AcDbEntity
  8
DIMS
440
 16777216
100
AcDbTrace
 10
6.549710207999999
 20
0.9172237518000001
 30
0.0
 11
6.590156171499999
 21
1.1801225148
 31
0.0
 12
6.5092642444
 22
1.1801225148
 32
0.0
 13
6.5092642444
 23
1.1801225148
 33
0.0
  0
SOLID
  5
19A
330
196
100
AcDbEntity
  8
DIMS
440
 16777216
100
AcDbTrace
 10
6.549710207999999
 20
17.9172237518
 30
0.0
 11
6.5092642444
 21
17.6543249888
 31
0.0
 12
6.590156171499999
 22
17.6543249888
 32
0.0
 13
6.590156171499999
 23
17.6543249888
 33
0.0
  0
LINE
  5
19B
330
196
100
AcDbEntity
  8
DIMS
440
 16777216
100
AcDbLine
 10
6.1735528334
 20
12.1042713529
 30
0.0
 11
6.1133676474
 21
12.1042713529
 31
0.0
  0
LINE
  5
19C
330
196
100
AcDbEntity
  8
DIMS
440
 16777216
100
AcDbLine
 10
6.1133676474
 20
12.1042713529
 30
0.0
 11
6.1133676474
 21
11.7005290836
 31
0.0
  0
LINE
  5
19D
330
196
100
AcDbEntity
  8
DIMS
440
 16777216
100
AcDbLine
 10
6.1133676474
 20
11.7005290836
 30
0.0
 11
6.1735528334
 21
11.7005290836
 31
0.0
  0
LINE
  5
19E
330
196
100
AcDbEntity
  8
DIMS
440
 16777216
100
AcDbLine
 10
6.925867619199999
 20
12.1042713529
 30
0.0
 11
6.986052805199999
 21
12.1042713529
 31
0.0
  0
LINE
  5
19F
330
196
100
AcDbEntity
  8
DIMS
440
 16777216
100
AcDbLine
 10
6.986052805199999
 20
12.1042713529
 30
0.0
 11
6.986052805199999
 21
11.7005290836
 31
0.0
  0
LINE
  5
1A0
330
196
100
AcDbEntity
  8
DIMS
440
 16777216
100
AcDbLine
 10
6.986052805199999
 20
11.7005290836
 30
0.0
 11
6.925867619199999
 21
11.7005290836
 31
0.0
  0
LINE
  5
1A1
330
196
100
AcDbEntity
  8
DIMS
440
 16777216
100
AcDbLine
 10
6.549710207999999
 20
0.9172237518000001
 30
0.0
 11
6.549710207999999
 21
11.6403439206
 31
0.0
  0
LINE
  5
1A2
330
196
100
AcDbEntity
  8
DIMS
440
 16777216
100
AcDbLine
 10
6.549710207999999
 20
17.9172237518
 30
0.0
 11
6.549710207999999
 21
12.525567641
 31
0.0
  0
MTEXT
  5
1A3
330
196
100
AcDbEntity
  8
DIMS
440
 16777216
100
AcDbMText
 10
6.164525017599999
 20
12.5135790563
 30
0.0039370079
 40
0.2708333333
 41
0.0
 46
0.0
 71
     1
 72
     1
  1
17"
  7
SLDTEXTSTYLE0
 73
     1
 44
1.0
  0
MTEXT
  5
1A4
330
196
100
AcDbEntity
  8
DIMS
440
 16777216
100
AcDbMText
 10
6.248784319299999
 20
12.0496515873
 30
0.0039370079
 40
0.2708333333
 41
0.0
 46
0.0
 71
     1
 72
     1
  1
432
  7
SLDTEXTSTYLE0
 73
     1
 44
1.0
  0
ENDBLK
  5
198
330
196
100
AcDbEntity
  8
0
100
AcDbBlockEnd
  0
BLOCK
  5
1A7
330
1A6
100
AcDbEntity
  8
0
100
AcDbBlockBegin
  2
_D_9
 70
     0
 10
0.0
 20
0.0
 30
0.0
  3
_D_9
  1

  0
SOLID
  5
1A9
330
1A6
100
AcDbEntity
  8
DIMS
440
 16777216
100
AcDbTrace
 10
7.966031227999999
 20
1.5422237518
 30
0.0
 11
8.0064771916
 21
1.805122514799999
 31
0.0
 12
7.9255852645
 22
1.805122514799999
 32
0.0
 13
7.9255852645
 23
1.805122514799999
 33
0.0
  0
SOLID
  5
1AA
330
1A6
100
AcDbEntity
  8
DIMS
440
 16777216
100
AcDbTrace
 10
7.966031227999999
 20
17.2922237518
 30
0.0
 11
7.9255852645
 21
17.0293249888
 31
0.0
 12
8.0064771916
 22
17.0293249888
 32
0.0
 13
8.0064771916
 23
17.0293249888
 33
0.0
  0
LINE
  5
1AB
330
1A6
100
AcDbEntity
  8
DIMS
440
 16777216
100
AcDbLine
 10
7.843403938799999
 20
10.4274252681
 30
0.0
 11
8.1207573198
 21
10.4274252681
 31
0.0
  0
LINE
  5
1AC
330
1A6
100
AcDbEntity
  8
DIMS
440
 16777216
100
AcDbLine
 10
7.5898738534
 20
9.9754345404
 30
0.0
 11
7.5296886675
 21
9.9754345404
 31
0.0
  0
LINE
  5
1AD
330
1A6
100
AcDbEntity
  8
DIMS
440
 16777216
100
AcDbLine
 10
7.5296886675
 20
9.9754345404
 30
0.0
 11
7.5296886675
 21
9.571692271099999
 31
0.0
  0
LINE
  5
1AE
330
1A6
100
AcDbEntity
  8
DIMS
440
 16777216
100
AcDbLine
 10
7.5296886675
 20
9.571692271099999
 30
0.0
 11
7.5898738534
 21
9.571692271099999
 31
0.0
  0
LINE
  5
1AF
330
1A6
100
AcDbEntity
  8
DIMS
440
 16777216
100
AcDbLine
 10
8.342188639299999
 20
9.9754345404
 30
0.0
 11
8.402373825299999
 21
9.9754345404
 31
0.0
  0
LINE
  5
1B0
330
1A6
100
AcDbEntity
  8
DIMS
440
 16777216
100
AcDbLine
 10
8.402373825299999
 20
9.9754345404
 30
0.0
 11
8.402373825299999
 21
9.571692271099999
 31
0.0
  0
LINE
  5
1B1
330
1A6
100
AcDbEntity
  8
DIMS
440
 16777216
100
AcDbLine
 10
8.402373825299999
 20
9.571692271099999
 30
0.0
 11
8.342188639299999
 21
9.571692271099999
 31
0.0
  0
LINE
  5
1B2
330
1A6
100
AcDbEntity
  8
DIMS
440
 16777216
100
AcDbLine
 10
7.966031227999999
 20
1.5422237518
 30
0.0
 11
7.966031227999999
 21
9.511507163099999
 31
0.0
  0
LINE
  5
1B3
330
1A6
100
AcDbEntity
  8
DIMS
440
 16777216
100
AcDbLine
 10
7.966031227999999
 20
17.2922237518
 30
0.0
 11
7.966031227999999
 21
10.7655155567
 31
0.0
  0
MTEXT
  5
1B4
330
1A6
100
AcDbEntity
  8
DIMS
440
 16777216
100
AcDbMText
 10
7.403801322999999
 20
10.5690154334
 30
0.0039370079
 40
0.2708333333
 41
0.0
 46
0.0
 71
     1
 72
     1
  1
15
  7
SLDTEXTSTYLE0
 73
     1
 44
1.0
  0
MTEXT
  5
1B5
330
1A6
100
AcDbEntity
  8
DIMS
440
 16777216
100
AcDbMText
 10
7.881771990599999
 20
10.7535269536
 30
0.0039370079
 40
0.2708333333
 41
0.0
 46
0.0
 71
     1
 72
     1
  1
3
  7
SLDTEXTSTYLE0
 73
     1
 44
1.0
  0
MTEXT
  5
1B6
330
1A6
100
AcDbEntity
  8
DIMS
440
 16777216
100
AcDbMText
 10
7.881771990599999
 20
10.3847422163
 30
0.0039370079
 40
0.2708333333
 41
0.0
 46
0.0
 71
     1
 72
     1
  1
4
  7
SLDTEXTSTYLE0
 73
     1
 44
1.0
  0
MTEXT
  5
1B7
330
1A6
100
AcDbEntity
  8
DIMS
440
 16777216
100
AcDbMText
 10
8.159125344099999
 20
10.5690154334
 30
0.0039370079
 40
0.2708333333
 41
0.0
 46
0.0
 71
     1
 72
     1
  1
"
  7
SLDTEXTSTYLE0
 73
     1
 44
1.0
  0
MTEXT
  5
1B8
330
1A6
100
AcDbEntity
  8
DIMS
440
 16777216
100
AcDbMText
 10
7.6651053394
 20
9.9208147748
 30
0.0039370079
 40
0.2708333333
 41
0.0
 46
0.0
 71
     1
 72
     1
  1
400
  7
SLDTEXTSTYLE0
 73
     1
 44
1.0
  0
ENDBLK
  5
1A8
330
1A6
100
AcDbEntity
  8
0
100
AcDbBlockEnd
  0
BLOCK
  5
1BC
330
1BB
100
AcDbEntity
  8
0
100
AcDbBlockBegin
  2
_D_10
 70
     0
 10
0.0
 20
0.0
 30
0.0
  3
_D_10
  1

  0
SOLID
  5
1BE
330
1BB
100
AcDbEntity
  8
DIMS
440
 16777216
100
AcDbTrace
 10
18.4190518837
 20
19.1877062084
 30
0.0
 11
18.4739700491
 21
18.9274455109
 31
0.0
 12
18.5496591297
 22
18.9559878819
 32
0.0
 13
18.5496591297
 23
18.9559878819
 33
0.0
  0
LINE
  5
1BF
330
1BB
100
AcDbEntity
  8
DIMS
440
 16777216
100
AcDbLine
 10
18.764304764
 20
18.3156885058
 30
0.0
 11
19.041658145
 21
18.3156885058
 31
0.0
  0
LINE
  5
1C0
330
1BB
100
AcDbEntity
  8
DIMS
440
 16777216
100
AcDbLine
 10
18.5809907175
 20
17.8636977781
 30
0.0
 11
18.5208055315
 21
17.8636977781
 31
0.0
  0
LINE
  5
1C1
330
1BB
100
AcDbEntity
  8
DIMS
440
 16777216
100
AcDbLine
 10
18.5208055315
 20
17.8636977781
 30
0.0
 11
18.5208055315
 21
17.4599555088
 31
0.0
  0
LINE
  5
1C2
330
1BB
100
AcDbEntity
  8
DIMS
440
 16777216
100
AcDbLine
 10
18.5208055315
 20
17.4599555088
 30
0.0
 11
18.5809907175
 21
17.4599555088
 31
0.0
  0
LINE
  5
1C3
330
1BB
100
AcDbEntity
  8
DIMS
440
 16777216
100
AcDbLine
 10
19.1326882442
 20
17.8636977781
 30
0.0
 11
19.1928734302
 21
17.8636977781
 31
0.0
  0
LINE
  5
1C4
330
1BB
100
AcDbEntity
  8
DIMS
440
 16777216
100
AcDbLine
 10
19.1928734302
 20
17.8636977781
 30
0.0
 11
19.1928734302
 21
17.4599555088
 31
0.0
  0
LINE
  5
1C5
330
1BB
100
AcDbEntity
  8
DIMS
440
 16777216
100
AcDbLine
 10
19.1928734302
 20
17.4599555088
 30
0.0
 11
19.1326882442
 21
17.4599555088
 31
0.0
  0
LINE
  5
1C6
330
1BB
100
AcDbEntity
  8
DIMS
440
 16777216
100
AcDbLine
 10
18.4190518837
 20
19.1877062084
 30
0.0
 11
18.6203960434
 21
18.6537787943
 31
0.0
  0
MTEXT
  5
1C7
330
1BB
100
AcDbEntity
  8
DIMS
440
 16777216
100
AcDbMText
 10
18.2645169667
 20
18.4572786711
 30
0.0039370079
 40
0.2708333333
 41
0.0
 46
0.0
 71
     1
 72
     1
  1
R1
  7
SLDTEXTSTYLE0
 73
     1
 44
1.0
  0
MTEXT
  5
1C8
330
1BB
100
AcDbEntity
  8
DIMS
440
 16777216
100
AcDbMText
 10
18.8026728157
 20
18.6417901913
 30
0.0039370079
 40
0.2708333333
 41
0.0
 46
0.0
 71
     1
 72
     1
  1
5
  7
SLDTEXTSTYLE0
 73
     1
 44
1.0
  0
MTEXT
  5
1C9
330
1BB
100
AcDbEntity
  8
DIMS
440
 16777216
100
AcDbMText
 10
18.8026728157
 20
18.273005454
 30
0.0039370079
 40
0.2708333333
 41
0.0
 46
0.0
 71
     1
 72
     1
  1
8
  7
SLDTEXTSTYLE0
 73
     1
 44
1.0
  0
MTEXT
  5
1CA
330
1BB
100
AcDbEntity
  8
DIMS
440
 16777216
100
AcDbMText
 10
19.0800262059
 20
18.4572786711
 30
0.0039370079
 40
0.2708333333
 41
0.0
 46
0.0
 71
     1
 72
     1
  1
"
  7
SLDTEXTSTYLE0
 73
     1
 44
1.0
  0
MTEXT
  5
1CB
330
1BB
100
AcDbEntity
  8
DIMS
440
 16777216
100
AcDbMText
 10
18.6562222034
 20
17.8090780125
 30
0.0039370079
 40
0.2708333333
 41
0.0
 46
0.0
 71
     1
 72
     1
  1
41
  7
SLDTEXTSTYLE0
 73
     1
 44
1.0
  0
ENDBLK
  5
1BD
330
1BB
100
AcDbEntity
  8
0
100
AcDbBlockEnd
  0
BLOCK
  5
1CE
330
1CD
100
AcDbEntity
  8
0
100
AcDbBlockBegin
  2
_D_11
 70
     0
 10
0.0
 20
0.0
 30
0.0
  3
_D_11
  1

  0
SOLID
  5
1D0
330
1CD
100
AcDbEntity
  8
DIMS
440
 16777216
100
AcDbTrace
 10
16.3561098306
 20
18.207447943
 30
0.0
 11
16.2621863786
 21
18.4563053735
 31
0.0
 12
16.1917285823
 22
18.4165661888
 32
0.0
 13
16.1917285823
 23
18.4165661888
 33
0.0
  0
LINE
  5
1D1
330
1CD
100
AcDbEntity
  8
DIMS
440
 16777216
100
AcDbLine
 10
15.6533815034
 20
19.5782385304
 30
0.0
 11
15.9307348844
 21
19.5782385304
 31
0.0
  0
LINE
  5
1D2
330
1CD
100
AcDbEntity
  8
DIMS
440
 16777216
100
AcDbLine
 10
15.4700674569
 20
19.1262478026
 30
0.0
 11
15.4098822709
 21
19.1262478026
 31
0.0
  0
LINE
  5
1D3
330
1CD
100
AcDbEntity
  8
DIMS
440
 16777216
100
AcDbLine
 10
15.4098822709
 20
19.1262478026
 30
0.0
 11
15.4098822709
 21
18.7225055334
 31
0.0
  0
LINE
  5
1D4
330
1CD
100
AcDbEntity
  8
DIMS
440
 16777216
100
AcDbLine
 10
15.4098822709
 20
18.7225055334
 30
0.0
 11
15.4700674569
 21
18.7225055334
 31
0.0
  0
LINE
  5
1D5
330
1CD
100
AcDbEntity
  8
DIMS
440
 16777216
100
AcDbLine
 10
16.0217649837
 20
19.1262478026
 30
0.0
 11
16.0819501697
 21
19.1262478026
 31
0.0
  0
LINE
  5
1D6
330
1CD
100
AcDbEntity
  8
DIMS
440
 16777216
100
AcDbLine
 10
16.0819501697
 20
19.1262478026
 30
0.0
 11
16.0819501697
 21
18.7225055334
 31
0.0
  0
LINE
  5
1D7
330
1CD
100
AcDbEntity
  8
DIMS
440
 16777216
100
AcDbLine
 10
16.0819501697
 20
18.7225055334
 30
0.0
 11
16.0217649837
 21
18.7225055334
 31
0.0
  0
LINE
  5
1D8
330
1CD
100
AcDbEntity
  8
DIMS
440
 16777216
100
AcDbLine
 10
15.2507688068
 20
20.1672237518
 30
0.0
 11
15.3922770654
 21
19.9163288189
 31
0.0
  0
LINE
  5
1D9
330
1CD
100
AcDbEntity
  8
DIMS
440
 16777216
100
AcDbLine
 10
16.3561098306
 20
18.207447943
 30
0.0
 11
16.0995553752
 21
18.6623204253
 31
0.0
  0
MTEXT
  5
1DA
330
1CD
100
AcDbEntity
  8
DIMS
440
 16777216
100
AcDbMText
 10
15.1535937062
 20
19.7198286957
 30
0.0039370079
 40
0.2708333333
 41
0.0
 46
0.0
 71
     1
 72
     1
  1
R2
  7
SLDTEXTSTYLE0
 73
     1
 44
1.0
  0
MTEXT
  5
1DB
330
1CD
100
AcDbEntity
  8
DIMS
440
 16777216
100
AcDbMText
 10
15.6917495552
 20
19.9043402158
 30
0.0039370079
 40
0.2708333333
 41
0.0
 46
0.0
 71
     1
 72
     1
  1
1
  7
SLDTEXTSTYLE0
 73
     1
 44
1.0
  0
MTEXT
  5
1DC
330
1CD
100
AcDbEntity
  8
DIMS
440
 16777216
100
AcDbMText
 10
15.6917495552
 20
19.5355554786
 30
0.0039370079
 40
0.2708333333
 41
0.0
 46
0.0
 71
     1
 72
     1
  1
4
  7
SLDTEXTSTYLE0
 73
     1
 44
1.0
  0
MTEXT
  5
1DD
330
1CD
100
AcDbEntity
  8
DIMS
440
 16777216
100
AcDbMText
 10
15.9691029454
 20
19.7198286957
 30
0.0039370079
 40
0.2708333333
 41
0.0
 46
0.0
 71
     1
 72
     1
  1
"
  7
SLDTEXTSTYLE0
 73
     1
 44
1.0
  0
MTEXT
  5
1DE
330
1CD
100
AcDbEntity
  8
DIMS
440
 16777216
100
AcDbMText
 10
15.5452989429
 20
19.0716280371
 30
0.0039370079
 40
0.2708333333
 41
0.0
 46
0.0
 71
     1
 72
     1
  1
57
  7
SLDTEXTSTYLE0
 73
     1
 44
1.0
  0
ENDBLK
  5
1CF
330
1CD
100
AcDbEntity
  8
0
100
AcDbBlockEnd
  0
BLOCK
  5
1E0
330
1DF
100
AcDbEntity
  8
0
100
AcDbBlockBegin
  2
SW_NOTE_0
 70
     0
 10
0.0
 20
0.0
 30
0.0
  3
SW_NOTE_0
  1

  0
MTEXT
  5
1E2
330
1DF
100
AcDbEntity
  8
NOTES
 62
     0
100
AcDbMText
 10
-1.0670162717
 20
0.8256893073
 30
0.0
 40
0.25
 41
0.0
 46
0.0
 71
     2
 72
     1
  1
TEMPLATE
  7
SLDTEXTSTYLE0
 73
     1
 44
1.0
  0
MTEXT
  5
1E3
330
1DF
100
AcDbEntity
  8
NOTES
 62
     0
100
AcDbMText
 10
-1.063254652799999
 20
0.492355978
 30
0.0
 40
0.25
 41
0.0
 46
0.0
 71
     2
 72
     1
  1
CENTERLINE
  7
SLDTEXTSTYLE0
 73
     1
 44
1.0
  0
MTEXT
  5
1E4
330
1DF
100
AcDbEntity
  8
NOTES
 62
     0
100
AcDbMText
 10
-1.0631100217
 20
-0.1743106806
 30
0.0
 40
0.25
 41
0.0
 46
0.0
 71
     2
 72
     1
  1
PLANTILLA
  7
SLDTEXTSTYLE0
 73
     1
 44
1.0
  0
MTEXT
  5
1E5
330
1DF
100
AcDbEntity
  8
NOTES
 62
     0
100
AcDbMText
 10
-1.066726915
 20
-0.5076440099
 30
0.0
 40
0.25
 41
0.0
 46
0.0
 71
     2
 72
     1
  1
CENTRAL
  7
SLDTEXTSTYLE0
 73
     1
 44
1.0
  0
ENDBLK
  5
1E1
330
1DF
100
AcDbEntity
  8
0
100
AcDbBlockEnd
  0
BLOCK
  5
1EB
330
1EA
100
AcDbEntity
  8
0
100
AcDbBlockBegin
  2
SW_NOTE_1
 70
     0
 10
0.0
 20
0.0
 30
0.0
  3
SW_NOTE_1
  1

  0
MTEXT
  5
1ED
330
1EA
100
AcDbEntity
  8
NOTES
 62
     0
100
AcDbMText
 10
0.0206217161
 20
0.2678866279
 30
0.0
 40
0.2083333333
 41
0.0
 46
0.0
 71
     1
 72
     1
  1
1/8" OVERHANG
  7
SLDTEXTSTYLE0
 73
     1
 44
1.0
  0
MTEXT
  5
1EE
330
1EA
100
AcDbEntity
  8
NOTES
 62
     0
100
AcDbMText
 10
0.0206217161
 20
-0.0098911465
 30
0.0
 40
0.2083333333
 41
0.0
 46
0.0
 71
     1
 72
     1
  1
[3.2 SOBRESALIENTE]
  7
SLDTEXTSTYLE0
 73
     1
 44
1.0
  0
ENDBLK
  5
1EC
330
1EA
100
AcDbEntity
  8
0
100
AcDbBlockEnd
  0
BLOCK
  5
1F2
330
1F1
100
AcDbEntity
  8
0
100
AcDbBlockBegin
  2
SW_NOTE_2
 70
     0
 10
0.0
 20
0.0
 30
0.0
  3
SW_NOTE_2
  1

  0
MTEXT
  5
1F4
330
1F1
100
AcDbEntity
  8
NOTES
 62
     0
100
AcDbMText
 10
0.0226253535
 20
0.2697344466
 30
0.0
 40
0.2083333333
 41
0.0
 46
0.0
 71
     1
 72
     1
  1
1/2" REVEAL
  7
SLDTEXTSTYLE0
 73
     1
 44
1.0
  0
MTEXT
  5
1F5
330
1F1
100
AcDbEntity
  8
NOTES
 62
     0
100
AcDbMText
 10
0.0226253535
 20
-0.0080433278
 30
0.0
 40
0.2083333333
 41
0.0
 46
0.0
 71
     1
 72
     1
  1
[12.7 REVELADO]
  7
SLDTEXTSTYLE0
 73
     1
 44
1.0
  0
ENDBLK
  5
1F3
330
1F1
100
AcDbEntity
  8
0
100
AcDbBlockEnd
  0
BLOCK
  5
1F9
330
1F8
100
AcDbEntity
  8
0
100
AcDbBlockBegin
  2
SW_NOTE_3
 70
     0
 10
0.0
 20
0.0
 30
0.0
  3
SW_NOTE_3
  1

  0
MTEXT
  5
1FB
330
1F8
100
AcDbEntity
  8
NOTES
 62
     0
100
AcDbMText
 10
0.0
 20
0.2685557791
 30
0.0
 40
0.2083333333
 41
0.0
 46
0.0
 71
     1
 72
     1
  1
NOTES:
  7
SLDTEXTSTYLE0
 73
     1
 44
1.0
  0
MTEXT
  5
1FC
330
1F8
100
AcDbEntity
  8
NOTES
 62
     0
100
AcDbMText
 10
0.3937007786
 20
-0.2869997697
 30
0.0
 40
0.2083333333
 41
0.0
 46
0.0
 71
     1
 72
     1
  1
THOROUGHLY READ ALL  INSTALLATION INSTRUCTIONS
  7
SLDTEXTSTYLE0
 73
     1
 44
1.0
  0
MTEXT
  5
1FD
330
1F8
100
AcDbEntity
  8
NOTES
 62
     0
100
AcDbMText
 10
0.0
 20
-0.2869997697
 30
0.0
 40
0.2083333333
 41
0.0
 46
0.0
 71
     1
 72
     1
  1
1.
  7
SLDTEXTSTYLE0
 73
     1
 44
1.0
  0
MTEXT
  5
1FE
330
1F8
100
AcDbEntity
  8
NOTES
 62
     0
100
AcDbMText
 10
0.0
 20
-0.5647775441
 30
0.0
 40
0.2083333333
 41
0.0
 46
0.0
 71
     1
 72
     1
  1
BEFORE CUTTING COUNTERTOP.
  7
SLDTEXTSTYLE0
 73
     1
 44
1.0
  0
MTEXT
  5
1FF
330
1F8
100
AcDbEntity
  8
NOTES
 62
     0
100
AcDbMText
 10
0.0
 20
-1.120333092999999
 30
0.0
 40
0.2083333333
 41
0.0
 46
0.0
 71
     1
 72
     1
  1
2.  DIMENSIONS ARE IN INCHES [MM].
  7
SLDTEXTSTYLE0
 73
     1
 44
1.0
  0
MTEXT
  5
200
330
1F8
100
AcDbEntity
  8
NOTES
 62
     0
100
AcDbMText
 10
0.0
 20
-1.9536664162
 30
0.0
 40
0.2083333333
 41
0.0
 46
0.0
 71
     1
 72
     1
  1
PLEASE CHECK TEMPLATE AGAINST PHYSICAL SINK FOR MOST ACCURATE CUT.
  7
SLDTEXTSTYLE0
 73
     1
 44
1.0
  0
MTEXT
  5
201
330
1F8
100
AcDbEntity
  8
NOTES
 62
     0
100
AcDbMText
 10
0.0
 20
-3.064777513899999
 30
0.0
 40
0.2083333333
 41
0.0
 46
0.0
 71
     1
 72
     1
  1
NOTAS:
  7
SLDTEXTSTYLE0
 73
     1
 44
1.0
  0
MTEXT
  5
202
330
1F8
100
AcDbEntity
  8
NOTES
 62
     0
100
AcDbMText
 10
0.0
 20
-3.620333062799999
 30
0.0
 40
0.2083333333
 41
0.0
 46
0.0
 71
     1
 72
     1
  1
1.  LEA ATENTAMENTE LAS INSTRUCCIONES DE INSTALACIÓN ANTES DE CORTAR LA ENCIMERA.
  7
SLDTEXTSTYLE0
 73
     1
 44
1.0
  0
MTEXT
  5
203
330
1F8
100
AcDbEntity
  8
NOTES
 62
     0
100
AcDbMText
 10
0.0
 20
-4.1758886116
 30
0.0
 40
0.2083333333
 41
0.0
 46
0.0
 71
     1
 72
     1
  1
2.  DIMENSIONES EN PULGADAS [MM].
  7
SLDTEXTSTYLE0
 73
     1
 44
1.0
  0
MTEXT
  5
204
330
1F8
100
AcDbEntity
  8
NOTES
 62
     0
100
AcDbMText
 10
0.0
 20
-5.0092219349
 30
0.0
 40
0.2083333333
 41
0.0
 46
0.0
 71
     1
 72
     1
  1
POR FAVOR COMPRUEBE PLANTILLA CONTRA FREGADERO FÍSICO PARA CORTE MÁS EXACTO.
  7
SLDTEXTSTYLE0
 73
     1
 44
1.0
  0
ENDBLK
  5
1FA
330
1F8
100
AcDbEntity
  8
0
100
AcDbBlockEnd
  0
BLOCK
  5
207
330
206
100
AcDbEntity
  8
0
100
AcDbBlockBegin
  2
SW_NOTE_4
 70
     0
 10
0.0
 20
0.0
 30
0.0
  3
SW_NOTE_4
  1

  0
MTEXT
  5
263
330
206
100
AcDbEntity
  8
NOTES
 62
     0
100
AcDbMText
 10
6.17578125
 20
0.9668008048
 30
0.0
 40
0.75
 41
0.0
 46
0.0
 71
     2
 72
     1
  1
TEMPLATE #: 1000001388
  7
SLDTEXTSTYLE0
 73
     1
 44
1.0
  0
MTEXT
  5
264
330
206
100
AcDbEntity
  8
NOTES
 62
     0
100
AcDbMText
 10
6.178427820099999
 20
-0.0165996099
 30
0.0
 40
0.375
 41
0.0
 46
0.0
 71
     2
 72
     1
  1
DUAL LEFT UNDERMOUNT TEMPLATE 31" X 20" W/1-3/4" RADIUS
  7
SLDTEXTSTYLE0
 73
     1
 44
1.0
  0
MTEXT
  5
265
330
206
100
AcDbEntity
  8
NOTES
 62
     0
100
AcDbMText
 10
6.138237525599999
 20
-0.5165996038000001
 30
0.0
 40
0.375
 41
0.0
 46
0.0
 71
     2
 72
     1
  1
*SMALL BOWL ON LEFT
  7
SLDTEXTSTYLE0
 73
     1
 44
1.0
  0
ENDBLK
  5
208
330
206
100
AcDbEntity
  8
0
100
AcDbBlockEnd
  0
ENDSEC
  0
SECTION
  2
ENTITIES
  0
LINE
  5
DD
330
1F
100
AcDbEntity
  8
OBJECTS
 62
     1
100
AcDbLine
 10
31.7424261935
 20
3.167223751799999
 30
0.0
 11
31.7424261935
 21
17.6672237518
 31
0.0
  0
LINE
  5
DE
330
1F
100
AcDbEntity
  8
OBJECTS
 62
     1
100
AcDbLine
 10
29.4924261935
 20
19.9172237518
 30
0.0
 11
18.9924261935
 21
19.9172237518
 31
0.0
  0
LINE
  5
DF
330
1F
100
AcDbEntity
  8
OBJECTS
 62
     1
100
AcDbLine
 10
15.2507688068
 20
17.9172237518
 30
0.0
 11
4.2424261935
 21
17.9172237518
 31
0.0
  0
LINE
  5
E0
330
1F
100
AcDbEntity
  8
OBJECTS
 62
     1
100
AcDbLine
 10
1.992426193499999
 20
15.6672237518
 30
0.0
 11
1.992426193499999
 21
3.167223751799999
 31
0.0
  0
LINE
  5
E1
330
1F
100
AcDbEntity
  8
OBJECTS
 62
     1
100
AcDbLine
 10
4.2424261935
 20
0.9172237518000001
 30
0.0
 11
29.4924261935
 21
0.9172237518000001
 31
0.0
  0
LINE
  5
E2
330
1F
100
AcDbEntity
  8
OBJECTS
  6
CENTERX2
 62
     5
100
AcDbLine
 10
31.1174261935
 20
3.167223751799999
 30
0.0
 11
31.1174261935
 21
17.6672237518
 31
0.0
  0
LINE
  5
E3
330
1F
100
AcDbEntity
  8
OBJECTS
  6
CENTERX2
 62
     5
100
AcDbLine
 10
29.4924261935
 20
19.2922237518
 30
0.0
 11
18.9924261935
 21
19.2922237518
 31
0.0
  0
LINE
  5
E4
330
1F
100
AcDbEntity
  8
OBJECTS
  6
CENTERX2
 62
     5
100
AcDbLine
 10
15.2507688068
 20
17.2922237518
 30
0.0
 11
4.2424261935
 21
17.2922237518
 31
0.0
  0
LINE
  5
E5
330
1F
100
AcDbEntity
  8
OBJECTS
  6
CENTERX2
 62
     5
100
AcDbLine
 10
2.6174261935
 20
15.6672237518
 30
0.0
 11
2.6174261935
 21
3.167223751799999
 31
0.0
  0
LINE
  5
E6
330
1F
100
AcDbEntity
  8
OBJECTS
  6
CENTERX2
 62
     5
100
AcDbLine
 10
4.2424261935
 20
1.5422237518
 30
0.0
 11
29.4924261935
 21
1.5422237518
 31
0.0
  0
LINE
  5
E7
330
1F
100
AcDbEntity
  8
OBJECTS
  6
CENTERX2
100
AcDbLine
 10
31.7424261935
 20
10.4172237518
 30
0.0
 11
29.8120994806
 21
10.4172237518
 31
0.0
  0
LINE
  5
E8
330
1F
100
AcDbEntity
  8
OBJECTS
  6
CENTERX2
100
AcDbLine
 10
3.922752906399999
 20
10.4172237518
 30
0.0
 11
1.992426193499999
 21
10.4172237518
 31
0.0
  0
LINE
  5
E9
330
1F
100
AcDbEntity
  8
OBJECTS
  6
CENTERX2
100
AcDbLine
 10
16.8674261935
 20
0.9172237518000001
 30
0.0
 11
16.8674261935
 21
2.8475504647
 31
0.0
  0
LINE
  5
EA
330
1F
100
AcDbEntity
  8
OBJECTS
  6
CENTERX2
100
AcDbLine
 10
16.8674261935
 20
16.6719948395
 30
0.0
 11
16.8674261935
 21
18.6023215524
 31
0.0
  0
ARC
  5
EB
330
1F
100
AcDbEntity
  8
OBJECTS
 62
     1
100
AcDbCircle
 10
29.4924261935
 20
17.6672237518
 30
0.0
 40
2.250000000000003
100
AcDbArc
 50
0.0
 51
90.0
  0
ARC
  5
EC
330
1F
100
AcDbEntity
  8
OBJECTS
 62
     1
100
AcDbCircle
 10
18.9924261935
 20
17.6672237518
 30
0.0
 40
2.249999999999999
100
AcDbArc
 50
90.0
 51
146.2510114041
  0
ARC
  5
ED
330
1F
100
AcDbEntity
  8
OBJECTS
 62
     1
100
AcDbCircle
 10
15.2507688068
 20
20.1672237518
 30
0.0
 40
2.250000000000003
100
AcDbArc
 50
270.0
 51
326.2510114041
  0
ARC
  5
EE
330
1F
100
AcDbEntity
  8
OBJECTS
 62
     1
100
AcDbCircle
 10
4.2424261935
 20
15.6672237518
 30
0.0
 40
2.25
100
AcDbArc
 50
90.0
 51
180.0
  0
ARC
  5
EF
330
1F
100
AcDbEntity
  8
OBJECTS
 62
     1
100
AcDbCircle
 10
4.2424261935
 20
3.167223751799999
 30
0.0
 40
2.249999999999999
100
AcDbArc
 50
180.0
 51
270.0
  0
ARC
  5
F0
330
1F
100
AcDbEntity
  8
OBJECTS
 62
     1
100
AcDbCircle
 10
29.4924261935
 20
3.167223751799999
 30
0.0
 40
2.250000000000003
100
AcDbArc
 50
270.0
 51
0.0
  0
ARC
  5
F1
330
1F
100
AcDbEntity
  8
OBJECTS
  6
CENTERX2
 62
     5
100
AcDbCircle
 10
29.4924261935
 20
17.6672237518
 30
0.0
 40
1.625000000000004
100
AcDbArc
 50
0.0
 51
90.0
  0
ARC
  5
F2
330
1F
100
AcDbEntity
  8
OBJECTS
  6
CENTERX2
 62
     5
100
AcDbCircle
 10
18.9924261935
 20
17.6672237518
 30
0.0
 40
1.625
100
AcDbArc
 50
90.0
 51
146.2510114041
  0
ARC
  5
F3
330
1F
100
AcDbEntity
  8
OBJECTS
  6
CENTERX2
 62
     5
100
AcDbCircle
 10
15.2507688068
 20
20.1672237518
 30
0.0
 40
2.875000000000001
100
AcDbArc
 50
270.0
 51
326.2510114041
  0
ARC
  5
F4
330
1F
100
AcDbEntity
  8
OBJECTS
  6
CENTERX2
 62
     5
100
AcDbCircle
 10
4.2424261935
 20
15.6672237518
 30
0.0
 40
1.625
100
AcDbArc
 50
90.0
 51
180.0
  0
ARC
  5
F5
330
1F
100
AcDbEntity
  8
OBJECTS
  6
CENTERX2
 62
     5
100
AcDbCircle
 10
4.2424261935
 20
3.167223751799999
 30
0.0
 40
1.625
100
AcDbArc
 50
180.0
 51
270.0
  0
ARC
  5
F6
330
1F
100
AcDbEntity
  8
OBJECTS
  6
CENTERX2
 62
     5
100
AcDbCircle
 10
29.4924261935
 20
3.167223751799999
 30
0.0
 40
1.625000000000004
100
AcDbArc
 50
270.0
 51
0.0
  0
INSERT
  5
F7
330
1F
100
AcDbEntity
  8
BLOCKS
100
AcDbBlockReference
  2
REVEAL- .500
 10
4.411855855199999
 20
-10.8394292594
 30
0.0
  0
INSERT
  5
F8
330
1F
100
AcDbEntity
  8
BLOCKS
100
AcDbBlockReference
  2
OVERHANG - .125
 10
2.623135974699999
 20
-24.1764761649
 30
0.0
  0
DIMENSION
  5
F9
330
1F
100
AcDbEntity
  8
DIMS
100
AcDbDimension
280
     0
  2
_D
 10
18.9924261935
 20
17.6672237518
 30
0.0
 11
16.2583695678
 21
20.8509942059
 31
0.0
 70
   164
  1
<>
 42
-1.0
 73
     0
 74
     0
 75
     0
  3
SLDDIMSTYLE0
100
AcDbRadialDimension
 15
17.860292614
 25
19.6116448888
 35
0.0
 40
0.0
  0
DIMENSION
  5
10D
330
1F
100
AcDbEntity
  8
DIMS
100
AcDbDimension
280
     0
  2
_D_1
 10
15.2507688068
 20
20.1672237518
 30
0.0
 11
17.5486661715
 21
15.7297421529
 31
0.0
 70
   164
  1
<>
 42
-1.0
 73
     0
 74
     0
 75
     0
  3
SLDDIMSTYLE0
100
AcDbRadialDimension
 15
16.1588932608
 25
17.4394160284
 35
0.0
 40
0.0
  0
DIMENSION
  5
120
330
1F
100
AcDbEntity
  8
DIMS
100
AcDbDimension
280
     0
  2
_D_2
 10
4.2424261935
 20
15.6672237518
 30
0.0
 11
5.1407802386
 21
15.4428873341
 31
0.0
 70
   164
  1
<>
 42
-1.0
 73
     0
 74
     0
 75
     0
  3
SLDDIMSTYLE1
100
AcDbRadialDimension
 15
3.702585673
 25
17.1999328607
 35
0.0
 40
0.0
  0
DIMENSION
  5
134
330
1F
100
AcDbEntity
  8
DIMS
100
AcDbDimension
280
     0
  2
_D_3
 10
4.2424261935
 20
3.167223751799999
 30
0.0
 11
5.237755435899999
 21
3.3357633848
 31
0.0
 70
   164
  1
<>
 42
-1.0
 73
     0
 74
     0
 75
     0
  3
SLDDIMSTYLE2
100
AcDbRadialDimension
 15
3.0103099567
 25
1.284568823499999
 35
0.0
 40
0.0
  0
DIMENSION
  5
148
330
1F
100
AcDbEntity
  8
DIMS
100
AcDbDimension
280
     0
  2
_D_4
 10
31.7424261935
 20
4.220561756
 30
0.0
 11
18.3596292531
 21
4.220561756
 31
0.0
 70
   160
  1
<>
 71
     2
 42
-1.0
 73
     0
 74
     0
 75
     0
  3
SLDDIMSTYLE3
100
AcDbAlignedDimension
 13
1.992426193499999
 23
3.167223751799999
 33
0.0
 14
31.7424261935
 24
3.167223751799999
 34
0.0
100
AcDbRotatedDimension
  0
DIMENSION
  5
15D
330
1F
100
AcDbEntity
  8
DIMS
100
AcDbDimension
280
     0
  2
_D_5
 10
31.1174261935
 20
5.6335451964
 30
0.0
 11
16.37876252
 21
5.6335451964
 31
0.0
 70
   160
  1
<>
 71
     2
 42
-1.0
 73
     0
 74
     0
 75
     0
  3
SLDDIMSTYLE3
100
AcDbAlignedDimension
 13
2.6174261935
 23
3.167223751799999
 33
0.0
 14
31.1174261935
 24
3.167223751799999
 34
0.0
100
AcDbRotatedDimension
  0
DIMENSION
  5
171
330
1F
100
AcDbEntity
  8
DIMS
100
AcDbDimension
280
     0
  2
_D_6
 10
27.5692017106
 20
19.2922237518
 30
0.0
 11
27.5692017106
 21
8.749622487799999
 31
0.0
 70
   160
  1
<>
 71
     2
 42
-1.0
 73
     0
 74
     0
 75
     0
  3
SLDDIMSTYLE3
100
AcDbAlignedDimension
 13
29.4924261935
 23
1.5422237518
 33
0.0
 14
29.4924261935
 24
19.2922237518
 34
0.0
 50
90.0
100
AcDbRotatedDimension
  0
DIMENSION
  5
185
330
1F
100
AcDbEntity
  8
DIMS
100
AcDbDimension
280
     0
  2
_D_7
 10
28.9533336166
 20
19.9172237518
 30
0.0
 11
28.9533336166
 21
12.3607335552
 31
0.0
 70
   160
  1
<>
 71
     2
 42
-1.0
 73
     0
 74
     0
 75
     0
  3
SLDDIMSTYLE3
100
AcDbAlignedDimension
 13
29.4924261935
 23
0.9172237518000001
 33
0.0
 14
29.4924261935
 24
19.9172237518
 34
0.0
 50
90.0
100
AcDbRotatedDimension
  0
DIMENSION
  5
195
330
1F
100
AcDbEntity
  8
DIMS
100
AcDbDimension
280
     0
  2
_D_8
 10
6.549710207999999
 20
17.9172237518
 30
0.0
 11
6.549710207999999
 21
12.0829557808
 31
0.0
 70
   160
  1
<>
 71
     2
 42
-1.0
 73
     0
 74
     0
 75
     0
  3
SLDDIMSTYLE3
100
AcDbAlignedDimension
 13
4.2424261935
 23
0.9172237518000001
 33
0.0
 14
4.2424261935
 24
17.9172237518
 34
0.0
 50
90.0
100
AcDbRotatedDimension
  0
DIMENSION
  5
1A5
330
1F
100
AcDbEntity
  8
DIMS
100
AcDbDimension
280
     0
  2
_D_9
 10
7.966031227999999
 20
17.2922237518
 30
0.0
 11
7.966031227999999
 21
10.1385113599
 31
0.0
 70
   160
  1
<>
 71
     2
 42
-1.0
 73
     0
 74
     0
 75
     0
  3
SLDDIMSTYLE3
100
AcDbAlignedDimension
 13
4.2424261935
 23
1.5422237518
 33
0.0
 14
4.2424261935
 24
17.2922237518
 34
0.0
 50
90.0
100
AcDbRotatedDimension
  0
DIMENSION
  5
1B9
330
1F
100
AcDbEntity
  8
DIMS
100
AcDbDimension
280
     0
  2
_D_10
 10
18.9924261935
 20
17.6672237518
 30
0.0
 11
18.8568398745
 21
18.0267749912
 31
0.0
 70
   164
  1
<>
 42
-1.0
 73
     0
 74
     0
 75
     0
  3
SLDDIMSTYLE4
100
AcDbRadialDimension
 15
18.4190518837
 25
19.1877062084
 35
0.0
 40
0.0
  0
DIMENSION
  5
1CC
330
1F
100
AcDbEntity
  8
DIMS
100
AcDbDimension
280
     0
  2
_D_11
 10
15.2507688068
 20
20.1672237518
 30
0.0
 11
15.745916614
 21
19.2893250158
 31
0.0
 70
   164
  1
<>
 42
-1.0
 73
     0
 74
     0
 75
     0
  3
SLDDIMSTYLE4
100
AcDbRadialDimension
 15
16.3561098306
 25
18.207447943
 35
0.0
 40
0.0
  0
INSERT
  5
1E6
102
{ACAD_REACTORS
330
1E8
330
1E9
102
}
330
1F
100
AcDbEntity
  8
NOTES
100
AcDbBlockReference
  2
SW_NOTE_0
 10
10.8318000198
 20
6.7375598669
 30
0.0
  0
LEADER
  5
1E8
330
1F
100
AcDbEntity
  8
NOTES
100
AcDbLeader
  3
SLDDIMSTYLE5
 73
     2
 76
     3
 10
16.8674261935
 20
1.898754878899999
 30
0.0
 10
11.0818000198
 20
6.7375598669
 30
0.0
 10
10.8318000198
 20
6.7375598669
 30
0.0
340
1E6
  0
LEADER
  5
1E9
330
1F
100
AcDbEntity
  8
NOTES
100
AcDbLeader
  3
SLDDIMSTYLE5
 73
     2
 76
     3
 10
2.608146851699999
 20
10.4172237518
 30
0.0
 10
8.4318690189
 20
6.7375598669
 30
0.0
 10
8.6818690189
 20
6.7375598669
 30
0.0
340
1E6
212
-2.149931000892926
222
0.0
232
0.0
  0
INSERT
  5
1EF
102
{ACAD_REACTORS
330
1F0
102
}
330
1F
100
AcDbEntity
  8
NOTES
100
AcDbBlockReference
  2
SW_NOTE_1
 10
21.7420921612
 20
3.312408113899999
 30
0.0
  0
LEADER
  5
1F0
330
1F
100
AcDbEntity
  8
NOTES
100
AcDbLeader
  3
SLDDIMSTYLE5
 73
     2
 76
     3
 10
21.0049246208
 20
1.5422237518
 30
0.0
 10
21.4920921612
 20
3.312408113899999
 30
0.0
 10
21.7420921612
 20
3.312408113899999
 30
0.0
340
1EF
  0
INSERT
  5
1F6
102
{ACAD_REACTORS
330
1F7
102
}
330
1F
100
AcDbEntity
  8
NOTES
100
AcDbBlockReference
  2
SW_NOTE_2
 10
22.7522751666
 20
17.4324214628
 30
0.0
  0
LEADER
  5
1F7
330
1F
100
AcDbEntity
  8
NOTES
100
AcDbLeader
  3
SLDDIMSTYLE5
 73
     2
 76
     3
 10
21.7222906304
 20
19.9172237518
 30
0.0
 10
22.5022751666
 20
17.4324214628
 30
0.0
 10
22.7522751666
 20
17.4324214628
 30
0.0
340
1F6
  0
INSERT
  5
205
330
1F
100
AcDbEntity
  8
NOTES
100
AcDbBlockReference
  2
SW_NOTE_3
 10
12.4609470621
 20
12.5794835503
 30
0.0
  0
INSERT
  5
20C
330
1F
100
AcDbEntity
  8
NOTES
100
AcDbBlockReference
  2
SW_NOTE_4
 10
11.6092624509
 20
13.5988860586
 30
0.0
  0
MTEXT
  5
20D
330
1F
100
AcDbEntity
  8
NOTES
100
AcDbMText
 10
25.11320281030001
 20
2.2475131524
 30
0.0
 40
0.2083333333
 41
0.0
 46
0.0
 71
     1
 72
     1
  1
REV_D  7/15
  7
SLDTEXTSTYLE0
 73
     1
 44
1.0
  0
ENDSEC
  0
SECTION
  2
OBJECTS
  0
DICTIONARY
  5
C
330
0
100
AcDbDictionary
281
     1
  3
ACAD_CIP_PREVIOUS_PRODUCT_INFO
350
25F
  3
ACAD_COLOR
350
242
  3
ACAD_DETAILVIEWSTYLE
350
25B
  3
ACAD_GROUP
350
D
  3
ACAD_LAYOUT
350
1A
  3
ACAD_MATERIAL
350
210
  3
ACAD_MLEADERSTYLE
350
257
  3
ACAD_MLINESTYLE
350
17
  3
ACAD_PLOTSETTINGS
350
19
  3
ACAD_PLOTSTYLENAME
350
E
  3
ACAD_SCALELIST
350
245
  3
ACAD_SECTIONVIEWSTYLE
350
259
  3
ACAD_TABLESTYLE
350
243
  3
ACAD_VISUALSTYLE
350
229
  3
ACDB_RECOMPOSE_DATA
350
285
  3
AcDbVariableDictionary
350
278
  0
DICTIONARY
  5
272
330
2
100
AcDbDictionary
280
     1
281
     1
  3
ACAD_LAYERSTATES
360
273
  0
DICTIONARY
  5
267
330
206
100
AcDbDictionary
280
     1
281
     1
  0
XRECORD
  5
25F
102
{ACAD_REACTORS
330
C
102
}
330
C
100
AcDbXrecord
280
     1
300
AMECH_PP
300
2019
300

  0
DICTIONARY
  5
242
102
{ACAD_REACTORS
330
C
102
}
330
C
100
AcDbDictionary
281
     1
  0
DICTIONARY
  5
25B
102
{ACAD_REACTORS
330
C
102
}
330
C
100
AcDbDictionary
281
     1
  3
Imperial24
350
25C
  0
DICTIONARY
  5
D
102
{ACAD_REACTORS
330
C
102
}
330
C
100
AcDbDictionary
281
     1
  0
DICTIONARY
  5
1A
102
{ACAD_REACTORS
330
C
102
}
330
C
100
AcDbDictionary
281
     1
  3
Layout1
350
1E
  3
Layout2
350
26
  3
Model
350
22
  0
DICTIONARY
  5
210
102
{ACAD_REACTORS
330
C
102
}
330
C
100
AcDbDictionary
281
     1
  3
ByBlock
350
219
  3
ByLayer
350
211
  3
Global
350
221
  0
DICTIONARY
  5
257
102
{ACAD_REACTORS
330
C
102
}
330
C
100
AcDbDictionary
281
     1
  3
Standard
350
258
  0
DICTIONARY
  5
17
102
{ACAD_REACTORS
330
C
102
}
330
C
100
AcDbDictionary
281
     1
  3
Standard
350
18
  0
DICTIONARY
  5
19
102
{ACAD_REACTORS
330
C
102
}
330
C
100
AcDbDictionary
281
     1
  0
ACDBDICTIONARYWDFLT
  5
E
102
{ACAD_REACTORS
330
C
102
}
330
C
100
AcDbDictionary
281
     1
  3
Normal
350
F
100
AcDbDictionaryWithDefault
340
F
  0
DICTIONARY
  5
245
102
{ACAD_REACTORS
330
C
102
}
330
C
100
AcDbDictionary
281
     1
  3
A0
350
246
  3
A1
350
247
  3
A2
350
248
  3
A3
350
249
  3
A4
350
24A
  3
A5
350
24B
  3
A6
350
24C
  3
A7
350
24D
  3
A8
350
24E
  3
A9
350
24F
  3
B0
350
250
  3
B1
350
251
  3
B2
350
252
  3
B3
350
253
  3
B4
350
254
  3
B5
350
255
  3
B6
350
256
  0
DICTIONARY
  5
259
102
{ACAD_REACTORS
330
C
102
}
330
C
100
AcDbDictionary
281
     1
  3
Imperial24
350
25A
  0
DICTIONARY
  5
243
102
{ACAD_REACTORS
330
C
102
}
330
C
100
AcDbDictionary
281
     1
  3
Standard
350
244
  0
DICTIONARY
  5
229
102
{ACAD_REACTORS
330
C
102
}
330
C
100
AcDbDictionary
281
     1
  3
2dWireframe
350
22F
  3
Basic
350
22E
  3
Brighten
350
235
  3
ColorChange
350
239
  3
Conceptual
350
232
  3
Dim
350
234
  3
EdgeColorOff
350
241
  3
Facepattern
350
238
  3
Flat
350
22A
  3
FlatWithEdges
350
22B
  3
Gouraud
350
22C
  3
GouraudWithEdges
350
22D
  3
Hidden
350
231
  3
JitterOff
350
23F
  3
Linepattern
350
237
  3
OverhangOff
350
240
  3
Realistic
350
233
  3
Shaded
350
23E
  3
Shaded with edges
350
23D
  3
Shades of Gray
350
23A
  3
Sketchy
350
23B
  3
Thicken
350
236
  3
Wireframe
350
230
  3
X-Ray
350
23C
  0
XRECORD
  5
285
102
{ACAD_REACTORS
330
C
102
}
330
C
100
AcDbXrecord
280
     1
 90
        1
330
244
  0
DICTIONARY
  5
278
102
{ACAD_REACTORS
330
C
102
}
330
C
100
AcDbDictionary
281
     1
  3
CANNOSCALE
350
27E
  3
CMLEADERSTYLE
350
27A
  3
CTABLESTYLE
350
279
  3
CVIEWDETAILSTYLE
350
27B
  3
CVIEWSECTIONSTYLE
350
27C
  3
LAYEREVAL
350
280
  3
LAYERNOTIFY
350
281
  3
LIGHTINGUNITS
350
27F
  3
MSLTSCALE
350
27D
  0
DICTIONARY
  5
273
102
{ACAD_REACTORS
330
272
102
}
330
272
100
AcDbDictionary
281
     1
  0
ACDBDETAILVIEWSTYLE
  5
25C
102
{ACAD_REACTORS
330
25B
102
}
330
25B
100
AcDbModelDocViewStyle
 70
     0
  3
Imperial24
290
     0
300
Imperial24
 90
        0
100
AcDbDetailViewStyle
 70
     0
 71
     0
 90
        3
 71
     1
340
11
 62
   256
 40
0.24
340
0
 62
   256
 40
0.24
300

 40
0.36
280
     3
 71
     2
340
16
 90
       25
 62
   256
 71
     3
340
11
 62
   256
 40
0.24
 90
        1
 40
0.75
 90
        1
300
%<\AcVar ViewType \f "%tc1">% %<\AcVar ViewDetailId>%\PSCALE %<\AcVar ViewScale \f "%sn">%
 71
     4
340
16
 90
       25
 62
   256
340
16
 90
       25
 62
   256
280
     0
  0
LAYOUT
  5
1E
102
{ACAD_REACTORS
330
1A
102
}
330
1A
100
AcDbPlotSettings
  1

  2
none_device
  4

  6

 40
0.0
 41
0.0
 42
0.0
 43
0.0
 44
0.0
 45
0.0
 46
0.0
 47
0.0
 48
0.0
 49
0.0
140
0.0
141
0.0
142
1.0
143
1.0
 70
   688
 72
     0
 73
     0
 74
     5
  7

 75
    16
147
1.0
 76
     0
 77
     2
 78
   300
148
0.0
149
0.0
100
AcDbLayout
  1
Layout1
 70
     1
 71
     1
 10
0.0
 20
0.0
 11
12.0
 21
9.0
 12
0.0
 22
0.0
 32
0.0
 14
1.000000000000000E+20
 24
1.000000000000000E+20
 34
1.000000000000000E+20
 15
-1.000000000000000E+20
 25
-1.000000000000000E+20
 35
-1.000000000000000E+20
146
0.0
 13
0.0
 23
0.0
 33
0.0
 16
1.0
 26
0.0
 36
0.0
 17
0.0
 27
1.0
 37
0.0
 76
     0
330
1B
  0
LAYOUT
  5
26
102
{ACAD_REACTORS
330
1A
102
}
330
1A
100
AcDbPlotSettings
  1

  2
none_device
  4

  6

 40
0.0
 41
0.0
 42
0.0
 43
0.0
 44
0.0
 45
0.0
 46
0.0
 47
0.0
 48
0.0
 49
0.0
140
0.0
141
0.0
142
1.0
143
1.0
 70
   688
 72
     0
 73
     0
 74
     5
  7

 75
    16
147
1.0
 76
     0
 77
     2
 78
   300
148
0.0
149
0.0
100
AcDbLayout
  1
Layout2
 70
     1
 71
     2
 10
0.0
 20
0.0
 11
0.0
 21
0.0
 12
0.0
 22
0.0
 32
0.0
 14
0.0
 24
0.0
 34
0.0
 15
0.0
 25
0.0
 35
0.0
146
0.0
 13
0.0
 23
0.0
 33
0.0
 16
1.0
 26
0.0
 36
0.0
 17
0.0
 27
1.0
 37
0.0
 76
     0
330
23
  0
LAYOUT
  5
22
102
{ACAD_REACTORS
330
1A
102
}
330
1A
100
AcDbPlotSettings
  1

  2
none_device
  4

  6

 40
0.0
 41
0.0
 42
0.0
 43
0.0
 44
0.0
 45
0.0
 46
0.0
 47
0.0
 48
0.0
 49
0.0
140
0.0
141
0.0
142
1.0
143
1.0
 70
  1712
 72
     0
 73
     0
 74
     0
  7

 75
     0
147
1.0
 76
     0
 77
     2
 78
   300
148
0.0
149
0.0
100
AcDbLayout
  1
Model
 70
     1
 71
     0
 10
0.0
 20
0.0
 11
34.0
 21
22.0
 12
0.0
 22
0.0
 32
0.0
 14
0.0
 24
0.0
 34
0.0
 15
34.0
 25
22.0
 35
0.0
146
0.0
 13
0.0
 23
0.0
 33
0.0
 16
1.0
 26
0.0
 36
0.0
 17
0.0
 27
1.0
 37
0.0
 76
     0
330
1F
331
29
  0
MATERIAL
  5
219
102
{ACAD_XDICTIONARY
360
21A
102
}
102
{ACAD_REACTORS
330
210
102
}
330
210
100
AcDbMaterial
  1
ByBlock
 72
     0
 43
0.0208333333333333
 43
0.0
 43
0.0
 43
0.0
 43
0.0
 43
0.0208333333333333
 43
0.0
 43
0.0
 43
0.0
 43
0.0
 43
1.0
 43
0.0
 43
0.0
 43
0.0
 43
0.0
 43
1.0
 77
     0
 47
0.0208333333333333
 47
0.0
 47
0.0
 47
0.0
 47
0.0
 47
0.0208333333333333
 47
0.0
 47
0.0
 47
0.0
 47
0.0
 47
1.0
 47
0.0
 47
0.0
 47
0.0
 47
0.0
 47
1.0
171
     0
 49
0.0208333333333333
 49
0.0
 49
0.0
 49
0.0
 49
0.0
 49
0.0208333333333333
 49
0.0
 49
0.0
 49
0.0
 49
0.0
 49
1.0
 49
0.0
 49
0.0
 49
0.0
 49
0.0
 49
1.0
175
     0
142
0.0208333333333333
142
0.0
142
0.0
142
0.0
142
0.0
142
0.0208333333333333
142
0.0
142
0.0
142
0.0
142
0.0
142
1.0
142
0.0
142
0.0
142
0.0
142
0.0
142
1.0
179
     0
144
0.0208333333333333
144
0.0
144
0.0
144
0.0
144
0.0
144
0.0208333333333333
144
0.0
144
0.0
144
0.0
144
0.0
144
1.0
144
0.0
144
0.0
144
0.0
144
0.0
144
1.0
147
0.0208333333333333
147
0.0
147
0.0
147
0.0
147
0.0
147
0.0208333333333333
147
0.0
147
0.0
147
0.0
147
0.0
147
1.0
147
0.0
147
0.0
147
0.0
147
0.0
147
1.0
  0
MATERIAL
  5
211
102
{ACAD_XDICTIONARY
360
212
102
}
102
{ACAD_REACTORS
330
210
102
}
330
210
100
AcDbMaterial
  1
ByLayer
 72
     0
 43
0.0208333333333333
 43
0.0
 43
0.0
 43
0.0
 43
0.0
 43
0.0208333333333333
 43
0.0
 43
0.0
 43
0.0
 43
0.0
 43
1.0
 43
0.0
 43
0.0
 43
0.0
 43
0.0
 43
1.0
 77
     0
 47
0.0208333333333333
 47
0.0
 47
0.0
 47
0.0
 47
0.0
 47
0.0208333333333333
 47
0.0
 47
0.0
 47
0.0
 47
0.0
 47
1.0
 47
0.0
 47
0.0
 47
0.0
 47
0.0
 47
1.0
171
     0
 49
0.0208333333333333
 49
0.0
 49
0.0
 49
0.0
 49
0.0
 49
0.0208333333333333
 49
0.0
 49
0.0
 49
0.0
 49
0.0
 49
1.0
 49
0.0
 49
0.0
 49
0.0
 49
0.0
 49
1.0
175
     0
142
0.0208333333333333
142
0.0
142
0.0
142
0.0
142
0.0
142
0.0208333333333333
142
0.0
142
0.0
142
0.0
142
0.0
142
1.0
142
0.0
142
0.0
142
0.0
142
0.0
142
1.0
179
     0
144
0.0208333333333333
144
0.0
144
0.0
144
0.0
144
0.0
144
0.0208333333333333
144
0.0
144
0.0
144
0.0
144
0.0
144
1.0
144
0.0
144
0.0
144
0.0
144
0.0
144
1.0
147
0.0208333333333333
147
0.0
147
0.0
147
0.0
147
0.0
147
0.0208333333333333
147
0.0
147
0.0
147
0.0
147
0.0
147
1.0
147
0.0
147
0.0
147
0.0
147
0.0
147
1.0
  0
MATERIAL
  5
221
102
{ACAD_XDICTIONARY
360
222
102
}
102
{ACAD_REACTORS
330
210
102
}
330
210
100
AcDbMaterial
  1
Global
 72
     0
 43
0.0208333333333333
 43
0.0
 43
0.0
 43
0.0
 43
0.0
 43
0.0208333333333333
 43
0.0
 43
0.0
 43
0.0
 43
0.0
 43
1.0
 43
0.0
 43
0.0
 43
0.0
 43
0.0
 43
1.0
 77
     0
 47
0.0208333333333333
 47
0.0
 47
0.0
 47
0.0
 47
0.0
 47
0.0208333333333333
 47
0.0
 47
0.0
 47
0.0
 47
0.0
 47
1.0
 47
0.0
 47
0.0
 47
0.0
 47
0.0
 47
1.0
171
     0
 49
0.0208333333333333
 49
0.0
 49
0.0
 49
0.0
 49
0.0
 49
0.0208333333333333
 49
0.0
 49
0.0
 49
0.0
 49
0.0
 49
1.0
 49
0.0
 49
0.0
 49
0.0
 49
0.0
 49
1.0
175
     0
142
0.0208333333333333
142
0.0
142
0.0
142
0.0
142
0.0
142
0.0208333333333333
142
0.0
142
0.0
142
0.0
142
0.0
142
1.0
142
0.0
142
0.0
142
0.0
142
0.0
142
1.0
179
     0
144
0.0208333333333333
144
0.0
144
0.0
144
0.0
144
0.0
144
0.0208333333333333
144
0.0
144
0.0
144
0.0
144
0.0
144
1.0
144
0.0
144
0.0
144
0.0
144
0.0
144
1.0
147
0.0208333333333333
147
0.0
147
0.0
147
0.0
147
0.0
147
0.0208333333333333
147
0.0
147
0.0
147
0.0
147
0.0
147
1.0
147
0.0
147
0.0
147
0.0
147
0.0
147
1.0
  0
MLEADERSTYLE
  5
258
102
{ACAD_REACTORS
330
257
102
}
330
257
100
AcDbMLeaderStyle
179
     2
170
     2
171
     1
172
     0
 90
        2
 40
0.0
 41
0.0
173
     1
 91
-1056964608
340
14
 92
       -2
290
     1
 42
0.09
291
     1
 43
0.36
  3
Standard
 44
0.18
300

342
11
174
     1
178
     6
175
     1
176
     0
 93
-1056964608
 45
0.18
292
     0
297
     0
 46
0.18
 94
-1056964608
 47
1.0
 49
1.0
140
1.0
293
     1
141
0.0
294
     1
177
     0
142
1.0
295
     0
296
     0
143
0.125
271
     0
272
     9
273
     9
298
     0
  0
MLINESTYLE
  5
18
102
{ACAD_REACTORS
330
17
102
}
330
17
100
AcDbMlineStyle
  2
STANDARD
 70
     0
  3

 62
   256
 51
90.0
 52
90.0
 71
     2
 49
0.5
 62
   256
  6
BYLAYER
 49
-0.5
 62
   256
  6
BYLAYER
  0
ACDBPLACEHOLDER
  5
F
102
{ACAD_REACTORS
330
E
102
}
330
E
  0
SCALE
  5
246
102
{ACAD_REACTORS
330
245
102
}
330
245
100
AcDbScale
 70
     0
300
1:1
140
1.0
141
1.0
290
     1
  0
SCALE
  5
247
102
{ACAD_REACTORS
330
245
102
}
330
245
100
AcDbScale
 70
     0
300
1/128" = 1'-0"
140
0.0078125
141
12.0
290
     0
  0
SCALE
  5
248
102
{ACAD_REACTORS
330
245
102
}
330
245
100
AcDbScale
 70
     0
300
1/64" = 1'-0"
140
0.015625
141
12.0
290
     0
  0
SCALE
  5
249
102
{ACAD_REACTORS
330
245
102
}
330
245
100
AcDbScale
 70
     0
300
1/32" = 1'-0"
140
0.03125
141
12.0
290
     0
  0
SCALE
  5
24A
102
{ACAD_REACTORS
330
245
102
}
330
245
100
AcDbScale
 70
     0
300
1/16" = 1'-0"
140
0.0625
141
12.0
290
     0
  0
SCALE
  5
24B
102
{ACAD_REACTORS
330
245
102
}
330
245
100
AcDbScale
 70
     0
300
3/32" = 1'-0"
140
0.09375
141
12.0
290
     0
  0
SCALE
  5
24C
102
{ACAD_REACTORS
330
245
102
}
330
245
100
AcDbScale
 70
     0
300
1/8" = 1'-0"
140
0.125
141
12.0
290
     0
  0
SCALE
  5
24D
102
{ACAD_REACTORS
330
245
102
}
330
245
100
AcDbScale
 70
     0
300
3/16" = 1'-0"
140
0.1875
141
12.0
290
     0
  0
SCALE
  5
24E
102
{ACAD_REACTORS
330
245
102
}
330
245
100
AcDbScale
 70
     0
300
1/4" = 1'-0"
140
0.25
141
12.0
290
     0
  0
SCALE
  5
24F
102
{ACAD_REACTORS
330
245
102
}
330
245
100
AcDbScale
 70
     0
300
3/8" = 1'-0"
140
0.375
141
12.0
290
     0
  0
SCALE
  5
250
102
{ACAD_REACTORS
330
245
102
}
330
245
100
AcDbScale
 70
     0
300
1/2" = 1'-0"
140
0.5
141
12.0
290
     0
  0
SCALE
  5
251
102
{ACAD_REACTORS
330
245
102
}
330
245
100
AcDbScale
 70
     0
300
3/4" = 1'-0"
140
0.75
141
12.0
290
     0
  0
SCALE
  5
252
102
{ACAD_REACTORS
330
245
102
}
330
245
100
AcDbScale
 70
     0
300
1" = 1'-0"
140
1.0
141
12.0
290
     0
  0
SCALE
  5
253
102
{ACAD_REACTORS
330
245
102
}
330
245
100
AcDbScale
 70
     0
300
1-1/2" = 1'-0"
140
1.5
141
12.0
290
     0
  0
SCALE
  5
254
102
{ACAD_REACTORS
330
245
102
}
330
245
100
AcDbScale
 70
     0
300
3" = 1'-0"
140
3.0
141
12.0
290
     0
  0
SCALE
  5
255
102
{ACAD_REACTORS
330
245
102
}
330
245
100
AcDbScale
 70
     0
300
6" = 1'-0"
140
6.0
141
12.0
290
     0
  0
SCALE
  5
256
102
{ACAD_REACTORS
330
245
102
}
330
245
100
AcDbScale
 70
     0
300
1'-0" = 1'-0"
140
12.0
141
12.0
290
     0
  0
ACDBSECTIONVIEWSTYLE
  5
25A
102
{ACAD_REACTORS
330
259
102
}
330
259
100
AcDbModelDocViewStyle
 70
     0
  3
Imperial24
290
     0
300
Imperial24
 90
        0
100
AcDbSectionViewStyle
 70
     0
 71
     0
 90
       78
 71
     1
340
11
 62
   256
 40
0.24
340
0
340
0
 62
   256
 40
0.24
300
I, O, Q, S, X, Z
 40
0.48
 90
        3
 40
0.18
 90
        1
 71
     2
340
16
 90
       25
 62
   256
340
16
 90
       50
 62
   256
 40
0.24
 40
0.0
 40
0.24
 71
     3
340
11
 62
   256
 40
0.24
 90
        1
 40
0.75
 90
        1
300
%<\AcVar ViewType \f "%tc1">% %<\AcVar ViewSectionStartId>%-%<\AcVar ViewSectionEndId>%\PSCALE %<\AcVar ViewScale \f "%sn">%
 71
     4
 62
   256
 62
   257
300
ANSI31
 40
1.0
 90
        0
290
     0
290
     0
 90
        6
 40
0.0
 40
1.570796326794896
 40
0.2617993877991494
 40
1.308996938995747
 40
-0.2617993877991494
 40
1.832595714594046
  0
TABLESTYLE
  5
244
102
{ACAD_XDICTIONARY
360
283
102
}
102
{ACAD_REACTORS
330
243
102
}
330
243
100
AcDbTableStyle
280
     0
  3
Standard
 70
     0
 71
     0
 40
0.06
 41
0.06
280
     0
281
     0
  7
Standard
140
0.18
170
     2
 62
     0
 63
     7
283
     0
 90
      512
 91
        0
  1

274
    -2
284
     1
 64
     0
275
    -2
285
     1
 65
     0
276
    -2
286
     1
 66
     0
277
    -2
287
     1
 67
     0
278
    -2
288
     1
 68
     0
279
    -2
289
     1
 69
     0
  7
Standard
140
0.25
170
     5
 62
     0
 63
     7
283
     0
 90
      512
 91
        0
  1

274
    -2
284
     1
 64
     0
275
    -2
285
     1
 65
     0
276
    -2
286
     1
 66
     0
277
    -2
287
     1
 67
     0
278
    -2
288
     1
 68
     0
279
    -2
289
     1
 69
     0
  7
Standard
140
0.18
170
     5
 62
     0
 63
     7
283
     0
 90
      512
 91
        0
  1

274
    -2
284
     1
 64
     0
275
    -2
285
     1
 65
     0
276
    -2
286
     1
 66
     0
277
    -2
287
     1
 67
     0
278
    -2
288
     1
 68
     0
279
    -2
289
     1
 69
     0
  0
VISUALSTYLE
  5
22F
102
{ACAD_REACTORS
330
229
102
}
330
229
100
AcDbVisualStyle
  2
2dWireframe
 70
     4
177
     3
291
     0
 70
    58
 90
        0
176
     1
 90
        2
176
     1
 90
        0
176
     1
 90
        0
176
     1
 40
0.6
176
     1
 40
30.0
176
     1
 62
     7
420
 16777215
176
     1
 90
        1
176
     1
 90
        4
176
     1
 62
     7
176
     1
 62
   257
176
     1
 90
        1
176
     1
 90
        1
176
     1
 40
1.0
176
     1
 90
        0
176
     1
 62
   257
176
     1
 40
1.0
176
     1
 90
        1
176
     1
 90
        6
176
     1
 90
        2
176
     1
 62
     7
176
     1
 90
        5
176
     1
 90
        0
176
     1
 90
        0
176
     1
290
     0
176
     1
 90
        1
176
     1
 40
0.0
176
     1
 90
        0
176
     1
290
     1
176
     1
290
     1
176
     1
290
     0
176
     1
290
     0
176
     1
290
     0
176
     1
290
     0
176
     1
290
     0
176
     1
290
     0
176
     1
290
     0
176
     1
 90
       50
176
     1
 40
0.0
176
     1
 40
1.0
176
     1
 90
        0
176
     1
 62
    18
420
        0
176
     1
 90
       50
176
     1
 90
        3
176
     1
 62
     5
420
      255
176
     1
290
     0
176
     1
 90
       50
176
     1
 90
       50
176
     1
 90
       50
176
     1
290
     0
176
     1
 90
       50
176
     1
 62
   256
176
     0
 40
1.0
176
     0
 90
        2
176
     1
  1
strokes_ogs.tif
176
     1
290
     0
176
     1
 40
1.0
176
     1
 40
1.0
176
     1
  0
VISUALSTYLE
  5
22E
102
{ACAD_REACTORS
330
229
102
}
330
229
100
AcDbVisualStyle
  2
Basic
 70
     7
177
     3
291
     1
 70
    58
 90
        1
176
     1
 90
        0
176
     1
 90
        1
176
     1
 90
        0
176
     1
 40
0.6
176
     1
 40
30.0
176
     1
 62
     7
420
 16777215
176
     1
 90
        0
176
     1
 90
        4
176
     1
 62
     7
176
     1
 62
   257
176
     1
 90
        1
176
     1
 90
        1
176
     1
 40
1.0
176
     1
 90
        8
176
     1
 62
     7
176
     1
 40
1.0
176
     1
 90
        1
176
     1
 90
        6
176
     1
 90
        2
176
     1
 62
     7
176
     1
 90
        5
176
     1
 90
        0
176
     1
 90
        0
176
     1
290
     0
176
     1
 90
        1
176
     1
 40
0.0
176
     1
 90
        0
176
     1
290
     0
176
     1
290
     1
176
     1
290
     1
176
     1
290
     0
176
     1
290
     0
176
     1
290
     0
176
     1
290
     0
176
     1
290
     0
176
     1
290
     0
176
     1
 90
       50
176
     1
 40
0.0
176
     1
 40
1.0
176
     1
 90
        0
176
     1
 62
    18
420
        0
176
     1
 90
       50
176
     1
 90
        3
176
     1
 62
     5
420
      255
176
     1
290
     0
176
     1
 90
       50
176
     1
 90
       50
176
     1
 90
       50
176
     1
290
     0
176
     1
 90
       50
176
     1
 62
   256
176
     0
 40
1.0
176
     0
 90
        2
176
     1
  1
strokes_ogs.tif
176
     1
290
     0
176
     1
 40
1.0
176
     1
 40
1.0
176
     1
  0
VISUALSTYLE
  5
235
102
{ACAD_REACTORS
330
229
102
}
330
229
100
AcDbVisualStyle
  2
Brighten
 70
    12
177
     3
291
     1
 70
    58
 90
        2
176
     1
 90
        2
176
     1
 90
        0
176
     1
 90
        0
176
     1
 40
0.6
176
     1
 40
30.0
176
     1
 62
     7
420
 16777215
176
     1
 90
        1
176
     1
 90
        4
176
     1
 62
     7
176
     1
 62
   257
176
     1
 90
        1
176
     1
 90
        1
176
     1
 40
1.0
176
     1
 90
        8
176
     1
 62
     7
176
     1
 40
1.0
176
     1
 90
        1
176
     1
 90
        6
176
     1
 90
        2
176
     1
 62
     7
176
     1
 90
        5
176
     1
 90
        0
176
     1
 90
        0
176
     1
290
     0
176
     1
 90
        1
176
     1
 40
50.0
176
     1
 90
        0
176
     1
290
     0
176
     1
290
     1
176
     1
290
     1
176
     1
290
     0
176
     1
290
     0
176
     1
290
     0
176
     1
290
     0
176
     1
290
     0
176
     1
290
     0
176
     1
 90
       50
176
     1
 40
0.0
176
     1
 40
1.0
176
     1
 90
        0
176
     1
 62
    18
420
        0
176
     1
 90
       50
176
     1
 90
        3
176
     1
 62
     5
420
      255
176
     1
290
     0
176
     1
 90
       50
176
     1
 90
       50
176
     1
 90
       50
176
     1
290
     0
176
     1
 90
       50
176
     1
 62
   256
176
     0
 40
1.0
176
     0
 90
        2
176
     1
  1
strokes_ogs.tif
176
     1
290
     0
176
     1
 40
1.0
176
     1
 40
1.0
176
     1
  0
VISUALSTYLE
  5
239
102
{ACAD_REACTORS
330
229
102
}
330
229
100
AcDbVisualStyle
  2
ColorChange
 70
    16
177
     3
291
     1
 70
    58
 90
        2
176
     1
 90
        2
176
     1
 90
        3
176
     1
 90
        0
176
     1
 40
0.6
176
     1
 40
30.0
176
     1
 62
     8
420
  8421504
176
     1
 90
        1
176
     1
 90
        4
176
     1
 62
     7
176
     1
 62
   257
176
     1
 90
        1
176
     1
 90
        1
176
     1
 40
1.0
176
     1
 90
        8
176
     1
 62
     8
420
  8421504
176
     1
 40
1.0
176
     1
 90
        1
176
     1
 90
        6
176
     1
 90
        2
176
     1
 62
     7
176
     1
 90
        5
176
     1
 90
        0
176
     1
 90
        0
176
     1
290
     0
176
     1
 90
        1
176
     1
 40
0.0
176
     1
 90
        0
176
     1
290
     0
176
     1
290
     1
176
     1
290
     1
176
     1
290
     0
176
     1
290
     0
176
     1
290
     0
176
     1
290
     0
176
     1
290
     0
176
     1
290
     0
176
     1
 90
       50
176
     1
 40
0.0
176
     1
 40
1.0
176
     1
 90
        0
176
     1
 62
    18
420
        0
176
     1
 90
       50
176
     1
 90
        3
176
     1
 62
     5
420
      255
176
     1
290
     0
176
     1
 90
       50
176
     1
 90
       50
176
     1
 90
       50
176
     1
290
     0
176
     1
 90
       50
176
     1
 62
   256
176
     0
 40
1.0
176
     0
 90
        2
176
     1
  1
strokes_ogs.tif
176
     1
290
     0
176
     1
 40
1.0
176
     1
 40
1.0
176
     1
  0
VISUALSTYLE
  5
232
102
{ACAD_REACTORS
330
229
102
}
330
229
100
AcDbVisualStyle
  2
Conceptual
 70
     9
177
     3
291
     0
 70
    58
 90
        3
176
     1
 90
        2
176
     1
 90
        0
176
     1
 90
        0
176
     1
 40
0.6
176
     1
 40
30.0
176
     1
 62
     7
420
 16777215
176
     1
 90
        2
176
     1
 90
        2
176
     1
 62
     7
176
     1
 62
   257
176
     1
 90
        1
176
     1
 90
        1
176
     1
 40
179.0
176
     1
 90
        8
176
     1
 62
     7
176
     1
 40
1.0
176
     1
 90
        1
176
     1
 90
        6
176
     1
 90
        2
176
     1
 62
     7
176
     1
 90
        3
176
     1
 90
        0
176
     1
 90
        0
176
     1
290
     0
176
     1
 90
        1
176
     1
 40
0.0
176
     1
 90
        0
176
     1
290
     0
176
     1
290
     1
176
     1
290
     1
176
     1
290
     0
176
     1
290
     0
176
     1
290
     0
176
     1
290
     0
176
     1
290
     0
176
     1
290
     0
176
     1
 90
       50
176
     1
 40
0.0
176
     1
 40
1.0
176
     1
 90
        0
176
     1
 62
    18
420
        0
176
     1
 90
       50
176
     1
 90
        3
176
     1
 62
     5
420
      255
176
     1
290
     0
176
     1
 90
       50
176
     1
 90
       50
176
     1
 90
       50
176
     1
290
     0
176
     1
 90
       50
176
     1
 62
   256
176
     0
 40
1.0
176
     0
 90
        2
176
     1
  1
strokes_ogs.tif
176
     1
290
     0
176
     1
 40
1.0
176
     1
 40
1.0
176
     1
  0
VISUALSTYLE
  5
234
102
{ACAD_REACTORS
330
229
102
}
330
229
100
AcDbVisualStyle
  2
Dim
 70
    11
177
     3
291
     1
 70
    58
 90
        2
176
     1
 90
        2
176
     1
 90
        0
176
     1
 90
        0
176
     1
 40
0.6
176
     1
 40
30.0
176
     1
 62
     7
420
 16777215
176
     1
 90
        1
176
     1
 90
        4
176
     1
 62
     7
176
     1
 62
   257
176
     1
 90
        1
176
     1
 90
        1
176
     1
 40
1.0
176
     1
 90
        8
176
     1
 62
     7
176
     1
 40
1.0
176
     1
 90
        1
176
     1
 90
        6
176
     1
 90
        2
176
     1
 62
     7
176
     1
 90
        5
176
     1
 90
        0
176
     1
 90
        0
176
     1
290
     0
176
     1
 90
        1
176
     1
 40
-50.0
176
     1
 90
        0
176
     1
290
     0
176
     1
290
     1
176
     1
290
     1
176
     1
290
     0
176
     1
290
     0
176
     1
290
     0
176
     1
290
     0
176
     1
290
     0
176
     1
290
     0
176
     1
 90
       50
176
     1
 40
0.0
176
     1
 40
1.0
176
     1
 90
        0
176
     1
 62
    18
420
        0
176
     1
 90
       50
176
     1
 90
        3
176
     1
 62
     5
420
      255
176
     1
290
     0
176
     1
 90
       50
176
     1
 90
       50
176
     1
 90
       50
176
     1
290
     0
176
     1
 90
       50
176
     1
 62
   256
176
     0
 40
1.0
176
     0
 90
        2
176
     1
  1
strokes_ogs.tif
176
     1
290
     0
176
     1
 40
1.0
176
     1
 40
1.0
176
     1
  0
VISUALSTYLE
  5
241
102
{ACAD_REACTORS
330
229
102
}
330
229
100
AcDbVisualStyle
  2
EdgeColorOff
 70
    22
177
     3
291
     1
 70
    58
 90
        2
176
     0
 90
        2
176
     0
 90
        0
176
     0
 90
        0
176
     0
 40
0.6
176
     0
 40
30.0
176
     0
 62
     7
420
 16777215
176
     0
 90
        1
176
     0
 90
        4
176
     0
 62
     7
176
     0
 62
   257
176
     0
 90
        1
176
     0
 90
        1
176
     0
 40
1.0
176
     0
 90
        8
176
     2
 62
     7
176
     0
 40
1.0
176
     0
 90
        1
176
     0
 90
        6
176
     0
 90
        2
176
     0
 62
     7
176
     0
 90
        5
176
     0
 90
        0
176
     0
 90
        0
176
     0
290
     0
176
     0
 90
        1
176
     0
 40
0.0
176
     0
 90
        0
176
     0
290
     0
176
     1
290
     1
176
     1
290
     1
176
     1
290
     0
176
     1
290
     0
176
     1
290
     0
176
     1
290
     0
176
     1
290
     0
176
     1
290
     0
176
     1
 90
       50
176
     0
 40
0.0
176
     0
 40
1.0
176
     0
 90
        0
176
     0
 62
    18
420
        0
176
     0
 90
       50
176
     0
 90
        3
176
     0
 62
     5
420
      255
176
     0
290
     0
176
     1
 90
       50
176
     0
 90
       50
176
     0
 90
       50
176
     0
290
     0
176
     1
 90
       50
176
     0
 62
   256
176
     0
 40
1.0
176
     0
 90
        2
176
     0
  1
strokes_ogs.tif
176
     0
290
     0
176
     1
 40
1.0
176
     0
 40
1.0
176
     0
  0
VISUALSTYLE
  5
238
102
{ACAD_REACTORS
330
229
102
}
330
229
100
AcDbVisualStyle
  2
Facepattern
 70
    15
177
     3
291
     1
 70
    58
 90
        2
176
     1
 90
        2
176
     1
 90
        0
176
     1
 90
        0
176
     1
 40
0.6
176
     1
 40
30.0
176
     1
 62
     7
420
 16777215
176
     1
 90
        1
176
     1
 90
        4
176
     1
 62
     7
176
     1
 62
   257
176
     1
 90
        1
176
     1
 90
        1
176
     1
 40
1.0
176
     1
 90
        8
176
     1
 62
     7
176
     1
 40
1.0
176
     1
 90
        1
176
     1
 90
        6
176
     1
 90
        2
176
     1
 62
     7
176
     1
 90
        5
176
     1
 90
        0
176
     1
 90
        0
176
     1
290
     0
176
     1
 90
        1
176
     1
 40
0.0
176
     1
 90
        0
176
     1
290
     0
176
     1
290
     1
176
     1
290
     1
176
     1
290
     0
176
     1
290
     0
176
     1
290
     0
176
     1
290
     0
176
     1
290
     0
176
     1
290
     0
176
     1
 90
       50
176
     1
 40
0.0
176
     1
 40
1.0
176
     1
 90
        0
176
     1
 62
    18
420
        0
176
     1
 90
       50
176
     1
 90
        3
176
     1
 62
     5
420
      255
176
     1
290
     0
176
     1
 90
       50
176
     1
 90
       50
176
     1
 90
       50
176
     1
290
     0
176
     1
 90
       50
176
     1
 62
   256
176
     0
 40
1.0
176
     0
 90
        2
176
     1
  1
strokes_ogs.tif
176
     1
290
     0
176
     1
 40
1.0
176
     1
 40
1.0
176
     1
  0
VISUALSTYLE
  5
22A
102
{ACAD_REACTORS
330
229
102
}
330
229
100
AcDbVisualStyle
  2
Flat
 70
     0
177
     3
291
     1
 70
    58
 90
        2
176
     1
 90
        1
176
     1
 90
        1
176
     1
 90
        2
176
     1
 40
0.6
176
     1
 40
30.0
176
     1
 62
     7
420
 16777215
176
     1
 90
        0
176
     1
 90
        0
176
     1
 62
     7
176
     1
 62
   257
176
     1
 90
        1
176
     1
 90
        1
176
     1
 40
1.0
176
     1
 90
        8
176
     1
 62
     7
176
     1
 40
1.0
176
     1
 90
        1
176
     1
 90
        6
176
     1
 90
        2
176
     1
 62
     7
176
     1
 90
        5
176
     1
 90
        0
176
     1
 90
        0
176
     1
290
     0
176
     1
 90
       13
176
     1
 40
0.0
176
     1
 90
        0
176
     1
290
     0
176
     1
290
     1
176
     1
290
     1
176
     1
290
     0
176
     1
290
     0
176
     1
290
     0
176
     1
290
     0
176
     1
290
     0
176
     1
290
     0
176
     1
 90
       50
176
     1
 40
0.0
176
     1
 40
1.0
176
     1
 90
        0
176
     1
 62
    18
420
        0
176
     1
 90
       50
176
     1
 90
        3
176
     1
 62
     5
420
      255
176
     1
290
     0
176
     1
 90
       50
176
     1
 90
       50
176
     1
 90
       50
176
     1
290
     0
176
     1
 90
       50
176
     1
 62
   256
176
     0
 40
1.0
176
     0
 90
        2
176
     1
  1
strokes_ogs.tif
176
     1
290
     0
176
     1
 40
1.0
176
     1
 40
1.0
176
     1
  0
VISUALSTYLE
  5
22B
102
{ACAD_REACTORS
330
229
102
}
330
229
100
AcDbVisualStyle
  2
FlatWithEdges
 70
     1
177
     3
291
     1
 70
    58
 90
        2
176
     1
 90
        1
176
     1
 90
        1
176
     1
 90
        2
176
     1
 40
0.6
176
     1
 40
30.0
176
     1
 62
     7
420
 16777215
176
     1
 90
        1
176
     1
 90
        0
176
     1
 62
     7
176
     1
 62
   257
176
     1
 90
        1
176
     1
 90
        1
176
     1
 40
1.0
176
     1
 90
        0
176
     1
 62
   257
176
     1
 40
1.0
176
     1
 90
        1
176
     1
 90
        6
176
     1
 90
        2
176
     1
 62
     7
176
     1
 90
        5
176
     1
 90
        0
176
     1
 90
        0
176
     1
290
     0
176
     1
 90
       13
176
     1
 40
0.0
176
     1
 90
        0
176
     1
290
     0
176
     1
290
     1
176
     1
290
     1
176
     1
290
     0
176
     1
290
     0
176
     1
290
     0
176
     1
290
     0
176
     1
290
     0
176
     1
290
     0
176
     1
 90
       50
176
     1
 40
0.0
176
     1
 40
1.0
176
     1
 90
        0
176
     1
 62
    18
420
        0
176
     1
 90
       50
176
     1
 90
        3
176
     1
 62
     5
420
      255
176
     1
290
     0
176
     1
 90
       50
176
     1
 90
       50
176
     1
 90
       50
176
     1
290
     0
176
     1
 90
       50
176
     1
 62
   256
176
     0
 40
1.0
176
     0
 90
        2
176
     1
  1
strokes_ogs.tif
176
     1
290
     0
176
     1
 40
1.0
176
     1
 40
1.0
176
     1
  0
VISUALSTYLE
  5
22C
102
{ACAD_REACTORS
330
229
102
}
330
229
100
AcDbVisualStyle
  2
Gouraud
 70
     2
177
     3
291
     1
 70
    58
 90
        2
176
     1
 90
        2
176
     1
 90
        1
176
     1
 90
        2
176
     1
 40
0.6
176
     1
 40
30.0
176
     1
 62
     7
420
 16777215
176
     1
 90
        0
176
     1
 90
        0
176
     1
 62
     7
176
     1
 62
   257
176
     1
 90
        1
176
     1
 90
        1
176
     1
 40
1.0
176
     1
 90
        0
176
     1
 62
     7
176
     1
 40
1.0
176
     1
 90
        1
176
     1
 90
        6
176
     1
 90
        2
176
     1
 62
     7
176
     1
 90
        5
176
     1
 90
        0
176
     1
 90
        0
176
     1
290
     0
176
     1
 90
       13
176
     1
 40
0.0
176
     1
 90
        0
176
     1
290
     0
176
     1
290
     1
176
     1
290
     1
176
     1
290
     0
176
     1
290
     0
176
     1
290
     0
176
     1
290
     0
176
     1
290
     0
176
     1
290
     0
176
     1
 90
       50
176
     1
 40
0.0
176
     1
 40
1.0
176
     1
 90
        0
176
     1
 62
    18
420
        0
176
     1
 90
       50
176
     1
 90
        3
176
     1
 62
     5
420
      255
176
     1
290
     0
176
     1
 90
       50
176
     1
 90
       50
176
     1
 90
       50
176
     1
290
     0
176
     1
 90
       50
176
     1
 62
   256
176
     0
 40
1.0
176
     0
 90
        2
176
     1
  1
strokes_ogs.tif
176
     1
290
     0
176
     1
 40
1.0
176
     1
 40
1.0
176
     1
  0
VISUALSTYLE
  5
22D
102
{ACAD_REACTORS
330
229
102
}
330
229
100
AcDbVisualStyle
  2
GouraudWithEdges
 70
     3
177
     3
291
     1
 70
    58
 90
        2
176
     1
 90
        2
176
     1
 90
        1
176
     1
 90
        2
176
     1
 40
0.6
176
     1
 40
30.0
176
     1
 62
     7
420
 16777215
176
     1
 90
        1
176
     1
 90
        0
176
     1
 62
     7
176
     1
 62
   257
176
     1
 90
        1
176
     1
 90
        1
176
     1
 40
1.0
176
     1
 90
        0
176
     1
 62
   257
176
     1
 40
1.0
176
     1
 90
        1
176
     1
 90
        6
176
     1
 90
        2
176
     1
 62
     7
176
     1
 90
        5
176
     1
 90
        0
176
     1
 90
        0
176
     1
290
     0
176
     1
 90
       13
176
     1
 40
0.0
176
     1
 90
        0
176
     1
290
     0
176
     1
290
     1
176
     1
290
     1
176
     1
290
     0
176
     1
290
     0
176
     1
290
     0
176
     1
290
     0
176
     1
290
     0
176
     1
290
     0
176
     1
 90
       50
176
     1
 40
0.0
176
     1
 40
1.0
176
     1
 90
        0
176
     1
 62
    18
420
        0
176
     1
 90
       50
176
     1
 90
        3
176
     1
 62
     5
420
      255
176
     1
290
     0
176
     1
 90
       50
176
     1
 90
       50
176
     1
 90
       50
176
     1
290
     0
176
     1
 90
       50
176
     1
 62
   256
176
     0
 40
1.0
176
     0
 90
        2
176
     1
  1
strokes_ogs.tif
176
     1
290
     0
176
     1
 40
1.0
176
     1
 40
1.0
176
     1
  0
VISUALSTYLE
  5
231
102
{ACAD_REACTORS
330
229
102
}
330
229
100
AcDbVisualStyle
  2
Hidden
 70
     6
177
     3
291
     0
 70
    58
 90
        1
176
     1
 90
        2
176
     1
 90
        2
176
     1
 90
        0
176
     1
 40
0.6
176
     1
 40
30.0
176
     1
 62
     7
420
 16777215
176
     1
 90
        2
176
     1
 90
        2
176
     1
 62
     7
176
     1
 62
   257
176
     1
 90
        2
176
     1
 90
        1
176
     1
 40
40.0
176
     1
 90
        0
176
     1
 62
   257
176
     1
 40
1.0
176
     1
 90
        1
176
     1
 90
        6
176
     1
 90
        2
176
     1
 62
     7
176
     1
 90
        3
176
     1
 90
        0
176
     1
 90
        0
176
     1
290
     0
176
     1
 90
        1
176
     1
 40
0.0
176
     1
 90
        0
176
     1
290
     0
176
     1
290
     1
176
     1
290
     1
176
     1
290
     0
176
     1
290
     0
176
     1
290
     0
176
     1
290
     0
176
     1
290
     0
176
     1
290
     0
176
     1
 90
       50
176
     1
 40
0.0
176
     1
 40
1.0
176
     1
 90
        0
176
     1
 62
    18
420
        0
176
     1
 90
       50
176
     1
 90
        3
176
     1
 62
     5
420
      255
176
     1
290
     0
176
     1
 90
       50
176
     1
 90
       50
176
     1
 90
       50
176
     1
290
     0
176
     1
 90
       50
176
     1
 62
   256
176
     0
 40
1.0
176
     0
 90
        2
176
     1
  1
strokes_ogs.tif
176
     1
290
     0
176
     1
 40
1.0
176
     1
 40
1.0
176
     1
  0
VISUALSTYLE
  5
23F
102
{ACAD_REACTORS
330
229
102
}
330
229
100
AcDbVisualStyle
  2
JitterOff
 70
    20
177
     3
291
     1
 70
    58
 90
        2
176
     0
 90
        2
176
     0
 90
        0
176
     0
 90
        0
176
     0
 40
0.6
176
     0
 40
30.0
176
     0
 62
     7
420
 16777215
176
     0
 90
        1
176
     0
 90
        4
176
     0
 62
     7
176
     0
 62
   257
176
     0
 90
        1
176
     0
 90
        1
176
     0
 40
1.0
176
     0
 90
       10
176
     2
 62
     7
176
     0
 40
1.0
176
     0
 90
        1
176
     0
 90
        6
176
     0
 90
        2
176
     0
 62
     7
176
     0
 90
        5
176
     0
 90
        0
176
     0
 90
        0
176
     0
290
     0
176
     0
 90
        1
176
     0
 40
0.0
176
     0
 90
        0
176
     0
290
     0
176
     1
290
     1
176
     1
290
     1
176
     1
290
     0
176
     1
290
     0
176
     1
290
     0
176
     1
290
     0
176
     1
290
     0
176
     1
290
     0
176
     1
 90
       50
176
     0
 40
0.0
176
     0
 40
1.0
176
     0
 90
        0
176
     0
 62
    18
420
        0
176
     0
 90
       50
176
     0
 90
        3
176
     0
 62
     5
420
      255
176
     0
290
     0
176
     1
 90
       50
176
     0
 90
       50
176
     0
 90
       50
176
     0
290
     0
176
     1
 90
       50
176
     0
 62
   256
176
     0
 40
1.0
176
     0
 90
        2
176
     0
  1
strokes_ogs.tif
176
     0
290
     0
176
     1
 40
1.0
176
     0
 40
1.0
176
     0
  0
VISUALSTYLE
  5
237
102
{ACAD_REACTORS
330
229
102
}
330
229
100
AcDbVisualStyle
  2
Linepattern
 70
    14
177
     3
291
     1
 70
    58
 90
        2
176
     1
 90
        2
176
     1
 90
        0
176
     1
 90
        0
176
     1
 40
0.6
176
     1
 40
30.0
176
     1
 62
     7
420
 16777215
176
     1
 90
        1
176
     1
 90
        4
176
     1
 62
     7
176
     1
 62
   257
176
     1
 90
        7
176
     1
 90
        7
176
     1
 40
1.0
176
     1
 90
        8
176
     1
 62
     7
176
     1
 40
1.0
176
     1
 90
        1
176
     1
 90
        6
176
     1
 90
        2
176
     1
 62
     7
176
     1
 90
        5
176
     1
 90
        0
176
     1
 90
        0
176
     1
290
     0
176
     1
 90
        1
176
     1
 40
0.0
176
     1
 90
        0
176
     1
290
     0
176
     1
290
     1
176
     1
290
     1
176
     1
290
     0
176
     1
290
     0
176
     1
290
     0
176
     1
290
     0
176
     1
290
     0
176
     1
290
     0
176
     1
 90
       50
176
     1
 40
0.0
176
     1
 40
1.0
176
     1
 90
        0
176
     1
 62
    18
420
        0
176
     1
 90
       50
176
     1
 90
        3
176
     1
 62
     5
420
      255
176
     1
290
     0
176
     1
 90
       50
176
     1
 90
       50
176
     1
 90
       50
176
     1
290
     0
176
     1
 90
       50
176
     1
 62
   256
176
     0
 40
1.0
176
     0
 90
        2
176
     1
  1
strokes_ogs.tif
176
     1
290
     0
176
     1
 40
1.0
176
     1
 40
1.0
176
     1
  0
VISUALSTYLE
  5
240
102
{ACAD_REACTORS
330
229
102
}
330
229
100
AcDbVisualStyle
  2
OverhangOff
 70
    21
177
     3
291
     1
 70
    58
 90
        2
176
     0
 90
        2
176
     0
 90
        0
176
     0
 90
        0
176
     0
 40
0.6
176
     0
 40
30.0
176
     0
 62
     7
420
 16777215
176
     0
 90
        1
176
     0
 90
        4
176
     0
 62
     7
176
     0
 62
   257
176
     0
 90
        1
176
     0
 90
        1
176
     0
 40
1.0
176
     0
 90
        9
176
     2
 62
     7
176
     0
 40
1.0
176
     0
 90
        1
176
     0
 90
        6
176
     0
 90
        2
176
     0
 62
     7
176
     0
 90
        5
176
     0
 90
        0
176
     0
 90
        0
176
     0
290
     0
176
     0
 90
        1
176
     0
 40
0.0
176
     0
 90
        0
176
     0
290
     0
176
     1
290
     1
176
     1
290
     1
176
     1
290
     0
176
     1
290
     0
176
     1
290
     0
176
     1
290
     0
176
     1
290
     0
176
     1
290
     0
176
     1
 90
       50
176
     0
 40
0.0
176
     0
 40
1.0
176
     0
 90
        0
176
     0
 62
    18
420
        0
176
     0
 90
       50
176
     0
 90
        3
176
     0
 62
     5
420
      255
176
     0
290
     0
176
     1
 90
       50
176
     0
 90
       50
176
     0
 90
       50
176
     0
290
     0
176
     1
 90
       50
176
     0
 62
   256
176
     0
 40
1.0
176
     0
 90
        2
176
     0
  1
strokes_ogs.tif
176
     0
290
     0
176
     1
 40
1.0
176
     0
 40
1.0
176
     0
  0
VISUALSTYLE
  5
233
102
{ACAD_REACTORS
330
229
102
}
330
229
100
AcDbVisualStyle
  2
Realistic
 70
     8
177
     3
291
     0
 70
    58
 90
        2
176
     1
 90
        3
176
     1
 90
        0
176
     1
 90
        2
176
     1
 40
0.6
176
     1
 40
30.0
176
     1
 62
     7
420
 16777215
176
     1
 90
        0
176
     1
 90
        0
176
     1
 62
     7
176
     1
 62
   257
176
     1
 90
        1
176
     1
 90
        1
176
     1
 40
1.0
176
     1
 90
        8
176
     1
 62
   257
176
     1
 40
1.0
176
     1
 90
        1
176
     1
 90
        6
176
     1
 90
        2
176
     1
 62
     7
176
     1
 90
        3
176
     1
 90
        0
176
     1
 90
        0
176
     1
290
     0
176
     1
 90
       13
176
     1
 40
0.0
176
     1
 90
        0
176
     1
290
     0
176
     1
290
     1
176
     1
290
     1
176
     1
290
     0
176
     1
290
     0
176
     1
290
     0
176
     1
290
     0
176
     1
290
     0
176
     1
290
     0
176
     1
 90
       50
176
     1
 40
0.0
176
     1
 40
1.0
176
     1
 90
        0
176
     1
 62
    18
420
        0
176
     1
 90
       50
176
     1
 90
        3
176
     1
 62
     5
420
      255
176
     1
290
     0
176
     1
 90
       50
176
     1
 90
       50
176
     1
 90
       50
176
     1
290
     0
176
     1
 90
       50
176
     1
 62
   256
176
     0
 40
1.0
176
     0
 90
        2
176
     1
  1
strokes_ogs.tif
176
     1
290
     0
176
     1
 40
1.0
176
     1
 40
1.0
176
     1
  0
VISUALSTYLE
  5
23E
102
{ACAD_REACTORS
330
229
102
}
330
229
100
AcDbVisualStyle
  2
Shaded
 70
    27
177
     3
291
     0
 70
    58
 90
        2
176
     1
 90
        2
176
     1
 90
        1
176
     1
 90
        2
176
     1
 40
0.6
176
     1
 40
30.0
176
     1
 62
     7
420
 16777215
176
     1
 90
        0
176
     1
 90
        4
176
     1
 62
     7
176
     1
 62
   257
176
     1
 90
        1
176
     1
 90
        1
176
     1
 40
1.0
176
     1
 90
        8
176
     1
 62
   257
176
     1
 40
1.0
176
     1
 90
        1
176
     1
 90
        6
176
     1
 90
        2
176
     1
 62
     8
420
  7895160
176
     1
 90
        3
176
     1
 90
        0
176
     1
 90
        0
176
     1
290
     0
176
     1
 90
        5
176
     1
 40
0.0
176
     1
 90
        0
176
     1
290
     0
176
     1
290
     1
176
     1
290
     1
176
     1
290
     0
176
     1
290
     0
176
     1
290
     0
176
     1
290
     0
176
     1
290
     0
176
     1
290
     0
176
     1
 90
       50
176
     1
 40
0.0
176
     1
 40
1.0
176
     1
 90
        0
176
     1
 62
    18
420
        0
176
     1
 90
       50
176
     1
 90
        3
176
     1
 62
     5
420
      255
176
     1
290
     0
176
     1
 90
       50
176
     1
 90
       50
176
     1
 90
       50
176
     1
290
     0
176
     1
 90
       50
176
     1
 62
   256
176
     0
 40
1.0
176
     0
 90
        2
176
     1
  1
strokes_ogs.tif
176
     1
290
     0
176
     1
 40
1.0
176
     1
 40
1.0
176
     1
  0
VISUALSTYLE
  5
23D
102
{ACAD_REACTORS
330
229
102
}
330
229
100
AcDbVisualStyle
  2
Shaded with edges
 70
    26
177
     3
291
     0
 70
    58
 90
        2
176
     1
 90
        2
176
     1
 90
        1
176
     1
 90
        2
176
     1
 40
0.6
176
     1
 40
30.0
176
     1
 62
     7
420
 16777215
176
     1
 90
        1
176
     1
 90
        2
176
     1
 62
     7
176
     1
 62
   257
176
     1
 90
        2
176
     1
 90
        1
176
     1
 40
1.0
176
     1
 90
        8
176
     1
 62
   257
176
     1
 40
1.0
176
     1
 90
        1
176
     1
 90
        6
176
     1
 90
        2
176
     1
 62
     7
176
     1
 90
        3
176
     1
 90
        0
176
     1
 90
        0
176
     1
290
     0
176
     1
 90
        5
176
     1
 40
0.0
176
     1
 90
        0
176
     1
290
     0
176
     1
290
     1
176
     1
290
     1
176
     1
290
     0
176
     1
290
     0
176
     1
290
     0
176
     1
290
     0
176
     1
290
     0
176
     1
290
     0
176
     1
 90
       50
176
     1
 40
0.0
176
     1
 40
1.0
176
     1
 90
        0
176
     1
 62
    18
420
        0
176
     1
 90
       50
176
     1
 90
        3
176
     1
 62
     5
420
      255
176
     1
290
     0
176
     1
 90
       50
176
     1
 90
       50
176
     1
 90
       50
176
     1
290
     0
176
     1
 90
       50
176
     1
 62
   256
176
     0
 40
1.0
176
     0
 90
        2
176
     1
  1
strokes_ogs.tif
176
     1
290
     0
176
     1
 40
1.0
176
     1
 40
1.0
176
     1
  0
VISUALSTYLE
  5
23A
102
{ACAD_REACTORS
330
229
102
}
330
229
100
AcDbVisualStyle
  2
Shades of Gray
 70
    23
177
     3
291
     0
 70
    58
 90
        2
176
     1
 90
        2
176
     1
 90
        3
176
     1
 90
        0
176
     1
 40
0.6
176
     1
 40
30.0
176
     1
 62
     7
420
 16777215
176
     1
 90
        2
176
     1
 90
        2
176
     1
 62
     7
176
     1
 62
     7
176
     1
 90
        1
176
     1
 90
        1
176
     1
 40
40.0
176
     1
 90
        8
176
     1
 62
     7
176
     1
 40
1.0
176
     1
 90
        1
176
     1
 90
        6
176
     1
 90
        2
176
     1
 62
     7
176
     1
 90
        3
176
     1
 90
        0
176
     1
 90
        0
176
     1
290
     0
176
     1
 90
        1
176
     1
 40
0.0
176
     1
 90
        0
176
     1
290
     0
176
     1
290
     1
176
     1
290
     1
176
     1
290
     0
176
     1
290
     0
176
     1
290
     0
176
     1
290
     0
176
     1
290
     0
176
     1
290
     0
176
     1
 90
       50
176
     1
 40
0.0
176
     1
 40
1.0
176
     1
 90
        0
176
     1
 62
    18
420
        0
176
     1
 90
       50
176
     1
 90
        3
176
     1
 62
     5
420
      255
176
     1
290
     0
176
     1
 90
       50
176
     1
 90
       50
176
     1
 90
       50
176
     1
290
     0
176
     1
 90
       50
176
     1
 62
   256
176
     0
 40
1.0
176
     0
 90
        2
176
     1
  1
strokes_ogs.tif
176
     1
290
     0
176
     1
 40
1.0
176
     1
 40
1.0
176
     1
  0
VISUALSTYLE
  5
23B
102
{ACAD_REACTORS
330
229
102
}
330
229
100
AcDbVisualStyle
  2
Sketchy
 70
    24
177
     3
291
     0
 70
    58
 90
        1
176
     1
 90
        2
176
     1
 90
        2
176
     1
 90
        0
176
     1
 40
0.6
176
     1
 40
30.0
176
     1
 62
     7
420
 16777215
176
     1
 90
        2
176
     1
 90
        2
176
     1
 62
     7
176
     1
 62
     7
176
     1
 90
        1
176
     1
 90
        1
176
     1
 40
40.0
176
     1
 90
       11
176
     1
 62
     7
176
     1
 40
1.0
176
     1
 90
        1
176
     1
 90
        6
176
     1
 90
        2
176
     1
 62
     7
176
     1
 90
        6
176
     1
 90
        0
176
     1
 90
        0
176
     1
290
     0
176
     1
 90
        1
176
     1
 40
0.0
176
     1
 90
        0
176
     1
290
     0
176
     1
290
     1
176
     1
290
     1
176
     1
290
     0
176
     1
290
     0
176
     1
290
     0
176
     1
290
     0
176
     1
290
     0
176
     1
290
     0
176
     1
 90
       50
176
     1
 40
0.0
176
     1
 40
1.0
176
     1
 90
        0
176
     1
 62
    18
420
        0
176
     1
 90
       50
176
     1
 90
        3
176
     1
 62
     5
420
      255
176
     1
290
     0
176
     1
 90
       50
176
     1
 90
       50
176
     1
 90
       50
176
     1
290
     0
176
     1
 90
       50
176
     1
 62
   256
176
     0
 40
1.0
176
     0
 90
        2
176
     1
  1
strokes_ogs.tif
176
     1
290
     0
176
     1
 40
1.0
176
     1
 40
1.0
176
     1
  0
VISUALSTYLE
  5
236
102
{ACAD_REACTORS
330
229
102
}
330
229
100
AcDbVisualStyle
  2
Thicken
 70
    13
177
     3
291
     1
 70
    58
 90
        2
176
     1
 90
        2
176
     1
 90
        0
176
     1
 90
        0
176
     1
 40
0.6
176
     1
 40
30.0
176
     1
 62
     7
420
 16777215
176
     1
 90
        1
176
     1
 90
        4
176
     1
 62
     7
176
     1
 62
   257
176
     1
 90
        1
176
     1
 90
        1
176
     1
 40
1.0
176
     1
 90
       12
176
     1
 62
     7
176
     1
 40
1.0
176
     1
 90
        1
176
     1
 90
        6
176
     1
 90
        2
176
     1
 62
     7
176
     1
 90
        5
176
     1
 90
        0
176
     1
 90
        0
176
     1
290
     0
176
     1
 90
        1
176
     1
 40
0.0
176
     1
 90
        0
176
     1
290
     0
176
     1
290
     1
176
     1
290
     1
176
     1
290
     0
176
     1
290
     0
176
     1
290
     0
176
     1
290
     0
176
     1
290
     0
176
     1
290
     0
176
     1
 90
       50
176
     1
 40
0.0
176
     1
 40
1.0
176
     1
 90
        0
176
     1
 62
    18
420
        0
176
     1
 90
       50
176
     1
 90
        3
176
     1
 62
     5
420
      255
176
     1
290
     0
176
     1
 90
       50
176
     1
 90
       50
176
     1
 90
       50
176
     1
290
     0
176
     1
 90
       50
176
     1
 62
   256
176
     0
 40
1.0
176
     0
 90
        2
176
     1
  1
strokes_ogs.tif
176
     1
290
     0
176
     1
 40
1.0
176
     1
 40
1.0
176
     1
  0
VISUALSTYLE
  5
230
102
{ACAD_REACTORS
330
229
102
}
330
229
100
AcDbVisualStyle
  2
Wireframe
 70
     5
177
     3
291
     0
 70
    58
 90
        0
176
     1
 90
        2
176
     1
 90
        0
176
     1
 90
        0
176
     1
 40
0.6
176
     1
 40
30.0
176
     1
 62
     7
420
 16777215
176
     1
 90
        1
176
     1
 90
        4
176
     1
 62
     7
176
     1
 62
   257
176
     1
 90
        1
176
     1
 90
        1
176
     1
 40
1.0
176
     1
 90
        0
176
     1
 62
   257
176
     1
 40
1.0
176
     1
 90
        1
176
     1
 90
        6
176
     1
 90
        2
176
     1
 62
     7
176
     1
 90
        3
176
     1
 90
        0
176
     1
 90
        0
176
     1
290
     0
176
     1
 90
        1
176
     1
 40
0.0
176
     1
 90
        0
176
     1
290
     0
176
     1
290
     1
176
     1
290
     1
176
     1
290
     0
176
     1
290
     0
176
     1
290
     0
176
     1
290
     0
176
     1
290
     0
176
     1
290
     0
176
     1
 90
       50
176
     1
 40
0.0
176
     1
 40
1.0
176
     1
 90
        0
176
     1
 62
    18
420
        0
176
     1
 90
       50
176
     1
 90
        3
176
     1
 62
     5
420
      255
176
     1
290
     0
176
     1
 90
       50
176
     1
 90
       50
176
     1
 90
       50
176
     1
290
     0
176
     1
 90
       50
176
     1
 62
   256
176
     0
 40
1.0
176
     0
 90
        2
176
     1
  1
strokes_ogs.tif
176
     1
290
     0
176
     1
 40
1.0
176
     1
 40
1.0
176
     1
  0
VISUALSTYLE
  5
23C
102
{ACAD_REACTORS
330
229
102
}
330
229
100
AcDbVisualStyle
  2
X-Ray
 70
    25
177
     3
291
     0
 70
    58
 90
        2
176
     1
 90
        2
176
     1
 90
        1
176
     1
 90
        1
176
     1
 40
0.5
176
     1
 40
30.0
176
     1
 62
     7
420
 16777215
176
     1
 90
        1
176
     1
 90
        0
176
     1
 62
     7
176
     1
 62
   257
176
     1
 90
        1
176
     1
 90
        1
176
     1
 40
1.0
176
     1
 90
        8
176
     1
 62
     7
176
     1
 40
1.0
176
     1
 90
        1
176
     1
 90
        6
176
     1
 90
        2
176
     1
 62
     7
176
     1
 90
        3
176
     1
 90
        0
176
     1
 90
        0
176
     1
290
     0
176
     1
 90
       13
176
     1
 40
0.0
176
     1
 90
        0
176
     1
290
     0
176
     1
290
     1
176
     1
290
     1
176
     1
290
     0
176
     1
290
     0
176
     1
290
     0
176
     1
290
     0
176
     1
290
     0
176
     1
290
     0
176
     1
 90
       50
176
     1
 40
0.0
176
     1
 40
1.0
176
     1
 90
        0
176
     1
 62
    18
420
        0
176
     1
 90
       50
176
     1
 90
        3
176
     1
 62
     5
420
      255
176
     1
290
     0
176
     1
 90
       50
176
     1
 90
       50
176
     1
 90
       50
176
     1
290
     0
176
     1
 90
       50
176
     1
 62
   256
176
     0
 40
1.0
176
     0
 90
        2
176
     1
  1
strokes_ogs.tif
176
     1
290
     0
176
     1
 40
1.0
176
     1
 40
1.0
176
     1
  0
DICTIONARYVAR
  5
27E
102
{ACAD_REACTORS
330
278
102
}
330
278
100
DictionaryVariables
280
     0
  1
1:1
  0
DICTIONARYVAR
  5
27A
102
{ACAD_REACTORS
330
278
102
}
330
278
100
DictionaryVariables
280
     0
  1
STANDARD
  0
DICTIONARYVAR
  5
279
102
{ACAD_REACTORS
330
278
102
}
330
278
100
DictionaryVariables
280
     0
  1
STANDARD
  0
DICTIONARYVAR
  5
27B
102
{ACAD_REACTORS
330
278
102
}
330
278
100
DictionaryVariables
280
     0
  1
Imperial24
  0
DICTIONARYVAR
  5
27C
102
{ACAD_REACTORS
330
278
102
}
330
278
100
DictionaryVariables
280
     0
  1
Imperial24
  0
DICTIONARYVAR
  5
280
102
{ACAD_REACTORS
330
278
102
}
330
278
100
DictionaryVariables
280
     0
  1
1
  0
DICTIONARYVAR
  5
281
102
{ACAD_REACTORS
330
278
102
}
330
278
100
DictionaryVariables
280
     0
  1
15
  0
DICTIONARYVAR
  5
27F
102
{ACAD_REACTORS
330
278
102
}
330
278
100
DictionaryVariables
280
     0
  1
0
  0
DICTIONARYVAR
  5
27D
102
{ACAD_REACTORS
330
278
102
}
330
278
100
DictionaryVariables
280
     0
  1
0
  0
DICTIONARY
  5
21A
330
219
100
AcDbDictionary
280
     1
281
     1
  3
BUMPTILE
360
21C
  3
DIFFUSETILE
360
21B
  3
OPACITYTILE
360
21F
  3
REFLECTIONTILE
360
21E
  3
REFRACTIONTILE
360
220
  3
SPECULARTILE
360
21D
  0
DICTIONARY
  5
212
330
211
100
AcDbDictionary
280
     1
281
     1
  3
BUMPTILE
360
214
  3
DIFFUSETILE
360
213
  3
OPACITYTILE
360
217
  3
REFLECTIONTILE
360
216
  3
REFRACTIONTILE
360
218
  3
SPECULARTILE
360
215
  0
DICTIONARY
  5
222
330
221
100
AcDbDictionary
280
     1
281
     1
  3
BUMPTILE
360
224
  3
DIFFUSETILE
360
223
  3
OPACITYTILE
360
227
  3
REFLECTIONTILE
360
226
  3
REFRACTIONTILE
360
228
  3
SPECULARTILE
360
225
  0
DICTIONARY
  5
283
330
244
100
AcDbDictionary
280
     1
281
     1
  3
ACAD_ROUNDTRIP_2008_TABLESTYLE_CELLSTYLEMAP
360
284
  0
XRECORD
  5
21C
102
{ACAD_REACTORS
330
21A
102
}
330
21A
100
AcDbXrecord
280
     1
270
     1
271
     1
  0
XRECORD
  5
21B
102
{ACAD_REACTORS
330
21A
102
}
330
21A
100
AcDbXrecord
280
     1
270
     1
271
     1
  0
XRECORD
  5
21F
102
{ACAD_REACTORS
330
21A
102
}
330
21A
100
AcDbXrecord
280
     1
270
     1
271
     1
  0
XRECORD
  5
21E
102
{ACAD_REACTORS
330
21A
102
}
330
21A
100
AcDbXrecord
280
     1
270
     1
271
     1
  0
XRECORD
  5
220
102
{ACAD_REACTORS
330
21A
102
}
330
21A
100
AcDbXrecord
280
     1
270
     1
271
     1
  0
XRECORD
  5
21D
102
{ACAD_REACTORS
330
21A
102
}
330
21A
100
AcDbXrecord
280
     1
270
     1
271
     1
  0
XRECORD
  5
214
102
{ACAD_REACTORS
330
212
102
}
330
212
100
AcDbXrecord
280
     1
270
     1
271
     1
  0
XRECORD
  5
213
102
{ACAD_REACTORS
330
212
102
}
330
212
100
AcDbXrecord
280
     1
270
     1
271
     1
  0
XRECORD
  5
217
102
{ACAD_REACTORS
330
212
102
}
330
212
100
AcDbXrecord
280
     1
270
     1
271
     1
  0
XRECORD
  5
216
102
{ACAD_REACTORS
330
212
102
}
330
212
100
AcDbXrecord
280
     1
270
     1
271
     1
  0
XRECORD
  5
218
102
{ACAD_REACTORS
330
212
102
}
330
212
100
AcDbXrecord
280
     1
270
     1
271
     1
  0
XRECORD
  5
215
102
{ACAD_REACTORS
330
212
102
}
330
212
100
AcDbXrecord
280
     1
270
     1
271
     1
  0
XRECORD
  5
224
102
{ACAD_REACTORS
330
222
102
}
330
222
100
AcDbXrecord
280
     1
270
     1
271
     1
  0
XRECORD
  5
223
102
{ACAD_REACTORS
330
222
102
}
330
222
100
AcDbXrecord
280
     1
270
     1
271
     1
  0
XRECORD
  5
227
102
{ACAD_REACTORS
330
222
102
}
330
222
100
AcDbXrecord
280
     1
270
     1
271
     1
  0
XRECORD
  5
226
102
{ACAD_REACTORS
330
222
102
}
330
222
100
AcDbXrecord
280
     1
270
     1
271
     1
  0
XRECORD
  5
228
102
{ACAD_REACTORS
330
222
102
}
330
222
100
AcDbXrecord
280
     1
270
     1
271
     1
  0
XRECORD
  5
225
102
{ACAD_REACTORS
330
222
102
}
330
222
100
AcDbXrecord
280
     1
270
     1
271
     1
  0
CELLSTYLEMAP
  5
284
102
{ACAD_REACTORS
330
283
102
}
330
283
100
AcDbCellStyleMap
 90
        3
300
CELLSTYLE
  1
TABLEFORMAT_BEGIN
 90
        5
170
     1
 91
        0
 92
    32768
 62
   257
 93
        1
300
CONTENTFORMAT
  1
CONTENTFORMAT_BEGIN
 90
        0
 91
        0
 92
      512
 93
        0
300

 40
0.0
140
1.0
 94
        5
 62
     0
340
11
144
0.25
309
CONTENTFORMAT_END
171
     0
 94
        0
309
TABLEFORMAT_END
  1
CELLSTYLE_BEGIN
 90
        1
 91
        1
300
_TITLE
309
CELLSTYLE_END
300
CELLSTYLE
  1
TABLEFORMAT_BEGIN
 90
        5
170
     1
 91
        0
 92
        0
 62
   257
 93
        1
300
CONTENTFORMAT
  1
CONTENTFORMAT_BEGIN
 90
        0
 91
        0
 92
      512
 93
        0
300

 40
0.0
140
1.0
 94
        5
 62
     0
340
11
144
0.18
309
CONTENTFORMAT_END
171
     0
 94
        0
309
TABLEFORMAT_END
  1
CELLSTYLE_BEGIN
 90
        2
 91
        1
300
_HEADER
309
CELLSTYLE_END
300
CELLSTYLE
  1
TABLEFORMAT_BEGIN
 90
        5
170
     1
 91
        0
 92
        0
 62
   257
 93
        1
300
CONTENTFORMAT
  1
CONTENTFORMAT_BEGIN
 90
        0
 91
        0
 92
      512
 93
        0
300

 40
0.0
140
1.0
 94
        2
 62
     0
340
11
144
0.18
309
CONTENTFORMAT_END
171
     0
 94
        0
309
TABLEFORMAT_END
  1
CELLSTYLE_BEGIN
 90
        3
 91
        2
300
_DATA
309
CELLSTYLE_END
  0
ENDSEC
  0
SECTION
  2
ACDSDATA
 70
     2
 71
     8
  0
ACDSSCHEMA
 90
        0
  1
AcDb_Thumbnail_Schema
  2
AcDbDs::ID
280
    10
 91
        8
  2
Thumbnail_Data
280
    15
 91
        0
101
ACDSRECORD
 95
        0
 90
        1
  2
AcDbDs::TreatedAsObjectData
280
     1
291
     1
101
ACDSRECORD
 95
        0
 90
        2
  2
AcDbDs::Legacy
280
     1
291
     1
101
ACDSRECORD
  1
AcDbDs::ID
 90
        3
  2
AcDs:Indexable
280
     1
291
     1
101
ACDSRECORD
  1
AcDbDs::ID
 90
        4
  2
AcDbDs::HandleAttribute
280
     7
282
     1
  0
ACDSSCHEMA
 90
        1
  1
AcDbDs::TreatedAsObjectDataSchema
  2
AcDbDs::TreatedAsObjectData
280
     1
 91
        0
  0
ACDSSCHEMA
 90
        2
  1
AcDbDs::LegacySchema
  2
AcDbDs::Legacy
280
     1
 91
        0
  0
ACDSSCHEMA
 90
        3
  1
AcDbDs::IndexedPropertySchema
  2
AcDs:Indexable
280
     1
 91
        0
  0
ACDSSCHEMA
 90
        4
  1
AcDbDs::HandleAttributeSchema
  2
AcDbDs::HandleAttribute
280
     7
 91
        1
284
     1
  0
ACDSRECORD
 90
        0
  2
AcDbDs::ID
280
    10
320
22
  2
Thumbnail_Data
280
    15
 94
     1386
310
89504E470D0A1A0A0000000D49484452000001000000007C0803000000B13B9E5A00000300504C5445212830FFFFFF2128300000000000000000000000000000000000000000000000000000330000660000990000CC0000FF0033000033330033660033990033CC0033FF0066000066330066660066990066CC0066FF0099
310
000099330099660099990099CC0099FF00CC0000CC3300CC6600CC9900CCCC00CCFF00FF0000FF3300FF6600FF9900FFCC00FFFF3300003300333300663300993300CC3300FF3333003333333333663333993333CC3333FF3366003366333366663366993366CC3366FF3399003399333399663399993399CC3399FF33CC00
310
33CC3333CC6633CC9933CCCC33CCFF33FF0033FF3333FF6633FF9933FFCC33FFFF6600006600336600666600996600CC6600FF6633006633336633666633996633CC6633FF6666006666336666666666996666CC6666FF6699006699336699666699996699CC6699FF66CC0066CC3366CC6666CC9966CCCC66CCFF66FF0066
310
FF3366FF6666FF9966FFCC66FFFF9900009900339900669900999900CC9900FF9933009933339933669933999933CC9933FF9966009966339966669966999966CC9966FF9999009999339999669999999999CC9999FF99CC0099CC3399CC6699CC9999CCCC99CCFF99FF0099FF3399FF6699FF9999FFCC99FFFFCC0000CC00
310
33CC0066CC0099CC00CCCC00FFCC3300CC3333CC3366CC3399CC33CCCC33FFCC6600CC6633CC6666CC6699CC66CCCC66FFCC9900CC9933CC9966CC9999CC99CCCC99FFCCCC00CCCC33CCCC66CCCC99CCCCCCCCCCFFCCFF00CCFF33CCFF66CCFF99CCFFCCCCFFFFFF0000FF0033FF0066FF0099FF00CCFF00FFFF3300FF3333
310
FF3366FF3399FF33CCFF33FFFF6600FF6633FF6666FF6699FF66CCFF66FFFF9900FF9933FF9966FF9999FF99CCFF99FFFFCC00FFCC33FFCC66FFCC99FFCCCCFFCCFFFFFF00FFFF33FFFF66FFFF99FFFFCCFFFFFF0000000D0D0D1A1A1A2828283535354343435050505D5D5D6B6B6B787878868686939393A1A1A1AEAEAEBB
310
BBBBC9C9C9D6D6D6E4E4E4F1F1F1FFFFFF0000000000000000000000000000000000000000000000000000000000002E4550F1000002254944415478DAED9A4B72C3200C40B9816E92FBAF742BED5B4CC036E1136787786F92A69D4E3BD18B9085510800000000000000000000000000000000008FD1CDC357046CAE20C6AF
310
3B879FBF6AC2B481FB121093E01DA5B55789F71AA82A6F4C6EE8F10CC1AD8294E17A09F04881D73FE51A1925F82D139A3EFC33CBED95389B84F8746B20563FB9B503DE04E88410F33B5C17B9453E04C89A5520AEEF6B356BA0DA1260E12EE05FC19A0224BF6FED76FD49C060A3B0B2002951EF2920D5B7FCE8D5B151A3B3B6
310
001529F18D0538CD000D72E975FA3B7FBF1910E4B6E1EB0A08CE05B48BA01562FB7BF9691701E122C010B099009B8000FF4B2007D90CFBBE5B7421403F05743EF3860075214011D01310DC6E86C6350001A3EAEF4380889948BD989F0B78DF3B5A33037250FADB39A88725609D0CD8464032D06B8426FFE1BC78AC5C0463B0
310
DF15C1BA0E38111093E0B7CBA01B0129E3771610342D8312F0572BC057236459806D2AE05806D3DED7772B7CDE03DD5440AE0156D739B7023E4EC3A380E3459FB36406687737F83003D4DD6D71DB62090C4F86BE29048B0B18732B04C1690DC81EDA87A3E63D036602CE42907F57F783AB2F01C917C3DEF178DD137505AC39
310
25361750DF18B1EB9060587F4E50653E2465724D88322699F2607901E57D0F2644ACFA3619A8042C3A28AA650CBC3B2879E398158FF14BF567CB4E8B9739F0410032B7185666DAE088C3160800000000000000000000000000000000604DFE00D7FFBD5BE3545D5F0000000049454E44AE426082
  0
ENDSEC
  0
EOF
