  0
SECTION
  2
HEADER
  9
$ACADVER
  1
AC1015
  9
$ACADMAINTVER
 70
     6
  9
$DWGCODEPAGE
  3
ANSI_1252
  9
$INSBASE
 10
0.0
 20
0.0
 30
0.0
  9
$EXTMIN
 10
0.0
 20
0.0
 30
0.0
  9
$EXTMAX
 10
44.0
 20
34.0
 30
0.0
  9
$LIMMIN
 10
0.0
 20
0.0
  9
$LIMMAX
 10
44.0
 20
34.0
  9
$ORTHOMODE
 70
     0
  9
$REGENMODE
 70
     1
  9
$FILLMODE
 70
     1
  9
$QTEXTMODE
 70
     0
  9
$MIRRTEXT
 70
     1
  9
$LTSCALE
 40
1.0
  9
$ATTMODE
 70
     1
  9
$TEXTSIZE
 40
0.2777777778
  9
$TRACEWID
 40
0.05
  9
$TEXTSTYLE
  7
Standard
  9
$CLAYER
  8
0
  9
$CELTYPE
  6
ByLayer
  9
$CECOLOR
 62
   256
  9
$CELTSCALE
 40
1.0
  9
$DISPSILH
 70
     0
  9
$DIMSCALE
 40
1.0
  9
$DIMASZ
 40
0.3640136719
  9
$DIMEXO
 40
0.05
  9
$DIMDLI
 40
0.38
  9
$DIMRND
 40
0.0
  9
$DIMDLE
 40
0.0
  9
$DIMEXE
 40
0.125
  9
$DIMTP
 40
0.0
  9
$DIMTM
 40
0.0
  9
$DIMTXT
 40
0.6666666667
  9
$DIMCEN
 40
0.09
  9
$DIMTSZ
 40
0.0
  9
$DIMTOL
 70
     0
  9
$DIMLIM
 70
     0
  9
$DIMTIH
 70
     1
  9
$DIMTOH
 70
     1
  9
$DIMSE1
 70
     0
  9
$DIMSE2
 70
     0
  9
$DIMTAD
 70
     0
  9
$DIMZIN
 70
     0
  9
$DIMBLK
  1

  9
$DIMASO
 70
     1
  9
$DIMSHO
 70
     1
  9
$DIMPOST
  1

  9
$DIMAPOST
  1

  9
$DIMALT
 70
     0
  9
$DIMALTD
 70
     2
  9
$DIMALTF
 40
25.4
  9
$DIMLFAC
 40
1.0
  9
$DIMTOFL
 70
     0
  9
$DIMTVP
 40
0.0
  9
$DIMTIX
 70
     0
  9
$DIMSOXD
 70
     0
  9
$DIMSAH
 70
     0
  9
$DIMBLK1
  1

  9
$DIMBLK2
  1

  9
$DIMSTYLE
  2
Standard
  9
$DIMCLRD
 70
     0
  9
$DIMCLRE
 70
     0
  9
$DIMCLRT
 70
     0
  9
$DIMTFAC
 40
1.0
  9
$DIMGAP
 40
0.06
  9
$DIMJUST
 70
     0
  9
$DIMSD1
 70
     0
  9
$DIMSD2
 70
     0
  9
$DIMTOLJ
 70
     1
  9
$DIMTZIN
 70
     0
  9
$DIMALTZ
 70
     0
  9
$DIMALTTZ
 70
     0
  9
$DIMUPT
 70
     0
  9
$DIMDEC
 70
     3
  9
$DIMTDEC
 70
     3
  9
$DIMALTU
 70
     2
  9
$DIMALTTD
 70
     2
  9
$DIMTXSTY
  7
Standard
  9
$DIMAUNIT
 70
     0
  9
$DIMADEC
 70
     1
  9
$DIMALTRND
 40
0.0
  9
$DIMAZIN
 70
     0
  9
$DIMDSEP
 70
    46
  9
$DIMATFIT
 70
     3
  9
$DIMFRAC
 70
     0
  9
$DIMLDRBLK
  1

  9
$DIMLUNIT
 70
     2
  9
$DIMLWD
 70
    -2
  9
$DIMLWE
 70
    -2
  9
$DIMTMOVE
 70
     0
  9
$LUNITS
 70
     2
  9
$LUPREC
 70
     3
  9
$SKETCHINC
 40
0.1
  9
$FILLETRAD
 40
0.5
  9
$AUNITS
 70
     0
  9
$AUPREC
 70
     1
  9
$MENU
  1
.
  9
$ELEVATION
 40
0.0
  9
$PELEVATION
 40
0.0
  9
$THICKNESS
 40
0.0
  9
$LIMCHECK
 70
     0
  9
$CHAMFERA
 40
0.5
  9
$CHAMFERB
 40
0.5
  9
$CHAMFERC
 40
1.0
  9
$CHAMFERD
 40
0.0
  9
$SKPOLY
 70
     0
  9
$TDCREATE
 40
2456827.646669502
  9
$TDUCREATE
 40
2456827.855002836
  9
$TDUPDATE
 40
2456827.646670151
  9
$TDUUPDATE
 40
2456827.855003484
  9
$TDINDWG
 40
0.0000000116
  9
$TDUSRTIMER
 40
0.0000000116
  9
$USRTIMER
 70
     1
  9
$ANGBASE
 50
0.0
  9
$ANGDIR
 70
     0
  9
$PDMODE
 70
     0
  9
$PDSIZE
 40
-1.0
  9
$PLINEWID
 40
0.0
  9
$SPLFRAME
 70
     0
  9
$SPLINETYPE
 70
     6
  9
$SPLINESEGS
 70
     8
  9
$HANDSEED
  5
B8
  9
$SURFTAB1
 70
     6
  9
$SURFTAB2
 70
     6
  9
$SURFTYPE
 70
     6
  9
$SURFU
 70
     6
  9
$SURFV
 70
     6
  9
$UCSBASE
  2

  9
$UCSNAME
  2

  9
$UCSORG
 10
0.0
 20
0.0
 30
0.0
  9
$UCSXDIR
 10
1.0
 20
0.0
 30
0.0
  9
$UCSYDIR
 10
0.0
 20
1.0
 30
0.0
  9
$UCSORTHOREF
  2

  9
$UCSORTHOVIEW
 70
     0
  9
$UCSORGTOP
 10
0.0
 20
0.0
 30
0.0
  9
$UCSORGBOTTOM
 10
0.0
 20
0.0
 30
0.0
  9
$UCSORGLEFT
 10
0.0
 20
0.0
 30
0.0
  9
$UCSORGRIGHT
 10
0.0
 20
0.0
 30
0.0
  9
$UCSORGFRONT
 10
0.0
 20
0.0
 30
0.0
  9
$UCSORGBACK
 10
0.0
 20
0.0
 30
0.0
  9
$PUCSBASE
  2

  9
$PUCSNAME
  2

  9
$PUCSORG
 10
0.0
 20
0.0
 30
0.0
  9
$PUCSXDIR
 10
1.0
 20
0.0
 30
0.0
  9
$PUCSYDIR
 10
0.0
 20
1.0
 30
0.0
  9
$PUCSORTHOREF
  2

  9
$PUCSORTHOVIEW
 70
     0
  9
$PUCSORGTOP
 10
0.0
 20
0.0
 30
0.0
  9
$PUCSORGBOTTOM
 10
0.0
 20
0.0
 30
0.0
  9
$PUCSORGLEFT
 10
0.0
 20
0.0
 30
0.0
  9
$PUCSORGRIGHT
 10
0.0
 20
0.0
 30
0.0
  9
$PUCSORGFRONT
 10
0.0
 20
0.0
 30
0.0
  9
$PUCSORGBACK
 10
0.0
 20
0.0
 30
0.0
  9
$USERI1
 70
     0
  9
$USERI2
 70
     0
  9
$USERI3
 70
     0
  9
$USERI4
 70
     0
  9
$USERI5
 70
     0
  9
$USERR1
 40
0.0
  9
$USERR2
 40
0.0
  9
$USERR3
 40
0.0
  9
$USERR4
 40
0.0
  9
$USERR5
 40
0.0
  9
$WORLDVIEW
 70
     1
  9
$SHADEDGE
 70
     3
  9
$SHADEDIF
 70
    70
  9
$TILEMODE
 70
     1
  9
$MAXACTVP
 70
    64
  9
$PINSBASE
 10
0.0
 20
0.0
 30
0.0
  9
$PLIMCHECK
 70
     0
  9
$PEXTMIN
 10
1.0000000000E+20
 20
1.0000000000E+20
 30
1.0000000000E+20
  9
$PEXTMAX
 10
-1.0000000000E+20
 20
-1.0000000000E+20
 30
-1.0000000000E+20
  9
$PLIMMIN
 10
0.0
 20
0.0
  9
$PLIMMAX
 10
12.0
 20
9.0
  9
$UNITMODE
 70
     0
  9
$VISRETAIN
 70
     1
  9
$PLINEGEN
 70
     0
  9
$PSLTSCALE
 70
     1
  9
$TREEDEPTH
 70
  3020
  9
$CMLSTYLE
  2
Standard
  9
$CMLJUST
 70
     0
  9
$CMLSCALE
 40
1.0
  9
$PROXYGRAPHICS
 70
     1
  9
$MEASUREMENT
 70
     0
  9
$CELWEIGHT
370
    -1
  9
$ENDCAPS
280
     0
  9
$JOINSTYLE
280
     0
  9
$LWDISPLAY
290
     1
  9
$INSUNITS
 70
     1
  9
$HYPERLINKBASE
  1

  9
$STYLESHEET
  1

  9
$XEDIT
290
     1
  9
$CEPSNTYPE
380
     0
  9
$PSTYLEMODE
290
     1
  9
$FINGERPRINTGUID
  2
{771C2246-7F8B-48BB-A679-526FD52F9257}
  9
$VERSIONGUID
  2
{FAEB1C32-E019-11D5-929B-00C0DF256EC4}
  9
$EXTNAMES
290
     1
  9
$PSVPSCALE
 40
0.0
  9
$OLESTARTUP
290
     0
  0
ENDSEC
  0
SECTION
  2
CLASSES
  0
CLASS
  1
ACDBDICTIONARYWDFLT
  2
AcDbDictionaryWithDefault
  3
ObjectDBX Classes
 90
        0
280
     0
281
     0
  0
CLASS
  1
VISUALSTYLE
  2
AcDbVisualStyle
  3
ObjectDBX Classes
 90
     4095
280
     0
281
     0
  0
CLASS
  1
MATERIAL
  2
AcDbMaterial
  3
ObjectDBX Classes
 90
     1153
280
     0
281
     0
  0
CLASS
  1
ACDBPLACEHOLDER
  2
AcDbPlaceHolder
  3
ObjectDBX Classes
 90
        0
280
     0
281
     0
  0
CLASS
  1
LAYOUT
  2
AcDbLayout
  3
ObjectDBX Classes
 90
        0
280
     0
281
     0
  0
ENDSEC
  0
SECTION
  2
TABLES
  0
TABLE
  2
VPORT
  5
8
330
0
100
AcDbSymbolTable
 70
     1
  0
VPORT
  5
29
330
8
100
AcDbSymbolTableRecord
100
AcDbViewportTableRecord
  2
*Active
 70
     0
 10
0.0
 20
0.0
 11
1.0
 21
1.0
 12
22.0
 22
17.0
 13
0.0
 23
0.0
 14
0.5
 24
0.5
 15
0.5
 25
0.5
 16
0.0
 26
0.0
 36
1.0
 17
0.0
 27
0.0
 37
0.0
 40
34.0
 41
1.2941176471
 42
50.0
 43
0.0
 44
0.0
 50
0.0
 51
0.0
 71
     0
 72
  2000
 73
     1
 74
     3
 75
     0
 76
     0
 77
     0
 78
     0
281
     0
 65
     1
110
0.0
120
0.0
130
0.0
111
1.0
121
0.0
131
0.0
112
0.0
122
1.0
132
0.0
 79
     0
146
0.0
  0
ENDTAB
  0
TABLE
  2
LTYPE
  5
5
330
0
100
AcDbSymbolTable
 70
     6
  0
LTYPE
  5
14
330
5
100
AcDbSymbolTableRecord
100
AcDbLinetypeTableRecord
  2
ByBlock
 70
     0
  3

 72
    65
 73
     0
 40
0.0
  0
LTYPE
  5
15
330
5
100
AcDbSymbolTableRecord
100
AcDbLinetypeTableRecord
  2
ByLayer
 70
     0
  3

 72
    65
 73
     0
 40
0.0
  0
LTYPE
  5
16
330
5
100
AcDbSymbolTableRecord
100
AcDbLinetypeTableRecord
  2
Continuous
 70
     0
  3
Solid line
 72
    65
 73
     0
 40
0.0
  0
LTYPE
  5
3F
330
5
100
AcDbSymbolTableRecord
100
AcDbLinetypeTableRecord
  2
HIDDEN
 70
     0
  3
Hidden __ __ __ __ __ __ __ __ __ __ __ __ __ __
 72
    65
 73
     2
 40
0.075
 49
0.05
 74
     0
 49
-0.025
 74
     0
  0
LTYPE
  5
40
330
5
100
AcDbSymbolTableRecord
100
AcDbLinetypeTableRecord
  2
PHANTOM
 70
     0
  3
Phantom ______  __  __  ______  __  __  ______
 72
    65
 73
     6
 40
0.5
 49
0.25
 74
     0
 49
-0.05
 74
     0
 49
0.05
 74
     0
 49
-0.05
 74
     0
 49
0.05
 74
     0
 49
-0.05
 74
     0
  0
LTYPE
  5
41
330
5
100
AcDbSymbolTableRecord
100
AcDbLinetypeTableRecord
  2
CENTER
 70
     0
  3
Center ____ _ ____ _ ____ _ ____ _ ____ _ ____
 72
    65
 73
     4
 40
0.4
 49
0.25
 74
     0
 49
-0.05
 74
     0
 49
0.05
 74
     0
 49
-0.05
 74
     0
  0
LTYPE
  5
42
330
5
100
AcDbSymbolTableRecord
100
AcDbLinetypeTableRecord
  2
CENTERX2
 70
     0
  3
Center (2x) ________  __  ________  __  _____
 72
    65
 73
     4
 40
0.8
 49
0.5
 74
     0
 49
-0.1
 74
     0
 49
0.1
 74
     0
 49
-0.1
 74
     0
  0
LTYPE
  5
43
330
5
100
AcDbSymbolTableRecord
100
AcDbLinetypeTableRecord
  2
DOT2
 70
     0
  3
Dot (.5x) ........................................
 72
    65
 73
     2
 40
0.025
 49
0.0
 74
     0
 49
-0.025
 74
     0
  0
ENDTAB
  0
TABLE
  2
LAYER
  5
2
330
0
100
AcDbSymbolTable
 70
     8
  0
LAYER
  5
10
330
2
100
AcDbSymbolTableRecord
100
AcDbLayerTableRecord
  2
0
 70
     0
 62
     7
  6
Continuous
370
    -3
390
F
  0
LAYER
  5
44
330
2
100
AcDbSymbolTableRecord
100
AcDbLayerTableRecord
  2
SLD-0
 70
     0
 62
   179
  6
Continuous
370
    -3
390
F
  0
LAYER
  5
45
330
2
100
AcDbSymbolTableRecord
100
AcDbLayerTableRecord
  2
OBJECTS
 70
     0
 62
     5
  6
Continuous
370
    -3
390
F
  0
LAYER
  5
46
330
2
100
AcDbSymbolTableRecord
100
AcDbLayerTableRecord
  2
DIMS
 70
     0
 62
     1
  6
Continuous
370
    -3
390
F
  0
LAYER
  5
47
330
2
100
AcDbSymbolTableRecord
100
AcDbLayerTableRecord
  2
NOTES
 70
     0
 62
     7
  6
Continuous
370
    -3
390
F
  0
LAYER
  5
48
330
2
100
AcDbSymbolTableRecord
100
AcDbLayerTableRecord
  2
IMAGES
 70
     0
 62
     7
  6
Continuous
370
    -3
390
F
  0
LAYER
  5
49
330
2
100
AcDbSymbolTableRecord
100
AcDbLayerTableRecord
  2
CENTERLINES
 70
     0
 62
     7
  6
HIDDEN
370
    -3
390
F
  0
LAYER
  5
4A
330
2
100
AcDbSymbolTableRecord
100
AcDbLayerTableRecord
  2
BLOCKS
 70
     0
 62
    16
  6
Continuous
370
    -3
390
F
  0
ENDTAB
  0
TABLE
  2
STYLE
  5
3
330
0
100
AcDbSymbolTable
 70
     2
  0
STYLE
  5
11
330
3
100
AcDbSymbolTableRecord
100
AcDbTextStyleTableRecord
  2
Standard
 70
     0
 40
0.0
 41
1.0
 50
0.0
 71
     0
 42
0.2777777778
  3
txt
  4

  0
STYLE
  5
58
330
3
100
AcDbSymbolTableRecord
100
AcDbTextStyleTableRecord
  2
SLDTEXTSTYLE0
 70
     0
 40
0.0
 41
0.605
 50
0.0
 71
     0
 42
0.2
  3
TXT
  4

  0
ENDTAB
  0
TABLE
  2
VIEW
  5
6
330
0
100
AcDbSymbolTable
 70
     0
  0
ENDTAB
  0
TABLE
  2
UCS
  5
7
330
0
100
AcDbSymbolTable
 70
     0
  0
ENDTAB
  0
TABLE
  2
APPID
  5
9
330
0
100
AcDbSymbolTable
 70
     1
  0
APPID
  5
12
330
9
100
AcDbSymbolTableRecord
100
AcDbRegAppTableRecord
  2
ACAD
 70
     0
  0
ENDTAB
  0
TABLE
  2
DIMSTYLE
  5
A
330
0
100
AcDbSymbolTable
 70
     4
100
AcDbDimStyleTable
  0
DIMSTYLE
105
27
330
A
100
AcDbSymbolTableRecord
100
AcDbDimStyleTableRecord
  2
Standard
 70
     0
178
     0
340
11
  0
DIMSTYLE
105
59
102
{ACAD_REACTORS
330
57
330
6D
102
}
330
A
100
AcDbSymbolTableRecord
100
AcDbDimStyleTableRecord
  2
SLDDIMSTYLE0
 70
     0
 41
0.3640136719
 44
0.0
 45
0.000000001
 78
    12
 79
     3
140
0.4853515625
147
0.1213378906
148
0.000000001
170
     1
171
     0
173
     1
178
     0
271
     3
272
     3
274
     0
276
     2
277
     5
284
    12
340
58
  0
DIMSTYLE
105
82
102
{ACAD_REACTORS
330
81
102
}
330
A
100
AcDbSymbolTableRecord
100
AcDbDimStyleTableRecord
  2
SLDDIMSTYLE1
 70
     0
 41
0.3640136719
 44
0.0
 45
0.000000001
 78
    12
 79
     3
140
0.4853515625
141
0.0
147
0.1213378906
148
0.000000001
170
     1
171
     0
173
     1
178
     0
271
     3
272
     3
274
     0
276
     2
277
     5
279
     1
284
    12
340
58
  0
DIMSTYLE
105
9D
330
A
100
AcDbSymbolTableRecord
100
AcDbDimStyleTableRecord
  2
SLDDIMSTYLE2
 70
     0
 41
0.3640136719
 44
0.0
 45
0.000000001
140
0.0
146
0.3640136719
147
0.0
173
     1
178
     0
271
     0
272
     0
276
     2
277
     5
340
11
  0
ENDTAB
  0
TABLE
  2
BLOCK_RECORD
  5
1
330
0
100
AcDbSymbolTable
 70
     7
  0
BLOCK_RECORD
  5
1F
330
1
100
AcDbSymbolTableRecord
100
AcDbBlockTableRecord
  2
*Model_Space
340
22
  0
BLOCK_RECORD
  5
1B
330
1
100
AcDbSymbolTableRecord
100
AcDbBlockTableRecord
  2
*Paper_Space
340
1E
  0
BLOCK_RECORD
  5
23
330
1
100
AcDbSymbolTableRecord
100
AcDbBlockTableRecord
  2
*Paper_Space0
340
26
  0
BLOCK_RECORD
  5
5A
330
1
100
AcDbSymbolTableRecord
100
AcDbBlockTableRecord
  2
_D
340
0
  0
BLOCK_RECORD
  5
6E
330
1
100
AcDbSymbolTableRecord
100
AcDbBlockTableRecord
  2
_D_1
340
0
  0
BLOCK_RECORD
  5
83
330
1
100
AcDbSymbolTableRecord
100
AcDbBlockTableRecord
  2
_D_2
340
0
  0
BLOCK_RECORD
  5
95
330
1
100
AcDbSymbolTableRecord
100
AcDbBlockTableRecord
  2
SW_NOTE_0
340
0
102
{BLKREFS
331
9C
102
}
  0
BLOCK_RECORD
  5
A0
330
1
100
AcDbSymbolTableRecord
100
AcDbBlockTableRecord
  2
SW_NOTE_1
340
0
102
{BLKREFS
331
B1
102
}
  0
BLOCK_RECORD
  5
B2
330
1
100
AcDbSymbolTableRecord
100
AcDbBlockTableRecord
  2
SW_NOTE_2
340
0
102
{BLKREFS
331
B7
102
}
  0
ENDTAB
  0
ENDSEC
  0
SECTION
  2
BLOCKS
  0
BLOCK
  5
20
330
1F
100
AcDbEntity
  8
0
100
AcDbBlockBegin
  2
*Model_Space
 70
     0
 10
0.0
 20
0.0
 30
0.0
  3
*Model_Space
  1

  0
ENDBLK
  5
21
330
1F
100
AcDbEntity
  8
0
100
AcDbBlockEnd
  0
BLOCK
  5
1C
330
1B
100
AcDbEntity
 67
     1
  8
0
100
AcDbBlockBegin
  2
*Paper_Space
 70
     0
 10
0.0
 20
0.0
 30
0.0
  3
*Paper_Space
  1

  0
ENDBLK
  5
1D
330
1B
100
AcDbEntity
 67
     1
  8
0
100
AcDbBlockEnd
  0
BLOCK
  5
24
330
23
100
AcDbEntity
  8
0
100
AcDbBlockBegin
  2
*Paper_Space0
 70
     0
 10
0.0
 20
0.0
 30
0.0
  3
*Paper_Space0
  1

  0
ENDBLK
  5
25
330
23
100
AcDbEntity
  8
0
100
AcDbBlockEnd
  0
BLOCK
  5
5B
330
5A
100
AcDbEntity
  8
0
100
AcDbBlockBegin
  2
_D
 70
     0
 10
0.0
 20
0.0
 30
0.0
  3
_D
  1

  0
SOLID
  5
5D
330
5A
100
AcDbEntity
  8
DIMS
100
AcDbTrace
 10
12.5410516507
 20
7.9867172814
 30
0.0
 11
12.5970537541
 21
8.3507309532
 31
0.0
 12
12.4850495474
 22
8.3507309532
 32
0.0
 13
12.4850495474
 23
8.3507309532
 33
0.0
  0
SOLID
  5
5E
330
5A
100
AcDbEntity
  8
DIMS
100
AcDbTrace
 10
12.5410516507
 20
29.3419343057
 30
0.0
 11
12.4850495474
 21
28.9779206338
 31
0.0
 12
12.5970537541
 22
28.9779206338
 32
0.0
 13
12.5970537541
 23
28.9779206338
 33
0.0
  0
LINE
  5
5F
330
5A
100
AcDbEntity
  8
DIMS
100
AcDbLine
 10
12.314662771
 20
22.679348112
 30
0.0
 11
12.8266997792
 21
22.679348112
 31
0.0
  0
LINE
  5
60
330
5A
100
AcDbEntity
  8
DIMS
100
AcDbLine
 10
11.8466072147
 20
21.8449036457
 30
0.0
 11
11.7354961049
 21
21.8449036457
 31
0.0
  0
LINE
  5
61
330
5A
100
AcDbEntity
  8
DIMS
100
AcDbLine
 10
11.7354961049
 20
21.8449036457
 30
0.0
 11
11.7354961049
 21
21.099533263
 31
0.0
  0
LINE
  5
62
330
5A
100
AcDbEntity
  8
DIMS
100
AcDbLine
 10
11.7354961049
 20
21.099533263
 30
0.0
 11
11.8466072147
 21
21.099533263
 31
0.0
  0
LINE
  5
63
330
5A
100
AcDbEntity
  8
DIMS
100
AcDbLine
 10
13.2354960868
 20
21.8449036457
 30
0.0
 11
13.3466071965
 21
21.8449036457
 31
0.0
  0
LINE
  5
64
330
5A
100
AcDbEntity
  8
DIMS
100
AcDbLine
 10
13.3466071965
 20
21.8449036457
 30
0.0
 11
13.3466071965
 21
21.099533263
 31
0.0
  0
LINE
  5
65
330
5A
100
AcDbEntity
  8
DIMS
100
AcDbLine
 10
13.3466071965
 20
21.099533263
 30
0.0
 11
13.2354960868
 21
21.099533263
 31
0.0
  0
LINE
  5
66
330
5A
100
AcDbEntity
  8
DIMS
100
AcDbLine
 10
12.5410516507
 20
7.9867172814
 30
0.0
 11
12.5410516507
 21
20.9884222632
 31
0.0
  0
LINE
  5
67
330
5A
100
AcDbEntity
  8
DIMS
100
AcDbLine
 10
12.5410516507
 20
29.3419343057
 30
0.0
 11
12.5410516507
 21
23.3035147724
 31
0.0
  0
MTEXT
  5
68
330
5A
100
AcDbEntity
  8
DIMS
100
AcDbMText
 10
11.5030886814
 20
22.940745362
 30
0.0039370079
 40
0.5
 41
0.0
 71
     1
 72
     1
  1
21
  7
SLDTEXTSTYLE0
 73
     1
 44
1.0
  0
MTEXT
  5
69
330
5A
100
AcDbEntity
  8
DIMS
100
AcDbMText
 10
12.385496086
 20
23.2813819836
 30
0.0039370079
 40
0.5
 41
0.0
 71
     1
 72
     1
  1
3
  7
SLDTEXTSTYLE0
 73
     1
 44
1.0
  0
MTEXT
  5
6A
330
5A
100
AcDbEntity
  8
DIMS
100
AcDbMText
 10
12.385496086
 20
22.6005486586
 30
0.0039370079
 40
0.5
 41
0.0
 71
     1
 72
     1
  1
8
  7
SLDTEXTSTYLE0
 73
     1
 44
1.0
  0
MTEXT
  5
6B
330
5A
100
AcDbEntity
  8
DIMS
100
AcDbMText
 10
12.8975331859
 20
22.940745362
 30
0.0039370079
 40
0.5
 41
0.0
 71
     1
 72
     1
  1
"
  7
SLDTEXTSTYLE0
 73
     1
 44
1.0
  0
MTEXT
  5
6C
330
5A
100
AcDbEntity
  8
DIMS
100
AcDbMText
 10
11.9854961019
 20
21.7440671328
 30
0.0039370079
 40
0.5
 41
0.0
 71
     1
 72
     1
  1
542
  7
SLDTEXTSTYLE0
 73
     1
 44
1.0
  0
ENDBLK
  5
5C
330
5A
100
AcDbEntity
  8
0
100
AcDbBlockEnd
  0
BLOCK
  5
6F
330
6E
100
AcDbEntity
  8
0
100
AcDbBlockBegin
  2
_D_1
 70
     0
 10
0.0
 20
0.0
 30
0.0
  3
_D_1
  1

  0
SOLID
  5
71
330
6E
100
AcDbEntity
  8
DIMS
100
AcDbTrace
 10
9.649570346
 20
12.6687544484
 30
0.0
 11
10.0135840178
 21
12.612752345
 31
0.0
 12
10.0135840178
 22
12.7247565518
 32
0.0
 13
10.0135840178
 23
12.7247565518
 33
0.0
  0
SOLID
  5
72
330
6E
100
AcDbEntity
  8
DIMS
100
AcDbTrace
 10
34.0047873703
 20
12.6687544484
 30
0.0
 11
33.6407736984
 21
12.7247565518
 31
0.0
 12
33.6407736984
 22
12.612752345
 32
0.0
 13
33.6407736984
 23
12.612752345
 33
0.0
  0
LINE
  5
73
330
6E
100
AcDbEntity
  8
DIMS
100
AcDbLine
 10
19.0227054756
 20
13.2021340426
 30
0.0
 11
19.5347424838
 21
13.2021340426
 31
0.0
  0
LINE
  5
74
330
6E
100
AcDbEntity
  8
DIMS
100
AcDbLine
 10
18.5546499193
 20
12.3676895763
 30
0.0
 11
18.4435388095
 21
12.3676895763
 31
0.0
  0
LINE
  5
75
330
6E
100
AcDbEntity
  8
DIMS
100
AcDbLine
 10
18.4435388095
 20
12.3676895763
 30
0.0
 11
18.4435388095
 21
11.6223191936
 31
0.0
  0
LINE
  5
76
330
6E
100
AcDbEntity
  8
DIMS
100
AcDbLine
 10
18.4435388095
 20
11.6223191936
 30
0.0
 11
18.5546499193
 21
11.6223191936
 31
0.0
  0
LINE
  5
77
330
6E
100
AcDbEntity
  8
DIMS
100
AcDbLine
 10
19.9435387914
 20
12.3676895763
 30
0.0
 11
20.0546499012
 21
12.3676895763
 31
0.0
  0
LINE
  5
78
330
6E
100
AcDbEntity
  8
DIMS
100
AcDbLine
 10
20.0546499012
 20
12.3676895763
 30
0.0
 11
20.0546499012
 21
11.6223191936
 31
0.0
  0
LINE
  5
79
330
6E
100
AcDbEntity
  8
DIMS
100
AcDbLine
 10
20.0546499012
 20
11.6223191936
 30
0.0
 11
19.9435387914
 21
11.6223191936
 31
0.0
  0
LINE
  5
7A
330
6E
100
AcDbEntity
  8
DIMS
100
AcDbLine
 10
9.649570346
 20
12.6687544484
 30
0.0
 11
18.1000004581
 21
12.6687544484
 31
0.0
  0
LINE
  5
7B
330
6E
100
AcDbEntity
  8
DIMS
100
AcDbLine
 10
34.0047873703
 20
12.6687544484
 30
0.0
 11
20.3981882525
 21
12.6687544484
 31
0.0
  0
MTEXT
  5
7C
330
6E
100
AcDbEntity
  8
DIMS
100
AcDbMText
 10
18.211131386
 20
13.4635312927
 30
0.0039370079
 40
0.5
 41
0.0
 71
     1
 72
     1
  1
24
  7
SLDTEXTSTYLE0
 73
     1
 44
1.0
  0
MTEXT
  5
7D
330
6E
100
AcDbEntity
  8
DIMS
100
AcDbMText
 10
19.0935387907
 20
13.8041679143
 30
0.0039370079
 40
0.5
 41
0.0
 71
     1
 72
     1
  1
3
  7
SLDTEXTSTYLE0
 73
     1
 44
1.0
  0
MTEXT
  5
7E
330
6E
100
AcDbEntity
  8
DIMS
100
AcDbMText
 10
19.0935387907
 20
13.1233345892
 30
0.0039370079
 40
0.5
 41
0.0
 71
     1
 72
     1
  1
8
  7
SLDTEXTSTYLE0
 73
     1
 44
1.0
  0
MTEXT
  5
7F
330
6E
100
AcDbEntity
  8
DIMS
100
AcDbMText
 10
19.6055758906
 20
13.4635312927
 30
0.0039370079
 40
0.5
 41
0.0
 71
     1
 72
     1
  1
"
  7
SLDTEXTSTYLE0
 73
     1
 44
1.0
  0
MTEXT
  5
80
330
6E
100
AcDbEntity
  8
DIMS
100
AcDbMText
 10
18.6935388065
 20
12.2668530635
 30
0.0039370079
 40
0.5
 41
0.0
 71
     1
 72
     1
  1
619
  7
SLDTEXTSTYLE0
 73
     1
 44
1.0
  0
ENDBLK
  5
70
330
6E
100
AcDbEntity
  8
0
100
AcDbBlockEnd
  0
BLOCK
  5
84
330
83
100
AcDbEntity
  8
0
100
AcDbBlockBegin
  2
_D_2
 70
     0
 10
0.0
 20
0.0
 30
0.0
  3
_D_2
  1

  0
SOLID
  5
86
330
83
100
AcDbEntity
  8
DIMS
100
AcDbTrace
 10
33.7161873768
 20
8.1095054008
 30
0.0
 11
33.5530647059
 21
8.4397071318
 31
0.0
 12
33.4613565635
 22
8.3754065958
 32
0.0
 13
33.4613565635
 23
8.3754065958
 33
0.0
  0
LINE
  5
87
330
83
100
AcDbEntity
  8
DIMS
100
AcDbLine
 10
30.5279185543
 20
10.3815925128
 30
0.0
 11
31.4103259773
 21
10.3815925128
 31
0.0
  0
LINE
  5
88
330
83
100
AcDbEntity
  8
DIMS
100
AcDbLine
 10
30.5598629919
 20
9.5471480465
 30
0.0
 11
30.4487518821
 21
9.5471480465
 31
0.0
  0
LINE
  5
89
330
83
100
AcDbEntity
  8
DIMS
100
AcDbLine
 10
30.4487518821
 20
9.5471480465
 30
0.0
 11
30.4487518821
 21
8.8017776638
 31
0.0
  0
LINE
  5
8A
330
83
100
AcDbEntity
  8
DIMS
100
AcDbLine
 10
30.4487518821
 20
8.8017776638
 30
0.0
 11
30.5598629919
 21
8.8017776638
 31
0.0
  0
LINE
  5
8B
330
83
100
AcDbEntity
  8
DIMS
100
AcDbLine
 10
31.5783815226
 20
9.5471480465
 30
0.0
 11
31.6894926323
 21
9.5471480465
 31
0.0
  0
LINE
  5
8C
330
83
100
AcDbEntity
  8
DIMS
100
AcDbLine
 10
31.6894926323
 20
9.5471480465
 30
0.0
 11
31.6894926323
 21
8.8017776638
 31
0.0
  0
LINE
  5
8D
330
83
100
AcDbEntity
  8
DIMS
100
AcDbLine
 10
31.6894926323
 20
8.8017776638
 30
0.0
 11
31.5783815226
 21
8.8017776638
 31
0.0
  0
LINE
  5
8E
330
83
100
AcDbEntity
  8
DIMS
100
AcDbLine
 10
33.7161873768
 20
8.1095054008
 30
0.0
 11
32.4126407081
 21
9.9686787603
 31
0.0
  0
LINE
  5
8F
330
83
100
AcDbEntity
  8
DIMS
100
AcDbLine
 10
32.4126407081
 20
9.9686787603
 30
0.0
 11
32.1626407081
 21
9.9686787603
 31
0.0
  0
MTEXT
  5
90
330
83
100
AcDbEntity
  8
DIMS
100
AcDbMText
 10
29.975603733
 20
10.6429897629
 30
0.0039370079
 40
0.5
 41
0.0
 71
     1
 72
     1
  1
R
  7
SLDTEXTSTYLE0
 73
     1
 44
1.0
  0
MTEXT
  5
91
330
83
100
AcDbEntity
  8
DIMS
100
AcDbMText
 10
30.5987518877
 20
10.9836263845
 30
0.0039370079
 40
0.5
 41
0.0
 71
     1
 72
     1
  1
11
  7
SLDTEXTSTYLE0
 73
     1
 44
1.0
  0
MTEXT
  5
92
330
83
100
AcDbEntity
  8
DIMS
100
AcDbMText
 10
30.5987518877
 20
10.3027930594
 30
0.0039370079
 40
0.5
 41
0.0
 71
     1
 72
     1
  1
16
  7
SLDTEXTSTYLE0
 73
     1
 44
1.0
  0
MTEXT
  5
93
330
83
100
AcDbEntity
  8
DIMS
100
AcDbMText
 10
31.481159274
 20
10.6429897629
 30
0.0039370079
 40
0.5
 41
0.0
 71
     1
 72
     1
  1
"
  7
SLDTEXTSTYLE0
 73
     1
 44
1.0
  0
MTEXT
  5
94
330
83
100
AcDbEntity
  8
DIMS
100
AcDbMText
 10
30.6987518791
 20
9.4463115337
 30
0.0039370079
 40
0.5
 41
0.0
 71
     1
 72
     1
  1
17
  7
SLDTEXTSTYLE0
 73
     1
 44
1.0
  0
ENDBLK
  5
85
330
83
100
AcDbEntity
  8
0
100
AcDbBlockEnd
  0
BLOCK
  5
96
330
95
100
AcDbEntity
  8
0
100
AcDbBlockBegin
  2
SW_NOTE_0
 70
     0
 10
0.0
 20
0.0
 30
0.0
  3
SW_NOTE_0
  1

  0
MTEXT
  5
98
330
95
100
AcDbEntity
  8
NOTES
 62
     0
100
AcDbMText
 10
-0.8914972297
 20
0.6892645307
 30
0.0
 40
0.2083333333
 41
0.0
 71
     2
 72
     1
  1
TEMPLATE
  7
SLDTEXTSTYLE0
 73
     1
 44
1.0
  0
MTEXT
  5
99
330
95
100
AcDbEntity
  8
NOTES
 62
     0
100
AcDbMText
 10
-0.8883625594
 20
0.4114867563
 30
0.0
 40
0.2083333333
 41
0.0
 71
     2
 72
     1
  1
CENTERLINE
  7
SLDTEXTSTYLE0
 73
     1
 44
1.0
  0
MTEXT
  5
9A
330
95
100
AcDbEntity
  8
NOTES
 62
     0
100
AcDbMText
 10
-0.8882420214
 20
-0.1440687925
 30
0.0
 40
0.2083333333
 41
0.0
 71
     2
 72
     1
  1
PLANTILLA
  7
SLDTEXTSTYLE0
 73
     1
 44
1.0
  0
MTEXT
  5
9B
330
95
100
AcDbEntity
  8
NOTES
 62
     0
100
AcDbMText
 10
-0.8912560869
 20
-0.4218465669
 30
0.0
 40
0.2083333333
 41
0.0
 71
     2
 72
     1
  1
CENTRAL
  7
SLDTEXTSTYLE0
 73
     1
 44
1.0
  0
ENDBLK
  5
97
330
95
100
AcDbEntity
  8
0
100
AcDbBlockEnd
  0
BLOCK
  5
A1
330
A0
100
AcDbEntity
  8
0
100
AcDbBlockBegin
  2
SW_NOTE_1
 70
     0
 10
0.0
 20
0.0
 30
0.0
  3
SW_NOTE_1
  1

  0
MTEXT
  5
A3
330
A0
100
AcDbEntity
  8
NOTES
 62
     0
100
AcDbMText
 10
0.0
 20
0.2685557791
 30
0.0
 40
0.2083333333
 41
0.0
 71
     1
 72
     1
  1
NOTES:
  7
SLDTEXTSTYLE0
 73
     1
 44
1.0
  0
MTEXT
  5
A4
330
A0
100
AcDbEntity
  8
NOTES
 62
     0
100
AcDbMText
 10
0.3937007786
 20
-0.2869997697
 30
0.0
 40
0.2083333333
 41
0.0
 71
     1
 72
     1
  1
THOROUGHLY READ ALL  INSTALLATION
  7
SLDTEXTSTYLE0
 73
     1
 44
1.0
  0
MTEXT
  5
A5
330
A0
100
AcDbEntity
  8
NOTES
 62
     0
100
AcDbMText
 10
0.0
 20
-0.2869997697
 30
0.0
 40
0.2083333333
 41
0.0
 71
     1
 72
     1
  1
1.
  7
SLDTEXTSTYLE0
 73
     1
 44
1.0
  0
MTEXT
  5
A6
330
A0
100
AcDbEntity
  8
NOTES
 62
     0
100
AcDbMText
 10
0.3937007786
 20
-0.5647775441
 30
0.0
 40
0.2083333333
 41
0.0
 71
     1
 72
     1
  1
INSTRUCTIONS
  7
SLDTEXTSTYLE0
 73
     1
 44
1.0
  0
MTEXT
  5
A7
330
A0
100
AcDbEntity
  8
NOTES
 62
     0
100
AcDbMText
 10
0.0
 20
-0.8425553186
 30
0.0
 40
0.2083333333
 41
0.0
 71
     1
 72
     1
  1
BEFORE CUTTING COUNTERTOP.
  7
SLDTEXTSTYLE0
 73
     1
 44
1.0
  0
MTEXT
  5
A8
330
A0
100
AcDbEntity
  8
NOTES
 62
     0
100
AcDbMText
 10
0.0
 20
-1.3981108674
 30
0.0
 40
0.2083333333
 41
0.0
 71
     1
 72
     1
  1
2.  DIMENSIONS ARE IN INCHES [MM].
  7
SLDTEXTSTYLE0
 73
     1
 44
1.0
  0
MTEXT
  5
A9
330
A0
100
AcDbEntity
  8
NOTES
 62
     0
100
AcDbMText
 10
0.0
 20
-2.2314441907
 30
0.0
 40
0.2083333333
 41
0.0
 71
     1
 72
     1
  1
PLEASE CHECK TEMPLATE AGAINST PHYSICAL SINK
  7
SLDTEXTSTYLE0
 73
     1
 44
1.0
  0
MTEXT
  5
AA
330
A0
100
AcDbEntity
  8
NOTES
 62
     0
100
AcDbMText
 10
0.0
 20
-2.5092219651
 30
0.0
 40
0.2083333333
 41
0.0
 71
     1
 72
     1
  1
FOR MOST ACCURATE CUT.
  7
SLDTEXTSTYLE0
 73
     1
 44
1.0
  0
MTEXT
  5
AB
330
A0
100
AcDbEntity
  8
NOTES
 62
     0
100
AcDbMText
 10
0.0
 20
-3.6203330628
 30
0.0
 40
0.2083333333
 41
0.0
 71
     1
 72
     1
  1
NOTAS:
  7
SLDTEXTSTYLE0
 73
     1
 44
1.0
  0
MTEXT
  5
AC
330
A0
100
AcDbEntity
  8
NOTES
 62
     0
100
AcDbMText
 10
0.0
 20
-4.1758886116
 30
0.0
 40
0.2083333333
 41
0.0
 71
     1
 72
     1
  1
1.  LEA ATENTAMENTE LAS INSTRUCCIONES DE
  7
SLDTEXTSTYLE0
 73
     1
 44
1.0
  0
MTEXT
  5
AD
330
A0
100
AcDbEntity
  8
NOTES
 62
     0
100
AcDbMText
 10
0.0
 20
-4.453666386
 30
0.0
 40
0.2083333333
 41
0.0
 71
     1
 72
     1
  1
INSTALACIÓN ANTES DE CORTAR LA ENCIMERA.
  7
SLDTEXTSTYLE0
 73
     1
 44
1.0
  0
MTEXT
  5
AE
330
A0
100
AcDbEntity
  8
NOTES
 62
     0
100
AcDbMText
 10
0.0
 20
-5.0092219349
 30
0.0
 40
0.2083333333
 41
0.0
 71
     1
 72
     1
  1
2.  DIMENSIONES EN PULGADAS [MM].
  7
SLDTEXTSTYLE0
 73
     1
 44
1.0
  0
MTEXT
  5
AF
330
A0
100
AcDbEntity
  8
NOTES
 62
     0
100
AcDbMText
 10
0.0
 20
-5.8425552581
 30
0.0
 40
0.2083333333
 41
0.0
 71
     1
 72
     1
  1
POR FAVOR COMPRUEBE PLANTILLA CONTRA
  7
SLDTEXTSTYLE0
 73
     1
 44
1.0
  0
MTEXT
  5
B0
330
A0
100
AcDbEntity
  8
NOTES
 62
     0
100
AcDbMText
 10
0.0
 20
-6.1203330326
 30
0.0
 40
0.2083333333
 41
0.0
 71
     1
 72
     1
  1
FREGADERO FÍSICO PARA CORTE MÁS EXACTO.
  7
SLDTEXTSTYLE0
 73
     1
 44
1.0
  0
ENDBLK
  5
A2
330
A0
100
AcDbEntity
  8
0
100
AcDbBlockEnd
  0
BLOCK
  5
B3
330
B2
100
AcDbEntity
  8
0
100
AcDbBlockBegin
  2
SW_NOTE_2
 70
     0
 10
0.0
 20
0.0
 30
0.0
  3
SW_NOTE_2
  1

  0
MTEXT
  5
B5
330
B2
100
AcDbEntity
  8
NOTES
 62
     0
100
AcDbMText
 10
6.0042317708
 20
0.9399452269
 30
0.0
 40
0.7291666667
 41
0.0
 71
     2
 72
     1
  1
TEMPLATE #: 0000001438
  7
SLDTEXTSTYLE0
 73
     1
 44
1.0
  0
MTEXT
  5
B6
330
B2
100
AcDbEntity
  8
NOTES
 62
     0
100
AcDbMText
 10
6.0030495811
 20
-0.0221327521
 30
0.0
 40
0.5
 41
0.0
 71
     2
 72
     1
  1
TOP MOUNT TEMPLATE 25" X 22" W/1" RADIUS
  7
SLDTEXTSTYLE0
 73
     1
 44
1.0
  0
ENDBLK
  5
B4
330
B2
100
AcDbEntity
  8
0
100
AcDbBlockEnd
  0
ENDSEC
  0
SECTION
  2
ENTITIES
  0
LINE
  5
4B
330
1F
100
AcDbEntity
  8
SLD-0
100
AcDbLine
 10
9.649570346
 20
28.6643257935
 30
0.0
 11
9.649570346
 21
8.6643257935
 31
0.0
  0
LINE
  5
4C
330
1F
100
AcDbEntity
  8
SLD-0
100
AcDbLine
 10
10.3271788581
 20
7.9867172814
 30
0.0
 11
33.3271788581
 21
7.9867172814
 31
0.0
  0
LINE
  5
4D
330
1F
100
AcDbEntity
  8
SLD-0
100
AcDbLine
 10
34.0047873703
 20
8.6643257935
 30
0.0
 11
34.0047873703
 21
28.6643257935
 31
0.0
  0
LINE
  5
4E
330
1F
100
AcDbEntity
  8
SLD-0
100
AcDbLine
 10
33.3271788581
 20
29.3419343057
 30
0.0
 11
10.3271788581
 21
29.3419343057
 31
0.0
  0
LINE
  5
4F
330
1F
100
AcDbEntity
  8
OBJECTS
  6
CENTERX2
100
AcDbLine
 10
21.8271788581
 20
29.3419343057
 30
0.0
 11
21.8271788581
 21
27.2169343057
 31
0.0
  0
LINE
  5
50
330
1F
100
AcDbEntity
  8
OBJECTS
  6
CENTERX2
100
AcDbLine
 10
9.649570346
 20
18.6643257935
 30
0.0
 11
11.774570346
 21
18.6643257935
 31
0.0
  0
LINE
  5
51
330
1F
100
AcDbEntity
  8
OBJECTS
  6
CENTERX2
100
AcDbLine
 10
21.8271788581
 20
10.1117172814
 30
0.0
 11
21.8271788581
 21
7.9867172814
 31
0.0
  0
LINE
  5
52
330
1F
100
AcDbEntity
  8
OBJECTS
  6
CENTERX2
100
AcDbLine
 10
31.8797873703
 20
18.6643257935
 30
0.0
 11
34.0047873703
 21
18.6643257935
 31
0.0
  0
ARC
  5
53
330
1F
100
AcDbEntity
  8
SLD-0
100
AcDbCircle
 10
10.3271788581
 20
28.6643257935
 30
0.0
 40
0.6776085121541353
100
AcDbArc
 50
90.0
 51
180.0
  0
ARC
  5
54
330
1F
100
AcDbEntity
  8
SLD-0
100
AcDbCircle
 10
10.3271788581
 20
8.6643257935
 30
0.0
 40
0.6776085121538333
100
AcDbArc
 50
180.0
 51
270.0
  0
ARC
  5
55
330
1F
100
AcDbEntity
  8
SLD-0
100
AcDbCircle
 10
33.3271788581
 20
8.6643257935
 30
0.0
 40
0.6776085121535829
100
AcDbArc
 50
270.0
 51
360.0
  0
ARC
  5
56
330
1F
100
AcDbEntity
  8
SLD-0
100
AcDbCircle
 10
33.3271788581
 20
28.6643257935
 30
0.0
 40
0.6776085121540056
100
AcDbArc
 50
0.0
 51
90.0
  0
DIMENSION
  5
57
330
1F
100
AcDbEntity
  8
DIMS
100
AcDbDimension
  2
_D
 10
12.5410516507
 20
29.3419343057
 30
0.0
 11
12.5410516507
 21
22.1459685178
 31
0.0
 70
   160
  1
<>
 71
     2
 42
-1.0
  3
SLDDIMSTYLE0
100
AcDbAlignedDimension
 13
10.3271788581
 23
7.9867172814
 33
0.0
 14
10.3271788581
 24
29.3419343057
 34
0.0
 50
90.0
100
AcDbRotatedDimension
  0
DIMENSION
  5
6D
330
1F
100
AcDbEntity
  8
DIMS
100
AcDbDimension
  2
_D_1
 10
34.0047873703
 20
12.6687544484
 30
0.0
 11
19.2490943553
 21
12.6687544484
 31
0.0
 70
   160
  1
<>
 71
     2
 42
-1.0
  3
SLDDIMSTYLE0
100
AcDbAlignedDimension
 13
9.649570346
 23
8.6643257935
 33
0.0
 14
34.0047873703
 24
8.6643257935
 34
0.0
100
AcDbRotatedDimension
  0
DIMENSION
  5
81
330
1F
100
AcDbEntity
  8
DIMS
100
AcDbDimension
  2
_D_2
 10
33.3271788581
 20
8.6643257935
 30
0.0
 11
31.0691222206
 21
9.8482129186
 31
0.0
 70
   164
  1
<>
 71
     1
 42
-1.0
  3
SLDDIMSTYLE1
100
AcDbRadialDimension
 15
33.7161873768
 25
8.1095054008
 35
0.0
 40
0.0
  0
INSERT
  5
9C
102
{ACAD_REACTORS
330
9E
330
9F
102
}
330
1F
100
AcDbEntity
  8
NOTES
100
AcDbBlockReference
  2
SW_NOTE_0
 10
28.6317657458
 20
24.3796844982
 30
0.0
  0
LEADER
  5
9E
330
1F
100
AcDbEntity
  8
NOTES
100
AcDbLeader
  3
SLDDIMSTYLE2
 73
     2
 76
     3
 10
32.6119413304
 20
18.6643257935
 30
0.0
 10
28.8817657458
 20
24.3796844982
 30
0.0
 10
28.6317657458
 20
24.3796844982
 30
0.0
340
9C
  0
LEADER
  5
9F
330
1F
100
AcDbEntity
  8
NOTES
100
AcDbLeader
  3
SLDDIMSTYLE2
 73
     2
 76
     3
 10
21.8271788581
 20
28.3740925267
 30
0.0
 10
26.5835948986
 20
24.3796844982
 30
0.0
 10
26.8335948986
 20
24.3796844982
 30
0.0
340
9C
212
-1.798170847200801
222
0.0
232
0.0
  0
INSERT
  5
B1
330
1F
100
AcDbEntity
  8
NOTES
100
AcDbBlockReference
  2
SW_NOTE_1
 10
17.3695351855
 20
25.6980518059
 30
0.0
  0
INSERT
  5
B7
330
1F
100
AcDbEntity
  8
NOTES
100
AcDbBlockReference
  2
SW_NOTE_2
 10
16.0917827294
 20
16.7348193109
 30
0.0
  0
ENDSEC
  0
SECTION
  2
OBJECTS
  0
DICTIONARY
  5
C
330
0
100
AcDbDictionary
281
     1
  3
ACAD_GROUP
350
D
  3
ACAD_LAYOUT
350
1A
  3
ACAD_MLINESTYLE
350
17
  3
ACAD_PLOTSETTINGS
350
19
  3
ACAD_PLOTSTYLENAME
350
E
  0
DICTIONARY
  5
D
102
{ACAD_REACTORS
330
C
102
}
330
C
100
AcDbDictionary
281
     1
  0
DICTIONARY
  5
1A
102
{ACAD_REACTORS
330
C
102
}
330
C
100
AcDbDictionary
281
     1
  3
Layout1
350
1E
  3
Layout2
350
26
  3
Model
350
22
  0
DICTIONARY
  5
17
102
{ACAD_REACTORS
330
C
102
}
330
C
100
AcDbDictionary
281
     1
  3
Standard
350
18
  0
DICTIONARY
  5
19
102
{ACAD_REACTORS
330
C
102
}
330
C
100
AcDbDictionary
281
     1
  0
ACDBDICTIONARYWDFLT
  5
E
102
{ACAD_REACTORS
330
C
102
}
330
C
100
AcDbDictionary
281
     1
  3
Normal
350
F
100
AcDbDictionaryWithDefault
340
F
  0
LAYOUT
  5
1E
102
{ACAD_REACTORS
330
1A
102
}
330
1A
100
AcDbPlotSettings
  1

  2
none_device
  4

  6

 40
0.0
 41
0.0
 42
0.0
 43
0.0
 44
0.0
 45
0.0
 46
0.0
 47
0.0
 48
0.0
 49
0.0
140
0.0
141
0.0
142
1.0
143
1.0
 70
   688
 72
     0
 73
     0
 74
     5
  7

 75
    16
147
1.0
148
0.0
149
0.0
100
AcDbLayout
  1
Layout1
 70
     1
 71
     1
 10
0.0
 20
0.0
 11
12.0
 21
9.0
 12
0.0
 22
0.0
 32
0.0
 14
1.0000000000E+20
 24
1.0000000000E+20
 34
1.0000000000E+20
 15
-1.0000000000E+20
 25
-1.0000000000E+20
 35
-1.0000000000E+20
146
0.0
 13
0.0
 23
0.0
 33
0.0
 16
1.0
 26
0.0
 36
0.0
 17
0.0
 27
1.0
 37
0.0
 76
     0
330
1B
  0
LAYOUT
  5
26
102
{ACAD_REACTORS
330
1A
102
}
330
1A
100
AcDbPlotSettings
  1

  2
none_device
  4

  6

 40
0.0
 41
0.0
 42
0.0
 43
0.0
 44
0.0
 45
0.0
 46
0.0
 47
0.0
 48
0.0
 49
0.0
140
0.0
141
0.0
142
1.0
143
1.0
 70
   688
 72
     0
 73
     0
 74
     5
  7

 75
    16
147
1.0
148
0.0
149
0.0
100
AcDbLayout
  1
Layout2
 70
     1
 71
     2
 10
0.0
 20
0.0
 11
0.0
 21
0.0
 12
0.0
 22
0.0
 32
0.0
 14
0.0
 24
0.0
 34
0.0
 15
0.0
 25
0.0
 35
0.0
146
0.0
 13
0.0
 23
0.0
 33
0.0
 16
1.0
 26
0.0
 36
0.0
 17
0.0
 27
1.0
 37
0.0
 76
     0
330
23
  0
LAYOUT
  5
22
102
{ACAD_REACTORS
330
1A
102
}
330
1A
100
AcDbPlotSettings
  1

  2
none_device
  4

  6

 40
0.0
 41
0.0
 42
0.0
 43
0.0
 44
0.0
 45
0.0
 46
0.0
 47
0.0
 48
0.0
 49
0.0
140
0.0
141
0.0
142
1.0
143
1.0
 70
  1712
 72
     0
 73
     0
 74
     0
  7

 75
     0
147
1.0
148
0.0
149
0.0
100
AcDbLayout
  1
Model
 70
     1
 71
     0
 10
0.0
 20
0.0
 11
44.0
 21
34.0
 12
0.0
 22
0.0
 32
0.0
 14
0.0
 24
0.0
 34
0.0
 15
44.0
 25
34.0
 35
0.0
146
0.0
 13
0.0
 23
0.0
 33
0.0
 16
1.0
 26
0.0
 36
0.0
 17
0.0
 27
1.0
 37
0.0
 76
     0
330
1F
331
29
  0
MLINESTYLE
  5
18
102
{ACAD_REACTORS
330
17
102
}
330
17
100
AcDbMlineStyle
  2
Standard
 70
     0
  3

 62
   256
 51
90.0
 52
90.0
 71
     2
 49
0.5
 62
   256
  6
BYLAYER
 49
-0.5
 62
   256
  6
BYLAYER
  0
ACDBPLACEHOLDER
  5
F
102
{ACAD_REACTORS
330
E
102
}
330
E
  0
ENDSEC
  0
EOF
